<?xml version="1.0" standalone="no"?>
<!DOCTYPE svg PUBLIC "-//W3C//DTD SVG 1.1//EN" "http://www.w3.org/Graphics/SVG/1.1/DTD/svg11.dtd" >
<svg xmlns="http://www.w3.org/2000/svg" xmlns:xlink="http://www.w3.org/1999/xlink" version="1.1">
<metadata>
Created by FontForge 20170731 at Tue Dec  9 09:12:13 2008
 By Aleksey,,,
Digitized data (c) 2007 Ascender Corporation. All rights reserved.
</metadata>
<defs>
<font id="LiberationSans-Italic" horiz-adv-x="1139" >
  <font-face 
    font-family="Liberation Sans"
    font-weight="400"
    font-style="italic"
    font-stretch="normal"
    units-per-em="2048"
    panose-1="2 11 6 4 2 2 2 9 2 4"
    ascent="1638"
    descent="-410"
    x-height="1082"
    cap-height="1409"
    bbox="-557 -621 2176 2077"
    underline-thickness="150"
    underline-position="-592"
    slope="-12"
    unicode-range="U+0020-F005"
  />
<missing-glyph horiz-adv-x="1536" 
 />
    <glyph glyph-name=".notdef" horiz-adv-x="1536" 
 />
    <glyph glyph-name=".null" horiz-adv-x="0" 
 />
    <glyph glyph-name="nonmarkingreturn" horiz-adv-x="569" 
 />
    <glyph glyph-name="space" unicode=" " horiz-adv-x="569" 
 />
    <glyph glyph-name="space" unicode="&#xa0;" horiz-adv-x="569" 
 />
    <glyph glyph-name="exclam" unicode="!" horiz-adv-x="569" 
d="M329 397h-148l172 1012h196zM77 0l40 201h194l-40 -201h-194z" />
    <glyph glyph-name="quotedbl" unicode="&#x22;" horiz-adv-x="727" 
d="M697 966h-142l64 443h184zM328 966h-141l63 443h184z" />
    <glyph glyph-name="numbersign" unicode="#" 
d="M926 885l-78 -369h260v-108h-283l-88 -408h-110l86 408h-363l-84 -408h-110l84 408h-201v108h225l78 369h-252v108h274l89 408h110l-88 -408h363l88 408h110l-88 -408h211v-108h-233zM455 885l-80 -369h362l78 369h-360z" />
    <glyph glyph-name="dollar" unicode="$" 
d="M1072 425q0 -93 -35.5 -166.5t-103.5 -125t-167 -80t-226 -32.5l-31 -161h-114l32 163q-201 14 -306.5 104t-132.5 249l163 37q12 -55 35.5 -98.5t60 -74t88 -48t120.5 -22.5l96 493q-76 21 -143.5 47.5t-118 67t-79.5 98.5t-29 142q0 93 42 161.5t112.5 114t163 68
t192.5 23.5l25 131h114l-27 -137q83 -10 146.5 -35.5t108.5 -64t72.5 -87t39.5 -105.5l-156 -45q-22 81 -80.5 130.5t-157.5 63.5l-86 -441q71 -19 139.5 -48t122.5 -72.5t87 -104.5t33 -145zM887 413q0 47 -16.5 81t-46.5 59t-72 44t-93 35l-90 -463q73 4 132 19.5t100 45
t63.5 73.5t22.5 106zM363 1018q0 -40 14.5 -69t42.5 -51.5t69 -39.5t93 -33l81 415q-80 -3 -137 -21t-93 -47t-53 -68.5t-17 -85.5z" />
    <glyph glyph-name="percent" unicode="%" horiz-adv-x="1821" 
d="M425 0h-165l1186 1409h167zM545 1421q53 0 100 -16t82.5 -52.5t56 -95.5t20.5 -144q0 -37 -4.5 -83.5t-13.5 -94.5q-24 -126 -69 -206t-98 -125.5t-109.5 -62.5t-103.5 -17q-55 0 -102.5 18t-82.5 56.5t-55 98.5t-20 144q0 37 4 82.5t13 91.5q26 131 70 211t97 123.5
t109.5 57.5t105.5 14zM544 1313q-37 0 -72 -11.5t-66 -45t-57 -93.5t-45 -158q-20 -106 -20 -178q0 -98 33 -144t93 -46q35 0 68.5 12.5t64.5 46.5t57 94t44 155q21 111 21 186q0 96 -31.5 139t-89.5 43zM1474 885q53 0 100 -16t82.5 -52.5t56 -95.5t20.5 -144
q0 -37 -4.5 -83.5t-13.5 -94.5q-24 -126 -69 -206t-98 -125.5t-109.5 -62.5t-103.5 -17q-55 0 -102.5 18t-82.5 56.5t-55 98.5t-20 144q0 37 4 82.5t13 91.5q26 131 70 211t97 123.5t109.5 57.5t105.5 14zM1473 777q-37 0 -72 -11.5t-66 -45t-57 -93.5t-45 -158
q-20 -106 -20 -178q0 -98 33 -144t93 -46q35 0 68.5 12.5t64.5 46.5t57 94t44 155q21 111 21 186q0 96 -31.5 139t-89.5 43z" />
    <glyph glyph-name="ampersand" unicode="&#x26;" horiz-adv-x="1366" 
d="M1248 684q-27 -61 -58 -123.5t-66.5 -124t-77 -119.5t-89.5 -109q40 -38 90.5 -58.5t96.5 -20.5q32 0 57.5 3.5t54.5 12.5l-13 -135q-30 -11 -58.5 -16.5t-66.5 -5.5q-74 0 -143 31.5t-128 90.5q-82 -60 -182 -95t-225 -35q-106 0 -182.5 30t-126.5 81t-74 118.5
t-24 141.5q0 90 28 157.5t82.5 120t134.5 95t184 82.5q-12 51 -20 109t-8 121q0 83 27 153t78 120.5t125.5 79t168.5 28.5q69 0 126.5 -19t98.5 -53.5t63.5 -82.5t22.5 -107q0 -60 -19.5 -107t-53.5 -85.5t-81 -69.5t-102.5 -58t-117 -51.5t-124.5 -49.5q18 -53 39.5 -104.5
t47.5 -103t58.5 -104t72.5 -107.5q40 46 75 97.5t66 106t58.5 110.5t52.5 110zM452 111q89 0 163 27t138 74q-43 53 -80.5 112t-69.5 119.5t-57.5 120t-43.5 111.5q-71 -28 -126.5 -58t-94 -67t-58.5 -84.5t-20 -111.5q0 -54 17 -98.5t49 -76.5t78 -50t105 -18zM592 1041
q0 -45 5.5 -90.5t13.5 -87.5q79 29 148 55t120.5 58t81 73t29.5 99q0 33 -12 60t-33.5 46.5t-51.5 30.5t-67 11q-52 0 -95.5 -16t-74 -48t-47.5 -79.5t-17 -111.5z" />
    <glyph glyph-name="quotesingle" unicode="'" horiz-adv-x="391" 
d="M343 966h-141l63 443h184z" />
    <glyph glyph-name="parenleft" unicode="(" horiz-adv-x="682" 
d="M855 1484q-284 -250 -431 -553t-147 -669q0 -190 50.5 -362t156.5 -324h-174q-110 152 -162 329.5t-52 372.5q0 181 36.5 350t110 321.5t183 287t255.5 247.5h174z" />
    <glyph glyph-name="parenright" unicode=")" horiz-adv-x="682" 
d="M-199 -424q284 250 431 553t147 669q0 190 -50.5 362t-156.5 324h174q110 -152 162 -329.5t52 -372.5q0 -181 -36.5 -350t-110 -321.5t-183 -287t-255.5 -247.5h-174z" />
    <glyph glyph-name="asterisk" unicode="*" horiz-adv-x="797" 
d="M543 1114l264 103l45 -132l-282 -73l185 -250l-119 -72l-150 258l-156 -256l-119 72l189 248l-280 73l45 134l267 -107l-12 297h136z" />
    <glyph glyph-name="plus" unicode="+" horiz-adv-x="1196" 
d="M701 608v-428h-147v428h-424v146h424v428h147v-428h424v-146h-424z" />
    <glyph glyph-name="comma" unicode="," horiz-adv-x="569" 
d="M299 51q-10 -53 -23.5 -96.5t-30.5 -81t-38 -70.5t-47 -65h-123q57 65 94.5 131t50.5 131h-88l42 219h195z" />
    <glyph glyph-name="hyphen" unicode="-" horiz-adv-x="682" 
d="M105 464l31 160h500l-31 -160h-500z" />
    <glyph glyph-name="hyphen" unicode="&#xad;" horiz-adv-x="682" 
d="M105 464l31 160h500l-31 -160h-500z" />
    <glyph glyph-name="period" unicode="." horiz-adv-x="569" 
d="M80 0l43 219h195l-43 -219h-195z" />
    <glyph glyph-name="slash" unicode="/" horiz-adv-x="569" 
d="M-116 -20l703 1504h158l-700 -1504h-161z" />
    <glyph glyph-name="zero" unicode="0" 
d="M732 1430q81 0 152.5 -27.5t124 -84.5t83 -145t30.5 -209q0 -63 -5.5 -139.5t-22.5 -159.5q-40 -203 -106 -335.5t-148.5 -210t-176 -108.5t-187.5 -31q-83 0 -154 30t-122.5 90t-81 151t-29.5 214q0 33 1 64.5t4 64.5t8 70t13 81q27 142 67 247.5t88 182t104 126t115 78
t121 40t122 11.5zM491 127q76 0 140 27t117.5 91.5t95.5 171.5t73 268q17 85 23.5 157t6.5 131q0 155 -59.5 233t-167.5 78q-76 0 -140 -27t-117.5 -91.5t-95.5 -171.5t-73 -268q-17 -85 -23.5 -157t-6.5 -131q0 -155 59.5 -233t167.5 -78z" />
    <glyph glyph-name="one" unicode="1" 
d="M53 0l30 153h359l208 1070l-361 -223l35 180l377 229h166l-244 -1256h343l-30 -153h-883z" />
    <glyph glyph-name="two" unicode="2" 
d="M-12 0l24 127q55 93 123 166t142 132.5t150.5 108.5t148 94.5t134 90.5t109.5 96t74 111.5t27 136.5q0 51 -17 91.5t-47.5 69t-73 43.5t-93.5 15q-109 0 -190 -59.5t-118 -178.5l-170 37q24 76 65 140t101 110.5t140.5 72.5t182.5 26q89 0 164 -25t129.5 -71.5t85 -111
t30.5 -144.5q0 -85 -29.5 -157t-79.5 -133.5t-116 -115.5t-139 -104t-149 -98t-146 -98t-129 -103.5t-99 -115.5h727l-29 -153h-932z" />
    <glyph glyph-name="three" unicode="3" 
d="M566 795q36 0 77.5 4t82 14.5t77.5 30.5t65 51.5t45 77t17 108.5q0 44 -14.5 81t-43 63.5t-69.5 41.5t-95 15q-119 0 -204.5 -61t-119.5 -172l-178 14q58 186 191.5 276.5t320.5 90.5q93 0 167.5 -23.5t127 -68t80.5 -108t28 -144.5q0 -78 -25.5 -141.5t-73.5 -110.5
t-116 -76.5t-153 -40.5l-1 -4q131 -26 204 -104.5t73 -201.5q0 -87 -31.5 -165t-94 -136t-157 -92t-220.5 -34q-114 0 -198 32.5t-141.5 84.5t-91 115.5t-47.5 125.5l164 48q12 -46 37.5 -91.5t66 -82.5t96.5 -60t129 -23q74 0 130 20.5t93.5 57t57 87t19.5 110.5t-21 104
t-58.5 73t-88.5 43.5t-111 14.5h-124l30 156h98z" />
    <glyph glyph-name="four" unicode="4" 
d="M846 319l-62 -319h-180l62 319h-653l27 140l819 950h199l-184 -948h188l-28 -142h-188zM826 1157l-599 -696h467z" />
    <glyph glyph-name="five" unicode="5" 
d="M343 1409h801l-29 -153h-637l-114 -447q19 16 46 32t62 29t77.5 21t91.5 8q89 0 164 -26.5t130 -77t85.5 -123.5t30.5 -166q0 -119 -35.5 -216t-104.5 -166t-171 -106.5t-235 -37.5q-106 0 -184 25t-132.5 69t-89 104t-53.5 131l163 43q11 -40 32 -80.5t57 -72.5
t89.5 -52t127.5 -20q78 0 142 22t109.5 67t70 112.5t24.5 157.5q0 67 -20.5 117t-55 83t-81 49.5t-97.5 16.5q-96 0 -163 -28.5t-119 -72.5h-176z" />
    <glyph glyph-name="six" unicode="6" 
d="M534 -20q-99 0 -177 36t-131.5 100.5t-82 153.5t-28.5 194q0 55 5.5 121.5t17.5 129.5q37 188 100 323.5t145 222.5t178.5 128t199.5 41q68 0 128 -15.5t109.5 -49.5t85.5 -86.5t55 -127.5l-166 -36q-25 81 -82 125t-138 44q-78 0 -147.5 -35t-126.5 -105t-101 -174.5
t-71 -243.5q60 90 151.5 137.5t204.5 47.5q83 0 153.5 -26.5t121.5 -76t80 -119.5t29 -156q0 -111 -36 -211t-102.5 -176t-161.5 -121t-213 -45zM288 421q0 -61 16.5 -115t48.5 -94.5t78.5 -63.5t106.5 -23q71 0 130.5 30.5t102.5 84t66.5 126t23.5 156.5q0 115 -59.5 182.5
t-171.5 67.5q-54 0 -114.5 -18.5t-111 -60t-83.5 -108.5t-33 -164z" />
    <glyph glyph-name="seven" unicode="7" 
d="M1174 1263q-92 -108 -175.5 -207.5t-157 -196.5t-137 -195t-115 -202.5t-90.5 -218.5t-64 -243h-188q38 191 110 356t168.5 316t214 294t246.5 290h-774l29 153h961z" />
    <glyph glyph-name="eight" unicode="8" 
d="M704 1429q96 0 174 -24t133.5 -68t85.5 -106.5t30 -139.5q0 -69 -22.5 -130t-64 -108t-100.5 -78t-133 -42l-1 -4q50 -15 92 -41t72 -63.5t46.5 -85.5t16.5 -107q0 -97 -33.5 -179.5t-100 -143t-166.5 -95t-233 -34.5q-114 0 -198 28.5t-139 79.5t-82 120.5t-27 151.5
q0 97 33.5 166t85.5 116t115.5 74t122.5 40v4q-91 38 -141 113.5t-50 178.5q0 87 33 157t95 118.5t152 75t204 26.5zM658 811q87 0 142 26.5t86.5 67t43 89t11.5 93.5q0 98 -65.5 152.5t-192.5 54.5q-61 0 -113 -15.5t-90 -47.5t-59 -81t-21 -117q0 -40 13 -79.5t43 -71
t79.5 -51.5t122.5 -20zM566 672q-82 0 -143.5 -23t-102 -64.5t-61 -99.5t-20.5 -129q0 -51 17 -95t51.5 -76t87 -50t124.5 -18q69 0 129 20.5t105 60.5t71 99.5t26 138.5q0 44 -15 86.5t-48.5 75.5t-88 53.5t-132.5 20.5z" />
    <glyph glyph-name="nine" unicode="9" 
d="M898 684q-62 -94 -146.5 -148.5t-192.5 -54.5q-97 0 -171 33t-124 88t-75.5 127.5t-25.5 151.5q0 113 37 213t105 174.5t163.5 118t213.5 43.5q95 0 171.5 -31t130.5 -91.5t83.5 -148.5t29.5 -202q0 -27 -2 -61t-5.5 -70.5t-8.5 -74.5t-12 -72q-37 -188 -101 -321
t-145.5 -217t-176.5 -122.5t-193 -38.5q-161 0 -254 72t-129 205l158 45q24 -85 83 -131t150 -46q80 0 147.5 37t122.5 108.5t97 175.5t70 238zM925 1017q0 58 -17 107t-49.5 84.5t-78 55.5t-102.5 20q-72 0 -133 -27.5t-105.5 -79t-69 -127t-24.5 -171.5q0 -63 17 -111
t48 -80t74 -48.5t95 -16.5q50 0 103 17t99.5 52t82 88.5t49.5 126.5q11 61 11 110z" />
    <glyph glyph-name="colon" unicode=":" horiz-adv-x="569" 
d="M251 875l41 207h195l-41 -207h-195zM81 0l41 207h195l-41 -207h-195z" />
    <glyph glyph-name="semicolon" unicode=";" horiz-adv-x="569" 
d="M300 51q-10 -53 -23.5 -96.5t-30.5 -81t-38 -70.5t-47 -65h-123q57 65 94.5 131t50.5 131h-88l40 207h195zM265 875l40 207h195l-40 -207h-195z" />
    <glyph glyph-name="semicolon" unicode="&#x37e;" horiz-adv-x="569" 
d="M300 51q-10 -53 -23.5 -96.5t-30.5 -81t-38 -70.5t-47 -65h-123q57 65 94.5 131t50.5 131h-88l40 207h195zM265 875l40 207h195l-40 -207h-195z" />
    <glyph glyph-name="less" unicode="&#x3c;" horiz-adv-x="1196" 
d="M131 571v205l995 418v-154l-858 -366l858 -367v-153z" />
    <glyph glyph-name="equal" unicode="=" horiz-adv-x="1196" 
d="M130 856v148h995v-148h-995zM130 344v148h995v-148h-995z" />
    <glyph glyph-name="greater" unicode="&#x3e;" horiz-adv-x="1196" 
d="M131 154v153l858 367l-858 366v154l995 -418v-205z" />
    <glyph glyph-name="question" unicode="?" 
d="M701 1430q101 0 181 -27t135.5 -75t85.5 -113t30 -142q0 -97 -30.5 -165.5t-79 -119t-109 -87.5t-120.5 -72q-42 -24 -81.5 -49.5t-71.5 -55t-54.5 -65.5t-31.5 -82h-175q13 78 45.5 134.5t77 99t96.5 74.5t103 61q48 27 92 55.5t78 63.5t54 80.5t20 106.5q0 48 -19 88.5
t-53.5 69t-82.5 44.5t-107 16q-140 0 -231 -70t-129 -192l-165 40q27 84 70.5 154t109 120.5t155 79t207.5 28.5zM299 0l39 201h195l-39 -201h-195z" />
    <glyph glyph-name="at" unicode="@" horiz-adv-x="2079" 
d="M1935 755q0 -144 -33.5 -263.5t-92.5 -205.5t-141 -134t-180 -48q-56 0 -95.5 13.5t-64 37t-36 55.5t-11.5 70q0 15 1 36.5t2 33.5h-6q-24 -45 -58.5 -89.5t-81 -79t-105 -56t-129.5 -21.5q-84 0 -146.5 29t-103 80.5t-60.5 122t-20 153.5q0 120 35.5 230.5t101.5 195
t158.5 135.5t206.5 51q60 0 108 -13.5t84.5 -37.5t63.5 -57.5t45 -73.5h6l39 160h156l-116 -506q-19 -84 -28 -144t-9 -109q0 -48 21.5 -71t59.5 -23q62 0 115.5 40.5t93 111.5t62 167t22.5 208q0 129 -41.5 240t-122 192t-199.5 127t-275 46q-134 0 -247.5 -32t-205.5 -90
t-161.5 -138.5t-116.5 -176.5t-71 -205t-24 -225q0 -141 43 -260t125.5 -204.5t204.5 -133.5t279 -48q105 0 196 16.5t167 40.5t136.5 52.5t103.5 52.5l55 -112q-50 -30 -117.5 -61.5t-150.5 -57.5t-181 -42.5t-209 -16.5q-190 0 -337.5 57.5t-248.5 160.5t-154 245t-53 311
q0 139 31.5 267t90.5 238t144 200t192.5 154t235 99t271.5 35q201 0 347 -59t241.5 -159t141.5 -232t46 -279zM1329 747q0 50 -17 92t-48.5 72t-76 46.5t-100.5 16.5q-85 0 -150.5 -42.5t-109 -111.5t-66 -155.5t-22.5 -173.5q0 -120 47.5 -188t146.5 -68q69 0 129.5 31
t108.5 82t82.5 117.5t52.5 136.5q9 36 16 76t7 69z" />
    <glyph glyph-name="A" unicode="A" horiz-adv-x="1366" 
d="M1061 0l-75 412h-639l-240 -412h-208l848 1409h217l292 -1409h-195zM871 1034q-8 41 -15.5 80t-12.5 71.5t-8.5 54t-4.5 25.5q-2 -4 -13.5 -26t-29.5 -54.5t-40 -72t-46 -79.5l-270 -472h527z" />
    <glyph glyph-name="B" unicode="B" horiz-adv-x="1366" 
d="M336 1409h510q104 0 187 -22t141.5 -63.5t90 -101.5t31.5 -135q0 -146 -86 -230.5t-253 -113.5q71 -12 125.5 -39.5t91 -67.5t55 -90t18.5 -107q0 -83 -23 -148t-64 -114t-96.5 -82.5t-121 -54.5t-138 -30.5t-146.5 -9.5h-595zM411 810h331q181 0 268 65t87 193
q0 95 -68.5 141.5t-199.5 46.5h-331zM283 153h368q78 0 151.5 12t129.5 44t90 88t34 145q0 107 -79.5 163t-228.5 56h-366z" />
    <glyph glyph-name="C" unicode="C" horiz-adv-x="1479" 
d="M1358 337q-49 -73 -110 -138t-139.5 -113.5t-179 -77t-229.5 -28.5q-148 0 -258.5 46t-183.5 125.5t-109 187t-36 230.5q0 124 27 236t77 207.5t122 173t162.5 131.5t197.5 83.5t227 29.5q129 0 226 -29.5t166 -77.5t111 -110t61 -128l-180 -55q-15 47 -46 90.5t-79.5 78
t-115 55t-153.5 20.5q-146 0 -260 -53.5t-193 -148t-120 -224t-41 -282.5q0 -94 26 -173t77.5 -136.5t128.5 -89.5t179 -32q90 0 165 24.5t137.5 65t112 93t87.5 108.5z" />
    <glyph glyph-name="D" unicode="D" horiz-adv-x="1479" 
d="M744 1409q148 0 271 -39.5t211.5 -117.5t137.5 -193.5t49 -267.5q0 -133 -31.5 -243t-88.5 -198t-135 -153.5t-171 -109.5t-197.5 -65.5t-214.5 -21.5h-512l273 1409h408zM283 153h284q147 0 267.5 44t206 126.5t132 201t46.5 268.5q0 120 -36.5 207t-100.5 144
t-152 84.5t-190 27.5h-242z" />
    <glyph glyph-name="E" unicode="E" horiz-adv-x="1366" 
d="M63 0l273 1409h1049l-30 -156h-858l-88 -452h798l-30 -154h-798l-95 -491h899l-30 -156h-1090z" />
    <glyph glyph-name="F" unicode="F" horiz-adv-x="1251" 
d="M497 1253l-102 -524h796l-31 -158h-796l-110 -571h-191l273 1409h1011l-30 -156h-820z" />
    <glyph glyph-name="G" unicode="G" horiz-adv-x="1593" 
d="M1390 210q-56 -48 -121.5 -90t-144.5 -73t-173.5 -49t-208.5 -18q-162 0 -282.5 43.5t-200 121.5t-119 187t-39.5 241q0 188 59.5 345.5t169 271t265.5 177t349 63.5q131 0 226.5 -27t162.5 -73t108.5 -106t63.5 -126l-193 -54q-15 47 -43 88.5t-73.5 73t-110.5 50
t-153 18.5q-153 0 -271.5 -52.5t-199.5 -146t-122.5 -221t-41.5 -277.5q0 -97 27 -178t82.5 -139.5t140.5 -91.5t201 -33q91 0 166.5 15t135.5 37.5t105.5 50.5t75.5 53l51 254h-421l32 160h597z" />
    <glyph glyph-name="H" unicode="H" horiz-adv-x="1479" 
d="M1021 0l127 653h-767l-127 -653h-191l274 1409h191l-116 -596h767l116 596h186l-274 -1409h-186z" />
    <glyph glyph-name="I" unicode="I" horiz-adv-x="569" 
d="M81 0l274 1409h191l-274 -1409h-191z" />
    <glyph glyph-name="J" unicode="J" horiz-adv-x="1024" 
d="M381 -20q-159 0 -259.5 93t-126.5 270l168 33q23 -117 79 -179t156 -62q60 0 104 22t75.5 62t52 96.5t33.5 124.5l157 813h-291l30 156h481l-193 -986q-19 -100 -54.5 -182t-91 -140t-134.5 -89.5t-186 -31.5z" />
    <glyph glyph-name="K" unicode="K" horiz-adv-x="1366" 
d="M1022 0l-472 674l-190 -129l-106 -545h-191l273 1409h191l-136 -691l140 129l665 562h245l-750 -630l557 -779h-226z" />
    <glyph glyph-name="L" unicode="L" 
d="M63 0l273 1409h191l-243 -1253h712l-30 -156h-903z" />
    <glyph glyph-name="M" unicode="M" horiz-adv-x="1706" 
d="M1261 0l180 928q10 51 21 104t21 97q11 51 23 99q-25 -52 -51 -103q-22 -44 -47 -92t-47 -85l-548 -948h-124l-185 948q-6 30 -13 77.5t-13 92.5q-7 53 -15 110q-8 -56 -17 -111q-8 -47 -16.5 -98t-16.5 -91l-180 -928h-170l273 1409h236l189 -977q3 -15 8.5 -48.5
t10.5 -68.5q6 -40 13 -88q21 44 40 84q17 35 34.5 70.5t29.5 58.5l553 969h256l-273 -1409h-172z" />
    <glyph glyph-name="N" unicode="N" horiz-adv-x="1479" 
d="M987 0l-531 1210q-6 -46 -13 -94q-6 -41 -13.5 -87.5t-15.5 -85.5l-181 -943h-170l273 1409h212l534 -1215q6 43 13 91q6 41 14 91.5t18 101.5l181 931h172l-273 -1409h-220z" />
    <glyph glyph-name="O" unicode="O" horiz-adv-x="1593" 
d="M938 1430q144 0 255 -42.5t187.5 -119.5t116 -183t39.5 -234q-1 -49 -5.5 -101.5t-14.5 -100.5q-30 -154 -101 -277.5t-175.5 -210.5t-239 -134t-291.5 -47q-150 0 -262 43.5t-186.5 122t-112 187.5t-37.5 240q0 46 4.5 94t14.5 97q30 150 100 273t174.5 210.5t239.5 135
t294 47.5zM929 1276q-131 0 -233 -37t-177.5 -107t-124.5 -171t-75 -229q-9 -43 -13 -86.5t-4 -82.5q0 -107 28 -187.5t81.5 -134t131 -80t175.5 -26.5q132 0 234.5 37.5t177.5 108t124.5 171t74.5 225.5q9 42 12.5 87t3.5 83q0 107 -29 187.5t-83 134t-131 80.5t-173 27z
" />
    <glyph glyph-name="P" unicode="P" horiz-adv-x="1366" 
d="M852 1409q116 0 208.5 -27t157.5 -77t100 -122.5t35 -162.5q0 -110 -39.5 -197.5t-113 -148t-179 -93t-237.5 -32.5h-424l-106 -549h-191l273 1409h516zM390 700h387q192 0 287 78t95 233q0 65 -22.5 111t-63.5 76t-98.5 44t-127.5 14h-349z" />
    <glyph glyph-name="Q" unicode="Q" horiz-adv-x="1593" 
d="M928 1430q144 0 255 -42.5t187.5 -119.5t116 -183t39.5 -234q-1 -49 -5.5 -101.5t-14.5 -100.5q-27 -138 -87.5 -252.5t-148.5 -199.5t-201.5 -138.5t-246.5 -70.5q9 -66 27 -110.5t45 -71.5t63 -38.5t81 -11.5q28 0 63 4t60 9l-18 -134q-38 -11 -79 -16.5t-90 -5.5
q-85 0 -144.5 25.5t-98.5 73t-61 116t-32 155.5q-134 9 -235 56.5t-168 124.5t-100.5 181.5t-33.5 227.5q0 46 4.5 94t14.5 97q30 150 100 273t174.5 210.5t239.5 135t294 47.5zM919 1276q-131 0 -233 -37t-177.5 -107t-124.5 -171t-75 -229q-9 -43 -13 -86.5t-4 -82.5
q0 -107 28 -187.5t81.5 -134t131 -80t175.5 -26.5q132 0 234.5 37.5t177.5 108t124.5 171t74.5 225.5q9 42 12.5 87t3.5 83q0 107 -29 187.5t-83 134t-131 80.5t-173 27z" />
    <glyph glyph-name="R" unicode="R" horiz-adv-x="1479" 
d="M1051 0l-243 585h-441l-113 -585h-191l273 1409h612q104 0 190 -25.5t147.5 -73.5t96 -116.5t34.5 -154.5q0 -188 -108 -298t-319 -139l268 -602h-206zM857 736q181 0 273 75.5t92 212.5q0 112 -74.5 172t-222.5 60h-427l-101 -520h460z" />
    <glyph glyph-name="S" unicode="S" horiz-adv-x="1366" 
d="M616 -20q-130 0 -227.5 23.5t-165.5 69t-108.5 112t-56.5 153.5l177 37q13 -62 41 -108t75 -76.5t116 -45.5t163 -15q98 0 176 13.5t132.5 45t83.5 82t29 125.5q0 51 -17 87t-59 64.5t-113.5 54t-179.5 55.5q-88 24 -165.5 53.5t-135.5 73t-92 105.5t-34 152
q0 105 47.5 178.5t127 120.5t182 68.5t212.5 21.5q121 0 211.5 -22t154 -61.5t101.5 -94.5t53 -120l-173 -51q-15 48 -42 86t-69 64.5t-100.5 40.5t-136.5 14q-104 0 -175.5 -17.5t-116 -49t-64.5 -75t-20 -94.5q0 -54 20.5 -89.5t62.5 -60.5t106.5 -45.5t152.5 -44.5
q87 -24 169.5 -53t146.5 -73.5t102.5 -110.5t38.5 -165q0 -206 -155 -317t-475 -111z" />
    <glyph glyph-name="T" unicode="T" horiz-adv-x="1251" 
d="M858 1253l-244 -1253h-190l244 1253h-484l30 156h1158l-30 -156h-484z" />
    <glyph glyph-name="U" unicode="U" horiz-adv-x="1479" 
d="M654 -20q-104 0 -195.5 27t-159.5 83t-107 141t-39 200q0 21 2 48.5t5.5 55.5t7.5 54.5t8 45.5l150 774h191l-162 -843q-7 -36 -12 -74.5t-5 -68.5q0 -74 25 -128t69 -89.5t105 -53t133 -17.5q87 0 161.5 22t134 70t102 125.5t63.5 188.5l168 868h190l-170 -879
q-28 -141 -85.5 -244.5t-142.5 -171.5t-195 -101t-242 -33z" />
    <glyph glyph-name="V" unicode="V" horiz-adv-x="1366" 
d="M677 0h-198l-302 1409h194l198 -992q7 -45 13 -89.5t11 -79.5q6 -41 11 -80q19 37 41 78q19 35 42.5 79.5t49.5 91.5l580 992h208z" />
    <glyph glyph-name="W" unicode="W" horiz-adv-x="1933" 
d="M1406 0h-223l-71 895q-1 19 -2.5 43t-3 50.5t-3 54t-2.5 52.5q-3 60 -5 124q-24 -63 -49 -124q-21 -52 -44.5 -107t-41.5 -93l-419 -895h-223l-142 1409h197l79 -895q5 -63 8 -124.5t5 -111.5q2 -58 3 -110q29 69 58 136q12 29 25.5 59.5t26.5 60.5t25.5 57.5t23.5 50.5
l415 877h183l75 -877q2 -22 4 -50t3.5 -57.5t3 -60t2.5 -59.5q3 -67 4 -137q1 0 15.5 34.5t36.5 86.5t48.5 112.5t51.5 112.5l423 895h201z" />
    <glyph glyph-name="X" unicode="X" horiz-adv-x="1366" 
d="M999 0l-303 606l-524 -606h-211l654 746l-340 663h199l270 -551l475 551h211l-600 -676l368 -733h-199z" />
    <glyph glyph-name="Y" unicode="Y" horiz-adv-x="1366" 
d="M785 584l-113 -584h-190l115 584l-384 825h196l306 -674l560 674h214z" />
    <glyph glyph-name="Z" unicode="Z" horiz-adv-x="1251" 
d="M1082 0h-1122l27 143l1054 1110h-765l30 156h1002l-27 -139l-1054 -1114h885z" />
    <glyph glyph-name="bracketleft" unicode="[" horiz-adv-x="569" 
d="M-39 -425l370 1909h407l-25 -129h-233l-321 -1651h233l-25 -129h-406z" />
    <glyph glyph-name="backslash" unicode="\" horiz-adv-x="569" 
d="M320 -20l-174 1504h148l178 -1504h-152z" />
    <glyph glyph-name="bracketright" unicode="]" horiz-adv-x="569" 
d="M-169 -425l25 129h232l321 1651h-233l25 129h407l-371 -1909h-406z" />
    <glyph glyph-name="asciicircum" unicode="^" horiz-adv-x="961" 
d="M817 673l-309 633l-306 -633h-162l368 736h203l370 -736h-164z" />
    <glyph glyph-name="underscore" unicode="_" 
d="M-160 -250v76h1178v-76h-1178z" />
    <glyph glyph-name="grave" unicode="`" horiz-adv-x="682" 
d="M412 1201l-282 278l5 29h207l161 -287l-3 -20h-88z" />
    <glyph glyph-name="a" unicode="a" 
d="M1055 6q-29 -7 -62.5 -11.5t-65.5 -4.5q-93 0 -135.5 38.5t-42.5 114.5q0 15 2 32.5t3 31.5h-6q-35 -53 -72.5 -95t-83 -71.5t-101.5 -45t-130 -15.5q-78 0 -136.5 25t-98.5 66.5t-60 95.5t-20 111q0 81 23.5 140t64 101t95 68.5t116 41.5t127.5 21t129 7l232 3l7 36
q5 25 8.5 48t3.5 43q0 91 -53 134.5t-147 43.5q-49 0 -91.5 -7.5t-76 -27t-59 -53t-41.5 -84.5l-178 29q19 62 52 113.5t87 88.5t131.5 57.5t185.5 20.5q89 0 158 -22t116 -61t71.5 -93t24.5 -119q0 -31 -5.5 -74.5t-13.5 -82.5l-74 -378q-5 -22 -8 -45t-3 -43
q0 -37 19.5 -55t61.5 -18q15 0 30.5 2t29.5 5zM809 536l-199 -4q-40 -1 -83 -4t-84.5 -12.5t-79 -25.5t-65.5 -43.5t-44.5 -66.5t-16.5 -94q0 -32 10.5 -62.5t32.5 -54t54.5 -38t76.5 -14.5q87 0 152 30t111 74t72.5 95.5t35.5 94.5z" />
    <glyph glyph-name="b" unicode="b" 
d="M744 1102q80 0 142 -25t104 -71t64 -111.5t22 -146.5q0 -50 -4.5 -109.5t-16.5 -122.5q-27 -142 -71 -243.5t-106 -166.5t-142 -95.5t-179 -30.5q-123 0 -200 52t-109 146h-3q-5 -26 -12 -55.5t-13.5 -55.5t-11 -44.5t-6.5 -22.5h-173q3 9 8 30.5t11.5 51.5t14.5 66
t15 75l245 1261h180l-83 -423q-5 -29 -11.5 -55t-11.5 -45q-6 -22 -11 -40h4q36 47 73.5 81t80 56.5t91.5 33t109 10.5zM692 963q-64 0 -121.5 -19t-106.5 -65.5t-86.5 -125.5t-60.5 -199q-19 -98 -19 -177q0 -64 17 -113.5t48.5 -83t76 -50.5t98.5 -17q62 0 112 18.5
t90.5 64t71.5 122t53 192.5q23 121 23 206q0 123 -47 185t-149 62z" />
    <glyph glyph-name="c" unicode="c" horiz-adv-x="1024" 
d="M469 122q56 0 101 16.5t80 46.5t62 72.5t46 94.5l156 -49q-28 -75 -68.5 -134.5t-96 -101.5t-126.5 -64.5t-158 -22.5q-103 0 -178.5 31t-124 86.5t-72 131.5t-23.5 166q0 40 3.5 87t12.5 92q22 111 56.5 193t77 140.5t92 96.5t102 59.5t107 30t107.5 8.5q89 0 156.5 -23
t114.5 -65t73.5 -100.5t31.5 -129.5l-177 -25q-3 45 -17 82t-39.5 63.5t-62.5 41.5t-86 15q-69 0 -124 -20t-98.5 -65t-74.5 -117.5t-52 -177.5q-9 -48 -14 -101t-5 -91q0 -127 51.5 -197t166.5 -70z" />
    <glyph glyph-name="d" unicode="d" 
d="M401 -21q-80 0 -142 25t-104 71t-64 111.5t-22 146.5q0 45 4.5 107t16.5 125q27 142 71 243.5t106 166.5t142 95.5t179 30.5q123 0 200.5 -52t109.5 -146h5q2 10 6 33t8.5 48.5t8.5 48.5t5 32l82 419h180l-245 -1261q-8 -39 -14.5 -75t-11.5 -66t-8 -51.5t-4 -30.5h-172
q0 20 5.5 64t15.5 96h-5q-36 -47 -73.5 -81t-79.5 -56.5t-91 -33t-109 -10.5zM453 118q64 0 121.5 19t106.5 65.5t86.5 125.5t60.5 199q19 98 19 177q0 65 -17 114t-48.5 82.5t-76 50.5t-98.5 17q-61 0 -111.5 -18.5t-91 -64t-71 -122t-53.5 -192.5q-23 -121 -23 -206
q0 -123 47 -185t149 -62z" />
    <glyph glyph-name="e" unicode="e" 
d="M256 503q-5 -28 -6.5 -56.5t-2.5 -56.5q0 -133 66.5 -204t200.5 -71q56 0 102 14.5t83.5 39t66 57t47.5 68.5l138 -63q-25 -45 -61 -89.5t-89.5 -80.5t-128.5 -58.5t-179 -22.5q-100 0 -179 28.5t-133.5 83t-83 133.5t-28.5 180q0 158 42.5 287t118 220t178 140.5
t222.5 49.5q110 0 191 -29t135 -81t80.5 -124.5t26.5 -159.5q0 -21 -1.5 -46t-4.5 -52t-7.5 -54.5t-10.5 -52.5h-783zM880 641q2 20 3 37.5t1 34.5q0 66 -18 114.5t-51 80t-79 46.5t-102 15q-48 0 -101 -14.5t-101.5 -51.5t-88.5 -100.5t-63 -161.5h600z" />
    <glyph glyph-name="f" unicode="f" horiz-adv-x="569" 
d="M434 951l-185 -951h-180l185 951h-152l26 131h152l23 122q12 59 31 110t54.5 89t91.5 59.5t142 21.5q32 0 65.5 -3t58.5 -9l-26 -137q-9 2 -20.5 3t-24.5 2.5t-25 2t-21 0.5q-38 0 -63.5 -11t-42 -32t-26.5 -51.5t-18 -69.5l-19 -97h211l-26 -131h-211z" />
    <glyph glyph-name="g" unicode="g" 
d="M397 -425q-93 0 -162 18.5t-116.5 51.5t-75 79.5t-39.5 102.5l163 42q17 -76 75.5 -116.5t158.5 -40.5q72 0 127 18.5t94.5 56.5t66 97.5t42.5 142.5q5 26 11 56t11 56l12 62h-2q-28 -40 -59.5 -78t-72.5 -67t-95 -46.5t-126 -17.5q-79 0 -142 27.5t-107 76t-67.5 116
t-23.5 147.5q0 49 5.5 103.5t17.5 117.5q50 261 169.5 391t325.5 130q57 0 108 -13.5t91.5 -40t70 -64.5t42.5 -86h2q5 25 12.5 56t14.5 58.5t13 47.5t8 23h171q-2 -9 -7 -30.5t-12 -51.5t-14.5 -66.5t-15.5 -75.5l-161 -827q-21 -107 -58 -191.5t-98 -143.5t-148.5 -90
t-209.5 -31zM259 373q0 -121 52.5 -184.5t154.5 -63.5q54 0 109.5 23t105 73t89 129t61.5 191q8 42 12 86.5t4 76.5q0 67 -18 116.5t-50.5 82.5t-76.5 49t-95 16q-62 0 -112.5 -18.5t-90.5 -63t-70 -119t-52 -187.5q-11 -59 -17 -113t-6 -94z" />
    <glyph glyph-name="h" unicode="h" 
d="M383 897q34 47 70 85t79.5 64.5t96 40.5t119.5 14q148 0 222.5 -73t74.5 -211q0 -36 -6.5 -81t-14.5 -83l-127 -653h-181l126 645q8 39 13 79.5t5 70.5q0 79 -42 123t-137 44q-64 0 -120.5 -25.5t-102.5 -72t-78.5 -112t-48.5 -146.5l-118 -606h-179l288 1484h180
l-75 -386q-6 -33 -13.5 -66t-14.5 -60.5t-12 -47.5t-7 -27h3z" />
    <glyph glyph-name="i" unicode="i" horiz-adv-x="455" 
d="M287 1312l34 172h180l-34 -172h-180zM33 0l210 1082h180l-211 -1082h-179z" />
    <glyph glyph-name="j" unicode="j" horiz-adv-x="455" 
d="M289 1312l33 172h180l-33 -172h-180zM-100 -425q-34 0 -68.5 4.5t-60.5 9.5l23 136q13 -2 38 -5t45 -3q59 0 89 42t47 134l231 1189h180l-237 -1216q-12 -62 -31.5 -115t-52.5 -92t-82.5 -61.5t-120.5 -22.5z" />
    <glyph glyph-name="k" unicode="k" horiz-adv-x="1024" 
d="M721 0l-268 502l-168 -124l-72 -378h-179l288 1484h180l-179 -917l204 190l361 325h222l-530 -465l336 -617h-195z" />
    <glyph glyph-name="l" unicode="l" horiz-adv-x="455" 
d="M33 0l288 1484h180l-289 -1484h-179z" />
    <glyph glyph-name="m" unicode="m" horiz-adv-x="1706" 
d="M660 0l124 634q4 20 8.5 44t8 48t6 45.5t2.5 36.5q0 75 -38 114.5t-124 39.5q-57 0 -108.5 -25.5t-92.5 -72t-71 -113t-44 -147.5l-118 -604h-179l166 851q7 34 13.5 71.5t12 71t9 57.5t4.5 31h170q0 -5 -3 -27t-7.5 -50.5t-9 -58t-8.5 -49.5h3q30 47 62 85t70 64.5
t84.5 40.5t105.5 14q121 0 192 -59.5t85 -172.5q32 50 66 92t75.5 73.5t92 49t114.5 17.5q135 0 207.5 -73t72.5 -211q0 -36 -6.5 -81t-14.5 -83l-127 -653h-178l124 634q4 20 8.5 44t8 48t6 45.5t2.5 36.5q0 75 -38 114.5t-124 39.5q-57 0 -108.5 -25t-92.5 -71t-71 -112
t-44 -147l-118 -607h-178z" />
    <glyph glyph-name="n" unicode="n" 
d="M717 0l126 645q8 39 13 79.5t5 70.5q0 79 -42 123t-137 44q-64 0 -120.5 -25.5t-102.5 -72t-78.5 -112t-48.5 -146.5l-118 -606h-180l166 851q7 34 13.5 71.5t12 71t9 57.5t4.5 31h170q0 -5 -3 -27t-7.5 -50.5t-9 -58t-8.5 -49.5h3q34 47 70 85t79.5 64.5t96 40.5
t119.5 14q148 0 222.5 -73t74.5 -211q0 -36 -6.5 -81t-14.5 -83l-127 -653h-181z" />
    <glyph glyph-name="o" unicode="o" 
d="M1074 683q0 -52 -6 -104.5t-20 -111.5q-30 -132 -83.5 -225t-125.5 -151t-160 -84.5t-188 -26.5q-96 0 -174 29.5t-133.5 86t-86 138t-30.5 185.5q1 47 5.5 97t16.5 104q29 126 80 216.5t121 149.5t158.5 87t193.5 28q106 0 186.5 -28t135 -82t82.5 -131.5t28 -176.5z
M888 683q0 77 -17 131t-49.5 88.5t-78.5 50.5t-103 16q-53 0 -106.5 -12.5t-102 -50.5t-88.5 -108t-67 -186q-13 -55 -18.5 -104.5t-5.5 -91.5q0 -82 19 -140t52.5 -94t79 -52.5t99.5 -16.5t106.5 12t99.5 50.5t86.5 109.5t66.5 188q14 60 19.5 110t7.5 100z" />
    <glyph glyph-name="p" unicode="p" 
d="M554 -20q-123 0 -200.5 52t-109.5 146h-5q0 -2 -2 -19.5t-6 -43.5t-9.5 -57t-11.5 -60l-82 -423h-179l249 1286q8 39 14 75t10.5 65.5t7 50.5t3.5 30h167q0 -8 -1 -26t-3.5 -40.5t-5.5 -47.5t-7 -47h4q36 47 73.5 81t80 56.5t91.5 33t109 10.5q80 0 142 -25t104 -71
t64 -111.5t22 -146.5q0 -50 -4.5 -109.5t-16.5 -122.5q-27 -142 -71 -243.5t-106 -166.5t-142 -95.5t-179 -30.5zM689 963q-64 0 -121.5 -19t-106.5 -65.5t-86.5 -125.5t-60.5 -199q-19 -98 -19 -177q0 -64 17 -113.5t48.5 -83t76 -50.5t98.5 -17q62 0 112 18.5t90.5 64
t71.5 122t53 192.5q23 121 23 206q0 123 -47 185t-149 62z" />
    <glyph glyph-name="q" unicode="q" 
d="M401 -21q-80 0 -142 25t-104 71t-64 111.5t-22 146.5q0 45 4.5 107t16.5 125q27 142 71 243.5t106 166.5t142 95.5t179 30.5q123 0 200.5 -52t109.5 -146h5q5 25 12 55.5t14 58t13 49.5t10 30h173q-5 -17 -22 -89t-43 -206l-238 -1226h-180l85 439q5 26 10.5 52t10.5 47
q5 25 11 47h-4q-36 -47 -73.5 -81t-80 -56.5t-91.5 -33t-109 -10.5zM453 118q64 0 121.5 19t106.5 65.5t86.5 125.5t60.5 199q19 98 19 177q0 65 -17 114t-48.5 82.5t-76 50.5t-98.5 17q-61 0 -111.5 -18.5t-91 -64t-71 -122t-53.5 -192.5q-23 -121 -23 -206q0 -123 47 -185
t149 -62z" />
    <glyph glyph-name="r" unicode="r" horiz-adv-x="682" 
d="M718 938q-17 5 -40.5 9t-49.5 4q-64 0 -115 -37t-89.5 -94t-63.5 -125.5t-36 -130.5l-110 -564h-180l162 830q7 35 13 70t11.5 68t10.5 62.5t8 51.5h170q-3 -22 -7.5 -52t-9.5 -61t-9.5 -59.5t-8.5 -48.5h4q31 62 61.5 107.5t63.5 75t70.5 44t82.5 14.5q11 0 24 -1.5
t26.5 -3.5t25.5 -4.5t19 -4.5z" />
    <glyph glyph-name="s" unicode="s" horiz-adv-x="1024" 
d="M907 317q0 -85 -34 -148.5t-96.5 -105.5t-151.5 -62.5t-200 -20.5q-93 0 -163 16t-120.5 46.5t-84 76t-52.5 104.5l147 56q15 -40 38.5 -71.5t58 -53t82 -32.5t110.5 -11q64 0 117.5 10.5t92 33.5t60 59t21.5 87q0 40 -19 68.5t-53.5 50t-84 40t-110.5 37.5
q-65 21 -123.5 46t-103 60t-71 82.5t-26.5 111.5q0 82 35.5 139.5t96 93.5t141 52.5t170.5 16.5q82 0 150 -14t119 -44.5t84 -79t45 -117.5l-163 -25q-22 79 -83 114t-164 35q-53 0 -99.5 -8t-81.5 -26t-55.5 -47t-20.5 -70t19 -68.5t53.5 -48.5t83 -37.5t108.5 -35.5
q57 -18 115.5 -42t105.5 -59.5t77 -86t30 -122.5z" />
    <glyph glyph-name="t" unicode="t" horiz-adv-x="569" 
d="M448 4q-37 -9 -81 -16.5t-92 -7.5q-85 0 -133.5 51t-48.5 135q0 32 5 68.5t10 61.5l126 655h-125l26 131h127l105 242h120l-47 -242h200l-26 -131h-200l-125 -645q-4 -20 -8 -49t-4 -46q0 -42 21 -65t69 -23q26 0 48.5 3.5t51.5 10.5z" />
    <glyph glyph-name="u" unicode="u" 
d="M415 1082l-126 -645q-8 -39 -13 -79.5t-5 -70.5q0 -79 42 -123t137 -44q64 0 120.5 25.5t102.5 72t78.5 112t48.5 146.5l118 606h180l-166 -851q-7 -34 -13.5 -71.5t-12 -71t-9 -57.5t-4.5 -31h-170q0 5 3 27t7.5 50.5t9 58t8.5 49.5h-3q-34 -47 -70 -85t-79.5 -64.5
t-96 -40.5t-119.5 -14q-148 0 -222.5 73t-74.5 211q0 36 6.5 81t14.5 83l127 653h181z" />
    <glyph glyph-name="v" unicode="v" horiz-adv-x="1024" 
d="M507 0h-213l-182 1082h187l101 -704q3 -22 6.5 -53.5t6.5 -65.5t5.5 -65.5t4.5 -52.5q11 21 26 52.5t31.5 64.5t33 64.5t28.5 53.5l384 706h196z" />
    <glyph glyph-name="w" unicode="w" horiz-adv-x="1479" 
d="M1068 0h-209l-37 698q-1 20 -2 59t-2 79q-1 47 -2 98q-18 -45 -36 -89q-16 -38 -33.5 -79t-31.5 -72l-313 -694h-208l-92 1082h178l40 -735q1 -12 2 -39.5t2 -58t2 -59t1 -41.5q15 36 30 71q13 30 26.5 63t24.5 56l341 743h193l44 -743q3 -54 4.5 -104t1.5 -86
q15 36 31 71q14 30 28.5 64t27.5 63l334 735h176z" />
    <glyph glyph-name="x" unicode="x" horiz-adv-x="1024" 
d="M706 0l-209 444l-380 -444h-199l492 556l-264 526h189l193 -421l350 421h206l-469 -524l281 -558h-190z" />
    <glyph glyph-name="y" unicode="y" horiz-adv-x="1024" 
d="M501 0q-55 -95 -106 -173t-107 -134t-121.5 -87t-150.5 -31q-33 0 -67.5 3.5t-64.5 10.5l31 134q17 -3 38.5 -5.5t38.5 -2.5q95 0 167.5 64t142.5 186l27 47l-217 1070h183l112 -598q6 -32 13 -74t13 -83.5t10.5 -77t5.5 -53.5q10 22 26 53.5t35.5 67t40 73t39.5 72.5
l338 620h199z" />
    <glyph glyph-name="z" unicode="z" horiz-adv-x="1024" 
d="M-44 0l27 137l797 806h-601l27 139h824l-27 -137l-799 -806h679l-27 -139h-900z" />
    <glyph glyph-name="braceleft" unicode="{" horiz-adv-x="684" 
d="M366 -425q-59 0 -104.5 19t-76 52t-46 79t-15.5 100q0 12 0.5 27.5t2 31.5t3.5 31.5t4 26.5l56 287q9 44 9 77q0 83 -46.5 119.5t-131.5 40.5l25 127q51 2 94 16t76 42t56 72t35 106l70 362q28 143 103.5 218t217.5 75h135l-25 -129h-63q-49 0 -83.5 -13t-59 -39
t-40.5 -66.5t-27 -96.5l-69 -356q-10 -50 -33 -92t-55 -74t-72 -54t-83 -32v-2q69 -17 109.5 -67t40.5 -128q0 -27 -6 -59l-61 -319q-3 -15 -5 -31.5t-3.5 -33t-3 -31.5t-1.5 -26q-2 -60 33.5 -95.5t112.5 -35.5h48l-25 -129h-96z" />
    <glyph glyph-name="bar" unicode="|" horiz-adv-x="532" 
d="M213 -454v1938h166v-1938h-166z" />
    <glyph glyph-name="braceright" unicode="}" horiz-adv-x="684" 
d="M308 1484q59 0 104.5 -19t76 -52t46 -79t15.5 -100q0 -12 -0.5 -27.5t-2 -31.5t-3.5 -31.5t-4 -26.5l-56 -287q-9 -43 -9 -77q0 -83 46.5 -119.5t131.5 -40.5l-25 -127q-51 -2 -94 -16t-76 -42t-56 -72t-35 -106l-70 -362q-28 -143 -103.5 -218t-217.5 -75h-135l25 129
h63q49 0 83.5 13t59 39t40.5 66.5t27 96.5l69 356q10 50 33 92t55 74t72 54t83 32v2q-69 17 -109.5 67t-40.5 128q0 28 6 59l61 319q3 15 5 31.5t3.5 33t3 31.5t1.5 26q2 60 -33.5 95.5t-112.5 35.5h-48l25 129h96z" />
    <glyph glyph-name="asciitilde" unicode="~" horiz-adv-x="1196" 
d="M874 553q-69 0 -141.5 22t-145.5 48q-129 45 -217 45q-38 0 -70.5 -6t-62.5 -17.5t-58 -27.5t-57 -37v143q50 38 116 61t147 23q41 0 80.5 -6.5t78 -16.5t76 -23t74.5 -26q21 -7 46 -15t50.5 -15t51 -11t48.5 -4q69 0 130.5 25t113.5 67v-149q-31 -22 -61 -37.5
t-60.5 -25t-64.5 -13.5t-74 -4z" />
    <glyph glyph-name="exclamdown" unicode="&#xa1;" horiz-adv-x="682" 
d="M284 686h148l-172 -1012h-196zM536 1083l-40 -201h-194l40 201h194z" />
    <glyph glyph-name="cent" unicode="&#xa2;" 
d="M493 285l161 828q-36 -5 -68 -16q-55 -20 -98.5 -65t-74.5 -117.5t-52 -177.5q-9 -48 -14 -101t-5 -91q0 -127 52 -197q35 -48 99 -63zM777 1109l-160 -826q23 4 44 11q45 17 80 47t62 72.5t46 94.5l156 -49q-27 -72 -65 -130t-89 -99.5t-116.5 -65.5t-146.5 -28
l-32 -167h-124l34 173q-81 12 -139 48q-58 35 -95.5 89t-55.5 123t-18 149q0 40 4 87q3 46 12 92q21 106 53 186t71.5 137.5t85.5 96t95.5 62t100.5 33.5t102 12l29 152h124l-29 -158q68 -10 119.5 -36.5t87 -67t55.5 -93t24 -114.5l-177 -25q-3 45 -17 82t-39.5 63.5
t-62.5 41.5q-9 4 -19 7z" />
    <glyph glyph-name="sterling" unicode="&#xa3;" 
d="M1075 310q-37 -152 -137 -231t-250 -79h-700l29 154q97 46 155.5 124.5t82.5 202.5l28 144h-186l25 129h186l55 280q18 92 52 165.5t89 124.5t132 78.5t180 27.5q70 0 131 -15t108 -44.5t79 -72t44 -98.5l-164 -50q-20 64 -76 98t-129 34q-114 0 -177.5 -57.5
t-87.5 -182.5l-56 -288h408l-25 -129h-408l-27 -147q-10 -55 -31 -105t-51.5 -92t-68.5 -74.5t-83 -53.5h464q103 0 167.5 42.5t90.5 138.5z" />
    <glyph glyph-name="currency" unicode="&#xa4;" 
d="M165 684q0 71 20.5 134.5t57.5 117.5l-100 100l104 103l99 -101q54 39 117.5 60.5t136.5 21.5q71 0 134 -21t117 -59l97 97l104 -105l-96 -96q37 -54 58.5 -117.5t21.5 -134.5t-22 -135t-60 -117l100 -100l-102 -105l-101 101q-54 -37 -117 -57.5t-134 -20.5
q-72 0 -136 21t-116 59l-105 -105l-102 105l102 102q-37 54 -57.5 117.5t-20.5 134.5zM319 686q0 -58 22.5 -109t60.5 -89t89 -60t109 -22q57 0 108 22t89.5 60t60.5 89t22 109t-22 109t-60.5 89.5t-89.5 60.5t-108 22q-58 0 -109 -22t-89 -60.5t-60.5 -89.5t-22.5 -109z
" />
    <glyph glyph-name="yen" unicode="&#xa5;" 
d="M745 709h321l-24 -125h-383l-30 -154h383l-25 -127h-383l-59 -303h-178l59 303h-381l25 127h381l32 154h-383l24 125h320l-285 700h193l246 -647l500 647h205z" />
    <glyph glyph-name="brokenbar" unicode="&#xa6;" horiz-adv-x="532" 
d="M213 707v778h166v-778h-166zM213 -455v779h166v-779h-166z" />
    <glyph glyph-name="section" unicode="&#xa7;" 
d="M1010 673q0 -61 -19 -108t-55 -81.5t-86.5 -58t-113.5 -37.5q57 -36 94.5 -89.5t37.5 -133.5q0 -85 -34 -148.5t-97 -105.5t-152.5 -62.5t-201.5 -20.5q-91 0 -160.5 16t-120 46.5t-84 76t-52.5 104.5l147 56q15 -40 38.5 -71.5t58 -53t82 -32.5t110.5 -11
q64 0 117.5 10.5t92 33.5t60 59t21.5 87q0 40 -19.5 69.5t-54.5 52t-84 41t-108 36.5q-65 20 -124 48t-103.5 67t-71 91t-26.5 119q0 61 20.5 108t57 81.5t87.5 58t111 36.5q-60 38 -97 92.5t-37 132.5q0 82 35.5 139.5t96.5 93.5t143.5 52.5t175.5 16.5q79 0 145.5 -14
t116.5 -44.5t83 -79t45 -117.5l-163 -25q-22 79 -81.5 114t-152.5 35q-58 0 -107.5 -8.5t-85.5 -27.5t-56.5 -50t-20.5 -77q0 -36 20 -63.5t55 -50t83 -41t104 -36.5q57 -18 115.5 -43t106.5 -62.5t78 -91.5t30 -129zM276 688q0 -47 24.5 -81.5t63.5 -60t88 -44.5t98 -34
q57 2 108.5 14t91 35.5t62.5 59.5t23 85q0 48 -24 82.5t-65 60t-96 44.5t-117 37q-56 -3 -103.5 -18t-81.5 -40.5t-53 -61t-19 -78.5z" />
    <glyph glyph-name="dieresis" unicode="&#xa8;" horiz-adv-x="682" 
d="M521 1219l35 184h173l-35 -184h-173zM137 1219l35 184h175l-35 -184h-175z" />
    <glyph glyph-name="copyright" unicode="&#xa9;" horiz-adv-x="1509" 
d="M1509 707q0 -100 -26 -192.5t-73 -173t-112.5 -146t-146 -112.5t-173 -73t-192.5 -26q-99 0 -191.5 26t-172.5 73t-146.5 112.5t-113.5 146t-73 173t-26 192.5t26 192t73 172.5t113 146.5t146.5 113t172.5 73t192 26q150 0 281.5 -57t230 -155t155 -229.5t56.5 -281.5z
M1417 707q0 130 -49.5 244t-135.5 199.5t-200.5 135t-245.5 49.5q-130 0 -244 -49.5t-199.5 -135t-135 -199.5t-49.5 -244q0 -131 49.5 -245.5t135 -200t199.5 -134.5t244 -49q131 0 245.5 49t200.5 134.5t135.5 200t49.5 245.5zM797 279q-101 0 -175.5 32t-123.5 89
t-73 136t-24 173q0 98 24 176t72.5 133.5t121.5 85t171 29.5q75 0 131 -18t96 -47.5t67.5 -67t45.5 -76.5l-114 -33q-12 26 -31 51t-46.5 44t-63.5 30.5t-83 11.5q-69 0 -118.5 -23t-81.5 -64.5t-47 -100.5t-15 -131t16.5 -132t50 -103t83.5 -67t117 -24q49 0 86.5 13.5
t65.5 36t47.5 50.5t33.5 56l115 -35q-22 -43 -51 -83.5t-70 -72t-96.5 -50.5t-130.5 -19z" />
    <glyph glyph-name="ordfeminine" unicode="&#xaa;" horiz-adv-x="758" 
d="M799 670q-17 -6 -35.5 -9.5t-40.5 -3.5q-36 0 -62 8.5t-42.5 23.5t-24.5 34.5t-8 41.5q0 6 1 19t3 21h-4q-27 -35 -55.5 -63.5t-61.5 -48.5t-72 -31t-86 -11q-54 0 -95 15.5t-69.5 43t-43 65.5t-14.5 83q0 78 31.5 126.5t83 76.5t117 39t132.5 12l179 4l12 60q6 30 6 53
q0 53 -34 77.5t-93 24.5q-33 0 -62.5 -6.5t-53.5 -22.5t-41.5 -42t-26.5 -64l-132 17q13 49 37.5 89t63.5 69t92.5 45t124.5 16q127 0 196.5 -53.5t69.5 -145.5q0 -7 -1 -18t-2 -23l-4 -22q-1 -12 -3 -21l-53 -275q-6 -31 -6 -53q0 -29 11.5 -42t36.5 -13q12 0 23.5 2.5
t20.5 5.5zM614 1024l-139 -4q-43 -1 -85 -7.5t-74.5 -23t-52.5 -46.5t-20 -78q0 -20 6 -38.5t19.5 -33t34 -23t49.5 -8.5q46 0 88.5 17.5t76 47t56.5 67.5t31 78z" />
    <glyph glyph-name="guillemotleft" unicode="&#xab;" 
d="M818 141l-267 365l12 63l410 371h158l-6 -37l-410 -372l268 -367l-5 -23h-160zM341 141l-265 365l12 63l408 371h157l-6 -38l-407 -372l265 -367l-5 -22h-159z" />
    <glyph glyph-name="logicalnot" unicode="&#xac;" horiz-adv-x="1196" 
d="M950 180v428h-850v146h995v-574h-145z" />
    <glyph glyph-name="registered" unicode="&#xae;" horiz-adv-x="1509" 
d="M1509 707q0 -100 -26 -192.5t-73 -173t-112.5 -146t-146 -112.5t-173 -73t-192.5 -26q-99 0 -191.5 26t-172.5 73t-146.5 112.5t-113.5 146t-73 173t-26 192.5t26 192t73 172.5t113 146.5t146.5 113t172.5 73t192 26q150 0 281.5 -57t230 -155t155 -229.5t56.5 -281.5z
M1417 707q0 130 -49.5 244t-135.5 199.5t-200.5 135t-245.5 49.5q-130 0 -244 -49.5t-199.5 -135t-135 -199.5t-49.5 -244q0 -131 49.5 -245.5t135 -200t199.5 -134.5t244 -49q131 0 245.5 49t200.5 134.5t135.5 200t49.5 245.5zM987 289l-199 336h-161v-336h-127v831h307
q142 0 217.5 -63t75.5 -174q0 -102 -52 -163.5t-137 -80.5l221 -350h-145zM973 881q0 69 -47.5 105t-128.5 36h-170v-301h182q80 0 122 42.5t42 117.5z" />
    <glyph glyph-name="macron" unicode="&#xaf;" horiz-adv-x="1131" 
d="M1148 1503h-1165v117h1165v-117z" />
    <glyph glyph-name="degree" unicode="&#xb0;" horiz-adv-x="819" 
d="M770 1145q0 -59 -22.5 -111t-61.5 -90.5t-91.5 -61t-111.5 -22.5t-111 22.5t-91 61t-62 90.5t-23 111q0 60 23 112t62 90.5t91 60.5t111 22t111.5 -22t91.5 -60.5t61.5 -90.5t22.5 -112zM661 1145q0 38 -13.5 70.5t-37.5 57t-56.5 38.5t-70.5 14q-37 0 -69.5 -14
t-56.5 -38.5t-38 -57t-14 -70.5q0 -37 14 -69.5t38 -57t56.5 -39t69.5 -14.5q38 0 70.5 14.5t56.5 39t37.5 57t13.5 69.5z" />
    <glyph glyph-name="plusminus" unicode="&#xb1;" horiz-adv-x="1124" 
d="M636 680v-395h-147v395h-424v145h424v394h147v-394h424v-145h-424zM65 0v145h995v-145h-995z" />
    <glyph glyph-name="uni00B2" unicode="&#xb2;" horiz-adv-x="682" 
d="M30 563l18 103q29 46 65 83.5t75.5 68.5t81 57t81.5 50q51 30 97 58t81.5 59t56 67.5t20.5 82.5q0 51 -34 87t-99 36q-32 0 -61.5 -9t-54 -27t-42.5 -44.5t-26 -60.5l-125 15q13 52 38.5 95t64.5 73.5t92.5 47t120.5 16.5q63 0 112 -17t82 -46t50.5 -68t17.5 -84
q0 -66 -28 -118t-73 -94.5t-101 -77.5t-113 -68q-35 -20 -69 -41t-63.5 -42t-53 -43.5t-38.5 -45.5h448l-20 -113h-601z" />
    <glyph glyph-name="uni00B3" unicode="&#xb3;" horiz-adv-x="682" 
d="M332 1049h57q31 0 66 6t65 23.5t50 47.5t20 78t-33 79.5t-90 31.5q-68 0 -116.5 -35t-67.5 -100l-125 25q18 58 48 99t70.5 67t91.5 38t109 12q57 0 103.5 -15.5t79.5 -43t50.5 -64.5t17.5 -80q0 -179 -218 -223v-2q39 -7 69 -23.5t51 -39.5t32 -52t11 -61
q0 -64 -25 -113.5t-68.5 -83.5t-102.5 -51.5t-127 -17.5q-84 0 -138.5 22t-88 56.5t-49 75.5t-21.5 80l129 16q4 -31 16 -58t33.5 -46.5t52.5 -30.5t72 -11q37 0 70 9.5t57.5 30t39 51.5t14.5 74q0 35 -16 58t-40 37t-53 19.5t-56 5.5h-61z" />
    <glyph glyph-name="acute" unicode="&#xb4;" horiz-adv-x="682" 
d="M175 1201l3 20l253 287h217l-5 -29l-374 -278h-94z" />
    <glyph glyph-name="u00B5" unicode="&#xb5;" horiz-adv-x="1180" 
d="M-1 -425l293 1507h181l-134 -686q-5 -29 -8 -54t-3 -47q0 -48 11 -81.5t32 -54.5t51 -30.5t68 -9.5q57 0 106.5 25t89 71t67.5 111t42 146l118 610h180l-157 -807q-5 -23 -7 -45.5t-2 -36.5q0 -37 15 -54.5t42 -17.5q11 0 28 3t28 5l-22 -129q-29 -8 -57 -14t-66 -6
q-74 0 -105 48.5t-31 140.5h-2q-65 -95 -141 -142t-168 -47q-62 0 -107 21t-68 58l-94 -484h-180z" />
    <glyph glyph-name="paragraph" unicode="&#xb6;" horiz-adv-x="1100" 
d="M948 1307v-1571h-112v1571h-217v-1571h-113v958q-80 0 -146.5 22.5t-114.5 66.5t-74.5 111t-26.5 155q0 84 25 150.5t72.5 113t116.5 71.5t156 25h563v-102h-129z" />
    <glyph glyph-name="periodcentered" unicode="&#xb7;" horiz-adv-x="569" 
d="M165 446l43 220h195l-43 -220h-195z" />
    <glyph glyph-name="periodcentered" unicode="&#x2219;" horiz-adv-x="569" 
d="M165 446l43 220h195l-43 -220h-195z" />
    <glyph glyph-name="cedilla" unicode="&#xb8;" horiz-adv-x="682" 
d="M318 -96q81 -5 121.5 -41t40.5 -95q0 -45 -17 -81t-53.5 -60.5t-94 -38t-138.5 -13.5q-28 0 -55 2t-51 5l21 91q48 -6 88 -6q91 0 128.5 22t37.5 67q0 31 -27.5 51.5t-91.5 20.5h-29t-29 -2l101 174h107z" />
    <glyph glyph-name="uni00B9" unicode="&#xb9;" horiz-adv-x="682" 
d="M61 563l20 107h211l118 609l-229 -138l26 131l237 137h123l-144 -739h215l-21 -107h-556z" />
    <glyph glyph-name="ordmasculine" unicode="&#xba;" horiz-adv-x="748" 
d="M403 651q-76 0 -133 21.5t-94.5 61t-56 94.5t-18.5 122q0 29 3.5 62.5t9.5 65.5q18 94 54 161t88 110t118.5 63t145.5 20q77 0 133.5 -21.5t94 -61t56 -94.5t18.5 -122q0 -29 -3.5 -62.5t-9.5 -65.5q-18 -94 -54 -161t-88 -110t-118 -63t-146 -20zM513 1325
q-42 0 -79 -9.5t-68.5 -36.5t-56.5 -75t-43 -125q-10 -42 -14 -76t-4 -65q0 -49 11.5 -83.5t32.5 -56t50.5 -31t65.5 -9.5q43 0 80.5 10t69.5 38t57.5 78t43.5 129q9 42 14 77t5 64q0 94 -43.5 132.5t-121.5 38.5z" />
    <glyph glyph-name="guillemotright" unicode="&#xbb;" 
d="M640 141h-158l7 39l410 367l-264 372l4 21h156l266 -371l-12 -63zM165 141h-160l7 39l410 367l-264 372l4 21h158l263 -371l-12 -63z" />
    <glyph glyph-name="onequarter" unicode="&#xbc;" horiz-adv-x="1708" 
d="M96 563l20 107h211l118 609l-229 -138l26 131l237 137h123l-144 -739h215l-21 -107h-556zM427 0h-153l1150 1409h154zM1437 179l-35 -178h-131l35 178h-405l21 111l484 557h161l-108 -555h125l-22 -113h-125zM1412 714q-9 -13 -24 -31.5t-30.5 -38t-30 -37t-23.5 -28.5
l-245 -287h269l56 289q3 14 6.5 33t7.5 38t7.5 36t6.5 26z" />
    <glyph glyph-name="onehalf" unicode="&#xbd;" horiz-adv-x="1708" 
d="M47 563l20 107h211l118 609l-229 -138l26 131l237 137h123l-144 -739h215l-21 -107h-556zM377 0h-153l1150 1409h154zM937 1l18 103q29 46 65 83.5t75.5 68.5t81 57t81.5 50q51 30 97 58t81.5 59t56 67.5t20.5 82.5q0 51 -34 87t-99 36q-32 0 -61.5 -9t-54 -27
t-42.5 -44.5t-26 -60.5l-125 15q13 52 38.5 95t64.5 73.5t92.5 47t120.5 16.5q63 0 112 -17t82 -46t50.5 -68t17.5 -84q0 -66 -28 -118t-73 -94.5t-101 -77.5t-113 -68q-35 -20 -69 -41t-63.5 -42t-53 -43.5t-38.5 -45.5h448l-20 -113h-601z" />
    <glyph glyph-name="threequarters" unicode="&#xbe;" horiz-adv-x="1708" 
d="M415 1049h57q31 0 66 6t65 23.5t50 47.5t20 78t-33 79.5t-90 31.5q-68 0 -116.5 -35t-67.5 -100l-125 25q18 58 48 99t70.5 67t91.5 38t109 12q57 0 103.5 -15.5t79.5 -43t50.5 -64.5t17.5 -80q0 -179 -218 -223v-2q39 -7 69 -23.5t51 -39.5t32 -52t11 -61
q0 -64 -25 -113.5t-68.5 -83.5t-102.5 -51.5t-127 -17.5q-84 0 -138.5 22t-88 56.5t-49 75.5t-21.5 80l129 16q4 -31 16 -58t33.5 -46.5t52.5 -30.5t72 -11q37 0 70 9.5t57.5 30t39 51.5t14.5 74q0 35 -16 58t-40 37t-53 19.5t-56 5.5h-61zM427 0h-153l1150 1409h154z
M1437 179l-35 -178h-131l35 178h-405l21 111l484 557h161l-108 -555h125l-22 -113h-125zM1412 714q-9 -13 -24 -31.5t-30.5 -38t-30 -37t-23.5 -28.5l-245 -287h269l56 289q3 14 6.5 33t7.5 38t7.5 36t6.5 26z" />
    <glyph glyph-name="questiondown" unicode="&#xbf;" horiz-adv-x="1251" 
d="M497 -347q-100 0 -180.5 27t-136 75t-85.5 113t-30 142q0 97 30.5 165.5t79 119t109 88t120.5 71.5q42 24 81.5 49.5t71.5 55t54.5 65.5t31.5 82h175q-13 -78 -45.5 -134.5t-77 -99t-96.5 -74.5t-103 -61q-48 -27 -92 -55.5t-78 -63.5t-54 -80t-20 -107q0 -48 19 -88.5
t53.5 -69t82.5 -44.5t107 -16q140 0 231 70t129 192l165 -40q-27 -84 -70.5 -154t-109 -120.5t-154.5 -79t-208 -28.5zM899 1083l-39 -201h-195l39 201h195z" />
    <glyph glyph-name="Agrave" unicode="&#xc0;" horiz-adv-x="1366" 
d="M1079 0l-75 412h-639l-240 -412h-208l848 1409h217l292 -1409h-195zM889 1034q-8 41 -15.5 80t-12.5 71.5t-8.5 54t-4.5 25.5q-2 -4 -13.5 -26t-29.5 -54.5t-40 -72t-46 -79.5l-270 -472h527zM943 1530l-293 217l5 29h207l173 -226l-3 -20h-89z" />
    <glyph glyph-name="Aacute" unicode="&#xc1;" horiz-adv-x="1366" 
d="M1079 0l-75 412h-639l-240 -412h-208l848 1409h217l292 -1409h-195zM889 1034q-8 41 -15.5 80t-12.5 71.5t-8.5 54t-4.5 25.5q-2 -4 -13.5 -26t-29.5 -54.5t-40 -72t-46 -79.5l-270 -472h527zM743 1530l3 20l261 226h207l-5 -29l-352 -217h-114z" />
    <glyph glyph-name="Acircumflex" unicode="&#xc2;" horiz-adv-x="1366" 
d="M1079 0l-75 412h-639l-240 -412h-208l848 1409h217l292 -1409h-195zM889 1034q-8 41 -15.5 80t-12.5 71.5t-8.5 54t-4.5 25.5q-2 -4 -13.5 -26t-29.5 -54.5t-40 -72t-46 -79.5l-270 -472h527zM1197 1550l-4 -20h-95l-192 139h-2l-259 -139h-113l4 20l280 240h204z" />
    <glyph glyph-name="Atilde" unicode="&#xc3;" horiz-adv-x="1366" 
d="M1079 0l-75 412h-639l-240 -412h-208l848 1409h217l292 -1409h-195zM889 1034q-8 41 -15.5 80t-12.5 71.5t-8.5 54t-4.5 25.5q-2 -4 -13.5 -26t-29.5 -54.5t-40 -72t-46 -79.5l-270 -472h527zM1037 1530q-42 0 -80 20t-72.5 44.5t-66 44.5t-62.5 20q-27 0 -47.5 -9.5
t-36 -26.5t-27.5 -40.5t-22 -52.5h-100q14 45 33 92.5t47.5 86.5t70 64t100.5 25q44 0 82 -20t72 -44.5t65 -44.5t61 -20q27 0 47.5 10t36 27t27.5 40.5t21 51.5h102q-14 -44 -32.5 -91.5t-47 -86.5t-70 -64.5t-101.5 -25.5z" />
    <glyph glyph-name="Adieresis" unicode="&#xc4;" horiz-adv-x="1366" 
d="M1079 0l-75 412h-639l-240 -412h-208l848 1409h217l292 -1409h-195zM889 1034q-8 41 -15.5 80t-12.5 71.5t-8.5 54t-4.5 25.5q-2 -4 -13.5 -26t-29.5 -54.5t-40 -72t-46 -79.5l-270 -472h527zM990 1530l35 184h173l-35 -184h-173zM606 1530l35 184h175l-35 -184h-175z
" />
    <glyph glyph-name="Aring" unicode="&#xc5;" horiz-adv-x="1366" 
d="M1061 0l-75 412h-639l-240 -412h-208l848 1409h217l292 -1409h-195zM871 1034q-8 41 -15.5 80t-12.5 71.5t-8.5 54t-4.5 25.5q-2 -4 -13.5 -26t-29.5 -54.5t-40 -72t-46 -79.5l-270 -472h527zM1100 1546q0 -50 -19 -94t-52 -77t-77 -52t-94 -19t-94 19t-77 52t-52 77
t-19 94t19 94t52 76.5t77 51.5t94 19t94 -19t77 -51.5t52 -76.5t19 -94zM992 1546q0 29 -10 53.5t-28 42.5t-42.5 28t-53.5 10q-28 0 -53 -10t-43 -28t-28.5 -42.5t-10.5 -53.5q0 -28 10.5 -53t28.5 -44t43 -29.5t53 -10.5q29 0 53.5 10.5t42.5 29.5t28 44t10 53z" />
    <glyph glyph-name="AE" unicode="&#xc6;" horiz-adv-x="2048" 
d="M863 0l81 412h-543l-279 -412h-203l959 1409h1189l-30 -156h-739l-88 -452h679l-30 -154h-679l-95 -491h780l-31 -156h-971zM1109 1262h-151q-1 -3 -12 -20.5t-27 -42.5t-34 -54t-34.5 -54.5t-28.5 -44.5t-16 -24l-306 -461h473z" />
    <glyph glyph-name="Ccedilla" unicode="&#xc7;" horiz-adv-x="1479" 
d="M1358 337q-49 -73 -110 -138t-139.5 -113.5t-179 -77t-229.5 -28.5q-148 0 -258.5 46t-183.5 125.5t-109 187t-36 230.5q0 124 27 236t77 207.5t122 173t162.5 131.5t197.5 83.5t227 29.5q129 0 226 -29.5t166 -77.5t111 -110t61 -128l-180 -55q-15 47 -46 90.5t-79.5 78
t-115 55t-153.5 20.5q-146 0 -260 -53.5t-193 -148t-120 -224t-41 -282.5q0 -94 26 -173t77.5 -136.5t128.5 -89.5t179 -32q90 0 165 24.5t137.5 65t112 93t87.5 108.5zM708 -96q81 -5 121.5 -41t40.5 -95q0 -45 -17 -81t-53.5 -60.5t-94 -38t-138.5 -13.5q-28 0 -55 2
t-51 5l21 91q48 -6 88 -6q91 0 128.5 22t37.5 67q0 31 -27.5 51.5t-91.5 20.5h-29t-29 -2l101 174h107z" />
    <glyph glyph-name="Egrave" unicode="&#xc8;" horiz-adv-x="1366" 
d="M63 0l273 1409h1049l-30 -156h-858l-88 -452h798l-30 -154h-798l-95 -491h899l-30 -156h-1090zM937 1530l-293 217l5 29h207l173 -226l-3 -20h-89z" />
    <glyph glyph-name="Eacute" unicode="&#xc9;" horiz-adv-x="1366" 
d="M63 0l273 1409h1049l-30 -156h-858l-88 -452h798l-30 -154h-798l-95 -491h899l-30 -156h-1090zM727 1530l3 20l261 226h207l-5 -29l-352 -217h-114z" />
    <glyph glyph-name="Ecircumflex" unicode="&#xca;" horiz-adv-x="1366" 
d="M63 0l273 1409h1049l-30 -156h-858l-88 -452h798l-30 -154h-798l-95 -491h899l-30 -156h-1090zM1206 1550l-4 -20h-95l-192 139h-2l-259 -139h-113l4 20l280 240h204z" />
    <glyph glyph-name="Edieresis" unicode="&#xcb;" horiz-adv-x="1366" 
d="M63 0l273 1409h1049l-30 -156h-858l-88 -452h798l-30 -154h-798l-95 -491h899l-30 -156h-1090zM977 1530l35 184h173l-35 -184h-173zM593 1530l35 184h175l-35 -184h-175z" />
    <glyph glyph-name="Igrave" unicode="&#xcc;" horiz-adv-x="569" 
d="M81 0l274 1409h191l-274 -1409h-191zM504 1530l-293 217l5 29h207l173 -226l-3 -20h-89z" />
    <glyph glyph-name="Iacute" unicode="&#xcd;" horiz-adv-x="569" 
d="M81 0l274 1409h191l-274 -1409h-191zM365 1530l3 20l261 226h207l-5 -29l-352 -217h-114z" />
    <glyph glyph-name="Icircumflex" unicode="&#xce;" horiz-adv-x="569" 
d="M81 0l274 1409h191l-274 -1409h-191zM794 1550l-4 -20h-95l-192 139h-2l-259 -139h-113l4 20l280 240h204z" />
    <glyph glyph-name="Idieresis" unicode="&#xcf;" horiz-adv-x="569" 
d="M81 0l274 1409h191l-274 -1409h-191zM571 1530l35 184h173l-35 -184h-173zM187 1530l35 184h175l-35 -184h-175z" />
    <glyph glyph-name="Eth" unicode="&#xd0;" horiz-adv-x="1479" 
d="M764 1409q148 0 271 -39.5t211.5 -117.5t137.5 -193.5t49 -267.5q0 -133 -30.5 -243t-85 -198t-130.5 -153.5t-167.5 -109.5t-194.5 -65.5t-213 -21.5h-549l125 647h-154l30 154h154l118 608h428zM409 801h406l-30 -154h-406l-96 -494h304q147 0 267.5 44t206 126.5
t132 201t46.5 268.5q0 120 -36.5 207t-100.5 144t-152 84.5t-190 27.5h-262z" />
    <glyph glyph-name="Ntilde" unicode="&#xd1;" horiz-adv-x="1479" 
d="M987 0l-531 1210q-6 -46 -13 -94q-6 -41 -13.5 -87.5t-15.5 -85.5l-181 -943h-170l273 1409h212l534 -1215q6 43 13 91q6 41 14 91.5t18 101.5l181 931h172l-273 -1409h-220zM1085 1530q-42 0 -80 20t-72.5 44.5t-66 44.5t-62.5 20q-27 0 -47.5 -9.5t-36 -26.5
t-27.5 -40.5t-22 -52.5h-100q14 45 33 92.5t47.5 86.5t70 64t100.5 25q44 0 82 -20t72 -44.5t65 -44.5t61 -20q27 0 47.5 10t36 27t27.5 40.5t21 51.5h102q-14 -44 -32.5 -91.5t-47 -86.5t-70 -64.5t-101.5 -25.5z" />
    <glyph glyph-name="Ograve" unicode="&#xd2;" horiz-adv-x="1593" 
d="M938 1430q144 0 255 -42.5t187.5 -119.5t116 -183t39.5 -234q-1 -49 -5.5 -101.5t-14.5 -100.5q-30 -154 -101 -277.5t-175.5 -210.5t-239 -134t-291.5 -47q-150 0 -262 43.5t-186.5 122t-112 187.5t-37.5 240q0 46 4.5 94t14.5 97q30 150 100 273t174.5 210.5t239.5 135
t294 47.5zM929 1276q-131 0 -233 -37t-177.5 -107t-124.5 -171t-75 -229q-9 -43 -13 -86.5t-4 -82.5q0 -107 28 -187.5t81.5 -134t131 -80t175.5 -26.5q132 0 234.5 37.5t177.5 108t124.5 171t74.5 225.5q9 42 12.5 87t3.5 83q0 107 -29 187.5t-83 134t-131 80.5t-173 27z
M970 1530l-293 217l5 29h207l173 -226l-3 -20h-89z" />
    <glyph glyph-name="Oacute" unicode="&#xd3;" horiz-adv-x="1593" 
d="M938 1430q144 0 255 -42.5t187.5 -119.5t116 -183t39.5 -234q-1 -49 -5.5 -101.5t-14.5 -100.5q-30 -154 -101 -277.5t-175.5 -210.5t-239 -134t-291.5 -47q-150 0 -262 43.5t-186.5 122t-112 187.5t-37.5 240q0 46 4.5 94t14.5 97q30 150 100 273t174.5 210.5t239.5 135
t294 47.5zM929 1276q-131 0 -233 -37t-177.5 -107t-124.5 -171t-75 -229q-9 -43 -13 -86.5t-4 -82.5q0 -107 28 -187.5t81.5 -134t131 -80t175.5 -26.5q132 0 234.5 37.5t177.5 108t124.5 171t74.5 225.5q9 42 12.5 87t3.5 83q0 107 -29 187.5t-83 134t-131 80.5t-173 27z
M817 1530l3 20l261 226h207l-5 -29l-352 -217h-114z" />
    <glyph glyph-name="Ocircumflex" unicode="&#xd4;" horiz-adv-x="1593" 
d="M938 1430q144 0 255 -42.5t187.5 -119.5t116 -183t39.5 -234q-1 -49 -5.5 -101.5t-14.5 -100.5q-30 -154 -101 -277.5t-175.5 -210.5t-239 -134t-291.5 -47q-150 0 -262 43.5t-186.5 122t-112 187.5t-37.5 240q0 46 4.5 94t14.5 97q30 150 100 273t174.5 210.5t239.5 135
t294 47.5zM929 1276q-131 0 -233 -37t-177.5 -107t-124.5 -171t-75 -229q-9 -43 -13 -86.5t-4 -82.5q0 -107 28 -187.5t81.5 -134t131 -80t175.5 -26.5q132 0 234.5 37.5t177.5 108t124.5 171t74.5 225.5q9 42 12.5 87t3.5 83q0 107 -29 187.5t-83 134t-131 80.5t-173 27z
M1265 1550l-4 -20h-95l-192 139h-2l-259 -139h-113l4 20l280 240h204z" />
    <glyph glyph-name="Otilde" unicode="&#xd5;" horiz-adv-x="1593" 
d="M938 1430q144 0 255 -42.5t187.5 -119.5t116 -183t39.5 -234q-1 -49 -5.5 -101.5t-14.5 -100.5q-30 -154 -101 -277.5t-175.5 -210.5t-239 -134t-291.5 -47q-150 0 -262 43.5t-186.5 122t-112 187.5t-37.5 240q0 46 4.5 94t14.5 97q30 150 100 273t174.5 210.5t239.5 135
t294 47.5zM929 1276q-131 0 -233 -37t-177.5 -107t-124.5 -171t-75 -229q-9 -43 -13 -86.5t-4 -82.5q0 -107 28 -187.5t81.5 -134t131 -80t175.5 -26.5q132 0 234.5 37.5t177.5 108t124.5 171t74.5 225.5q9 42 12.5 87t3.5 83q0 107 -29 187.5t-83 134t-131 80.5t-173 27z
M1136 1530q-42 0 -80 20t-72.5 44.5t-66 44.5t-62.5 20q-27 0 -47.5 -9.5t-36 -26.5t-27.5 -40.5t-22 -52.5h-100q14 45 33 92.5t47.5 86.5t70 64t100.5 25q44 0 82 -20t72 -44.5t65 -44.5t61 -20q27 0 47.5 10t36 27t27.5 40.5t21 51.5h102q-14 -44 -32.5 -91.5t-47 -86.5
t-70 -64.5t-101.5 -25.5z" />
    <glyph glyph-name="Odieresis" unicode="&#xd6;" horiz-adv-x="1593" 
d="M938 1430q144 0 255 -42.5t187.5 -119.5t116 -183t39.5 -234q-1 -49 -5.5 -101.5t-14.5 -100.5q-30 -154 -101 -277.5t-175.5 -210.5t-239 -134t-291.5 -47q-150 0 -262 43.5t-186.5 122t-112 187.5t-37.5 240q0 46 4.5 94t14.5 97q30 150 100 273t174.5 210.5t239.5 135
t294 47.5zM929 1276q-131 0 -233 -37t-177.5 -107t-124.5 -171t-75 -229q-9 -43 -13 -86.5t-4 -82.5q0 -107 28 -187.5t81.5 -134t131 -80t175.5 -26.5q132 0 234.5 37.5t177.5 108t124.5 171t74.5 225.5q9 42 12.5 87t3.5 83q0 107 -29 187.5t-83 134t-131 80.5t-173 27z
M1048 1530l35 184h173l-35 -184h-173zM664 1530l35 184h175l-35 -184h-175z" />
    <glyph glyph-name="multiply" unicode="&#xd7;" horiz-adv-x="1196" 
d="M172 330l354 354l-352 352l104 103l350 -353l350 351l105 -105l-350 -348l352 -352l-102 -105l-353 353l-356 -355z" />
    <glyph glyph-name="Oslash" unicode="&#xd8;" horiz-adv-x="1593" 
d="M1423 1205q51 -72 77 -161.5t26 -192.5q-1 -49 -5.5 -101.5t-14.5 -100.5q-30 -154 -101 -277.5t-175.5 -210.5t-239 -134t-291.5 -47q-130 0 -230.5 32t-174.5 92l-161 -157h-189l260 254q-52 75 -77.5 168.5t-25.5 203.5q0 46 4.5 94t14.5 97q30 150 100 273
t174.5 210.5t239.5 135t294 47.5q127 0 228 -33t176 -94l167 163h192zM919 1276q-131 0 -233 -37t-177.5 -107t-124.5 -171t-75 -229q-9 -43 -13 -86.5t-4 -82.5q0 -136 46 -231l870 850q-109 94 -289 94zM1335 847q0 133 -46 227l-870 -848q53 -46 125.5 -68.5t163.5 -22.5
q132 0 234.5 37.5t177.5 108t124.5 171t74.5 225.5q9 42 12.5 87t3.5 83z" />
    <glyph glyph-name="Ugrave" unicode="&#xd9;" horiz-adv-x="1479" 
d="M654 -20q-104 0 -195.5 27t-159.5 83t-107 141t-39 200q0 21 2 48.5t5.5 55.5t7.5 54.5t8 45.5l150 774h191l-162 -843q-7 -36 -12 -74.5t-5 -68.5q0 -74 25 -128t69 -89.5t105 -53t133 -17.5q87 0 161.5 22t134 70t102 125.5t63.5 188.5l168 868h190l-170 -879
q-28 -141 -85.5 -244.5t-142.5 -171.5t-195 -101t-242 -33zM982 1530l-293 217l5 29h207l173 -226l-3 -20h-89z" />
    <glyph glyph-name="Uacute" unicode="&#xda;" horiz-adv-x="1479" 
d="M654 -20q-104 0 -195.5 27t-159.5 83t-107 141t-39 200q0 21 2 48.5t5.5 55.5t7.5 54.5t8 45.5l150 774h191l-162 -843q-7 -36 -12 -74.5t-5 -68.5q0 -74 25 -128t69 -89.5t105 -53t133 -17.5q87 0 161.5 22t134 70t102 125.5t63.5 188.5l168 868h190l-170 -879
q-28 -141 -85.5 -244.5t-142.5 -171.5t-195 -101t-242 -33zM776 1530l3 20l261 226h207l-5 -29l-352 -217h-114z" />
    <glyph glyph-name="Ucircumflex" unicode="&#xdb;" horiz-adv-x="1479" 
d="M654 -20q-104 0 -195.5 27t-159.5 83t-107 141t-39 200q0 21 2 48.5t5.5 55.5t7.5 54.5t8 45.5l150 774h191l-162 -843q-7 -36 -12 -74.5t-5 -68.5q0 -74 25 -128t69 -89.5t105 -53t133 -17.5q87 0 161.5 22t134 70t102 125.5t63.5 188.5l168 868h190l-170 -879
q-28 -141 -85.5 -244.5t-142.5 -171.5t-195 -101t-242 -33zM1249 1550l-4 -20h-95l-192 139h-2l-259 -139h-113l4 20l280 240h204z" />
    <glyph glyph-name="Udieresis" unicode="&#xdc;" horiz-adv-x="1479" 
d="M654 -20q-104 0 -195.5 27t-159.5 83t-107 141t-39 200q0 21 2 48.5t5.5 55.5t7.5 54.5t8 45.5l150 774h191l-162 -843q-7 -36 -12 -74.5t-5 -68.5q0 -74 25 -128t69 -89.5t105 -53t133 -17.5q87 0 161.5 22t134 70t102 125.5t63.5 188.5l168 868h190l-170 -879
q-28 -141 -85.5 -244.5t-142.5 -171.5t-195 -101t-242 -33zM1018 1530l35 184h173l-35 -184h-173zM634 1530l35 184h175l-35 -184h-175z" />
    <glyph glyph-name="Yacute" unicode="&#xdd;" horiz-adv-x="1366" 
d="M785 584l-113 -584h-190l115 584l-384 825h196l306 -674l560 674h214zM702 1530l3 20l261 226h207l-5 -29l-352 -217h-114z" />
    <glyph glyph-name="Thorn" unicode="&#xde;" horiz-adv-x="1366" 
d="M221 0h-191l274 1409h191l-49 -252h327q121 0 214.5 -27t157 -77t96.5 -122.5t33 -162.5q0 -110 -39.5 -197.5t-113 -148t-179 -93t-237.5 -32.5h-424zM311 448h387q192 0 287 78t95 233q0 65 -22.5 111t-63.5 76t-98.5 44t-127.5 14h-349z" />
    <glyph glyph-name="germandbls" unicode="&#xdf;" horiz-adv-x="1251" 
d="M34 0l200 1027q47 237 177.5 347t350.5 110q95 0 167.5 -23t122 -62.5t75 -91.5t25.5 -111q0 -65 -23 -111.5t-57.5 -82t-74.5 -62.5t-74.5 -52t-57.5 -51t-23 -60q0 -36 21 -68t52 -64t67.5 -66t67.5 -74t52 -88.5t21 -108.5q0 -76 -26 -138t-78 -106.5t-128 -68.5
t-177 -24q-42 0 -84 4t-81 11.5t-73 17.5t-59 22l56 143q45 -21 108.5 -37.5t137.5 -16.5q59 0 102 14t71 39t41.5 60t13.5 77q0 49 -20.5 87.5t-51.5 72t-66.5 64.5t-66.5 65t-51.5 73t-20.5 89q0 64 22.5 106.5t56.5 73.5t73.5 54.5t73.5 50t56.5 60.5t22.5 85
q0 32 -14.5 60.5t-42.5 50t-69.5 34t-95.5 12.5q-67 0 -122.5 -17.5t-98 -56t-73 -99.5t-47.5 -149l-198 -1021h-180z" />
    <glyph glyph-name="agrave" unicode="&#xe0;" 
d="M1061 6q-29 -7 -62.5 -11.5t-65.5 -4.5q-93 0 -135.5 38.5t-42.5 114.5q0 15 2 32.5t3 31.5h-6q-35 -53 -72.5 -95t-83 -71.5t-101.5 -45t-130 -15.5q-78 0 -136.5 25t-98.5 66.5t-60 95.5t-20 111q0 81 23.5 140t64 101t95 68.5t116 41.5t127.5 21t129 7l232 3l7 36
q5 25 8.5 48t3.5 43q0 91 -53 134.5t-147 43.5q-49 0 -91.5 -7.5t-76 -27t-59 -53t-41.5 -84.5l-178 29q19 62 52 113.5t87 88.5t131.5 57.5t185.5 20.5q89 0 158 -22t116 -61t71.5 -93t24.5 -119q0 -31 -5.5 -74.5t-13.5 -82.5l-74 -378q-5 -22 -8 -45t-3 -43
q0 -37 19.5 -55t61.5 -18q15 0 30.5 2t29.5 5zM815 536l-199 -4q-40 -1 -83 -4t-84.5 -12.5t-79 -25.5t-65.5 -43.5t-44.5 -66.5t-16.5 -94q0 -32 10.5 -62.5t32.5 -54t54.5 -38t76.5 -14.5q87 0 152 30t111 74t72.5 95.5t35.5 94.5zM753 1201l-282 278l5 29h207l161 -287
l-3 -20h-88z" />
    <glyph glyph-name="aacute" unicode="&#xe1;" 
d="M1061 6q-29 -7 -62.5 -11.5t-65.5 -4.5q-93 0 -135.5 38.5t-42.5 114.5q0 15 2 32.5t3 31.5h-6q-35 -53 -72.5 -95t-83 -71.5t-101.5 -45t-130 -15.5q-78 0 -136.5 25t-98.5 66.5t-60 95.5t-20 111q0 81 23.5 140t64 101t95 68.5t116 41.5t127.5 21t129 7l232 3l7 36
q5 25 8.5 48t3.5 43q0 91 -53 134.5t-147 43.5q-49 0 -91.5 -7.5t-76 -27t-59 -53t-41.5 -84.5l-178 29q19 62 52 113.5t87 88.5t131.5 57.5t185.5 20.5q89 0 158 -22t116 -61t71.5 -93t24.5 -119q0 -31 -5.5 -74.5t-13.5 -82.5l-74 -378q-5 -22 -8 -45t-3 -43
q0 -37 19.5 -55t61.5 -18q15 0 30.5 2t29.5 5zM815 536l-199 -4q-40 -1 -83 -4t-84.5 -12.5t-79 -25.5t-65.5 -43.5t-44.5 -66.5t-16.5 -94q0 -32 10.5 -62.5t32.5 -54t54.5 -38t76.5 -14.5q87 0 152 30t111 74t72.5 95.5t35.5 94.5zM540 1201l3 20l253 287h217l-5 -29
l-374 -278h-94z" />
    <glyph glyph-name="acircumflex" unicode="&#xe2;" 
d="M1061 6q-29 -7 -62.5 -11.5t-65.5 -4.5q-93 0 -135.5 38.5t-42.5 114.5q0 15 2 32.5t3 31.5h-6q-35 -53 -72.5 -95t-83 -71.5t-101.5 -45t-130 -15.5q-78 0 -136.5 25t-98.5 66.5t-60 95.5t-20 111q0 81 23.5 140t64 101t95 68.5t116 41.5t127.5 21t129 7l232 3l7 36
q5 25 8.5 48t3.5 43q0 91 -53 134.5t-147 43.5q-49 0 -91.5 -7.5t-76 -27t-59 -53t-41.5 -84.5l-178 29q19 62 52 113.5t87 88.5t131.5 57.5t185.5 20.5q89 0 158 -22t116 -61t71.5 -93t24.5 -119q0 -31 -5.5 -74.5t-13.5 -82.5l-74 -378q-5 -22 -8 -45t-3 -43
q0 -37 19.5 -55t61.5 -18q15 0 30.5 2t29.5 5zM815 536l-199 -4q-40 -1 -83 -4t-84.5 -12.5t-79 -25.5t-65.5 -43.5t-44.5 -66.5t-16.5 -94q0 -32 10.5 -62.5t32.5 -54t54.5 -38t76.5 -14.5q87 0 152 30t111 74t72.5 95.5t35.5 94.5zM1007 1221l-4 -20h-92l-186 169h-2
l-265 -169h-116l4 20l286 270h204z" />
    <glyph glyph-name="atilde" unicode="&#xe3;" 
d="M1061 6q-29 -7 -62.5 -11.5t-65.5 -4.5q-93 0 -135.5 38.5t-42.5 114.5q0 15 2 32.5t3 31.5h-6q-35 -53 -72.5 -95t-83 -71.5t-101.5 -45t-130 -15.5q-78 0 -136.5 25t-98.5 66.5t-60 95.5t-20 111q0 81 23.5 140t64 101t95 68.5t116 41.5t127.5 21t129 7l232 3l7 36
q5 25 8.5 48t3.5 43q0 91 -53 134.5t-147 43.5q-49 0 -91.5 -7.5t-76 -27t-59 -53t-41.5 -84.5l-178 29q19 62 52 113.5t87 88.5t131.5 57.5t185.5 20.5q89 0 158 -22t116 -61t71.5 -93t24.5 -119q0 -31 -5.5 -74.5t-13.5 -82.5l-74 -378q-5 -22 -8 -45t-3 -43
q0 -37 19.5 -55t61.5 -18q15 0 30.5 2t29.5 5zM815 536l-199 -4q-40 -1 -83 -4t-84.5 -12.5t-79 -25.5t-65.5 -43.5t-44.5 -66.5t-16.5 -94q0 -32 10.5 -62.5t32.5 -54t54.5 -38t76.5 -14.5q87 0 152 30t111 74t72.5 95.5t35.5 94.5zM843 1201q-42 0 -80 18.5t-72.5 41
t-66.5 41t-63 18.5q-55 0 -88.5 -31t-53.5 -88h-90q14 45 33 92.5t47.5 86.5t70 64t100.5 25q44 0 82 -18.5t72.5 -41t65.5 -41t61 -18.5q54 0 88 31.5t53 87.5h92q-14 -44 -32.5 -91.5t-47 -86.5t-70 -64.5t-101.5 -25.5z" />
    <glyph glyph-name="adieresis" unicode="&#xe4;" 
d="M1061 6q-29 -7 -62.5 -11.5t-65.5 -4.5q-93 0 -135.5 38.5t-42.5 114.5q0 15 2 32.5t3 31.5h-6q-35 -53 -72.5 -95t-83 -71.5t-101.5 -45t-130 -15.5q-78 0 -136.5 25t-98.5 66.5t-60 95.5t-20 111q0 81 23.5 140t64 101t95 68.5t116 41.5t127.5 21t129 7l232 3l7 36
q5 25 8.5 48t3.5 43q0 91 -53 134.5t-147 43.5q-49 0 -91.5 -7.5t-76 -27t-59 -53t-41.5 -84.5l-178 29q19 62 52 113.5t87 88.5t131.5 57.5t185.5 20.5q89 0 158 -22t116 -61t71.5 -93t24.5 -119q0 -31 -5.5 -74.5t-13.5 -82.5l-74 -378q-5 -22 -8 -45t-3 -43
q0 -37 19.5 -55t61.5 -18q15 0 30.5 2t29.5 5zM815 536l-199 -4q-40 -1 -83 -4t-84.5 -12.5t-79 -25.5t-65.5 -43.5t-44.5 -66.5t-16.5 -94q0 -32 10.5 -62.5t32.5 -54t54.5 -38t76.5 -14.5q87 0 152 30t111 74t72.5 95.5t35.5 94.5zM787 1219l35 184h173l-35 -184h-173z
M403 1219l35 184h175l-35 -184h-175z" />
    <glyph glyph-name="aring" unicode="&#xe5;" 
d="M1061 6q-29 -7 -62.5 -11.5t-65.5 -4.5q-93 0 -135.5 38.5t-42.5 114.5q0 15 2 32.5t3 31.5h-6q-35 -53 -72.5 -95t-83 -71.5t-101.5 -45t-130 -15.5q-78 0 -136.5 25t-98.5 66.5t-60 95.5t-20 111q0 81 23.5 140t64 101t95 68.5t116 41.5t127.5 21t129 7l232 3l7 36
q5 25 8.5 48t3.5 43q0 91 -53 134.5t-147 43.5q-49 0 -91.5 -7.5t-76 -27t-59 -53t-41.5 -84.5l-178 29q19 62 52 113.5t87 88.5t131.5 57.5t185.5 20.5q89 0 158 -22t116 -61t71.5 -93t24.5 -119q0 -31 -5.5 -74.5t-13.5 -82.5l-74 -378q-5 -22 -8 -45t-3 -43
q0 -37 19.5 -55t61.5 -18q15 0 30.5 2t29.5 5zM815 536l-199 -4q-40 -1 -83 -4t-84.5 -12.5t-79 -25.5t-65.5 -43.5t-44.5 -66.5t-16.5 -94q0 -32 10.5 -62.5t32.5 -54t54.5 -38t76.5 -14.5q87 0 152 30t111 74t72.5 95.5t35.5 94.5zM975 1410q0 -50 -19 -94t-52 -77
t-77 -52t-94 -19t-94 19t-77 52t-52 77t-19 94t19 94t52 76.5t77 51.5t94 19t94 -19t77 -51.5t52 -76.5t19 -94zM867 1410q0 29 -10 53.5t-28 42.5t-42.5 28t-53.5 10q-28 0 -53 -10t-43 -28t-28.5 -42.5t-10.5 -53.5q0 -28 10.5 -53t28.5 -44t43 -29.5t53 -10.5
q29 0 53.5 10.5t42.5 29.5t28 44t10 53z" />
    <glyph glyph-name="ae" unicode="&#xe6;" horiz-adv-x="1821" 
d="M989 503q-5 -28 -6.5 -56.5t-2.5 -56.5q0 -133 61.5 -204t182.5 -71q51 0 93 14.5t76 39t59.5 57t43.5 68.5l138 -63q-24 -45 -58 -89.5t-84.5 -80.5t-121 -58.5t-168.5 -22.5q-151 0 -246 70t-130 198q-39 -56 -86.5 -105t-106.5 -85t-130 -57t-156 -21q-80 0 -139 25
t-98 66.5t-58.5 95.5t-19.5 111q0 81 24 140t65.5 101t97.5 68.5t119 41.5t130.5 21t132.5 7l238 3l7 36q5 25 8.5 48t3.5 43q0 91 -54.5 134.5t-153.5 43.5q-52 0 -96 -7.5t-79 -27t-61.5 -53t-43.5 -84.5l-178 29q20 62 54.5 113.5t90 88.5t136 57.5t192.5 20.5
q122 0 200 -43t125 -115q59 75 146 116.5t199 41.5q104 0 181 -29t128 -81t76.5 -124.5t25.5 -159.5q0 -21 -1.5 -46t-4.5 -52t-7 -54.5t-10 -52.5h-734zM814 534l-206 -4q-41 -1 -85.5 -4t-87.5 -12t-81.5 -25t-67.5 -43t-46 -66t-17 -94q0 -37 12 -68.5t34 -53.5
t53.5 -34.5t71.5 -12.5q89 0 159.5 31.5t121 79.5t81.5 106t41 111zM1563 641q2 20 3 37.5t1 34.5q0 66 -16.5 114.5t-46.5 80t-72.5 46.5t-93.5 15q-45 0 -93.5 -14.5t-93 -51.5t-81 -100.5t-57.5 -161.5h550z" />
    <glyph glyph-name="ccedilla" unicode="&#xe7;" horiz-adv-x="1024" 
d="M469 122q56 0 101 16.5t80 46.5t62 72.5t46 94.5l156 -49q-28 -75 -68.5 -134.5t-96 -101.5t-126.5 -64.5t-158 -22.5q-103 0 -178.5 31t-124 86.5t-72 131.5t-23.5 166q0 40 3.5 87t12.5 92q22 111 56.5 193t77 140.5t92 96.5t102 59.5t107 30t107.5 8.5q89 0 156.5 -23
t114.5 -65t73.5 -100.5t31.5 -129.5l-177 -25q-3 45 -17 82t-39.5 63.5t-62.5 41.5t-86 15q-69 0 -124 -20t-98.5 -65t-74.5 -117.5t-52 -177.5q-9 -48 -14 -101t-5 -91q0 -127 51.5 -197t166.5 -70zM452 -96q81 -5 121.5 -41t40.5 -95q0 -45 -17 -81t-53.5 -60.5t-94 -38
t-138.5 -13.5q-28 0 -55 2t-51 5l21 91q48 -6 88 -6q91 0 128.5 22t37.5 67q0 31 -27.5 51.5t-91.5 20.5h-29t-29 -2l101 174h107z" />
    <glyph glyph-name="egrave" unicode="&#xe8;" 
d="M256 503q-5 -28 -6.5 -56.5t-2.5 -56.5q0 -133 66.5 -204t200.5 -71q56 0 102 14.5t83.5 39t66 57t47.5 68.5l138 -63q-25 -45 -61 -89.5t-89.5 -80.5t-128.5 -58.5t-179 -22.5q-100 0 -179 28.5t-133.5 83t-83 133.5t-28.5 180q0 158 42.5 287t118 220t178 140.5
t222.5 49.5q110 0 191 -29t135 -81t80.5 -124.5t26.5 -159.5q0 -21 -1.5 -46t-4.5 -52t-7.5 -54.5t-10.5 -52.5h-783zM880 641q2 20 3 37.5t1 34.5q0 66 -18 114.5t-51 80t-79 46.5t-102 15q-48 0 -101 -14.5t-101.5 -51.5t-88.5 -100.5t-63 -161.5h600zM710 1201l-282 278
l5 29h207l161 -287l-3 -20h-88z" />
    <glyph glyph-name="eacute" unicode="&#xe9;" 
d="M256 503q-5 -28 -6.5 -56.5t-2.5 -56.5q0 -133 66.5 -204t200.5 -71q56 0 102 14.5t83.5 39t66 57t47.5 68.5l138 -63q-25 -45 -61 -89.5t-89.5 -80.5t-128.5 -58.5t-179 -22.5q-100 0 -179 28.5t-133.5 83t-83 133.5t-28.5 180q0 158 42.5 287t118 220t178 140.5
t222.5 49.5q110 0 191 -29t135 -81t80.5 -124.5t26.5 -159.5q0 -21 -1.5 -46t-4.5 -52t-7.5 -54.5t-10.5 -52.5h-783zM880 641q2 20 3 37.5t1 34.5q0 66 -18 114.5t-51 80t-79 46.5t-102 15q-48 0 -101 -14.5t-101.5 -51.5t-88.5 -100.5t-63 -161.5h600zM533 1201l3 20
l253 287h217l-5 -29l-374 -278h-94z" />
    <glyph glyph-name="ecircumflex" unicode="&#xea;" 
d="M256 503q-5 -28 -6.5 -56.5t-2.5 -56.5q0 -133 66.5 -204t200.5 -71q56 0 102 14.5t83.5 39t66 57t47.5 68.5l138 -63q-25 -45 -61 -89.5t-89.5 -80.5t-128.5 -58.5t-179 -22.5q-100 0 -179 28.5t-133.5 83t-83 133.5t-28.5 180q0 158 42.5 287t118 220t178 140.5
t222.5 49.5q110 0 191 -29t135 -81t80.5 -124.5t26.5 -159.5q0 -21 -1.5 -46t-4.5 -52t-7.5 -54.5t-10.5 -52.5h-783zM880 641q2 20 3 37.5t1 34.5q0 66 -18 114.5t-51 80t-79 46.5t-102 15q-48 0 -101 -14.5t-101.5 -51.5t-88.5 -100.5t-63 -161.5h600zM1000 1221l-4 -20
h-92l-186 169h-2l-265 -169h-116l4 20l286 270h204z" />
    <glyph glyph-name="edieresis" unicode="&#xeb;" 
d="M256 503q-5 -28 -6.5 -56.5t-2.5 -56.5q0 -133 66.5 -204t200.5 -71q56 0 102 14.5t83.5 39t66 57t47.5 68.5l138 -63q-25 -45 -61 -89.5t-89.5 -80.5t-128.5 -58.5t-179 -22.5q-100 0 -179 28.5t-133.5 83t-83 133.5t-28.5 180q0 158 42.5 287t118 220t178 140.5
t222.5 49.5q110 0 191 -29t135 -81t80.5 -124.5t26.5 -159.5q0 -21 -1.5 -46t-4.5 -52t-7.5 -54.5t-10.5 -52.5h-783zM880 641q2 20 3 37.5t1 34.5q0 66 -18 114.5t-51 80t-79 46.5t-102 15q-48 0 -101 -14.5t-101.5 -51.5t-88.5 -100.5t-63 -161.5h600zM762 1219l35 184
h173l-35 -184h-173zM378 1219l35 184h175l-35 -184h-175z" />
    <glyph glyph-name="igrave" unicode="&#xec;" horiz-adv-x="569" 
d="M89 0l210 1082h180l-211 -1082h-179zM408 1201l-282 278l5 29h207l161 -287l-3 -20h-88z" />
    <glyph glyph-name="iacute" unicode="&#xed;" horiz-adv-x="569" 
d="M89 0l210 1082h180l-211 -1082h-179zM262 1201l3 20l253 287h217l-5 -29l-374 -278h-94z" />
    <glyph glyph-name="icircumflex" unicode="&#xee;" horiz-adv-x="569" 
d="M89 0l210 1082h180l-211 -1082h-179zM723 1221l-4 -20h-92l-186 169h-2l-265 -169h-116l4 20l286 270h204z" />
    <glyph glyph-name="idieresis" unicode="&#xef;" horiz-adv-x="569" 
d="M89 0l210 1082h180l-211 -1082h-179zM514 1219l35 184h173l-35 -184h-173zM130 1219l35 184h175l-35 -184h-175z" />
    <glyph glyph-name="eth" unicode="&#xf0;" 
d="M625 1328q-48 45 -94.5 82.5t-100.5 73.5h176q40 -20 80 -46.5t76 -55.5l263 102l-19 -108l-169 -67q48 -57 88 -118.5t68.5 -132t44.5 -152t16 -178.5q0 -27 -1.5 -59t-5 -65.5t-8 -66t-10.5 -59.5q-29 -132 -75.5 -225.5t-113 -153t-153 -87t-196.5 -27.5
q-105 0 -184.5 31.5t-132.5 87.5t-80 132.5t-27 166.5q0 30 3 64t9 66q40 214 172 330t354 116q34 0 71 -6.5t71.5 -19.5t65 -32.5t51.5 -46.5q-9 54 -24.5 106.5t-37 100.5t-48 91t-56.5 77l-273 -113l21 120zM603 846q-70 0 -125.5 -19t-97.5 -59.5t-71 -105t-46 -156.5
q-6 -32 -9 -63t-3 -55q0 -130 63 -200t180 -70q59 0 110 14.5t93.5 49t75.5 93t55 145.5q5 17 10 42.5t10 55t8 60t3 57.5q0 36 -16 73.5t-48.5 68t-80.5 50t-111 19.5z" />
    <glyph glyph-name="ntilde" unicode="&#xf1;" 
d="M717 0l126 645q8 39 13 79.5t5 70.5q0 79 -42 123t-137 44q-64 0 -120.5 -25.5t-102.5 -72t-78.5 -112t-48.5 -146.5l-118 -606h-180l166 851q7 34 13.5 71.5t12 71t9 57.5t4.5 31h170q0 -5 -3 -27t-7.5 -50.5t-9 -58t-8.5 -49.5h3q34 47 70 85t79.5 64.5t96 40.5
t119.5 14q148 0 222.5 -73t74.5 -211q0 -36 -6.5 -81t-14.5 -83l-127 -653h-181zM844 1201q-42 0 -80 18.5t-72.5 41t-66.5 41t-63 18.5q-55 0 -88.5 -31t-53.5 -88h-90q14 45 33 92.5t47.5 86.5t70 64t100.5 25q44 0 82 -18.5t72.5 -41t65.5 -41t61 -18.5q54 0 88 31.5
t53 87.5h92q-14 -44 -32.5 -91.5t-47 -86.5t-70 -64.5t-101.5 -25.5z" />
    <glyph glyph-name="ograve" unicode="&#xf2;" 
d="M1080 683q0 -52 -6 -104.5t-20 -111.5q-30 -132 -83.5 -225t-125.5 -151t-160 -84.5t-188 -26.5q-96 0 -174 29.5t-133.5 86t-86 138t-30.5 185.5q1 47 5.5 97t16.5 104q29 126 80 216.5t121 149.5t158.5 87t193.5 28q106 0 186.5 -28t135 -82t82.5 -131.5t28 -176.5z
M894 683q0 77 -17 131t-49.5 88.5t-78.5 50.5t-103 16q-53 0 -106.5 -12.5t-102 -50.5t-88.5 -108t-67 -186q-13 -55 -18.5 -104.5t-5.5 -91.5q0 -82 19 -140t52.5 -94t79 -52.5t99.5 -16.5t106.5 12t99.5 50.5t86.5 109.5t66.5 188q14 60 19.5 110t7.5 100zM720 1201
l-282 278l5 29h207l161 -287l-3 -20h-88z" />
    <glyph glyph-name="oacute" unicode="&#xf3;" 
d="M1080 683q0 -52 -6 -104.5t-20 -111.5q-30 -132 -83.5 -225t-125.5 -151t-160 -84.5t-188 -26.5q-96 0 -174 29.5t-133.5 86t-86 138t-30.5 185.5q1 47 5.5 97t16.5 104q29 126 80 216.5t121 149.5t158.5 87t193.5 28q106 0 186.5 -28t135 -82t82.5 -131.5t28 -176.5z
M894 683q0 77 -17 131t-49.5 88.5t-78.5 50.5t-103 16q-53 0 -106.5 -12.5t-102 -50.5t-88.5 -108t-67 -186q-13 -55 -18.5 -104.5t-5.5 -91.5q0 -82 19 -140t52.5 -94t79 -52.5t99.5 -16.5t106.5 12t99.5 50.5t86.5 109.5t66.5 188q14 60 19.5 110t7.5 100zM533 1201l3 20
l253 287h217l-5 -29l-374 -278h-94z" />
    <glyph glyph-name="ocircumflex" unicode="&#xf4;" 
d="M1080 683q0 -52 -6 -104.5t-20 -111.5q-30 -132 -83.5 -225t-125.5 -151t-160 -84.5t-188 -26.5q-96 0 -174 29.5t-133.5 86t-86 138t-30.5 185.5q1 47 5.5 97t16.5 104q29 126 80 216.5t121 149.5t158.5 87t193.5 28q106 0 186.5 -28t135 -82t82.5 -131.5t28 -176.5z
M894 683q0 77 -17 131t-49.5 88.5t-78.5 50.5t-103 16q-53 0 -106.5 -12.5t-102 -50.5t-88.5 -108t-67 -186q-13 -55 -18.5 -104.5t-5.5 -91.5q0 -82 19 -140t52.5 -94t79 -52.5t99.5 -16.5t106.5 12t99.5 50.5t86.5 109.5t66.5 188q14 60 19.5 110t7.5 100zM1009 1221
l-4 -20h-92l-186 169h-2l-265 -169h-116l4 20l286 270h204z" />
    <glyph glyph-name="otilde" unicode="&#xf5;" 
d="M1080 683q0 -52 -6 -104.5t-20 -111.5q-30 -132 -83.5 -225t-125.5 -151t-160 -84.5t-188 -26.5q-96 0 -174 29.5t-133.5 86t-86 138t-30.5 185.5q1 47 5.5 97t16.5 104q29 126 80 216.5t121 149.5t158.5 87t193.5 28q106 0 186.5 -28t135 -82t82.5 -131.5t28 -176.5z
M894 683q0 77 -17 131t-49.5 88.5t-78.5 50.5t-103 16q-53 0 -106.5 -12.5t-102 -50.5t-88.5 -108t-67 -186q-13 -55 -18.5 -104.5t-5.5 -91.5q0 -82 19 -140t52.5 -94t79 -52.5t99.5 -16.5t106.5 12t99.5 50.5t86.5 109.5t66.5 188q14 60 19.5 110t7.5 100zM814 1201
q-42 0 -80 18.5t-72.5 41t-66.5 41t-63 18.5q-55 0 -88.5 -31t-53.5 -88h-90q14 45 33 92.5t47.5 86.5t70 64t100.5 25q44 0 82 -18.5t72.5 -41t65.5 -41t61 -18.5q54 0 88 31.5t53 87.5h92q-14 -44 -32.5 -91.5t-47 -86.5t-70 -64.5t-101.5 -25.5z" />
    <glyph glyph-name="odieresis" unicode="&#xf6;" 
d="M1080 683q0 -52 -6 -104.5t-20 -111.5q-30 -132 -83.5 -225t-125.5 -151t-160 -84.5t-188 -26.5q-96 0 -174 29.5t-133.5 86t-86 138t-30.5 185.5q1 47 5.5 97t16.5 104q29 126 80 216.5t121 149.5t158.5 87t193.5 28q106 0 186.5 -28t135 -82t82.5 -131.5t28 -176.5z
M894 683q0 77 -17 131t-49.5 88.5t-78.5 50.5t-103 16q-53 0 -106.5 -12.5t-102 -50.5t-88.5 -108t-67 -186q-13 -55 -18.5 -104.5t-5.5 -91.5q0 -82 19 -140t52.5 -94t79 -52.5t99.5 -16.5t106.5 12t99.5 50.5t86.5 109.5t66.5 188q14 60 19.5 110t7.5 100zM774 1219
l35 184h173l-35 -184h-173zM390 1219l35 184h175l-35 -184h-175z" />
    <glyph glyph-name="divide" unicode="&#xf7;" horiz-adv-x="1124" 
d="M495 958v183h168v-183h-168zM82 608v146h995v-146h-995zM495 223v183h168v-183h-168z" />
    <glyph glyph-name="oslash" unicode="&#xf8;" horiz-adv-x="1251" 
d="M201 145q-37 53 -56.5 121t-19.5 153q1 47 5.5 97t16.5 104q29 126 80 216.5t121 149.5t158.5 87t193.5 28q162 0 267 -67l70 82h167l-146 -169q74 -103 74 -264q0 -52 -6 -104.5t-20 -111.5q-30 -132 -83.5 -224t-125.5 -149.5t-160 -83t-188 -25.5q-154 0 -258 71
l-80 -94h-167zM310 416q0 -73 15 -127l540 627q-32 27 -74 40t-93 13q-53 0 -106.5 -12.5t-102 -50.5t-88.5 -108t-67 -186q-13 -55 -18.5 -104.5t-5.5 -91.5zM946 683q0 66 -14 117l-540 -627q33 -29 75.5 -42t92.5 -13q54 0 106.5 11.5t99.5 48.5t86.5 107.5t66.5 187.5
q14 60 19.5 110t7.5 100z" />
    <glyph glyph-name="ugrave" unicode="&#xf9;" 
d="M415 1082l-126 -645q-8 -39 -13 -79.5t-5 -70.5q0 -79 42 -123t137 -44q64 0 120.5 25.5t102.5 72t78.5 112t48.5 146.5l118 606h180l-166 -851q-7 -34 -13.5 -71.5t-12 -71t-9 -57.5t-4.5 -31h-170q0 5 3 27t7.5 50.5t9 58t8.5 49.5h-3q-34 -47 -70 -85t-79.5 -64.5
t-96 -40.5t-119.5 -14q-148 0 -222.5 73t-74.5 211q0 36 6.5 81t14.5 83l127 653h181zM734 1201l-282 278l5 29h207l161 -287l-3 -20h-88z" />
    <glyph glyph-name="uacute" unicode="&#xfa;" 
d="M415 1082l-126 -645q-8 -39 -13 -79.5t-5 -70.5q0 -79 42 -123t137 -44q64 0 120.5 25.5t102.5 72t78.5 112t48.5 146.5l118 606h180l-166 -851q-7 -34 -13.5 -71.5t-12 -71t-9 -57.5t-4.5 -31h-170q0 5 3 27t7.5 50.5t9 58t8.5 49.5h-3q-34 -47 -70 -85t-79.5 -64.5
t-96 -40.5t-119.5 -14q-148 0 -222.5 73t-74.5 211q0 36 6.5 81t14.5 83l127 653h181zM541 1201l3 20l253 287h217l-5 -29l-374 -278h-94z" />
    <glyph glyph-name="ucircumflex" unicode="&#xfb;" 
d="M415 1082l-126 -645q-8 -39 -13 -79.5t-5 -70.5q0 -79 42 -123t137 -44q64 0 120.5 25.5t102.5 72t78.5 112t48.5 146.5l118 606h180l-166 -851q-7 -34 -13.5 -71.5t-12 -71t-9 -57.5t-4.5 -31h-170q0 5 3 27t7.5 50.5t9 58t8.5 49.5h-3q-34 -47 -70 -85t-79.5 -64.5
t-96 -40.5t-119.5 -14q-148 0 -222.5 73t-74.5 211q0 36 6.5 81t14.5 83l127 653h181zM1021 1221l-4 -20h-92l-186 169h-2l-265 -169h-116l4 20l286 270h204z" />
    <glyph glyph-name="udieresis" unicode="&#xfc;" 
d="M415 1082l-126 -645q-8 -39 -13 -79.5t-5 -70.5q0 -79 42 -123t137 -44q64 0 120.5 25.5t102.5 72t78.5 112t48.5 146.5l118 606h180l-166 -851q-7 -34 -13.5 -71.5t-12 -71t-9 -57.5t-4.5 -31h-170q0 5 3 27t7.5 50.5t9 58t8.5 49.5h-3q-34 -47 -70 -85t-79.5 -64.5
t-96 -40.5t-119.5 -14q-148 0 -222.5 73t-74.5 211q0 36 6.5 81t14.5 83l127 653h181zM794 1219l35 184h173l-35 -184h-173zM410 1219l35 184h175l-35 -184h-175z" />
    <glyph glyph-name="yacute" unicode="&#xfd;" horiz-adv-x="1024" 
d="M501 0q-55 -95 -106 -173t-107 -134t-121.5 -87t-150.5 -31q-33 0 -67.5 3.5t-64.5 10.5l31 134q17 -3 38.5 -5.5t38.5 -2.5q95 0 167.5 64t142.5 186l27 47l-217 1070h183l112 -598q6 -32 13 -74t13 -83.5t10.5 -77t5.5 -53.5q10 22 26 53.5t35.5 67t40 73t39.5 72.5
l338 620h199zM503 1201l3 20l253 287h217l-5 -29l-374 -278h-94z" />
    <glyph glyph-name="thorn" unicode="&#xfe;" 
d="M554 -20q-123 0 -200.5 52t-109.5 146h-5q-1 -9 -3.5 -27.5t-6 -42.5t-8.5 -52.5t-11 -57.5l-82 -423h-179l371 1909h180l-83 -423q-5 -29 -11.5 -55t-11.5 -45q-6 -22 -11 -40h4q36 47 73.5 81t80 56.5t91.5 33t109 10.5q80 0 142 -25t104 -71t64 -111.5t22 -146.5
q0 -50 -4.5 -109.5t-16.5 -122.5q-27 -142 -71 -243.5t-106 -166.5t-142 -95.5t-179 -30.5zM689 963q-64 0 -121.5 -19t-106.5 -65.5t-86.5 -125.5t-60.5 -199q-19 -98 -19 -177q0 -64 17 -113.5t48.5 -83t76 -50.5t98.5 -17q62 0 112 18.5t90.5 64t71.5 122t53 192.5
q23 121 23 206q0 123 -47 185t-149 62z" />
    <glyph glyph-name="ydieresis" unicode="&#xff;" horiz-adv-x="1024" 
d="M501 0q-55 -95 -106 -173t-107 -134t-121.5 -87t-150.5 -31q-33 0 -67.5 3.5t-64.5 10.5l31 134q17 -3 38.5 -5.5t38.5 -2.5q95 0 167.5 64t142.5 186l27 47l-217 1070h183l112 -598q6 -32 13 -74t13 -83.5t10.5 -77t5.5 -53.5q10 22 26 53.5t35.5 67t40 73t39.5 72.5
l338 620h199zM738 1219l35 184h173l-35 -184h-173zM354 1219l35 184h175l-35 -184h-175z" />
    <glyph glyph-name="Amacron" unicode="&#x100;" horiz-adv-x="1366" 
d="M1061 0l-75 412h-639l-240 -412h-208l848 1409h217l292 -1409h-195zM871 1034q-8 41 -15.5 80t-12.5 71.5t-8.5 54t-4.5 25.5q-2 -4 -13.5 -26t-29.5 -54.5t-40 -72t-46 -79.5l-270 -472h527zM1127 1570h-550l26 127h550z" />
    <glyph glyph-name="amacron" unicode="&#x101;" 
d="M1055 6q-29 -7 -62.5 -11.5t-65.5 -4.5q-93 0 -135.5 38.5t-42.5 114.5q0 15 2 32.5t3 31.5h-6q-35 -53 -72.5 -95t-83 -71.5t-101.5 -45t-130 -15.5q-78 0 -136.5 25t-98.5 66.5t-60 95.5t-20 111q0 81 23.5 140t64 101t95 68.5t116 41.5t127.5 21t129 7l232 3l7 36
q5 25 8.5 48t3.5 43q0 91 -53 134.5t-147 43.5q-49 0 -91.5 -7.5t-76 -27t-59 -53t-41.5 -84.5l-178 29q19 62 52 113.5t87 88.5t131.5 57.5t185.5 20.5q89 0 158 -22t116 -61t71.5 -93t24.5 -119q0 -31 -5.5 -74.5t-13.5 -82.5l-74 -378q-5 -22 -8 -45t-3 -43
q0 -37 19.5 -55t61.5 -18q15 0 30.5 2t29.5 5zM809 536l-199 -4q-40 -1 -83 -4t-84.5 -12.5t-79 -25.5t-65.5 -43.5t-44.5 -66.5t-16.5 -94q0 -32 10.5 -62.5t32.5 -54t54.5 -38t76.5 -14.5q87 0 152 30t111 74t72.5 95.5t35.5 94.5zM959 1236h-550l26 127h550z" />
    <glyph glyph-name="Abreve" unicode="&#x102;" horiz-adv-x="1366" 
d="M1061 0l-75 412h-639l-240 -412h-208l848 1409h217l292 -1409h-195zM871 1034q-8 41 -15.5 80t-12.5 71.5t-8.5 54t-4.5 25.5q-2 -4 -13.5 -26t-29.5 -54.5t-40 -72t-46 -79.5l-270 -472h527zM871 1520q-74 0 -129 20.5t-92 55t-55.5 79.5t-19.5 94h116q3 -59 54.5 -86
t134.5 -27q179 0 243 114h117q-21 -49 -53.5 -94.5t-78 -80t-104.5 -55t-133 -20.5z" />
    <glyph glyph-name="abreve" unicode="&#x103;" 
d="M1055 6q-29 -7 -62.5 -11.5t-65.5 -4.5q-93 0 -135.5 38.5t-42.5 114.5q0 15 2 32.5t3 31.5h-6q-35 -53 -72.5 -95t-83 -71.5t-101.5 -45t-130 -15.5q-78 0 -136.5 25t-98.5 66.5t-60 95.5t-20 111q0 81 23.5 140t64 101t95 68.5t116 41.5t127.5 21t129 7l232 3l7 36
q5 25 8.5 48t3.5 43q0 91 -53 134.5t-147 43.5q-49 0 -91.5 -7.5t-76 -27t-59 -53t-41.5 -84.5l-178 29q19 62 52 113.5t87 88.5t131.5 57.5t185.5 20.5q89 0 158 -22t116 -61t71.5 -93t24.5 -119q0 -31 -5.5 -74.5t-13.5 -82.5l-74 -378q-5 -22 -8 -45t-3 -43
q0 -37 19.5 -55t61.5 -18q15 0 30.5 2t29.5 5zM809 536l-199 -4q-40 -1 -83 -4t-84.5 -12.5t-79 -25.5t-65.5 -43.5t-44.5 -66.5t-16.5 -94q0 -32 10.5 -62.5t32.5 -54t54.5 -38t76.5 -14.5q87 0 152 30t111 74t72.5 95.5t35.5 94.5zM689 1201q-74 0 -129 25.5t-92 68.5
t-55.5 98.5t-19.5 116.5h116q3 -85 54.5 -124t134.5 -39q179 0 243 163h117q-21 -61 -53.5 -116.5t-78 -98.5t-104.5 -68.5t-133 -25.5z" />
    <glyph glyph-name="Aogonek" unicode="&#x104;" horiz-adv-x="1366" 
d="M1061 0l-75 412h-639l-240 -412h-208l848 1409h217l292 -1409h-195zM871 1034q-8 41 -15.5 80t-12.5 71.5t-8.5 54t-4.5 25.5q-2 -4 -13.5 -26t-29.5 -54.5t-40 -72t-46 -79.5l-270 -472h527zM1035 -427q-88 0 -133 47t-45 121q0 52 20.5 95t51 75t66.5 54.5t67 34.5h133
q-27 -14 -61 -36.5t-63 -52.5t-49 -67t-20 -80q0 -34 20 -57.5t58 -23.5q32 0 58 5.5t56 16.5l-15 -105q-30 -12 -65 -19.5t-79 -7.5z" />
    <glyph glyph-name="aogonek" unicode="&#x105;" 
d="M1055 6q-29 -7 -62.5 -11.5t-65.5 -4.5q-93 0 -135.5 38.5t-42.5 114.5q0 15 2 32.5t3 31.5h-6q-35 -53 -72.5 -95t-83 -71.5t-101.5 -45t-130 -15.5q-78 0 -136.5 25t-98.5 66.5t-60 95.5t-20 111q0 81 23.5 140t64 101t95 68.5t116 41.5t127.5 21t129 7l232 3l7 36
q5 25 8.5 48t3.5 43q0 91 -53 134.5t-147 43.5q-49 0 -91.5 -7.5t-76 -27t-59 -53t-41.5 -84.5l-178 29q19 62 52 113.5t87 88.5t131.5 57.5t185.5 20.5q89 0 158 -22t116 -61t71.5 -93t24.5 -119q0 -31 -5.5 -74.5t-13.5 -82.5l-74 -378q-5 -22 -8 -45t-3 -43
q0 -37 19.5 -55t61.5 -18q15 0 30.5 2t29.5 5zM809 536l-199 -4q-40 -1 -83 -4t-84.5 -12.5t-79 -25.5t-65.5 -43.5t-44.5 -66.5t-16.5 -94q0 -32 10.5 -62.5t32.5 -54t54.5 -38t76.5 -14.5q87 0 152 30t111 74t72.5 95.5t35.5 94.5zM802 -417q-88 0 -133 47t-45 121
q0 52 20.5 95t51 75t66.5 54.5t67 34.5h133q-27 -14 -61 -36.5t-63 -52.5t-49 -67t-20 -80q0 -34 20 -57.5t58 -23.5q32 0 58 5.5t56 16.5l-15 -105q-30 -12 -65 -19.5t-79 -7.5z" />
    <glyph glyph-name="Cacute" unicode="&#x106;" horiz-adv-x="1479" 
d="M1358 337q-49 -73 -110 -138t-139.5 -113.5t-179 -77t-229.5 -28.5q-148 0 -258.5 46t-183.5 125.5t-109 187t-36 230.5q0 124 27 236t77 207.5t122 173t162.5 131.5t197.5 83.5t227 29.5q129 0 226 -29.5t166 -77.5t111 -110t61 -128l-180 -55q-15 47 -46 90.5t-79.5 78
t-115 55t-153.5 20.5q-146 0 -260 -53.5t-193 -148t-120 -224t-41 -282.5q0 -94 26 -173t77.5 -136.5t128.5 -89.5t179 -32q90 0 165 24.5t137.5 65t112 93t87.5 108.5zM863 1530l3 20l261 226h207l-5 -29l-352 -217h-114z" />
    <glyph glyph-name="cacute" unicode="&#x107;" horiz-adv-x="1024" 
d="M469 122q56 0 101 16.5t80 46.5t62 72.5t46 94.5l156 -49q-28 -75 -68.5 -134.5t-96 -101.5t-126.5 -64.5t-158 -22.5q-103 0 -178.5 31t-124 86.5t-72 131.5t-23.5 166q0 40 3.5 87t12.5 92q22 111 56.5 193t77 140.5t92 96.5t102 59.5t107 30t107.5 8.5q89 0 156.5 -23
t114.5 -65t73.5 -100.5t31.5 -129.5l-177 -25q-3 45 -17 82t-39.5 63.5t-62.5 41.5t-86 15q-69 0 -124 -20t-98.5 -65t-74.5 -117.5t-52 -177.5q-9 -48 -14 -101t-5 -91q0 -127 51.5 -197t166.5 -70zM534 1201l3 20l253 287h217l-5 -29l-374 -278h-94z" />
    <glyph glyph-name="Ccircumflex" unicode="&#x108;" horiz-adv-x="1479" 
d="M1358 337q-49 -73 -110 -138t-139.5 -113.5t-179 -77t-229.5 -28.5q-148 0 -258.5 46t-183.5 125.5t-109 187t-36 230.5q0 124 27 236t77 207.5t122 173t162.5 131.5t197.5 83.5t227 29.5q129 0 226 -29.5t166 -77.5t111 -110t61 -128l-180 -55q-15 47 -46 90.5t-79.5 78
t-115 55t-153.5 20.5q-146 0 -260 -53.5t-193 -148t-120 -224t-41 -282.5q0 -94 26 -173t77.5 -136.5t128.5 -89.5t179 -32q90 0 165 24.5t137.5 65t112 93t87.5 108.5zM1289 1550l-4 -20h-95l-192 139h-2l-259 -139h-113l4 20l280 240h204z" />
    <glyph glyph-name="ccircumflex" unicode="&#x109;" horiz-adv-x="1024" 
d="M469 122q56 0 101 16.5t80 46.5t62 72.5t46 94.5l156 -49q-28 -75 -68.5 -134.5t-96 -101.5t-126.5 -64.5t-158 -22.5q-103 0 -178.5 31t-124 86.5t-72 131.5t-23.5 166q0 40 3.5 87t12.5 92q22 111 56.5 193t77 140.5t92 96.5t102 59.5t107 30t107.5 8.5q89 0 156.5 -23
t114.5 -65t73.5 -100.5t31.5 -129.5l-177 -25q-3 45 -17 82t-39.5 63.5t-62.5 41.5t-86 15q-69 0 -124 -20t-98.5 -65t-74.5 -117.5t-52 -177.5q-9 -48 -14 -101t-5 -91q0 -127 51.5 -197t166.5 -70zM970 1221l-4 -20h-92l-186 169h-2l-265 -169h-116l4 20l286 270h204z" />
    <glyph glyph-name="Cdotaccent" unicode="&#x10a;" horiz-adv-x="1479" 
d="M1358 337q-49 -73 -110 -138t-139.5 -113.5t-179 -77t-229.5 -28.5q-148 0 -258.5 46t-183.5 125.5t-109 187t-36 230.5q0 124 27 236t77 207.5t122 173t162.5 131.5t197.5 83.5t227 29.5q129 0 226 -29.5t166 -77.5t111 -110t61 -128l-180 -55q-15 47 -46 90.5t-79.5 78
t-115 55t-153.5 20.5q-146 0 -260 -53.5t-193 -148t-120 -224t-41 -282.5q0 -94 26 -173t77.5 -136.5t128.5 -89.5t179 -32q90 0 165 24.5t137.5 65t112 93t87.5 108.5zM867 1530l34 172h180l-34 -172h-180z" />
    <glyph glyph-name="cdotaccent" unicode="&#x10b;" horiz-adv-x="1024" 
d="M469 122q56 0 101 16.5t80 46.5t62 72.5t46 94.5l156 -49q-28 -75 -68.5 -134.5t-96 -101.5t-126.5 -64.5t-158 -22.5q-103 0 -178.5 31t-124 86.5t-72 131.5t-23.5 166q0 40 3.5 87t12.5 92q22 111 56.5 193t77 140.5t92 96.5t102 59.5t107 30t107.5 8.5q89 0 156.5 -23
t114.5 -65t73.5 -100.5t31.5 -129.5l-177 -25q-3 45 -17 82t-39.5 63.5t-62.5 41.5t-86 15q-69 0 -124 -20t-98.5 -65t-74.5 -117.5t-52 -177.5q-9 -48 -14 -101t-5 -91q0 -127 51.5 -197t166.5 -70zM589 1312l34 172h180l-34 -172h-180z" />
    <glyph glyph-name="Ccaron" unicode="&#x10c;" horiz-adv-x="1479" 
d="M1358 337q-49 -73 -110 -138t-139.5 -113.5t-179 -77t-229.5 -28.5q-148 0 -258.5 46t-183.5 125.5t-109 187t-36 230.5q0 124 27 236t77 207.5t122 173t162.5 131.5t197.5 83.5t227 29.5q129 0 226 -29.5t166 -77.5t111 -110t61 -128l-180 -55q-15 47 -46 90.5t-79.5 78
t-115 55t-153.5 20.5q-146 0 -260 -53.5t-193 -148t-120 -224t-41 -282.5q0 -94 26 -173t77.5 -136.5t128.5 -89.5t179 -32q90 0 165 24.5t137.5 65t112 93t87.5 108.5zM1056 1530h-204l-187 239l4 21h93l205 -139h2l246 139h116l-4 -21z" />
    <glyph glyph-name="ccaron" unicode="&#x10d;" horiz-adv-x="1024" 
d="M469 122q56 0 101 16.5t80 46.5t62 72.5t46 94.5l156 -49q-28 -75 -68.5 -134.5t-96 -101.5t-126.5 -64.5t-158 -22.5q-103 0 -178.5 31t-124 86.5t-72 131.5t-23.5 166q0 40 3.5 87t12.5 92q22 111 56.5 193t77 140.5t92 96.5t102 59.5t107 30t107.5 8.5q89 0 156.5 -23
t114.5 -65t73.5 -100.5t31.5 -129.5l-177 -25q-3 45 -17 82t-39.5 63.5t-62.5 41.5t-86 15q-69 0 -124 -20t-98.5 -65t-74.5 -117.5t-52 -177.5q-9 -48 -14 -101t-5 -91q0 -127 51.5 -197t166.5 -70zM735 1201h-204l-181 270l4 20h97l199 -169h2l252 169h112l-4 -20z" />
    <glyph glyph-name="Dcaron" unicode="&#x10e;" horiz-adv-x="1479" 
d="M744 1409q148 0 271 -39.5t211.5 -117.5t137.5 -193.5t49 -267.5q0 -133 -31.5 -243t-88.5 -198t-135 -153.5t-171 -109.5t-197.5 -65.5t-214.5 -21.5h-512l273 1409h408zM283 153h284q147 0 267.5 44t206 126.5t132 201t46.5 268.5q0 120 -36.5 207t-100.5 144
t-152 84.5t-190 27.5h-242zM941 1530h-204l-187 239l4 21h93l205 -139h2l246 139h116l-4 -21z" />
    <glyph glyph-name="dcaron" unicode="&#x10f;" horiz-adv-x="1280" 
d="M401 -21q-80 0 -142 25t-104 71t-64 111.5t-22 146.5q0 45 4.5 107t16.5 125q27 142 71 243.5t106 166.5t142 95.5t179 30.5q123 0 200.5 -52t109.5 -146h5q2 10 6 33t8.5 48.5t8.5 48.5t5 32l82 419h180l-245 -1261q-8 -39 -14.5 -75t-11.5 -66t-8 -51.5t-4 -30.5h-172
q0 20 5.5 64t15.5 96h-5q-36 -47 -73.5 -81t-79.5 -56.5t-91 -33t-109 -10.5zM453 118q64 0 121.5 19t106.5 65.5t86.5 125.5t60.5 199q19 98 19 177q0 65 -17 114t-48.5 82.5t-76 50.5t-98.5 17q-61 0 -111.5 -18.5t-91 -64t-71 -122t-53.5 -192.5q-23 -121 -23 -206
q0 -123 47 -185t149 -62zM1459 1378q-17 -87 -50.5 -145.5t-82.5 -105.5h-117q54 48 88 96t43 94h-88l32 167h195z" />
    <glyph glyph-name="Dcroat" unicode="&#x110;" horiz-adv-x="1479" 
d="M764 1409q148 0 271 -39.5t211.5 -117.5t137.5 -193.5t49 -267.5q0 -133 -30.5 -243t-85 -198t-130.5 -153.5t-167.5 -109.5t-194.5 -65.5t-213 -21.5h-549l125 647h-154l30 154h154l118 608h428zM409 801h406l-30 -154h-406l-96 -494h304q147 0 267.5 44t206 126.5
t132 201t46.5 268.5q0 120 -36.5 207t-100.5 144t-152 84.5t-190 27.5h-262z" />
    <glyph glyph-name="dcroat" unicode="&#x111;" 
d="M453 118q64 0 121.5 19t106.5 65.5t86.5 125.5t60.5 199q19 98 19 177q0 65 -17 114t-48.5 82.5t-76 50.5t-98.5 17q-61 0 -111.5 -18.5t-91 -64t-71 -122t-53.5 -192.5q-23 -121 -23 -206q0 -123 47 -185t149 -62zM401 -21q-80 0 -142 25t-104 71t-64 111.5t-22 146.5
q0 45 4.5 107t16.5 125q27 142 71 243.5t106 166.5t142 95.5t179 30.5q123 0 200.5 -52t109.5 -146h5q2 10 6 33t8.5 48.5t9 48.5t6.5 32l27 141h-300l25 131h300l29 147h180l-29 -147h132l-25 -131h-132l-192 -983q-8 -39 -14.5 -75t-11.5 -66t-8 -51.5t-4 -30.5h-172
q0 20 5.5 64t15.5 96h-4q-36 -47 -73.5 -81t-80 -56.5t-91.5 -33t-109 -10.5z" />
    <glyph glyph-name="Emacron" unicode="&#x112;" horiz-adv-x="1366" 
d="M63 0l273 1409h1049l-30 -156h-858l-88 -452h798l-30 -154h-798l-95 -491h899l-30 -156h-1090zM1158 1570h-550l26 127h550z" />
    <glyph glyph-name="emacron" unicode="&#x113;" 
d="M256 503q-5 -28 -6.5 -56.5t-2.5 -56.5q0 -133 66.5 -204t200.5 -71q56 0 102 14.5t83.5 39t66 57t47.5 68.5l138 -63q-25 -45 -61 -89.5t-89.5 -80.5t-128.5 -58.5t-179 -22.5q-100 0 -179 28.5t-133.5 83t-83 133.5t-28.5 180q0 158 42.5 287t118 220t178 140.5
t222.5 49.5q110 0 191 -29t135 -81t80.5 -124.5t26.5 -159.5q0 -21 -1.5 -46t-4.5 -52t-7.5 -54.5t-10.5 -52.5h-783zM880 641q2 20 3 37.5t1 34.5q0 66 -18 114.5t-51 80t-79 46.5t-102 15q-48 0 -101 -14.5t-101.5 -51.5t-88.5 -100.5t-63 -161.5h600zM951 1236h-550
l26 127h550z" />
    <glyph glyph-name="Ebreve" unicode="&#x114;" horiz-adv-x="1366" 
d="M63 0l273 1409h1049l-30 -156h-858l-88 -452h798l-30 -154h-798l-95 -491h899l-30 -156h-1090zM847 1520q-74 0 -129 20.5t-92 55t-55.5 79.5t-19.5 94h116q3 -59 54.5 -86t134.5 -27q179 0 243 114h117q-21 -49 -53.5 -94.5t-78 -80t-104.5 -55t-133 -20.5z" />
    <glyph glyph-name="ebreve" unicode="&#x115;" 
d="M256 503q-5 -28 -6.5 -56.5t-2.5 -56.5q0 -133 66.5 -204t200.5 -71q56 0 102 14.5t83.5 39t66 57t47.5 68.5l138 -63q-25 -45 -61 -89.5t-89.5 -80.5t-128.5 -58.5t-179 -22.5q-100 0 -179 28.5t-133.5 83t-83 133.5t-28.5 180q0 158 42.5 287t118 220t178 140.5
t222.5 49.5q110 0 191 -29t135 -81t80.5 -124.5t26.5 -159.5q0 -21 -1.5 -46t-4.5 -52t-7.5 -54.5t-10.5 -52.5h-783zM880 641q2 20 3 37.5t1 34.5q0 66 -18 114.5t-51 80t-79 46.5t-102 15q-48 0 -101 -14.5t-101.5 -51.5t-88.5 -100.5t-63 -161.5h600zM698 1201
q-74 0 -129 25.5t-92 68.5t-55.5 98.5t-19.5 116.5h116q3 -85 54.5 -124t134.5 -39q179 0 243 163h117q-21 -61 -53.5 -116.5t-78 -98.5t-104.5 -68.5t-133 -25.5z" />
    <glyph glyph-name="Edotaccent" unicode="&#x116;" horiz-adv-x="1366" 
d="M63 0l273 1409h1049l-30 -156h-858l-88 -452h798l-30 -154h-798l-95 -491h899l-30 -156h-1090zM781 1530l34 172h180l-34 -172h-180z" />
    <glyph glyph-name="edotaccent" unicode="&#x117;" 
d="M256 503q-5 -28 -6.5 -56.5t-2.5 -56.5q0 -133 66.5 -204t200.5 -71q56 0 102 14.5t83.5 39t66 57t47.5 68.5l138 -63q-25 -45 -61 -89.5t-89.5 -80.5t-128.5 -58.5t-179 -22.5q-100 0 -179 28.5t-133.5 83t-83 133.5t-28.5 180q0 158 42.5 287t118 220t178 140.5
t222.5 49.5q110 0 191 -29t135 -81t80.5 -124.5t26.5 -159.5q0 -21 -1.5 -46t-4.5 -52t-7.5 -54.5t-10.5 -52.5h-783zM880 641q2 20 3 37.5t1 34.5q0 66 -18 114.5t-51 80t-79 46.5t-102 15q-48 0 -101 -14.5t-101.5 -51.5t-88.5 -100.5t-63 -161.5h600zM604 1312l34 172
h180l-34 -172h-180z" />
    <glyph glyph-name="Eogonek" unicode="&#x118;" horiz-adv-x="1366" 
d="M63 0l273 1409h1049l-30 -156h-858l-88 -452h798l-30 -154h-798l-95 -491h899l-30 -156h-1090zM860 -427q-88 0 -133 47t-45 121q0 52 20.5 95t51 75t66.5 54.5t67 34.5h133q-27 -14 -61 -36.5t-63 -52.5t-49 -67t-20 -80q0 -34 20 -57.5t58 -23.5q32 0 58 5.5t56 16.5
l-15 -105q-30 -12 -65 -19.5t-79 -7.5z" />
    <glyph glyph-name="eogonek" unicode="&#x119;" 
d="M256 503q-5 -28 -6.5 -56.5t-2.5 -56.5q0 -133 66.5 -204t200.5 -71q56 0 102 14.5t83.5 39t66 57t47.5 68.5l138 -63q-25 -45 -61 -89.5t-89.5 -80.5t-128.5 -58.5t-179 -22.5q-100 0 -179 28.5t-133.5 83t-83 133.5t-28.5 180q0 158 42.5 287t118 220t178 140.5
t222.5 49.5q110 0 191 -29t135 -81t80.5 -124.5t26.5 -159.5q0 -21 -1.5 -46t-4.5 -52t-7.5 -54.5t-10.5 -52.5h-783zM880 641q2 20 3 37.5t1 34.5q0 66 -18 114.5t-51 80t-79 46.5t-102 15q-48 0 -101 -14.5t-101.5 -51.5t-88.5 -100.5t-63 -161.5h600zM562 -407
q-88 0 -133 47t-45 121q0 52 20.5 95t51 75t66.5 54.5t67 34.5h133q-27 -14 -61 -36.5t-63 -52.5t-49 -67t-20 -80q0 -34 20 -57.5t58 -23.5q32 0 58 5.5t56 16.5l-15 -105q-30 -12 -65 -19.5t-79 -7.5z" />
    <glyph glyph-name="Ecaron" unicode="&#x11a;" horiz-adv-x="1366" 
d="M63 0l273 1409h1049l-30 -156h-858l-88 -452h798l-30 -154h-798l-95 -491h899l-30 -156h-1090zM985 1530h-204l-187 239l4 21h93l205 -139h2l246 139h116l-4 -21z" />
    <glyph glyph-name="ecaron" unicode="&#x11b;" 
d="M256 503q-5 -28 -6.5 -56.5t-2.5 -56.5q0 -133 66.5 -204t200.5 -71q56 0 102 14.5t83.5 39t66 57t47.5 68.5l138 -63q-25 -45 -61 -89.5t-89.5 -80.5t-128.5 -58.5t-179 -22.5q-100 0 -179 28.5t-133.5 83t-83 133.5t-28.5 180q0 158 42.5 287t118 220t178 140.5
t222.5 49.5q110 0 191 -29t135 -81t80.5 -124.5t26.5 -159.5q0 -21 -1.5 -46t-4.5 -52t-7.5 -54.5t-10.5 -52.5h-783zM880 641q2 20 3 37.5t1 34.5q0 66 -18 114.5t-51 80t-79 46.5t-102 15q-48 0 -101 -14.5t-101.5 -51.5t-88.5 -100.5t-63 -161.5h600zM778 1201h-204
l-181 270l4 20h97l199 -169h2l252 169h112l-4 -20z" />
    <glyph glyph-name="Gcircumflex" unicode="&#x11c;" horiz-adv-x="1593" 
d="M1390 210q-56 -48 -121.5 -90t-144.5 -73t-173.5 -49t-208.5 -18q-162 0 -282.5 43.5t-200 121.5t-119 187t-39.5 241q0 188 59.5 345.5t169 271t265.5 177t349 63.5q131 0 226.5 -27t162.5 -73t108.5 -106t63.5 -126l-193 -54q-15 47 -43 88.5t-73.5 73t-110.5 50
t-153 18.5q-153 0 -271.5 -52.5t-199.5 -146t-122.5 -221t-41.5 -277.5q0 -97 27 -178t82.5 -139.5t140.5 -91.5t201 -33q91 0 166.5 15t135.5 37.5t105.5 50.5t75.5 53l51 254h-421l32 160h597zM1291 1550l-4 -20h-95l-192 139h-2l-259 -139h-113l4 20l280 240h204z" />
    <glyph glyph-name="gcircumflex" unicode="&#x11d;" 
d="M397 -425q-93 0 -162 18.5t-116.5 51.5t-75 79.5t-39.5 102.5l163 42q17 -76 75.5 -116.5t158.5 -40.5q72 0 127 18.5t94.5 56.5t66 97.5t42.5 142.5q5 26 11 56t11 56l12 62h-2q-28 -40 -59.5 -78t-72.5 -67t-95 -46.5t-126 -17.5q-79 0 -142 27.5t-107 76t-67.5 116
t-23.5 147.5q0 49 5.5 103.5t17.5 117.5q50 261 169.5 391t325.5 130q57 0 108 -13.5t91.5 -40t70 -64.5t42.5 -86h2q5 25 12.5 56t14.5 58.5t13 47.5t8 23h171q-2 -9 -7 -30.5t-12 -51.5t-14.5 -66.5t-15.5 -75.5l-161 -827q-21 -107 -58 -191.5t-98 -143.5t-148.5 -90
t-209.5 -31zM259 373q0 -121 52.5 -184.5t154.5 -63.5q54 0 109.5 23t105 73t89 129t61.5 191q8 42 12 86.5t4 76.5q0 67 -18 116.5t-50.5 82.5t-76.5 49t-95 16q-62 0 -112.5 -18.5t-90.5 -63t-70 -119t-52 -187.5q-11 -59 -17 -113t-6 -94zM980 1221l-4 -20h-92l-186 169
h-2l-265 -169h-116l4 20l286 270h204z" />
    <glyph glyph-name="Gbreve" unicode="&#x11e;" horiz-adv-x="1593" 
d="M1390 210q-56 -48 -121.5 -90t-144.5 -73t-173.5 -49t-208.5 -18q-162 0 -282.5 43.5t-200 121.5t-119 187t-39.5 241q0 188 59.5 345.5t169 271t265.5 177t349 63.5q131 0 226.5 -27t162.5 -73t108.5 -106t63.5 -126l-193 -54q-15 47 -43 88.5t-73.5 73t-110.5 50
t-153 18.5q-153 0 -271.5 -52.5t-199.5 -146t-122.5 -221t-41.5 -277.5q0 -97 27 -178t82.5 -139.5t140.5 -91.5t201 -33q91 0 166.5 15t135.5 37.5t105.5 50.5t75.5 53l51 254h-421l32 160h597zM956 1520q-74 0 -129 20.5t-92 55t-55.5 79.5t-19.5 94h116q3 -59 54.5 -86
t134.5 -27q179 0 243 114h117q-21 -49 -53.5 -94.5t-78 -80t-104.5 -55t-133 -20.5z" />
    <glyph glyph-name="gbreve" unicode="&#x11f;" 
d="M397 -425q-93 0 -162 18.5t-116.5 51.5t-75 79.5t-39.5 102.5l163 42q17 -76 75.5 -116.5t158.5 -40.5q72 0 127 18.5t94.5 56.5t66 97.5t42.5 142.5q5 26 11 56t11 56l12 62h-2q-28 -40 -59.5 -78t-72.5 -67t-95 -46.5t-126 -17.5q-79 0 -142 27.5t-107 76t-67.5 116
t-23.5 147.5q0 49 5.5 103.5t17.5 117.5q50 261 169.5 391t325.5 130q57 0 108 -13.5t91.5 -40t70 -64.5t42.5 -86h2q5 25 12.5 56t14.5 58.5t13 47.5t8 23h171q-2 -9 -7 -30.5t-12 -51.5t-14.5 -66.5t-15.5 -75.5l-161 -827q-21 -107 -58 -191.5t-98 -143.5t-148.5 -90
t-209.5 -31zM259 373q0 -121 52.5 -184.5t154.5 -63.5q54 0 109.5 23t105 73t89 129t61.5 191q8 42 12 86.5t4 76.5q0 67 -18 116.5t-50.5 82.5t-76.5 49t-95 16q-62 0 -112.5 -18.5t-90.5 -63t-70 -119t-52 -187.5q-11 -59 -17 -113t-6 -94zM675 1201q-74 0 -129 25.5
t-92 68.5t-55.5 98.5t-19.5 116.5h116q3 -85 54.5 -124t134.5 -39q179 0 243 163h117q-21 -61 -53.5 -116.5t-78 -98.5t-104.5 -68.5t-133 -25.5z" />
    <glyph glyph-name="Gdotaccent" unicode="&#x120;" horiz-adv-x="1593" 
d="M1390 210q-56 -48 -121.5 -90t-144.5 -73t-173.5 -49t-208.5 -18q-162 0 -282.5 43.5t-200 121.5t-119 187t-39.5 241q0 188 59.5 345.5t169 271t265.5 177t349 63.5q131 0 226.5 -27t162.5 -73t108.5 -106t63.5 -126l-193 -54q-15 47 -43 88.5t-73.5 73t-110.5 50
t-153 18.5q-153 0 -271.5 -52.5t-199.5 -146t-122.5 -221t-41.5 -277.5q0 -97 27 -178t82.5 -139.5t140.5 -91.5t201 -33q91 0 166.5 15t135.5 37.5t105.5 50.5t75.5 53l51 254h-421l32 160h597zM869 1530l34 172h180l-34 -172h-180z" />
    <glyph glyph-name="gdotaccent" unicode="&#x121;" 
d="M397 -425q-93 0 -162 18.5t-116.5 51.5t-75 79.5t-39.5 102.5l163 42q17 -76 75.5 -116.5t158.5 -40.5q72 0 127 18.5t94.5 56.5t66 97.5t42.5 142.5q5 26 11 56t11 56l12 62h-2q-28 -40 -59.5 -78t-72.5 -67t-95 -46.5t-126 -17.5q-79 0 -142 27.5t-107 76t-67.5 116
t-23.5 147.5q0 49 5.5 103.5t17.5 117.5q50 261 169.5 391t325.5 130q57 0 108 -13.5t91.5 -40t70 -64.5t42.5 -86h2q5 25 12.5 56t14.5 58.5t13 47.5t8 23h171q-2 -9 -7 -30.5t-12 -51.5t-14.5 -66.5t-15.5 -75.5l-161 -827q-21 -107 -58 -191.5t-98 -143.5t-148.5 -90
t-209.5 -31zM259 373q0 -121 52.5 -184.5t154.5 -63.5q54 0 109.5 23t105 73t89 129t61.5 191q8 42 12 86.5t4 76.5q0 67 -18 116.5t-50.5 82.5t-76.5 49t-95 16q-62 0 -112.5 -18.5t-90.5 -63t-70 -119t-52 -187.5q-11 -59 -17 -113t-6 -94zM623 1312l34 172h180l-34 -172
h-180z" />
    <glyph glyph-name="Gcommaaccent" unicode="&#x122;" horiz-adv-x="1593" 
d="M1390 210q-56 -48 -121.5 -90t-144.5 -73t-173.5 -49t-208.5 -18q-162 0 -282.5 43.5t-200 121.5t-119 187t-39.5 241q0 188 59.5 345.5t169 271t265.5 177t349 63.5q131 0 226.5 -27t162.5 -73t108.5 -106t63.5 -126l-193 -54q-15 47 -43 88.5t-73.5 73t-110.5 50
t-153 18.5q-153 0 -271.5 -52.5t-199.5 -146t-122.5 -221t-41.5 -277.5q0 -97 27 -178t82.5 -139.5t140.5 -91.5t201 -33q91 0 166.5 15t135.5 37.5t105.5 50.5t75.5 53l51 254h-421l32 160h597zM827 -204q-17 -87 -50.5 -145.5t-82.5 -105.5h-117q54 48 88 96t43 94h-88
l32 167h195z" />
    <glyph glyph-name="gcommaaccent" unicode="&#x123;" 
d="M397 -425q-93 0 -162 18.5t-116.5 51.5t-75 79.5t-39.5 102.5l163 42q17 -76 75.5 -116.5t158.5 -40.5q72 0 127 18.5t94.5 56.5t66 97.5t42.5 142.5q5 26 11 56t11 56l12 62h-2q-28 -40 -59.5 -78t-72.5 -67t-95 -46.5t-126 -17.5q-79 0 -142 27.5t-107 76t-67.5 116
t-23.5 147.5q0 49 5.5 103.5t17.5 117.5q50 261 169.5 391t325.5 130q57 0 108 -13.5t91.5 -40t70 -64.5t42.5 -86h2q5 25 12.5 56t14.5 58.5t13 47.5t8 23h171q-2 -9 -7 -30.5t-12 -51.5t-14.5 -66.5t-15.5 -75.5l-161 -827q-21 -107 -58 -191.5t-98 -143.5t-148.5 -90
t-209.5 -31zM259 373q0 -121 52.5 -184.5t154.5 -63.5q54 0 109.5 23t105 73t89 129t61.5 191q8 42 12 86.5t4 76.5q0 67 -18 116.5t-50.5 82.5t-76.5 49t-95 16q-62 0 -112.5 -18.5t-90.5 -63t-70 -119t-52 -187.5q-11 -59 -17 -113t-6 -94zM600 1317q17 87 50.5 145.5
t82.5 105.5h117q-54 -48 -88 -96t-43 -94h88l-32 -167h-195z" />
    <glyph glyph-name="Hcircumflex" unicode="&#x124;" horiz-adv-x="1479" 
d="M1021 0l127 653h-767l-127 -653h-191l274 1409h191l-116 -596h767l116 596h186l-274 -1409h-186zM1258 1550l-4 -20h-95l-192 139h-2l-259 -139h-113l4 20l280 240h204z" />
    <glyph glyph-name="hcircumflex" unicode="&#x125;" 
d="M383 897q34 47 70 85t79.5 64.5t96 40.5t119.5 14q148 0 222.5 -73t74.5 -211q0 -36 -6.5 -81t-14.5 -83l-127 -653h-181l126 645q8 39 13 79.5t5 70.5q0 79 -42 123t-137 44q-64 0 -120.5 -25.5t-102.5 -72t-78.5 -112t-48.5 -146.5l-118 -606h-179l288 1484h180
l-75 -386q-6 -33 -13.5 -66t-14.5 -60.5t-12 -47.5t-7 -27h3zM1127 1629l-4 -20h-95l-192 139h-2l-259 -139h-113l4 20l280 240h204z" />
    <glyph glyph-name="Hbar" unicode="&#x126;" horiz-adv-x="1479" 
d="M1020 0l126 653h-767l-126 -653h-191l199 1025h-154l30 154h154l44 230h191l-44 -230h767l44 230h186l-44 -230h153l-30 -154h-153l-199 -1025h-186zM1178 813l41 212h-767l-41 -212h767z" />
    <glyph glyph-name="hbar" unicode="&#x127;" 
d="M375 857q34 47 70 85t79.5 64.5t96 40.5t119.5 14q148 0 222.5 -73t74.5 -211q0 -36 -6.5 -81t-14.5 -83l-119 -613h-181l118 605q8 39 13 79.5t5 70.5q0 79 -42 123t-137 44q-64 0 -120.5 -25.5t-102.5 -72t-78.5 -112t-48.5 -146.5l-110 -566h-179l234 1206h-131
l25 131h131l29 147h180l-29 -147h301l-25 -131h-301l-29 -148q-6 -33 -13.5 -66t-14.5 -60.5t-12 -47.5t-7 -27h3z" />
    <glyph glyph-name="Itilde" unicode="&#x128;" horiz-adv-x="569" 
d="M81 0l274 1409h191l-274 -1409h-191zM637 1530q-42 0 -80 20t-72.5 44.5t-66 44.5t-62.5 20q-27 0 -47.5 -9.5t-36 -26.5t-27.5 -40.5t-22 -52.5h-100q14 45 33 92.5t47.5 86.5t70 64t100.5 25q44 0 82 -20t72 -44.5t65 -44.5t61 -20q27 0 47.5 10t36 27t27.5 40.5
t21 51.5h102q-14 -44 -32.5 -91.5t-47 -86.5t-70 -64.5t-101.5 -25.5z" />
    <glyph glyph-name="itilde" unicode="&#x129;" horiz-adv-x="569" 
d="M89 0l210 1082h180l-211 -1082h-179zM556 1201q-42 0 -80 18.5t-72.5 41t-66.5 41t-63 18.5q-55 0 -88.5 -31t-53.5 -88h-90q14 45 33 92.5t47.5 86.5t70 64t100.5 25q44 0 82 -18.5t72.5 -41t65.5 -41t61 -18.5q54 0 88 31.5t53 87.5h92q-14 -44 -32.5 -91.5t-47 -86.5
t-70 -64.5t-101.5 -25.5z" />
    <glyph glyph-name="Imacron" unicode="&#x12a;" horiz-adv-x="569" 
d="M81 0l274 1409h191l-274 -1409h-191zM744 1570h-550l26 127h550z" />
    <glyph glyph-name="imacron" unicode="&#x12b;" horiz-adv-x="569" 
d="M89 0l210 1082h180l-211 -1082h-179zM686 1236h-550l26 127h550z" />
    <glyph glyph-name="Ibreve" unicode="&#x12c;" horiz-adv-x="569" 
d="M81 0l274 1409h191l-274 -1409h-191zM464 1520q-74 0 -129 20.5t-92 55t-55.5 79.5t-19.5 94h116q3 -59 54.5 -86t134.5 -27q179 0 243 114h117q-21 -49 -53.5 -94.5t-78 -80t-104.5 -55t-133 -20.5z" />
    <glyph glyph-name="ibreve" unicode="&#x12d;" horiz-adv-x="569" 
d="M89 0l210 1082h180l-211 -1082h-179zM414 1201q-74 0 -129 25.5t-92 68.5t-55.5 98.5t-19.5 116.5h116q3 -85 54.5 -124t134.5 -39q179 0 243 163h117q-21 -61 -53.5 -116.5t-78 -98.5t-104.5 -68.5t-133 -25.5z" />
    <glyph glyph-name="Iogonek" unicode="&#x12e;" horiz-adv-x="569" 
d="M81 0l274 1409h191l-274 -1409h-191zM114 -427q-88 0 -133 47t-45 121q0 52 20.5 95t51 75t66.5 54.5t67 34.5h133q-27 -14 -61 -36.5t-63 -52.5t-49 -67t-20 -80q0 -34 20 -57.5t58 -23.5q32 0 58 5.5t56 16.5l-15 -105q-30 -12 -65 -19.5t-79 -7.5z" />
    <glyph glyph-name="iogonek" unicode="&#x12f;" horiz-adv-x="455" 
d="M287 1312l34 172h180l-34 -172h-180zM33 0l210 1082h180l-211 -1082h-179zM53 -427q-88 0 -133 47t-45 121q0 52 20.5 95t51 75t66.5 54.5t67 34.5h133q-27 -14 -61 -36.5t-63 -52.5t-49 -67t-20 -80q0 -34 20 -57.5t58 -23.5q32 0 58 5.5t56 16.5l-15 -105
q-30 -12 -65 -19.5t-79 -7.5z" />
    <glyph glyph-name="Idotaccent" unicode="&#x130;" horiz-adv-x="569" 
d="M81 0l274 1409h191l-274 -1409h-191zM376 1530l34 172h180l-34 -172h-180z" />
    <glyph glyph-name="dotlessi" unicode="&#x131;" horiz-adv-x="569" 
d="M89 0l210 1082h180l-211 -1082h-179z" />
    <glyph glyph-name="IJ" unicode="&#x132;" horiz-adv-x="1502" 
d="M81 0l274 1409h191l-274 -1409h-191zM859 -20q-159 0 -259.5 93t-126.5 270l168 33q23 -117 79 -179t156 -62q60 0 104 22t75.5 62t52 96.5t33.5 124.5l157 813h-291l30 156h481l-193 -986q-19 -100 -54.5 -182t-91 -140t-134.5 -89.5t-186 -31.5z" />
    <glyph glyph-name="ij" unicode="&#x133;" horiz-adv-x="909" 
d="M287 1312l34 172h180l-34 -172h-180zM33 0l210 1082h180l-211 -1082h-179zM743 1312l33 172h180l-33 -172h-180zM354 -425q-34 0 -68.5 4.5t-60.5 9.5l23 136q13 -2 38 -5t45 -3q59 0 89 42t47 134l231 1189h180l-237 -1216q-12 -62 -31.5 -115t-52.5 -92t-82.5 -61.5
t-120.5 -22.5z" />
    <glyph glyph-name="Jcircumflex" unicode="&#x134;" horiz-adv-x="1024" 
d="M381 -20q-159 0 -259.5 93t-126.5 270l168 33q23 -117 79 -179t156 -62q60 0 104 22t75.5 62t52 96.5t33.5 124.5l157 813h-291l30 156h481l-193 -986q-19 -100 -54.5 -182t-91 -140t-134.5 -89.5t-186 -31.5zM1171 1550l-4 -20h-95l-192 139h-2l-259 -139h-113l4 20
l280 240h204z" />
    <glyph glyph-name="jcircumflex" unicode="&#x135;" horiz-adv-x="455" 
d="M669 1221l-4 -20h-92l-186 169h-2l-265 -169h-116l4 20l286 270h204zM-100 -425q-34 0 -68.5 4.5t-60.5 9.5l23 136q13 -2 38 -5t45 -3q59 0 89 42t47 134l231 1189h180l-237 -1216q-12 -62 -31.5 -115t-52.5 -92t-82.5 -61.5t-120.5 -22.5z" />
    <glyph glyph-name="Kcommaaccent" unicode="&#x136;" horiz-adv-x="1366" 
d="M1022 0l-472 674l-190 -129l-106 -545h-191l273 1409h191l-136 -691l140 129l665 562h245l-750 -630l557 -779h-226zM699 -204q-17 -87 -50.5 -145.5t-82.5 -105.5h-117q54 48 88 96t43 94h-88l32 167h195z" />
    <glyph glyph-name="kcommaaccent" unicode="&#x137;" horiz-adv-x="1024" 
d="M721 0l-268 502l-168 -124l-72 -378h-179l288 1484h180l-179 -917l204 190l361 325h222l-530 -465l336 -617h-195zM547 -204q-17 -87 -50.5 -145.5t-82.5 -105.5h-117q54 48 88 96t43 94h-88l32 167h195z" />
    <glyph glyph-name="kgreenlandic" unicode="&#x138;" horiz-adv-x="1024" 
d="M721 0l-268 502l-168 -124l-72 -378h-179l210 1082h180l-101 -515l204 190l361 325h222l-530 -465l336 -617h-195z" />
    <glyph glyph-name="Lacute" unicode="&#x139;" 
d="M63 0l273 1409h191l-243 -1253h712l-30 -156h-903zM441 1530l3 20l261 226h207l-5 -29l-352 -217h-114z" />
    <glyph glyph-name="lacute" unicode="&#x13a;" horiz-adv-x="455" 
d="M33 0l288 1484h180l-289 -1484h-179zM309 1609l3 20l261 226h207l-5 -29l-352 -217h-114z" />
    <glyph glyph-name="Lcommaaccent" unicode="&#x13b;" 
d="M63 0l273 1409h191l-243 -1253h712l-30 -156h-903zM602 -204q-17 -87 -50.5 -145.5t-82.5 -105.5h-117q54 48 88 96t43 94h-88l32 167h195z" />
    <glyph glyph-name="lcommaaccent" unicode="&#x13c;" horiz-adv-x="455" 
d="M33 0l288 1484h180l-289 -1484h-179zM182 -204q-17 -87 -50.5 -145.5t-82.5 -105.5h-117q54 48 88 96t43 94h-88l32 167h195z" />
    <glyph glyph-name="Lcaron" unicode="&#x13d;" 
d="M63 0l273 1409h191l-243 -1253h712l-30 -156h-903zM1031 1303q-17 -87 -50.5 -145.5t-82.5 -105.5h-117q54 48 88 96t43 94h-88l32 167h195z" />
    <glyph glyph-name="lcaron" unicode="&#x13e;" horiz-adv-x="576" 
d="M33 0l288 1484h180l-289 -1484h-179zM770 1378q-17 -87 -50.5 -145.5t-82.5 -105.5h-117q54 48 88 96t43 94h-88l32 167h195z" />
    <glyph glyph-name="Ldot" unicode="&#x13f;" 
d="M63 0l273 1409h191l-243 -1253h712l-30 -156h-903zM677 686l34 172h180l-34 -172h-180z" />
    <glyph glyph-name="ldot" unicode="&#x140;" horiz-adv-x="819" 
d="M33 0l288 1484h180l-289 -1484h-179zM543 686l34 172h180l-34 -172h-180z" />
    <glyph glyph-name="Lslash" unicode="&#x141;" 
d="M683 797l-306 -149l-95 -492h712l-31 -156h-903l105 538l-163 -85l29 158l165 85l138 713h191l-117 -603l306 148z" />
    <glyph glyph-name="lslash" unicode="&#x142;" horiz-adv-x="455" 
d="M32 0l105 542l-135 -68l31 158l134 68l153 784h180l-132 -680l138 72l-31 -159l-138 -71l-126 -646h-179z" />
    <glyph glyph-name="Nacute" unicode="&#x143;" horiz-adv-x="1479" 
d="M987 0l-531 1210q-6 -46 -13 -94q-6 -41 -13.5 -87.5t-15.5 -85.5l-181 -943h-170l273 1409h212l534 -1215q6 43 13 91q6 41 14 91.5t18 101.5l181 931h172l-273 -1409h-220zM797 1530l3 20l261 226h207l-5 -29l-352 -217h-114z" />
    <glyph glyph-name="nacute" unicode="&#x144;" 
d="M721 0l126 645q8 39 13 79.5t5 70.5q0 79 -42 123t-137 44q-64 0 -120.5 -25.5t-102.5 -72t-78.5 -112t-48.5 -146.5l-118 -606h-180l166 851q7 34 13.5 71.5t12 71t9 57.5t4.5 31h170q0 -5 -3 -27t-7.5 -50.5t-9 -58t-8.5 -49.5h3q34 47 70 85t79.5 64.5t96 40.5
t119.5 14q148 0 222.5 -73t74.5 -211q0 -36 -6.5 -81t-14.5 -83l-127 -653h-181zM563 1201l3 20l253 287h217l-5 -29l-374 -278h-94z" />
    <glyph glyph-name="Ncommaaccent" unicode="&#x145;" horiz-adv-x="1479" 
d="M987 0l-531 1210q-6 -46 -13 -94q-6 -41 -13.5 -87.5t-15.5 -85.5l-181 -943h-170l273 1409h212l534 -1215q6 43 13 91q6 41 14 91.5t18 101.5l181 931h172l-273 -1409h-220zM707 -204q-17 -87 -50.5 -145.5t-82.5 -105.5h-117q54 48 88 96t43 94h-88l32 167h195z" />
    <glyph glyph-name="ncommaaccent" unicode="&#x146;" 
d="M721 0l126 645q8 39 13 79.5t5 70.5q0 79 -42 123t-137 44q-64 0 -120.5 -25.5t-102.5 -72t-78.5 -112t-48.5 -146.5l-118 -606h-180l166 851q7 34 13.5 71.5t12 71t9 57.5t4.5 31h170q0 -5 -3 -27t-7.5 -50.5t-9 -58t-8.5 -49.5h3q34 47 70 85t79.5 64.5t96 40.5
t119.5 14q148 0 222.5 -73t74.5 -211q0 -36 -6.5 -81t-14.5 -83l-127 -653h-181zM547 -204q-17 -87 -50.5 -145.5t-82.5 -105.5h-117q54 48 88 96t43 94h-88l32 167h195z" />
    <glyph glyph-name="Ncaron" unicode="&#x147;" horiz-adv-x="1479" 
d="M987 0l-531 1210q-6 -46 -13 -94q-6 -41 -13.5 -87.5t-15.5 -85.5l-181 -943h-170l273 1409h212l534 -1215q6 43 13 91q6 41 14 91.5t18 101.5l181 931h172l-273 -1409h-220zM1027 1530h-204l-187 239l4 21h93l205 -139h2l246 139h116l-4 -21z" />
    <glyph glyph-name="ncaron" unicode="&#x148;" 
d="M721 0l126 645q8 39 13 79.5t5 70.5q0 79 -42 123t-137 44q-64 0 -120.5 -25.5t-102.5 -72t-78.5 -112t-48.5 -146.5l-118 -606h-180l166 851q7 34 13.5 71.5t12 71t9 57.5t4.5 31h170q0 -5 -3 -27t-7.5 -50.5t-9 -58t-8.5 -49.5h3q34 47 70 85t79.5 64.5t96 40.5
t119.5 14q148 0 222.5 -73t74.5 -211q0 -36 -6.5 -81t-14.5 -83l-127 -653h-181zM785 1201h-204l-181 270l4 20h97l199 -169h2l252 169h112l-4 -20z" />
    <glyph glyph-name="napostrophe" unicode="&#x149;" horiz-adv-x="1259" 
d="M837 0l126 645q8 39 13 79.5t5 70.5q0 79 -42 123t-137 44q-64 0 -120.5 -25.5t-102.5 -72t-78.5 -112t-48.5 -146.5l-118 -606h-180l166 851q7 34 13.5 71.5t12 71t9 57.5t4.5 31h170q0 -5 -3 -27t-7.5 -50.5t-9 -58t-8.5 -49.5h3q34 47 70 85t79.5 64.5t96 40.5
t119.5 14q148 0 222.5 -73t74.5 -211q0 -36 -6.5 -81t-14.5 -83l-127 -653h-181zM313 1264q-10 -52 -23.5 -95.5t-30.5 -81t-38 -70.5t-47 -65h-123q57 65 94.5 131t50.5 129h-88l38 197h195z" />
    <glyph glyph-name="Eng" unicode="&#x14a;" horiz-adv-x="1481" 
d="M852 -20q-111 0 -189.5 43.5t-122.5 111.5l141 108q34 -48 81.5 -79t101.5 -31q60 0 102 24.5t72 75t51.5 128.5t42.5 185l73 378q6 30 10 64.5t4 59.5q0 109 -65.5 167.5t-208.5 58.5q-93 0 -179.5 -31t-157 -83.5t-118.5 -122t-63 -146.5l-173 -891h-191l212 1092
q7 37 15.5 83t16.5 91t15 83t10 60h184q-3 -22 -8 -53.5t-10.5 -66t-11.5 -69t-11 -62.5h4q45 62 100 112t119.5 85t139 54.5t159.5 19.5q411 0 411 -357q0 -55 -5.5 -95.5t-11.5 -72.5l-70 -362q-26 -133 -55 -237.5t-78.5 -176.5t-129 -110t-206.5 -38z" />
    <glyph glyph-name="eng" unicode="&#x14b;" 
d="M871 -134q-12 -62 -31.5 -115t-52.5 -92t-82.5 -61.5t-120.5 -22.5q-34 0 -68.5 4.5t-60.5 9.5l23 136q13 -2 38 -5t45 -3q59 0 89 42t47 134l146 752q8 39 13 79.5t5 70.5q0 79 -42 123t-137 44q-64 0 -120.5 -25.5t-102.5 -72t-78.5 -112t-48.5 -146.5l-118 -606h-180
l166 851q7 34 13.5 71.5t12 71t9 57.5t4.5 31h170q0 -5 -3 -27t-7.5 -50.5t-9 -58t-8.5 -49.5h3q34 47 70 85t79.5 64.5t96 40.5t119.5 14q148 0 222.5 -73t74.5 -211q0 -36 -6.5 -81t-14.5 -83z" />
    <glyph glyph-name="Omacron" unicode="&#x14c;" horiz-adv-x="1593" 
d="M938 1430q144 0 255 -42.5t187.5 -119.5t116 -183t39.5 -234q-1 -49 -5.5 -101.5t-14.5 -100.5q-30 -154 -101 -277.5t-175.5 -210.5t-239 -134t-291.5 -47q-150 0 -262 43.5t-186.5 122t-112 187.5t-37.5 240q0 46 4.5 94t14.5 97q30 150 100 273t174.5 210.5t239.5 135
t294 47.5zM929 1276q-131 0 -233 -37t-177.5 -107t-124.5 -171t-75 -229q-9 -43 -13 -86.5t-4 -82.5q0 -107 28 -187.5t81.5 -134t131 -80t175.5 -26.5q132 0 234.5 37.5t177.5 108t124.5 171t74.5 225.5q9 42 12.5 87t3.5 83q0 107 -29 187.5t-83 134t-131 80.5t-173 27z
M1227 1570h-550l26 127h550z" />
    <glyph glyph-name="omacron" unicode="&#x14d;" 
d="M1074 683q0 -52 -6 -104.5t-20 -111.5q-30 -132 -83.5 -225t-125.5 -151t-160 -84.5t-188 -26.5q-96 0 -174 29.5t-133.5 86t-86 138t-30.5 185.5q1 47 5.5 97t16.5 104q29 126 80 216.5t121 149.5t158.5 87t193.5 28q106 0 186.5 -28t135 -82t82.5 -131.5t28 -176.5z
M888 683q0 77 -17 131t-49.5 88.5t-78.5 50.5t-103 16q-53 0 -106.5 -12.5t-102 -50.5t-88.5 -108t-67 -186q-13 -55 -18.5 -104.5t-5.5 -91.5q0 -82 19 -140t52.5 -94t79 -52.5t99.5 -16.5t106.5 12t99.5 50.5t86.5 109.5t66.5 188q14 60 19.5 110t7.5 100zM936 1236h-550
l26 127h550z" />
    <glyph glyph-name="Obreve" unicode="&#x14e;" horiz-adv-x="1593" 
d="M938 1430q144 0 255 -42.5t187.5 -119.5t116 -183t39.5 -234q-1 -49 -5.5 -101.5t-14.5 -100.5q-30 -154 -101 -277.5t-175.5 -210.5t-239 -134t-291.5 -47q-150 0 -262 43.5t-186.5 122t-112 187.5t-37.5 240q0 46 4.5 94t14.5 97q30 150 100 273t174.5 210.5t239.5 135
t294 47.5zM929 1276q-131 0 -233 -37t-177.5 -107t-124.5 -171t-75 -229q-9 -43 -13 -86.5t-4 -82.5q0 -107 28 -187.5t81.5 -134t131 -80t175.5 -26.5q132 0 234.5 37.5t177.5 108t124.5 171t74.5 225.5q9 42 12.5 87t3.5 83q0 107 -29 187.5t-83 134t-131 80.5t-173 27z
M950 1520q-74 0 -129 20.5t-92 55t-55.5 79.5t-19.5 94h116q3 -59 54.5 -86t134.5 -27q179 0 243 114h117q-21 -49 -53.5 -94.5t-78 -80t-104.5 -55t-133 -20.5z" />
    <glyph glyph-name="obreve" unicode="&#x14f;" 
d="M1074 683q0 -52 -6 -104.5t-20 -111.5q-30 -132 -83.5 -225t-125.5 -151t-160 -84.5t-188 -26.5q-96 0 -174 29.5t-133.5 86t-86 138t-30.5 185.5q1 47 5.5 97t16.5 104q29 126 80 216.5t121 149.5t158.5 87t193.5 28q106 0 186.5 -28t135 -82t82.5 -131.5t28 -176.5z
M888 683q0 77 -17 131t-49.5 88.5t-78.5 50.5t-103 16q-53 0 -106.5 -12.5t-102 -50.5t-88.5 -108t-67 -186q-13 -55 -18.5 -104.5t-5.5 -91.5q0 -82 19 -140t52.5 -94t79 -52.5t99.5 -16.5t106.5 12t99.5 50.5t86.5 109.5t66.5 188q14 60 19.5 110t7.5 100zM698 1201
q-74 0 -129 25.5t-92 68.5t-55.5 98.5t-19.5 116.5h116q3 -85 54.5 -124t134.5 -39q179 0 243 163h117q-21 -61 -53.5 -116.5t-78 -98.5t-104.5 -68.5t-133 -25.5z" />
    <glyph glyph-name="Ohungarumlaut" unicode="&#x150;" horiz-adv-x="1593" 
d="M938 1430q144 0 255 -42.5t187.5 -119.5t116 -183t39.5 -234q-1 -49 -5.5 -101.5t-14.5 -100.5q-30 -154 -101 -277.5t-175.5 -210.5t-239 -134t-291.5 -47q-150 0 -262 43.5t-186.5 122t-112 187.5t-37.5 240q0 46 4.5 94t14.5 97q30 150 100 273t174.5 210.5t239.5 135
t294 47.5zM929 1276q-131 0 -233 -37t-177.5 -107t-124.5 -171t-75 -229q-9 -43 -13 -86.5t-4 -82.5q0 -107 28 -187.5t81.5 -134t131 -80t175.5 -26.5q132 0 234.5 37.5t177.5 108t124.5 171t74.5 225.5q9 42 12.5 87t3.5 83q0 107 -29 187.5t-83 134t-131 80.5t-173 27z
M668 1530l3 20l222 227h207l-5 -29l-334 -218h-93zM1014 1530l3 20l223 227h207l-5 -29l-334 -218h-94z" />
    <glyph glyph-name="ohungarumlaut" unicode="&#x151;" 
d="M1074 683q0 -52 -6 -104.5t-20 -111.5q-30 -132 -83.5 -225t-125.5 -151t-160 -84.5t-188 -26.5q-96 0 -174 29.5t-133.5 86t-86 138t-30.5 185.5q1 47 5.5 97t16.5 104q29 126 80 216.5t121 149.5t158.5 87t193.5 28q106 0 186.5 -28t135 -82t82.5 -131.5t28 -176.5z
M888 683q0 77 -17 131t-49.5 88.5t-78.5 50.5t-103 16q-53 0 -106.5 -12.5t-102 -50.5t-88.5 -108t-67 -186q-13 -55 -18.5 -104.5t-5.5 -91.5q0 -82 19 -140t52.5 -94t79 -52.5t99.5 -16.5t106.5 12t99.5 50.5t86.5 109.5t66.5 188q14 60 19.5 110t7.5 100zM354 1201l3 20
l252 287h207l-5 -29l-364 -278h-93zM700 1201l3 20l253 287h207l-5 -29l-364 -278h-94z" />
    <glyph glyph-name="OE" unicode="&#x152;" horiz-adv-x="2048" 
d="M893 0q-38 -5 -90.5 -7.5t-100.5 -2.5q-145 0 -257.5 42t-188.5 118.5t-115.5 184t-39.5 238.5q0 94 18 191q29 150 100.5 271.5t176.5 207t239.5 131.5t289.5 46q25 0 60 -1t72.5 -2.5t73.5 -3.5t63 -4h873l-30 -156h-710l-88 -452h650l-30 -154h-650l-95 -491h751
l-30 -156h-942zM712 145q32 0 63 1t59 2.5t51 3.5t38 4l213 1099q-23 3 -52.5 5t-59.5 3.5t-58.5 2t-50.5 0.5q-126 0 -227.5 -35.5t-177.5 -103.5t-126.5 -167.5t-75.5 -227.5q-8 -43 -12 -86.5t-4 -82.5q0 -107 30 -186t85.5 -130.5t133 -76.5t171.5 -25z" />
    <glyph glyph-name="oe" unicode="&#x153;" horiz-adv-x="1933" 
d="M1055 503q-5 -23 -8 -54.5t-3 -58.5q0 -133 66.5 -204t200.5 -71q56 0 101.5 14.5t82.5 39t65 57t47 68.5l138 -63q-25 -45 -60.5 -89.5t-88.5 -80.5t-127.5 -58.5t-178.5 -22.5q-134 0 -228 49.5t-145 143.5q-79 -101 -187.5 -144.5t-238.5 -43.5q-96 0 -174 28.5
t-133 84t-85 136.5t-30 185q1 47 5.5 97t16.5 104q29 126 79.5 216.5t120.5 149.5t158 87t193 28q142 0 237.5 -49.5t144.5 -142.5q76 93 179 143t224 50q110 0 190.5 -29t134 -81t79.5 -124.5t26 -159.5q0 -21 -1.5 -46t-4.5 -52t-7.5 -54.5t-10.5 -52.5h-778zM888 683
q0 77 -17 131t-49.5 88.5t-78.5 50.5t-103 16q-53 0 -106 -12.5t-101 -50.5t-88 -108t-67 -186q-13 -55 -18.5 -104.5t-5.5 -91.5q0 -82 18.5 -139t51.5 -92.5t78.5 -51t99.5 -15.5t106.5 11.5t99.5 48.5t86.5 107.5t66.5 187.5q14 60 19.5 110t7.5 100zM1674 641
q2 20 3 37.5t1 34.5q0 66 -17.5 114.5t-49.5 80t-78 46.5t-102 15q-48 0 -101 -14.5t-101.5 -51.5t-88.5 -100.5t-63 -161.5h597z" />
    <glyph glyph-name="Racute" unicode="&#x154;" horiz-adv-x="1479" 
d="M1051 0l-243 585h-441l-113 -585h-191l273 1409h612q104 0 190 -25.5t147.5 -73.5t96 -116.5t34.5 -154.5q0 -188 -108 -298t-319 -139l268 -602h-206zM857 736q181 0 273 75.5t92 212.5q0 112 -74.5 172t-222.5 60h-427l-101 -520h460zM718 1530l3 20l261 226h207
l-5 -29l-352 -217h-114z" />
    <glyph glyph-name="racute" unicode="&#x155;" horiz-adv-x="682" 
d="M718 938q-17 5 -40.5 9t-49.5 4q-64 0 -115 -37t-89.5 -94t-63.5 -125.5t-36 -130.5l-110 -564h-180l162 830q7 35 13 70t11.5 68t10.5 62.5t8 51.5h170q-3 -22 -7.5 -52t-9.5 -61t-9.5 -59.5t-8.5 -48.5h4q31 62 61.5 107.5t63.5 75t70.5 44t82.5 14.5q11 0 24 -1.5
t26.5 -3.5t25.5 -4.5t19 -4.5zM357 1201l3 20l253 287h217l-5 -29l-374 -278h-94z" />
    <glyph glyph-name="Rcommaaccent" unicode="&#x156;" horiz-adv-x="1479" 
d="M1051 0l-243 585h-441l-113 -585h-191l273 1409h612q104 0 190 -25.5t147.5 -73.5t96 -116.5t34.5 -154.5q0 -188 -108 -298t-319 -139l268 -602h-206zM857 736q181 0 273 75.5t92 212.5q0 112 -74.5 172t-222.5 60h-427l-101 -520h460zM732 -204q-17 -87 -50.5 -145.5
t-82.5 -105.5h-117q54 48 88 96t43 94h-88l32 167h195z" />
    <glyph glyph-name="rcommaaccent" unicode="&#x157;" horiz-adv-x="682" 
d="M718 938q-17 5 -40.5 9t-49.5 4q-64 0 -115 -37t-89.5 -94t-63.5 -125.5t-36 -130.5l-110 -564h-180l162 830q7 35 13 70t11.5 68t10.5 62.5t8 51.5h170q-3 -22 -7.5 -52t-9.5 -61t-9.5 -59.5t-8.5 -48.5h4q31 62 61.5 107.5t63.5 75t70.5 44t82.5 14.5q11 0 24 -1.5
t26.5 -3.5t25.5 -4.5t19 -4.5zM197 -204q-17 -87 -50.5 -145.5t-82.5 -105.5h-117q54 48 88 96t43 94h-88l32 167h195z" />
    <glyph glyph-name="Rcaron" unicode="&#x158;" horiz-adv-x="1479" 
d="M1051 0l-243 585h-441l-113 -585h-191l273 1409h612q104 0 190 -25.5t147.5 -73.5t96 -116.5t34.5 -154.5q0 -188 -108 -298t-319 -139l268 -602h-206zM857 736q181 0 273 75.5t92 212.5q0 112 -74.5 172t-222.5 60h-427l-101 -520h460zM954 1530h-204l-187 239l4 21h93
l205 -139h2l246 139h116l-4 -21z" />
    <glyph glyph-name="rcaron" unicode="&#x159;" horiz-adv-x="682" 
d="M718 938q-17 5 -40.5 9t-49.5 4q-64 0 -115 -37t-89.5 -94t-63.5 -125.5t-36 -130.5l-110 -564h-180l162 830q7 35 13 70t11.5 68t10.5 62.5t8 51.5h170q-3 -22 -7.5 -52t-9.5 -61t-9.5 -59.5t-8.5 -48.5h4q31 62 61.5 107.5t63.5 75t70.5 44t82.5 14.5q11 0 24 -1.5
t26.5 -3.5t25.5 -4.5t19 -4.5zM593 1201h-204l-181 270l4 20h97l199 -169h2l252 169h112l-4 -20z" />
    <glyph glyph-name="Sacute" unicode="&#x15a;" horiz-adv-x="1366" 
d="M616 -20q-130 0 -227.5 23.5t-165.5 69t-108.5 112t-56.5 153.5l177 37q13 -62 41 -108t75 -76.5t116 -45.5t163 -15q98 0 176 13.5t132.5 45t83.5 82t29 125.5q0 51 -17 87t-59 64.5t-113.5 54t-179.5 55.5q-88 24 -165.5 53.5t-135.5 73t-92 105.5t-34 152
q0 105 47.5 178.5t127 120.5t182 68.5t212.5 21.5q121 0 211.5 -22t154 -61.5t101.5 -94.5t53 -120l-173 -51q-15 48 -42 86t-69 64.5t-100.5 40.5t-136.5 14q-104 0 -175.5 -17.5t-116 -49t-64.5 -75t-20 -94.5q0 -54 20.5 -89.5t62.5 -60.5t106.5 -45.5t152.5 -44.5
q87 -24 169.5 -53t146.5 -73.5t102.5 -110.5t38.5 -165q0 -206 -155 -317t-475 -111zM704 1530l3 20l253 287h217l-5 -29l-374 -278h-94z" />
    <glyph glyph-name="sacute" unicode="&#x15b;" horiz-adv-x="1024" 
d="M907 317q0 -85 -34 -148.5t-96.5 -105.5t-151.5 -62.5t-200 -20.5q-93 0 -163 16t-120.5 46.5t-84 76t-52.5 104.5l147 56q15 -40 38.5 -71.5t58 -53t82 -32.5t110.5 -11q64 0 117.5 10.5t92 33.5t60 59t21.5 87q0 40 -19 68.5t-53.5 50t-84 40t-110.5 37.5
q-65 21 -123.5 46t-103 60t-71 82.5t-26.5 111.5q0 82 35.5 139.5t96 93.5t141 52.5t170.5 16.5q82 0 150 -14t119 -44.5t84 -79t45 -117.5l-163 -25q-22 79 -83 114t-164 35q-53 0 -99.5 -8t-81.5 -26t-55.5 -47t-20.5 -70t19 -68.5t53.5 -48.5t83 -37.5t108.5 -35.5
q57 -18 115.5 -42t105.5 -59.5t77 -86t30 -122.5zM488 1201l3 20l253 287h217l-5 -29l-374 -278h-94z" />
    <glyph glyph-name="Scircumflex" unicode="&#x15c;" horiz-adv-x="1366" 
d="M616 -20q-130 0 -227.5 23.5t-165.5 69t-108.5 112t-56.5 153.5l177 37q13 -62 41 -108t75 -76.5t116 -45.5t163 -15q98 0 176 13.5t132.5 45t83.5 82t29 125.5q0 51 -17 87t-59 64.5t-113.5 54t-179.5 55.5q-88 24 -165.5 53.5t-135.5 73t-92 105.5t-34 152
q0 105 47.5 178.5t127 120.5t182 68.5t212.5 21.5q121 0 211.5 -22t154 -61.5t101.5 -94.5t53 -120l-173 -51q-15 48 -42 86t-69 64.5t-100.5 40.5t-136.5 14q-104 0 -175.5 -17.5t-116 -49t-64.5 -75t-20 -94.5q0 -54 20.5 -89.5t62.5 -60.5t106.5 -45.5t152.5 -44.5
q87 -24 169.5 -53t146.5 -73.5t102.5 -110.5t38.5 -165q0 -206 -155 -317t-475 -111zM1179 1548l-4 -20h-92l-186 169h-2l-265 -169h-116l4 20l286 270h204z" />
    <glyph glyph-name="scircumflex" unicode="&#x15d;" horiz-adv-x="1024" 
d="M907 317q0 -85 -34 -148.5t-96.5 -105.5t-151.5 -62.5t-200 -20.5q-93 0 -163 16t-120.5 46.5t-84 76t-52.5 104.5l147 56q15 -40 38.5 -71.5t58 -53t82 -32.5t110.5 -11q64 0 117.5 10.5t92 33.5t60 59t21.5 87q0 40 -19 68.5t-53.5 50t-84 40t-110.5 37.5
q-65 21 -123.5 46t-103 60t-71 82.5t-26.5 111.5q0 82 35.5 139.5t96 93.5t141 52.5t170.5 16.5q82 0 150 -14t119 -44.5t84 -79t45 -117.5l-163 -25q-22 79 -83 114t-164 35q-53 0 -99.5 -8t-81.5 -26t-55.5 -47t-20.5 -70t19 -68.5t53.5 -48.5t83 -37.5t108.5 -35.5
q57 -18 115.5 -42t105.5 -59.5t77 -86t30 -122.5zM937 1221l-4 -20h-92l-186 169h-2l-265 -169h-116l4 20l286 270h204z" />
    <glyph glyph-name="Scedilla" unicode="&#x15e;" horiz-adv-x="1366" 
d="M616 -20q-130 0 -227.5 23.5t-165.5 69t-108.5 112t-56.5 153.5l177 37q13 -62 41 -108t75 -76.5t116 -45.5t163 -15q98 0 176 13.5t132.5 45t83.5 82t29 125.5q0 51 -17 87t-59 64.5t-113.5 54t-179.5 55.5q-88 24 -165.5 53.5t-135.5 73t-92 105.5t-34 152
q0 105 47.5 178.5t127 120.5t182 68.5t212.5 21.5q121 0 211.5 -22t154 -61.5t101.5 -94.5t53 -120l-173 -51q-15 48 -42 86t-69 64.5t-100.5 40.5t-136.5 14q-104 0 -175.5 -17.5t-116 -49t-64.5 -75t-20 -94.5q0 -54 20.5 -89.5t62.5 -60.5t106.5 -45.5t152.5 -44.5
q87 -24 169.5 -53t146.5 -73.5t102.5 -110.5t38.5 -165q0 -206 -155 -317t-475 -111zM634 -96q81 -5 121.5 -41t40.5 -95q0 -45 -17 -81t-53.5 -60.5t-94 -38t-138.5 -13.5q-28 0 -55 2t-51 5l21 91q48 -6 88 -6q91 0 128.5 22t37.5 67q0 31 -27.5 51.5t-91.5 20.5h-29
t-29 -2l101 174h107z" />
    <glyph glyph-name="scedilla" unicode="&#x15f;" horiz-adv-x="1024" 
d="M907 317q0 -85 -34 -148.5t-96.5 -105.5t-151.5 -62.5t-200 -20.5q-93 0 -163 16t-120.5 46.5t-84 76t-52.5 104.5l147 56q15 -40 38.5 -71.5t58 -53t82 -32.5t110.5 -11q64 0 117.5 10.5t92 33.5t60 59t21.5 87q0 40 -19 68.5t-53.5 50t-84 40t-110.5 37.5
q-65 21 -123.5 46t-103 60t-71 82.5t-26.5 111.5q0 82 35.5 139.5t96 93.5t141 52.5t170.5 16.5q82 0 150 -14t119 -44.5t84 -79t45 -117.5l-163 -25q-22 79 -83 114t-164 35q-53 0 -99.5 -8t-81.5 -26t-55.5 -47t-20.5 -70t19 -68.5t53.5 -48.5t83 -37.5t108.5 -35.5
q57 -18 115.5 -42t105.5 -59.5t77 -86t30 -122.5zM461 -96q81 -5 121.5 -41t40.5 -95q0 -45 -17 -81t-53.5 -60.5t-94 -38t-138.5 -13.5q-28 0 -55 2t-51 5l21 91q48 -6 88 -6q91 0 128.5 22t37.5 67q0 31 -27.5 51.5t-91.5 20.5h-29t-29 -2l101 174h107z" />
    <glyph glyph-name="Scaron" unicode="&#x160;" horiz-adv-x="1366" 
d="M616 -20q-130 0 -227.5 23.5t-165.5 69t-108.5 112t-56.5 153.5l177 37q13 -62 41 -108t75 -76.5t116 -45.5t163 -15q98 0 176 13.5t132.5 45t83.5 82t29 125.5q0 51 -17 87t-59 64.5t-113.5 54t-179.5 55.5q-88 24 -165.5 53.5t-135.5 73t-92 105.5t-34 152
q0 105 47.5 178.5t127 120.5t182 68.5t212.5 21.5q121 0 211.5 -22t154 -61.5t101.5 -94.5t53 -120l-173 -51q-15 48 -42 86t-69 64.5t-100.5 40.5t-136.5 14q-104 0 -175.5 -17.5t-116 -49t-64.5 -75t-20 -94.5q0 -54 20.5 -89.5t62.5 -60.5t106.5 -45.5t152.5 -44.5
q87 -24 169.5 -53t146.5 -73.5t102.5 -110.5t38.5 -165q0 -206 -155 -317t-475 -111zM947 1530h-204l-187 239l4 21h93l205 -139h2l246 139h116l-4 -21z" />
    <glyph glyph-name="scaron" unicode="&#x161;" horiz-adv-x="1024" 
d="M907 317q0 -85 -34 -148.5t-96.5 -105.5t-151.5 -62.5t-200 -20.5q-93 0 -163 16t-120.5 46.5t-84 76t-52.5 104.5l147 56q15 -40 38.5 -71.5t58 -53t82 -32.5t110.5 -11q64 0 117.5 10.5t92 33.5t60 59t21.5 87q0 40 -19 68.5t-53.5 50t-84 40t-110.5 37.5
q-65 21 -123.5 46t-103 60t-71 82.5t-26.5 111.5q0 82 35.5 139.5t96 93.5t141 52.5t170.5 16.5q82 0 150 -14t119 -44.5t84 -79t45 -117.5l-163 -25q-22 79 -83 114t-164 35q-53 0 -99.5 -8t-81.5 -26t-55.5 -47t-20.5 -70t19 -68.5t53.5 -48.5t83 -37.5t108.5 -35.5
q57 -18 115.5 -42t105.5 -59.5t77 -86t30 -122.5zM713 1201h-204l-181 270l4 20h97l199 -169h2l252 169h112l-4 -20z" />
    <glyph glyph-name="Tcommaaccent" unicode="&#x162;" horiz-adv-x="1251" 
d="M537 -96q81 -5 121.5 -41t40.5 -95q0 -45 -17 -81t-53.5 -60.5t-94 -38t-138.5 -13.5q-28 0 -55 2t-51 5l21 91q48 -6 88 -6q91 0 128.5 22t37.5 67q0 31 -27.5 51.5t-91.5 20.5h-29t-29 -2l101 174h107zM858 1253l-244 -1253h-190l244 1253h-484l30 156h1158l-30 -156
h-484z" />
    <glyph glyph-name="tcommaaccent" unicode="&#x163;" horiz-adv-x="569" 
d="M232 -96q81 -5 121.5 -41t40.5 -95q0 -45 -17 -81t-53.5 -60.5t-94 -38t-138.5 -13.5q-28 0 -55 2t-51 5l21 91q48 -6 88 -6q91 0 128.5 22t37.5 67q0 31 -27.5 51.5t-91.5 20.5h-29t-29 -2l101 174h107zM448 4q-37 -9 -81 -16.5t-92 -7.5q-85 0 -133.5 51t-48.5 135
q0 32 5 68.5t10 61.5l126 655h-125l26 131h127l105 242h120l-47 -242h200l-26 -131h-200l-125 -645q-4 -20 -8 -49t-4 -46q0 -42 21 -65t69 -23q26 0 48.5 3.5t51.5 10.5z" />
    <glyph glyph-name="Tcaron" unicode="&#x164;" horiz-adv-x="1251" 
d="M858 1253l-244 -1253h-190l244 1253h-484l30 156h1158l-30 -156h-484zM911 1530h-204l-187 239l4 21h93l205 -139h2l246 139h116l-4 -21z" />
    <glyph glyph-name="tcaron" unicode="&#x165;" horiz-adv-x="725" 
d="M448 4q-37 -9 -81 -16.5t-92 -7.5q-85 0 -133.5 51t-48.5 135q0 32 5 68.5t10 61.5l126 655h-125l26 131h127l105 242h120l-47 -242h200l-26 -131h-200l-125 -645q-4 -20 -8 -49t-4 -46q0 -42 21 -65t69 -23q26 0 48.5 3.5t51.5 10.5zM918 1378q-17 -87 -50.5 -145.5
t-82.5 -105.5h-117q54 48 88 96t43 94h-88l32 167h195z" />
    <glyph glyph-name="Tbar" unicode="&#x166;" horiz-adv-x="1251" 
d="M858 1253l-88 -452h281l-30 -154h-281l-125 -647h-190l125 647h-279l30 154h279l88 452h-484l30 156h1158l-30 -156h-484z" />
    <glyph glyph-name="tbar" unicode="&#x167;" horiz-adv-x="569" 
d="M289 306q-4 -20 -8 -49t-4 -46q0 -42 21 -65t69 -23q26 0 48.5 3.5t51.5 10.5l-19 -133q-37 -9 -81 -16.5t-92 -7.5q-85 0 -133.5 51t-48.5 135q0 32 5 68.5t10 61.5l42 220h-125l25 131h125l59 304h-125l26 131h127l105 242h120l-47 -242h200l-26 -131h-200l-59 -304
h200l-25 -131h-201z" />
    <glyph glyph-name="Utilde" unicode="&#x168;" horiz-adv-x="1479" 
d="M654 -20q-104 0 -195.5 27t-159.5 83t-107 141t-39 200q0 21 2 48.5t5.5 55.5t7.5 54.5t8 45.5l150 774h191l-162 -843q-7 -36 -12 -74.5t-5 -68.5q0 -74 25 -128t69 -89.5t105 -53t133 -17.5q87 0 161.5 22t134 70t102 125.5t63.5 188.5l168 868h190l-170 -879
q-28 -141 -85.5 -244.5t-142.5 -171.5t-195 -101t-242 -33zM1091 1530q-42 0 -80 20t-72.5 44.5t-66 44.5t-62.5 20q-27 0 -47.5 -9.5t-36 -26.5t-27.5 -40.5t-22 -52.5h-100q14 45 33 92.5t47.5 86.5t70 64t100.5 25q44 0 82 -20t72 -44.5t65 -44.5t61 -20q27 0 47.5 10
t36 27t27.5 40.5t21 51.5h102q-14 -44 -32.5 -91.5t-47 -86.5t-70 -64.5t-101.5 -25.5z" />
    <glyph glyph-name="utilde" unicode="&#x169;" 
d="M415 1082l-126 -645q-8 -39 -13 -79.5t-5 -70.5q0 -79 42 -123t137 -44q64 0 120.5 25.5t102.5 72t78.5 112t48.5 146.5l118 606h180l-166 -851q-7 -34 -13.5 -71.5t-12 -71t-9 -57.5t-4.5 -31h-170q0 5 3 27t7.5 50.5t9 58t8.5 49.5h-3q-34 -47 -70 -85t-79.5 -64.5
t-96 -40.5t-119.5 -14q-148 0 -222.5 73t-74.5 211q0 36 6.5 81t14.5 83l127 653h181zM838 1201q-42 0 -80 18.5t-72.5 41t-66.5 41t-63 18.5q-55 0 -88.5 -31t-53.5 -88h-90q14 45 33 92.5t47.5 86.5t70 64t100.5 25q44 0 82 -18.5t72.5 -41t65.5 -41t61 -18.5
q54 0 88 31.5t53 87.5h92q-14 -44 -32.5 -91.5t-47 -86.5t-70 -64.5t-101.5 -25.5z" />
    <glyph glyph-name="Umacron" unicode="&#x16a;" horiz-adv-x="1479" 
d="M654 -20q-104 0 -195.5 27t-159.5 83t-107 141t-39 200q0 21 2 48.5t5.5 55.5t7.5 54.5t8 45.5l150 774h191l-162 -843q-7 -36 -12 -74.5t-5 -68.5q0 -74 25 -128t69 -89.5t105 -53t133 -17.5q87 0 161.5 22t134 70t102 125.5t63.5 188.5l168 868h190l-170 -879
q-28 -141 -85.5 -244.5t-142.5 -171.5t-195 -101t-242 -33zM1196 1565h-550l26 127h550z" />
    <glyph glyph-name="umacron" unicode="&#x16b;" 
d="M415 1082l-126 -645q-8 -39 -13 -79.5t-5 -70.5q0 -79 42 -123t137 -44q64 0 120.5 25.5t102.5 72t78.5 112t48.5 146.5l118 606h180l-166 -851q-7 -34 -13.5 -71.5t-12 -71t-9 -57.5t-4.5 -31h-170q0 5 3 27t7.5 50.5t9 58t8.5 49.5h-3q-34 -47 -70 -85t-79.5 -64.5
t-96 -40.5t-119.5 -14q-148 0 -222.5 73t-74.5 211q0 36 6.5 81t14.5 83l127 653h181zM958 1236h-550l26 127h550z" />
    <glyph glyph-name="Ubreve" unicode="&#x16c;" horiz-adv-x="1479" 
d="M654 -20q-104 0 -195.5 27t-159.5 83t-107 141t-39 200q0 21 2 48.5t5.5 55.5t7.5 54.5t8 45.5l150 774h191l-162 -843q-7 -36 -12 -74.5t-5 -68.5q0 -74 25 -128t69 -89.5t105 -53t133 -17.5q87 0 161.5 22t134 70t102 125.5t63.5 188.5l168 868h190l-170 -879
q-28 -141 -85.5 -244.5t-142.5 -171.5t-195 -101t-242 -33zM913 1520q-74 0 -129 20.5t-92 55t-55.5 79.5t-19.5 94h116q3 -59 54.5 -86t134.5 -27q179 0 243 114h117q-21 -49 -53.5 -94.5t-78 -80t-104.5 -55t-133 -20.5z" />
    <glyph glyph-name="ubreve" unicode="&#x16d;" 
d="M415 1082l-126 -645q-8 -39 -13 -79.5t-5 -70.5q0 -79 42 -123t137 -44q64 0 120.5 25.5t102.5 72t78.5 112t48.5 146.5l118 606h180l-166 -851q-7 -34 -13.5 -71.5t-12 -71t-9 -57.5t-4.5 -31h-170q0 5 3 27t7.5 50.5t9 58t8.5 49.5h-3q-34 -47 -70 -85t-79.5 -64.5
t-96 -40.5t-119.5 -14q-148 0 -222.5 73t-74.5 211q0 36 6.5 81t14.5 83l127 653h181zM682 1201q-74 0 -129 25.5t-92 68.5t-55.5 98.5t-19.5 116.5h116q3 -85 54.5 -124t134.5 -39q179 0 243 163h117q-21 -61 -53.5 -116.5t-78 -98.5t-104.5 -68.5t-133 -25.5z" />
    <glyph glyph-name="Uring" unicode="&#x16e;" horiz-adv-x="1479" 
d="M654 -20q-104 0 -195.5 27t-159.5 83t-107 141t-39 200q0 21 2 48.5t5.5 55.5t7.5 54.5t8 45.5l150 774h191l-162 -843q-7 -36 -12 -74.5t-5 -68.5q0 -74 25 -128t69 -89.5t105 -53t133 -17.5q87 0 161.5 22t134 70t102 125.5t63.5 188.5l168 868h190l-170 -879
q-28 -141 -85.5 -244.5t-142.5 -171.5t-195 -101t-242 -33zM1162 1744q0 -50 -19 -94t-52 -77t-77 -52t-94 -19t-94 19t-77 52t-52 77t-19 94t19 94t52 76.5t77 51.5t94 19t94 -19t77 -51.5t52 -76.5t19 -94zM1054 1744q0 29 -10 53.5t-28 42.5t-42.5 28t-53.5 10
q-28 0 -53 -10t-43 -28t-28.5 -42.5t-10.5 -53.5q0 -28 10.5 -53t28.5 -44t43 -29.5t53 -10.5q29 0 53.5 10.5t42.5 29.5t28 44t10 53z" />
    <glyph glyph-name="uring" unicode="&#x16f;" 
d="M415 1082l-126 -645q-8 -39 -13 -79.5t-5 -70.5q0 -79 42 -123t137 -44q64 0 120.5 25.5t102.5 72t78.5 112t48.5 146.5l118 606h180l-166 -851q-7 -34 -13.5 -71.5t-12 -71t-9 -57.5t-4.5 -31h-170q0 5 3 27t7.5 50.5t9 58t8.5 49.5h-3q-34 -47 -70 -85t-79.5 -64.5
t-96 -40.5t-119.5 -14q-148 0 -222.5 73t-74.5 211q0 36 6.5 81t14.5 83l127 653h181zM931 1410q0 -50 -19 -94t-52 -77t-77 -52t-94 -19t-94 19t-77 52t-52 77t-19 94t19 94t52 76.5t77 51.5t94 19t94 -19t77 -51.5t52 -76.5t19 -94zM823 1410q0 29 -10 53.5t-28 42.5
t-42.5 28t-53.5 10q-28 0 -53 -10t-43 -28t-28.5 -42.5t-10.5 -53.5q0 -28 10.5 -53t28.5 -44t43 -29.5t53 -10.5q29 0 53.5 10.5t42.5 29.5t28 44t10 53z" />
    <glyph glyph-name="Uhungarumlaut" unicode="&#x170;" horiz-adv-x="1479" 
d="M654 -20q-104 0 -195.5 27t-159.5 83t-107 141t-39 200q0 21 2 48.5t5.5 55.5t7.5 54.5t8 45.5l150 774h191l-162 -843q-7 -36 -12 -74.5t-5 -68.5q0 -74 25 -128t69 -89.5t105 -53t133 -17.5q87 0 161.5 22t134 70t102 125.5t63.5 188.5l168 868h190l-170 -879
q-28 -141 -85.5 -244.5t-142.5 -171.5t-195 -101t-242 -33zM616 1530l3 20l222 227h207l-5 -29l-334 -218h-93zM962 1530l3 20l223 227h207l-5 -29l-334 -218h-94z" />
    <glyph glyph-name="uhungarumlaut" unicode="&#x171;" 
d="M415 1082l-126 -645q-8 -39 -13 -79.5t-5 -70.5q0 -79 42 -123t137 -44q64 0 120.5 25.5t102.5 72t78.5 112t48.5 146.5l118 606h180l-166 -851q-7 -34 -13.5 -71.5t-12 -71t-9 -57.5t-4.5 -31h-170q0 5 3 27t7.5 50.5t9 58t8.5 49.5h-3q-34 -47 -70 -85t-79.5 -64.5
t-96 -40.5t-119.5 -14q-148 0 -222.5 73t-74.5 211q0 36 6.5 81t14.5 83l127 653h181zM376 1201l3 20l252 287h207l-5 -29l-364 -278h-93zM722 1201l3 20l253 287h207l-5 -29l-364 -278h-94z" />
    <glyph glyph-name="Uogonek" unicode="&#x172;" horiz-adv-x="1479" 
d="M654 -20q-104 0 -195.5 27t-159.5 83t-107 141t-39 200q0 21 2 48.5t5.5 55.5t7.5 54.5t8 45.5l150 774h191l-162 -843q-7 -36 -12 -74.5t-5 -68.5q0 -74 25 -128t69 -89.5t105 -53t133 -17.5q87 0 161.5 22t134 70t102 125.5t63.5 188.5l168 868h190l-170 -879
q-28 -141 -85.5 -244.5t-142.5 -171.5t-195 -101t-242 -33zM683 -427q-88 0 -133 47t-45 121q0 52 20.5 95t51 75t66.5 54.5t67 34.5h133q-27 -14 -61 -36.5t-63 -52.5t-49 -67t-20 -80q0 -34 20 -57.5t58 -23.5q32 0 58 5.5t56 16.5l-15 -105q-30 -12 -65 -19.5t-79 -7.5z
" />
    <glyph glyph-name="uogonek" unicode="&#x173;" 
d="M415 1082l-126 -645q-8 -39 -13 -79.5t-5 -70.5q0 -79 42 -123t137 -44q64 0 120.5 25.5t102.5 72t78.5 112t48.5 146.5l118 606h180l-166 -851q-7 -34 -13.5 -71.5t-12 -71t-9 -57.5t-4.5 -31h-170q0 5 3 27t7.5 50.5t9 58t8.5 49.5h-3q-34 -47 -70 -85t-79.5 -64.5
t-96 -40.5t-119.5 -14q-148 0 -222.5 73t-74.5 211q0 36 6.5 81t14.5 83l127 653h181zM697 -427q-88 0 -133 47t-45 121q0 52 20.5 95t51 75t66.5 54.5t67 34.5h133q-27 -14 -61 -36.5t-63 -52.5t-49 -67t-20 -80q0 -34 20 -57.5t58 -23.5q32 0 58 5.5t56 16.5l-15 -105
q-30 -12 -65 -19.5t-79 -7.5z" />
    <glyph glyph-name="Wcircumflex" unicode="&#x174;" horiz-adv-x="1933" 
d="M1406 0h-223l-71 895q-1 19 -2.5 43t-3 50.5t-3 54t-2.5 52.5q-3 60 -5 124q-24 -63 -49 -124q-21 -52 -44.5 -107t-41.5 -93l-419 -895h-223l-142 1409h197l79 -895q5 -63 8 -124.5t5 -111.5q2 -58 3 -110q29 69 58 136q12 29 25.5 59.5t26.5 60.5t25.5 57.5t23.5 50.5
l415 877h183l75 -877q2 -22 4 -50t3.5 -57.5t3 -60t2.5 -59.5q3 -67 4 -137q1 0 15.5 34.5t36.5 86.5t48.5 112.5t51.5 112.5l423 895h201zM1465 1550l-4 -20h-95l-192 139h-2l-259 -139h-113l4 20l280 240h204z" />
    <glyph glyph-name="wcircumflex" unicode="&#x175;" horiz-adv-x="1479" 
d="M1068 0h-209l-37 698q-1 20 -2 59t-2 79q-1 47 -2 98q-18 -45 -36 -89q-16 -38 -33.5 -79t-31.5 -72l-313 -694h-208l-92 1082h178l40 -735q1 -12 2 -39.5t2 -58t2 -59t1 -41.5q15 36 30 71q13 30 26.5 63t24.5 56l341 743h193l44 -743q3 -54 4.5 -104t1.5 -86
q15 36 31 71q14 30 28.5 64t27.5 63l334 735h176zM1165 1221l-4 -20h-92l-186 169h-2l-265 -169h-116l4 20l286 270h204z" />
    <glyph glyph-name="Ycircumflex" unicode="&#x176;" horiz-adv-x="1366" 
d="M785 584l-113 -584h-190l115 584l-384 825h196l306 -674l560 674h214zM1196 1550l-4 -20h-95l-192 139h-2l-259 -139h-113l4 20l280 240h204z" />
    <glyph glyph-name="ycircumflex" unicode="&#x177;" horiz-adv-x="1024" 
d="M501 0q-55 -95 -106 -173t-107 -134t-121.5 -87t-150.5 -31q-33 0 -67.5 3.5t-64.5 10.5l31 134q17 -3 38.5 -5.5t38.5 -2.5q95 0 167.5 64t142.5 186l27 47l-217 1070h183l112 -598q6 -32 13 -74t13 -83.5t10.5 -77t5.5 -53.5q10 22 26 53.5t35.5 67t40 73t39.5 72.5
l338 620h199zM960 1221l-4 -20h-92l-186 169h-2l-265 -169h-116l4 20l286 270h204z" />
    <glyph glyph-name="Ydieresis" unicode="&#x178;" horiz-adv-x="1366" 
d="M785 584l-113 -584h-190l115 584l-384 825h196l306 -674l560 674h214zM951 1530l35 184h173l-35 -184h-173zM567 1530l35 184h175l-35 -184h-175z" />
    <glyph glyph-name="Zacute" unicode="&#x179;" horiz-adv-x="1251" 
d="M1082 0h-1122l27 143l1054 1110h-765l30 156h1002l-27 -139l-1054 -1114h885zM684 1530l3 20l261 226h207l-5 -29l-352 -217h-114z" />
    <glyph glyph-name="zacute" unicode="&#x17a;" horiz-adv-x="1024" 
d="M-44 0l27 137l797 806h-601l27 139h824l-27 -137l-799 -806h679l-27 -139h-900zM484 1201l3 20l253 287h217l-5 -29l-374 -278h-94z" />
    <glyph glyph-name="Zdotaccent" unicode="&#x17b;" horiz-adv-x="1251" 
d="M1082 0h-1122l27 143l1054 1110h-765l30 156h1002l-27 -139l-1054 -1114h885zM697 1530l34 172h180l-34 -172h-180z" />
    <glyph glyph-name="zdotaccent" unicode="&#x17c;" horiz-adv-x="1024" 
d="M-44 0l27 137l797 806h-601l27 139h824l-27 -137l-799 -806h679l-27 -139h-900zM551 1312l34 172h180l-34 -172h-180z" />
    <glyph glyph-name="Zcaron" unicode="&#x17d;" horiz-adv-x="1251" 
d="M1082 0h-1122l27 143l1054 1110h-765l30 156h1002l-27 -139l-1054 -1114h885zM899 1530h-204l-187 239l4 21h93l205 -139h2l246 139h116l-4 -21z" />
    <glyph glyph-name="zcaron" unicode="&#x17e;" horiz-adv-x="1024" 
d="M-55 0l27 137l797 806h-601l27 139h824l-27 -137l-799 -806h679l-27 -139h-900zM721 1201h-204l-181 270l4 20h97l199 -169h2l252 169h112l-4 -20z" />
    <glyph glyph-name="longs" unicode="&#x17f;" horiz-adv-x="455" 
d="M33 0l234 1204q11 59 29.5 110t52 89t87.5 59.5t136 21.5q31 0 62.5 -3t55.5 -9l-24 -137q-16 3 -41.5 5.5t-42.5 2.5q-36 0 -59 -11t-38.5 -32t-24.5 -51.5t-17 -69.5l-230 -1179h-180z" />
    <glyph glyph-name="florin" unicode="&#x192;" 
d="M1028 1312q-17 5 -48 10t-62 5t-54 -9.5t-39.5 -29.5t-28.5 -52t-21 -77l-26 -137h211l-25 -131h-213l-258 -1347h-180l258 1347h-152l27 131h151l29 152q12 59 32 110t55.5 89t90 59.5t135.5 21.5q32 0 73 -5t76 -15z" />
    <glyph glyph-name="Aringacute" unicode="&#x1fa;" horiz-adv-x="1366" 
d="M1061 0l-75 412h-639l-240 -412h-208l848 1409h217l292 -1409h-195zM871 1034q-8 41 -15.5 80t-12.5 71.5t-8.5 54t-4.5 25.5q-2 -4 -13.5 -26t-29.5 -54.5t-40 -72t-46 -79.5l-270 -472h527zM1098 1546q0 -50 -19 -94t-52 -77t-77 -52t-94 -19t-94 19t-77 52t-52 77
t-19 94t19 94t52 76.5t77 51.5t94 19t94 -19t77 -51.5t52 -76.5t19 -94zM990 1546q0 29 -10 53.5t-28 42.5t-42.5 28t-53.5 10q-28 0 -53 -10t-43 -28t-28.5 -42.5t-10.5 -53.5q0 -28 10.5 -53t28.5 -44t43 -29.5t53 -10.5q29 0 53.5 10.5t42.5 29.5t28 44t10 53zM792 1831
l3 20l261 226h207l-5 -29l-352 -217h-114z" />
    <glyph glyph-name="aringacute" unicode="&#x1fb;" 
d="M1055 6q-29 -7 -62.5 -11.5t-65.5 -4.5q-93 0 -135.5 38.5t-42.5 114.5q0 15 2 32.5t3 31.5h-6q-35 -53 -72.5 -95t-83 -71.5t-101.5 -45t-130 -15.5q-78 0 -136.5 25t-98.5 66.5t-60 95.5t-20 111q0 81 23.5 140t64 101t95 68.5t116 41.5t127.5 21t129 7l232 3l7 36
q5 25 8.5 48t3.5 43q0 91 -53 134.5t-147 43.5q-49 0 -91.5 -7.5t-76 -27t-59 -53t-41.5 -84.5l-178 29q19 62 52 113.5t87 88.5t131.5 57.5t185.5 20.5q89 0 158 -22t116 -61t71.5 -93t24.5 -119q0 -31 -5.5 -74.5t-13.5 -82.5l-74 -378q-5 -22 -8 -45t-3 -43
q0 -37 19.5 -55t61.5 -18q15 0 30.5 2t29.5 5zM809 536l-199 -4q-40 -1 -83 -4t-84.5 -12.5t-79 -25.5t-65.5 -43.5t-44.5 -66.5t-16.5 -94q0 -32 10.5 -62.5t32.5 -54t54.5 -38t76.5 -14.5q87 0 152 30t111 74t72.5 95.5t35.5 94.5zM961 1410q0 -50 -19 -94t-52 -77
t-77 -52t-94 -19t-94 19t-77 52t-52 77t-19 94t19 94t52 76.5t77 51.5t94 19t94 -19t77 -51.5t52 -76.5t19 -94zM853 1410q0 29 -10 53.5t-28 42.5t-42.5 28t-53.5 10q-28 0 -53 -10t-43 -28t-28.5 -42.5t-10.5 -53.5q0 -28 10.5 -53t28.5 -44t43 -29.5t53 -10.5
q29 0 53.5 10.5t42.5 29.5t28 44t10 53zM685 1711l3 20l261 226h207l-5 -29l-352 -217h-114z" />
    <glyph glyph-name="AEacute" unicode="&#x1fc;" horiz-adv-x="2048" 
d="M863 0l81 412h-543l-279 -412h-203l959 1409h1189l-30 -156h-739l-88 -452h679l-30 -154h-679l-95 -491h780l-31 -156h-971zM1109 1262h-151q-1 -3 -12 -20.5t-27 -42.5t-34 -54t-34.5 -54.5t-28.5 -44.5t-16 -24l-306 -461h473zM1264 1530l3 20l261 226h207l-5 -29
l-352 -217h-114z" />
    <glyph glyph-name="aeacute" unicode="&#x1fd;" horiz-adv-x="1821" 
d="M989 503q-5 -28 -6.5 -56.5t-2.5 -56.5q0 -133 61.5 -204t182.5 -71q51 0 93 14.5t76 39t59.5 57t43.5 68.5l138 -63q-24 -45 -58 -89.5t-84.5 -80.5t-121 -58.5t-168.5 -22.5q-151 0 -246 70t-130 198q-39 -56 -86.5 -105t-106.5 -85t-130 -57t-156 -21q-80 0 -139 25
t-98 66.5t-58.5 95.5t-19.5 111q0 81 24 140t65.5 101t97.5 68.5t119 41.5t130.5 21t132.5 7l238 3l7 36q5 25 8.5 48t3.5 43q0 91 -54.5 134.5t-153.5 43.5q-52 0 -96 -7.5t-79 -27t-61.5 -53t-43.5 -84.5l-178 29q20 62 54.5 113.5t90 88.5t136 57.5t192.5 20.5
q122 0 200 -43t125 -115q59 75 146 116.5t199 41.5q104 0 181 -29t128 -81t76.5 -124.5t25.5 -159.5q0 -21 -1.5 -46t-4.5 -52t-7 -54.5t-10 -52.5h-734zM814 534l-206 -4q-41 -1 -85.5 -4t-87.5 -12t-81.5 -25t-67.5 -43t-46 -66t-17 -94q0 -37 12 -68.5t34 -53.5
t53.5 -34.5t71.5 -12.5q89 0 159.5 31.5t121 79.5t81.5 106t41 111zM1563 641q2 20 3 37.5t1 34.5q0 66 -16.5 114.5t-46.5 80t-72.5 46.5t-93.5 15q-45 0 -93.5 -14.5t-93 -51.5t-81 -100.5t-57.5 -161.5h550zM893 1201l3 20l253 287h217l-5 -29l-374 -278h-94z" />
    <glyph glyph-name="Oslashacute" unicode="&#x1fe;" horiz-adv-x="1593" 
d="M1423 1205q51 -72 77 -161.5t26 -192.5q-1 -49 -5.5 -101.5t-14.5 -100.5q-30 -154 -101 -277.5t-175.5 -210.5t-239 -134t-291.5 -47q-130 0 -230.5 32t-174.5 92l-161 -157h-189l260 254q-52 75 -77.5 168.5t-25.5 203.5q0 46 4.5 94t14.5 97q30 150 100 273
t174.5 210.5t239.5 135t294 47.5q127 0 228 -33t176 -94l167 163h192zM919 1276q-131 0 -233 -37t-177.5 -107t-124.5 -171t-75 -229q-9 -43 -13 -86.5t-4 -82.5q0 -136 46 -231l870 850q-109 94 -289 94zM1335 847q0 133 -46 227l-870 -848q53 -46 125.5 -68.5t163.5 -22.5
q132 0 234.5 37.5t177.5 108t124.5 171t74.5 225.5q9 42 12.5 87t3.5 83zM855 1530l3 20l261 226h207l-5 -29l-352 -217h-114z" />
    <glyph glyph-name="oslashacute" unicode="&#x1ff;" horiz-adv-x="1251" 
d="M201 145q-37 53 -56.5 121t-19.5 153q1 47 5.5 97t16.5 104q29 126 80 216.5t121 149.5t158.5 87t193.5 28q162 0 267 -67l70 82h167l-146 -169q74 -103 74 -264q0 -52 -6 -104.5t-20 -111.5q-30 -132 -83.5 -224t-125.5 -149.5t-160 -83t-188 -25.5q-154 0 -258 71
l-80 -94h-167zM310 416q0 -73 15 -127l540 627q-32 27 -74 40t-93 13q-53 0 -106.5 -12.5t-102 -50.5t-88.5 -108t-67 -186q-13 -55 -18.5 -104.5t-5.5 -91.5zM946 683q0 66 -14 117l-540 -627q33 -29 75.5 -42t92.5 -13q54 0 106.5 11.5t99.5 48.5t86.5 107.5t66.5 187.5
q14 60 19.5 110t7.5 100zM609 1201l3 20l253 287h217l-5 -29l-374 -278h-94z" />
    <glyph glyph-name="Scommaaccent" unicode="&#x218;" horiz-adv-x="1366" 
d="M589 -204q-17 -87 -50.5 -145.5t-82.5 -105.5h-117q54 48 88 96t43 94h-88l32 167h195zM616 -20q-130 0 -227.5 23.5t-165.5 69t-108.5 112t-56.5 153.5l177 37q13 -62 41 -108t75 -76.5t116 -45.5t163 -15q98 0 176 13.5t132.5 45t83.5 82t29 125.5q0 51 -17 87
t-59 64.5t-113.5 54t-179.5 55.5q-88 24 -165.5 53.5t-135.5 73t-92 105.5t-34 152q0 105 47.5 178.5t127 120.5t182 68.5t212.5 21.5q121 0 211.5 -22t154 -61.5t101.5 -94.5t53 -120l-173 -51q-15 48 -42 86t-69 64.5t-100.5 40.5t-136.5 14q-104 0 -175.5 -17.5t-116 -49
t-64.5 -75t-20 -94.5q0 -54 20.5 -89.5t62.5 -60.5t106.5 -45.5t152.5 -44.5q87 -24 169.5 -53t146.5 -73.5t102.5 -110.5t38.5 -165q0 -206 -155 -317t-475 -111z" />
    <glyph glyph-name="scommaaccent" unicode="&#x219;" horiz-adv-x="1024" 
d="M429 -204q-17 -87 -50.5 -145.5t-82.5 -105.5h-117q54 48 88 96t43 94h-88l32 167h195zM907 317q0 -85 -34 -148.5t-96.5 -105.5t-151.5 -62.5t-200 -20.5q-93 0 -163 16t-120.5 46.5t-84 76t-52.5 104.5l147 56q15 -40 38.5 -71.5t58 -53t82 -32.5t110.5 -11
q64 0 117.5 10.5t92 33.5t60 59t21.5 87q0 40 -19 68.5t-53.5 50t-84 40t-110.5 37.5q-65 21 -123.5 46t-103 60t-71 82.5t-26.5 111.5q0 82 35.5 139.5t96 93.5t141 52.5t170.5 16.5q82 0 150 -14t119 -44.5t84 -79t45 -117.5l-163 -25q-22 79 -83 114t-164 35
q-53 0 -99.5 -8t-81.5 -26t-55.5 -47t-20.5 -70t19 -68.5t53.5 -48.5t83 -37.5t108.5 -35.5q57 -18 115.5 -42t105.5 -59.5t77 -86t30 -122.5z" />
    <glyph glyph-name="uni021A" unicode="&#x21a;" horiz-adv-x="1251" 
d="M589 -204q-17 -87 -50.5 -145.5t-82.5 -105.5h-117q54 48 88 96t43 94h-88l32 167h195zM858 1253l-244 -1253h-190l244 1253h-484l30 156h1158l-30 -156h-484z" />
    <glyph glyph-name="uni021B" unicode="&#x21b;" horiz-adv-x="569" 
d="M331 -204q-17 -87 -50.5 -145.5t-82.5 -105.5h-117q54 48 88 96t43 94h-88l32 167h195zM448 4q-37 -9 -81 -16.5t-92 -7.5q-85 0 -133.5 51t-48.5 135q0 32 5 68.5t10 61.5l126 655h-125l26 131h127l105 242h120l-47 -242h200l-26 -131h-200l-125 -645q-4 -20 -8 -49
t-4 -46q0 -42 21 -65t69 -23q26 0 48.5 3.5t51.5 10.5z" />
    <glyph glyph-name="circumflex" unicode="&#x2c6;" horiz-adv-x="682" 
d="M742 1221l-4 -20h-92l-186 169h-2l-265 -169h-116l4 20l286 270h204z" />
    <glyph glyph-name="caron" unicode="&#x2c7;" horiz-adv-x="682" 
d="M521 1201h-204l-181 270l4 20h97l199 -169h2l252 169h112l-4 -20z" />
    <glyph glyph-name="uni02C9" unicode="&#x2c9;" horiz-adv-x="682" 
d="M692 1236h-550l26 127h550z" />
    <glyph glyph-name="breve" unicode="&#x2d8;" horiz-adv-x="682" 
d="M426 1201q-74 0 -129 25.5t-92 68.5t-55.5 98.5t-19.5 116.5h116q3 -85 54.5 -124t134.5 -39q179 0 243 163h117q-21 -61 -53.5 -116.5t-78 -98.5t-104.5 -68.5t-133 -25.5z" />
    <glyph glyph-name="dotaccent" unicode="&#x2d9;" horiz-adv-x="682" 
d="M342 1312l34 172h180l-34 -172h-180z" />
    <glyph glyph-name="ring" unicode="&#x2da;" horiz-adv-x="682" 
d="M685 1410q0 -50 -19 -94t-52 -77t-77 -52t-94 -19t-94 19t-77 52t-52 77t-19 94t19 94t52 76.5t77 51.5t94 19t94 -19t77 -51.5t52 -76.5t19 -94zM577 1410q0 29 -10 53.5t-28 42.5t-42.5 28t-53.5 10q-28 0 -53 -10t-43 -28t-28.5 -42.5t-10.5 -53.5q0 -28 10.5 -53
t28.5 -44t43 -29.5t53 -10.5q29 0 53.5 10.5t42.5 29.5t28 44t10 53z" />
    <glyph glyph-name="ogonek" unicode="&#x2db;" horiz-adv-x="682" 
d="M249 -427q-88 0 -133 47t-45 121q0 52 20.5 95t51 75t66.5 54.5t67 34.5h133q-27 -14 -61 -36.5t-63 -52.5t-49 -67t-20 -80q0 -34 20 -57.5t58 -23.5q32 0 58 5.5t56 16.5l-15 -105q-30 -12 -65 -19.5t-79 -7.5z" />
    <glyph glyph-name="tilde" unicode="&#x2dc;" horiz-adv-x="682" 
d="M567 1201q-42 0 -80 18.5t-72.5 41t-66.5 41t-63 18.5q-55 0 -88.5 -31t-53.5 -88h-90q14 45 33 92.5t47.5 86.5t70 64t100.5 25q44 0 82 -18.5t72.5 -41t65.5 -41t61 -18.5q54 0 88 31.5t53 87.5h92q-14 -44 -32.5 -91.5t-47 -86.5t-70 -64.5t-101.5 -25.5z" />
    <glyph glyph-name="hungarumlaut" unicode="&#x2dd;" horiz-adv-x="682" 
d="M23 1201l3 20l252 287h207l-5 -29l-364 -278h-93zM369 1201l3 20l253 287h207l-5 -29l-364 -278h-94z" />
    <glyph glyph-name="tonos" unicode="&#x384;" horiz-adv-x="682" 
d="M233 1218l6 33l126 292h207l-7 -37l-257 -288h-75z" />
    <glyph glyph-name="dieresistonos" unicode="&#x385;" horiz-adv-x="682" 
d="M210 1200l7 33l140 368h187l-7 -37l-252 -364h-75zM-4 1231l33 172h150l-34 -172h-149zM467 1231l34 172h150l-34 -172h-150z" />
    <glyph glyph-name="Alphatonos" unicode="&#x386;" horiz-adv-x="1366" 
d="M1061 0l-75 412h-639l-240 -412h-208l848 1409h217l292 -1409h-195zM871 1034q-8 41 -15.5 80t-12.5 71.5t-8.5 54t-4.5 25.5q-2 -4 -13.5 -26t-29.5 -54.5t-40 -72t-46 -79.5l-270 -472h527zM144 1085l6 33l126 292h207l-7 -37l-257 -288h-75z" />
    <glyph glyph-name="anoteleia" unicode="&#x387;" horiz-adv-x="569" 
d="M165 446l43 220h195l-43 -220h-195z" />
    <glyph glyph-name="Epsilontonos" unicode="&#x388;" horiz-adv-x="1615" 
d="M312 0l273 1409h1049l-30 -156h-858l-88 -452h798l-30 -154h-798l-95 -491h899l-30 -156h-1090zM76 1085l6 33l126 292h207l-7 -37l-257 -288h-75z" />
    <glyph glyph-name="Etatonos" unicode="&#x389;" horiz-adv-x="1733" 
d="M1275 0l127 653h-767l-127 -653h-191l274 1409h191l-116 -596h767l116 596h186l-274 -1409h-186zM73 1085l6 33l126 292h207l-7 -37l-257 -288h-75z" />
    <glyph glyph-name="Iotatonos" unicode="&#x38a;" horiz-adv-x="796" 
d="M308 0l274 1409h191l-274 -1409h-191zM73 1085l6 33l126 292h207l-7 -37l-257 -288h-75z" />
    <glyph glyph-name="Omicrontonos" unicode="&#x38c;" horiz-adv-x="1626" 
d="M971 1430q144 0 255 -42.5t187.5 -119.5t116 -183t39.5 -234q-1 -49 -5.5 -101.5t-14.5 -100.5q-30 -154 -101 -277.5t-175.5 -210.5t-239 -134t-291.5 -47q-150 0 -262 43.5t-186.5 122t-112 187.5t-37.5 240q0 46 4.5 94t14.5 97q30 150 100 273t174.5 210.5t239.5 135
t294 47.5zM962 1276q-131 0 -233 -37t-177.5 -107t-124.5 -171t-75 -229q-9 -43 -13 -86.5t-4 -82.5q0 -107 28 -187.5t81.5 -134t131 -80t175.5 -26.5q132 0 234.5 37.5t177.5 108t124.5 171t74.5 225.5q9 42 12.5 87t3.5 83q0 107 -29 187.5t-83 134t-131 80.5t-173 27z
M-9 1085l6 33l126 292h207l-7 -37l-257 -288h-75z" />
    <glyph glyph-name="Upsilontonos" unicode="&#x38e;" horiz-adv-x="1772" 
d="M1191 584l-113 -584h-190l115 584l-384 825h196l306 -674l560 674h214zM198 1085l6 33l126 292h207l-7 -37l-257 -288h-75z" />
    <glyph glyph-name="Omegatonos" unicode="&#x38f;" horiz-adv-x="1587" 
d="M918 1430q137 0 247.5 -38t188.5 -109.5t120.5 -174.5t42.5 -232q0 -126 -33 -238t-103 -205.5t-177.5 -166.5t-257.5 -121q45 3 85 6q35 2 71 3.5t59 1.5h254l-30 -156h-589l43 224q131 42 224 106.5t152 146.5t86 177.5t27 200.5q0 103 -29.5 181.5t-84 132
t-131.5 80.5t-172 27q-103 0 -199 -35t-170 -106.5t-118 -179.5t-44 -254q0 -88 18 -159.5t52.5 -129.5t85.5 -104t116 -84l-45 -224h-547l30 156h203q23 0 63 -1.5t78 -3.5q45 -3 95 -6q-70 39 -132 95t-108 128t-73 160t-27 193q0 165 57 296.5t155.5 223t231.5 140.5
t285 49zM-1 1085l6 33l126 292h207l-7 -37l-257 -288h-75z" />
    <glyph glyph-name="iotadieresistonos" unicode="&#x390;" horiz-adv-x="455" 
d="M244 139q0 -38 12.5 -74t32.5 -65h-198q-14 20 -21 52.5t-7 72.5q0 27 3 55.5t8 55.5l165 846h180l-166 -855q-4 -20 -6.5 -45t-2.5 -43zM260 1200l7 33l140 368h187l-7 -37l-252 -364h-75zM46 1231l33 172h150l-34 -172h-149zM517 1231l34 172h150l-34 -172h-150z" />
    <glyph glyph-name="Alpha" unicode="&#x391;" horiz-adv-x="1366" 
d="M1061 0l-75 412h-639l-240 -412h-208l848 1409h217l292 -1409h-195zM871 1034q-8 41 -15.5 80t-12.5 71.5t-8.5 54t-4.5 25.5q-2 -4 -13.5 -26t-29.5 -54.5t-40 -72t-46 -79.5l-270 -472h527z" />
    <glyph glyph-name="Beta" unicode="&#x392;" horiz-adv-x="1366" 
d="M336 1409h510q104 0 187 -22t141.5 -63.5t90 -101.5t31.5 -135q0 -146 -86 -230.5t-253 -113.5q71 -12 125.5 -39.5t91 -67.5t55 -90t18.5 -107q0 -83 -23 -148t-64 -114t-96.5 -82.5t-121 -54.5t-138 -30.5t-146.5 -9.5h-595zM411 810h331q181 0 268 65t87 193
q0 95 -68.5 141.5t-199.5 46.5h-331zM283 153h368q78 0 151.5 12t129.5 44t90 88t34 145q0 107 -79.5 163t-228.5 56h-366z" />
    <glyph glyph-name="Gamma" unicode="&#x393;" horiz-adv-x="1168" 
d="M1241 1410l-30 -156h-713l-244 -1253h-191l274 1409h904z" />
    <glyph glyph-name="Delta" unicode="&#x394;" horiz-adv-x="1374" 
d="M-11 141l762 1268h217l264 -1268l-28 -141h-1244zM1042 156l-171 862q-8 41 -14.5 81t-11 73.5t-7 58t-2.5 34.5q-3 -7 -15 -32t-30 -60t-40 -76t-46 -81l-506 -860h843z" />
    <glyph glyph-name="Epsilon" unicode="&#x395;" horiz-adv-x="1366" 
d="M63 0l273 1409h1049l-30 -156h-858l-88 -452h798l-30 -154h-798l-95 -491h899l-30 -156h-1090z" />
    <glyph glyph-name="Zeta" unicode="&#x396;" horiz-adv-x="1251" 
d="M1082 0h-1122l27 143l1054 1110h-765l30 156h1002l-27 -139l-1054 -1114h885z" />
    <glyph glyph-name="Eta" unicode="&#x397;" horiz-adv-x="1479" 
d="M1021 0l127 653h-767l-127 -653h-191l274 1409h191l-116 -596h767l116 596h186l-274 -1409h-186z" />
    <glyph glyph-name="Theta" unicode="&#x398;" horiz-adv-x="1593" 
d="M541 794h587l-31 -160h-587zM928 1430q144 0 255 -42.5t187.5 -119.5t116 -183t39.5 -234q-1 -49 -5.5 -101.5t-14.5 -100.5q-30 -154 -101 -277.5t-175.5 -210.5t-239 -134t-291.5 -47q-150 0 -262 43.5t-186.5 122t-112 187.5t-37.5 240q0 46 4.5 94t14.5 97
q30 150 100 273t174.5 210.5t239.5 135t294 47.5zM919 1276q-131 0 -233 -37t-177.5 -107t-124.5 -171t-75 -229q-9 -43 -13 -86.5t-4 -82.5q0 -107 28 -187.5t81.5 -134t131 -80t175.5 -26.5q132 0 234.5 37.5t177.5 108t124.5 171t74.5 225.5q9 42 12.5 87t3.5 83
q0 107 -29 187.5t-83 134t-131 80.5t-173 27z" />
    <glyph glyph-name="Iota" unicode="&#x399;" horiz-adv-x="569" 
d="M81 0l274 1409h191l-274 -1409h-191z" />
    <glyph glyph-name="Kappa" unicode="&#x39a;" horiz-adv-x="1366" 
d="M1022 0l-472 674l-190 -129l-106 -545h-191l273 1409h191l-136 -691l140 129l665 562h245l-750 -630l557 -779h-226z" />
    <glyph glyph-name="Lambda" unicode="&#x39b;" horiz-adv-x="1366" 
d="M1253 1h-195l-195 992q-9 47 -15 91.5t-11 79.5q-5 41 -9 78q-19 -39 -41 -81q-19 -36 -42.5 -80t-49.5 -88l-583 -992h-206l848 1409h198z" />
    <glyph glyph-name="Mu" unicode="&#x39c;" horiz-adv-x="1706" 
d="M1261 0l180 928q10 51 21 104t21 97q11 51 23 99q-25 -52 -51 -103q-22 -44 -47 -92t-47 -85l-548 -948h-124l-185 948q-6 30 -13 77.5t-13 92.5q-7 53 -15 110q-8 -56 -17 -111q-8 -47 -16.5 -98t-16.5 -91l-180 -928h-170l273 1409h236l189 -977q3 -15 8.5 -48.5
t10.5 -68.5q6 -40 13 -88q21 44 40 84q17 35 34.5 70.5t29.5 58.5l553 969h256l-273 -1409h-172z" />
    <glyph glyph-name="Nu" unicode="&#x39d;" horiz-adv-x="1479" 
d="M987 0l-531 1210q-6 -46 -13 -94q-6 -41 -13.5 -87.5t-15.5 -85.5l-181 -943h-170l273 1409h212l534 -1215q6 43 13 91q6 41 14 91.5t18 101.5l181 931h172l-273 -1409h-220z" />
    <glyph glyph-name="Xi" unicode="&#x39e;" horiz-adv-x="1328" 
d="M294 1409h1081l-30 -156h-1081zM1167 156l-31 -156h-1150l31 156h1150zM1137 801l-30 -154h-841l30 154h841z" />
    <glyph glyph-name="Omicron" unicode="&#x39f;" horiz-adv-x="1593" 
d="M938 1430q144 0 255 -42.5t187.5 -119.5t116 -183t39.5 -234q-1 -49 -5.5 -101.5t-14.5 -100.5q-30 -154 -101 -277.5t-175.5 -210.5t-239 -134t-291.5 -47q-150 0 -262 43.5t-186.5 122t-112 187.5t-37.5 240q0 46 4.5 94t14.5 97q30 150 100 273t174.5 210.5t239.5 135
t294 47.5zM929 1276q-131 0 -233 -37t-177.5 -107t-124.5 -171t-75 -229q-9 -43 -13 -86.5t-4 -82.5q0 -107 28 -187.5t81.5 -134t131 -80t175.5 -26.5q132 0 234.5 37.5t177.5 108t124.5 171t74.5 225.5q9 42 12.5 87t3.5 83q0 107 -29 187.5t-83 134t-131 80.5t-173 27z
" />
    <glyph glyph-name="Pi" unicode="&#x3a0;" horiz-adv-x="1484" 
d="M1021 0l243 1248h-767l-243 -1248h-191l274 1409h1149l-274 -1409h-191z" />
    <glyph glyph-name="Rho" unicode="&#x3a1;" horiz-adv-x="1366" 
d="M852 1409q116 0 208.5 -27t157.5 -77t100 -122.5t35 -162.5q0 -110 -39.5 -197.5t-113 -148t-179 -93t-237.5 -32.5h-424l-106 -549h-191l273 1409h516zM390 700h387q192 0 287 78t95 233q0 65 -22.5 111t-63.5 76t-98.5 44t-127.5 14h-349z" />
    <glyph glyph-name="Sigma" unicode="&#x3a3;" horiz-adv-x="1228" 
d="M-6 0l33 171l651 581l-423 505l29 152h999l-30 -156h-790l384 -457l-24 -115l-589 -525h867l-31 -156h-1076z" />
    <glyph glyph-name="Tau" unicode="&#x3a4;" horiz-adv-x="1251" 
d="M858 1253l-244 -1253h-190l244 1253h-484l30 156h1158l-30 -156h-484z" />
    <glyph glyph-name="Upsilon" unicode="&#x3a5;" horiz-adv-x="1366" 
d="M785 584l-113 -584h-190l115 584l-384 825h196l306 -674l560 674h214z" />
    <glyph glyph-name="Phi" unicode="&#x3a6;" horiz-adv-x="1714" 
d="M640 216q-117 0 -211.5 32.5t-162 93.5t-104 148t-36.5 196q0 129 43 231t122 173t189.5 109t245.5 38h161l35 182h183l-33 -182h49q117 0 211.5 -32.5t162 -93t104 -147.5t36.5 -196q0 -129 -43.5 -231t-122 -173.5t-189.5 -109.5t-246 -38h-160l-46 -227h-183l44 227
h-49zM901 358h124q99 0 176 25.5t130.5 76t81.5 125.5t28 174q0 88 -26 151.5t-71 104t-104.5 60t-126.5 19.5h-69zM859 1094h-124q-99 0 -176 -25.5t-130 -75.5t-81 -124.5t-28 -173.5q0 -89 26 -152.5t71 -104.5t104 -60.5t125 -19.5h70z" />
    <glyph glyph-name="Chi" unicode="&#x3a7;" horiz-adv-x="1366" 
d="M999 0l-303 606l-524 -606h-211l654 746l-340 663h199l270 -551l475 551h211l-600 -676l368 -733h-199z" />
    <glyph glyph-name="Psi" unicode="&#x3a8;" horiz-adv-x="1701" 
d="M653 0l83 427h-51q-229 0 -353 102t-124 297q0 14 1 31.5t2.5 34t3.5 31t4 23.5l90 463h191l-90 -467q-2 -12 -5 -28.5t-5.5 -34t-4 -34.5t-1.5 -31q0 -67 23 -113.5t64 -76t99 -43t128 -13.5h56l163 841h185l-163 -841l79 -2q110 -3 183 22.5t120 74t74 119.5t44 160
l90 467h191l-98 -507q-21 -108 -64 -195.5t-115.5 -149.5t-177.5 -96t-249 -34h-105l-83 -427h-185z" />
    <glyph glyph-name="Omega" unicode="&#x3a9;" horiz-adv-x="1558" 
d="M889 1430q137 0 247.5 -38t188.5 -109.5t120.5 -174.5t42.5 -232q0 -126 -33 -238t-103 -205.5t-177.5 -166.5t-257.5 -121q45 3 85 6q35 2 71 3.5t59 1.5h254l-30 -156h-589l43 224q131 42 224 106.5t152 146.5t86 177.5t27 200.5q0 103 -29.5 181.5t-84 132
t-131.5 80.5t-172 27q-103 0 -199 -35t-170 -106.5t-118 -179.5t-44 -254q0 -88 18 -159.5t52.5 -129.5t85.5 -104t116 -84l-45 -224h-547l30 156h203q23 0 63 -1.5t78 -3.5q45 -3 95 -6q-70 39 -132 95t-108 128t-73 160t-27 193q0 165 57 296.5t155.5 223t231.5 140.5
t285 49z" />
    <glyph glyph-name="Iotadieresis" unicode="&#x3aa;" horiz-adv-x="569" 
d="M81 0l274 1409h191l-274 -1409h-191zM578 1530l35 184h173l-35 -184h-173zM194 1530l35 184h175l-35 -184h-175z" />
    <glyph glyph-name="Upsilondieresis" unicode="&#x3ab;" horiz-adv-x="1366" 
d="M785 584l-113 -584h-190l115 584l-384 825h196l306 -674l560 674h214zM951 1530l35 184h173l-35 -184h-173zM567 1530l35 184h175l-35 -184h-175z" />
    <glyph glyph-name="alphatonos" unicode="&#x3ac;" horiz-adv-x="1168" 
d="M595 1101q70 0 124.5 -18t94.5 -50t65 -76.5t35 -98.5h2q7 21 18.5 47t26 55.5t31.5 60.5t36 61h188q-21 -31 -45 -75.5t-48.5 -95.5t-48.5 -105.5t-45.5 -107t-39 -100t-28.5 -84.5q0 -101 2 -176t5.5 -134.5t8.5 -108t12 -95.5h-177q-5 25 -8.5 57t-5.5 65t-3 63.5
t-1 51.5v16h-4q-33 -56 -70 -105.5t-83 -87t-102.5 -59.5t-128.5 -22q-81 0 -143.5 27t-105.5 78t-65 124.5t-22 166.5q0 46 5.5 103t16.5 111q27 142 74.5 240t112 158.5t145 87t171.5 26.5zM601 969q-58 0 -107 -20t-89.5 -67.5t-72 -125t-52.5 -192.5q-21 -114 -21 -198
q0 -247 187 -247q52 0 104.5 28t102 83t93.5 137t78 190q1 20 1.5 38.5t0.5 36.5q0 73 -12.5 135t-40 107t-70 70t-102.5 25zM589 1218l6 33l126 292h207l-7 -37l-257 -288h-75z" />
    <glyph glyph-name="epsilontonos" unicode="&#x3ad;" horiz-adv-x="900" 
d="M401 116q106 0 186.5 40t150.5 108l88 -105q-43 -43 -88.5 -76t-97.5 -56t-113.5 -35t-137.5 -12q-84 0 -150 21.5t-111.5 61t-69.5 94.5t-24 121q0 63 23.5 115t66 91t101.5 63.5t130 31.5l1 2q-39 11 -73 30.5t-60 48t-41 65.5t-15 81q0 73 28.5 128.5t80.5 92.5
t125.5 55.5t163.5 18.5q62 0 115.5 -9t98 -29t81 -53t64.5 -80l-135 -84q-41 63 -96.5 91t-130.5 28q-43 0 -82 -10t-68 -31t-46.5 -53t-17.5 -75q0 -45 25.5 -76t69.5 -49.5t104 -26.5t129 -8l-27 -141q-52 0 -104 -1.5t-99.5 -7.5t-89 -19.5t-71.5 -37t-47.5 -60
t-17.5 -88.5q0 -36 13 -66.5t37 -52t57.5 -34t73.5 -12.5zM507 1218l6 33l126 292h207l-7 -37l-257 -288h-75z" />
    <glyph glyph-name="etatonos" unicode="&#x3ae;" horiz-adv-x="1137" 
d="M634 -425l209 1070q8 39 13 79.5t5 70.5q0 79 -42 123t-137 44q-64 0 -120.5 -25.5t-102.5 -72t-78.5 -112t-48.5 -146.5l-118 -606h-180l155 789q5 23 8.5 46t6 44t4 38t1.5 27q0 11 -1 29.5t-2 38t-2.5 38.5t-3.5 32h166q3 -12 6 -34t5 -48.5t3 -53.5t1 -49h3
q34 47 70 85t79.5 64.5t96 40.5t119.5 14q148 0 222.5 -73t74.5 -211q0 -36 -6.5 -81t-14.5 -83l-210 -1078h-181zM640 1218l6 33l126 292h207l-7 -37l-257 -288h-75z" />
    <glyph glyph-name="iotatonos" unicode="&#x3af;" horiz-adv-x="455" 
d="M244 139q0 -38 12.5 -74t32.5 -65h-198q-14 20 -21 52.5t-7 72.5q0 27 3 55.5t8 55.5l165 846h180l-166 -855q-4 -20 -6.5 -45t-2.5 -43zM285 1218l6 33l126 292h207l-7 -37l-257 -288h-75z" />
    <glyph glyph-name="upsilondieresistonos" unicode="&#x3b0;" horiz-adv-x="1126" 
d="M416 1082l-121 -621q-14 -73 -14 -129q0 -101 49.5 -157t155.5 -56q73 0 129 27.5t97 75t69.5 112.5t45.5 140t24.5 157t7.5 164q0 87 -11.5 163t-22.5 124h188q13 -50 23 -122.5t10 -160.5q0 -103 -14.5 -204t-44.5 -192t-76.5 -168.5t-110.5 -134t-146.5 -88.5
t-184.5 -32q-80 0 -147 22t-115.5 66t-75.5 112t-27 159q0 35 4 72.5t12 79.5l115 591h181zM572 1200l7 33l140 368h187l-7 -37l-252 -364h-75zM358 1231l33 172h150l-34 -172h-149zM829 1231l34 172h150l-34 -172h-150z" />
    <glyph glyph-name="alpha" unicode="&#x3b1;" horiz-adv-x="1168" 
d="M595 1101q70 0 124.5 -18t94.5 -50t65 -76.5t35 -98.5h2q7 21 18.5 47t26 55.5t31.5 60.5t36 61h188q-21 -31 -45 -75.5t-48.5 -95.5t-48.5 -105.5t-45.5 -107t-39 -100t-28.5 -84.5q0 -101 2 -176t5.5 -134.5t8.5 -108t12 -95.5h-177q-5 25 -8.5 57t-5.5 65t-3 63.5
t-1 51.5v16h-4q-33 -56 -70 -105.5t-83 -87t-102.5 -59.5t-128.5 -22q-81 0 -143.5 27t-105.5 78t-65 124.5t-22 166.5q0 46 5.5 103t16.5 111q27 142 74.5 240t112 158.5t145 87t171.5 26.5zM601 969q-58 0 -107 -20t-89.5 -67.5t-72 -125t-52.5 -192.5q-21 -114 -21 -198
q0 -247 187 -247q52 0 104.5 28t102 83t93.5 137t78 190q1 20 1.5 38.5t0.5 36.5q0 73 -12.5 135t-40 107t-70 70t-102.5 25z" />
    <glyph glyph-name="beta" unicode="&#x3b2;" horiz-adv-x="1170" 
d="M229 1011q45 230 174 351.5t349 121.5q84 0 152 -23t116 -66t74 -102.5t26 -133.5q0 -83 -25.5 -148t-67 -112t-95.5 -76t-111 -41q54 -13 100 -41t80.5 -69t54 -94t19.5 -117q0 -107 -35.5 -195.5t-103 -152t-165 -98.5t-222.5 -35q-102 0 -185 28t-138 66h-6
q-9 -57 -15.5 -103t-17.5 -99l-58 -297h-179zM734 1343q-125 0 -208.5 -82t-116.5 -252l-158 -804q24 -16 58 -32t73.5 -29.5t83 -22t86.5 -8.5q77 0 141 20.5t110 62t72 104.5t26 147q0 55 -19 102t-55 81t-89.5 53.5t-122.5 19.5l28 142q72 10 128 32.5t94.5 59.5t58.5 90
t20 123q0 43 -13 78.5t-39 61t-65.5 39.5t-92.5 14z" />
    <glyph glyph-name="gamma" unicode="&#x3b3;" horiz-adv-x="1024" 
d="M300 1082l114 -675q4 -23 8 -56t7.5 -67t5.5 -65t2 -49q9 21 23 50.5t30.5 62t33.5 64.5t32 58l371 677h194l-590 -1029q-25 -45 -52 -100.5t-52.5 -117.5t-49.5 -128t-44 -131h-191q42 131 87 237.5t87 197.5l-205 1071h189z" />
    <glyph glyph-name="delta" unicode="&#x3b4;" horiz-adv-x="1138" 
d="M511 113q89 0 155.5 33t111.5 90.5t67.5 135.5t22.5 168q0 65 -11 120t-30 102.5t-45 88.5t-55 78q-47 -15 -100 -36.5t-105 -51.5t-99.5 -70.5t-84 -95.5t-58.5 -125.5t-22 -160.5q0 -68 19 -120t53 -86.5t80 -52t101 -17.5zM759 1352q-13 0 -33.5 1t-43 2.5t-43 2.5
t-32.5 2l253 -324q44 -56 80.5 -112t62.5 -116t41 -124.5t15 -136.5q0 -128 -41 -232.5t-115 -179t-176.5 -115t-225.5 -40.5q-103 0 -183.5 30t-136 85t-85 131.5t-29.5 169.5q0 140 48.5 244t129.5 179.5t187 125.5t221 81l-253 339l23 119h733l-26 -132h-371z" />
    <glyph glyph-name="epsilon" unicode="&#x3b5;" horiz-adv-x="900" 
d="M401 116q106 0 186.5 40t150.5 108l88 -105q-43 -43 -88.5 -76t-97.5 -56t-113.5 -35t-137.5 -12q-84 0 -150 21.5t-111.5 61t-69.5 94.5t-24 121q0 63 23.5 115t66 91t101.5 63.5t130 31.5l1 2q-39 11 -73 30.5t-60 48t-41 65.5t-15 81q0 73 28.5 128.5t80.5 92.5
t125.5 55.5t163.5 18.5q62 0 115.5 -9t98 -29t81 -53t64.5 -80l-135 -84q-41 63 -96.5 91t-130.5 28q-43 0 -82 -10t-68 -31t-46.5 -53t-17.5 -75q0 -45 25.5 -76t69.5 -49.5t104 -26.5t129 -8l-27 -141q-52 0 -104 -1.5t-99.5 -7.5t-89 -19.5t-71.5 -37t-47.5 -60
t-17.5 -88.5q0 -36 13 -66.5t37 -52t57.5 -34t73.5 -12.5z" />
    <glyph glyph-name="zeta" unicode="&#x3b6;" horiz-adv-x="949" 
d="M1033 1484l-25 -127q-76 -73 -162 -153.5t-170 -166t-161 -174.5t-135.5 -178.5t-93.5 -178.5t-35 -174q0 -43 15.5 -72.5t46 -51.5t76 -38t105.5 -33q57 -16 105.5 -33.5t84.5 -42.5t56.5 -60t20.5 -86q0 -43 -13.5 -81.5t-34 -74t-46 -66.5t-49.5 -59l-102 72
q12 14 26.5 31.5t26.5 38t20 42t8 42.5q0 27 -15 46.5t-44.5 35.5t-73 29.5t-99.5 27.5q-63 16 -118 38.5t-96.5 57t-65.5 83.5t-24 116q0 93 35 188t94.5 188.5t137.5 185t164.5 178t175.5 167t169 152.5l1 6q-12 -1 -36 -2t-51 -2t-51.5 -1.5t-35.5 -0.5h-299l26 131h642z
" />
    <glyph glyph-name="eta" unicode="&#x3b7;" horiz-adv-x="1137" 
d="M634 -425l209 1070q8 39 13 79.5t5 70.5q0 79 -42 123t-137 44q-64 0 -120.5 -25.5t-102.5 -72t-78.5 -112t-48.5 -146.5l-118 -606h-180l155 789q5 23 8.5 46t6 44t4 38t1.5 27q0 11 -1 29.5t-2 38t-2.5 38.5t-3.5 32h166q3 -12 6 -34t5 -48.5t3 -53.5t1 -49h3
q34 47 70 85t79.5 64.5t96 40.5t119.5 14q148 0 222.5 -73t74.5 -211q0 -36 -6.5 -81t-14.5 -83l-210 -1078h-181z" />
    <glyph glyph-name="theta" unicode="&#x3b8;" horiz-adv-x="1111" 
d="M728 1484q185 0 275 -116.5t90 -339.5q0 -64 -9 -146t-26 -173q-37 -190 -92.5 -328t-129.5 -227t-168 -131.5t-208 -42.5q-82 0 -148 29.5t-113 89.5t-72.5 149.5t-25.5 209.5q0 58 7 131.5t23 153.5q73 374 219 557.5t378 183.5zM467 113q62 0 118 26t106 90t93 172
t78 272h-559q-14 -81 -20 -147t-6 -120q0 -83 14 -139.5t39.5 -90.5t60.5 -48.5t76 -14.5zM720 1355q-61 0 -117 -25.5t-105 -88.5t-91 -169.5t-77 -267.5h560q14 82 20.5 149t6.5 121q0 80 -14 134t-39.5 86.5t-62 46.5t-81.5 14z" />
    <glyph glyph-name="iota" unicode="&#x3b9;" horiz-adv-x="455" 
d="M244 139q0 -38 12.5 -74t32.5 -65h-198q-14 20 -21 52.5t-7 72.5q0 27 3 55.5t8 55.5l165 846h180l-166 -855q-4 -20 -6.5 -45t-2.5 -43z" />
    <glyph glyph-name="kappa" unicode="&#x3ba;" horiz-adv-x="1024" 
d="M721 0l-268 502l-168 -124l-72 -378h-179l210 1082h180l-101 -515l204 190l361 325h222l-530 -465l336 -617h-195z" />
    <glyph glyph-name="lambda" unicode="&#x3bb;" horiz-adv-x="1008" 
d="M556 981l-17 99q-12 74 -24 123.5t-28 80t-40 43.5t-60 13q-19 0 -40 -4t-29 -6l-24 130q14 5 32.5 9t39 7.5t40.5 5.5t36 2q54 0 93 -18t68.5 -58.5t50.5 -106t39 -160.5l206 -1141h-180l-124 766l-491 -766h-197z" />
    <glyph glyph-name="mu" unicode="&#x3bc;" horiz-adv-x="1122" 
d="M716 0q1 6 4 29t6.5 52.5t8 59.5t8.5 49h-4q-28 -50 -56.5 -89t-62.5 -66t-74 -41t-90 -14q-39 0 -75 8t-65 24t-50 38.5t-32 51.5h-4q-3 -32 -8.5 -63.5t-10.5 -58.5l-73 -373h-181l286 1475h182l-125 -644q-12 -61 -12 -115q0 -46 10.5 -83t34.5 -63.5t62 -41t92 -14.5
q60 0 109.5 26t88 71.5t64.5 108.5t39 138l120 617h181l-165 -849q-7 -34 -13.5 -72t-12.5 -71.5t-9.5 -58l-4.5 -31.5h-168z" />
    <glyph glyph-name="nu" unicode="&#x3bd;" horiz-adv-x="1024" 
d="M417 166q98 112 174.5 209.5t129.5 191t81 190t28 205.5q0 35 -4 64.5t-10 55.5h177q18 -51 18 -119q0 -125 -49 -249.5t-128.5 -246t-180 -239t-204.5 -228.5h-168l-182 1082h188z" />
    <glyph glyph-name="xi" unicode="&#x3be;" horiz-adv-x="915" 
d="M968 1359q-54 -6 -109 -15t-105.5 -23t-94.5 -34t-77 -48t-51.5 -66t-18.5 -88q0 -58 26.5 -95.5t71 -60.5t102 -34.5t119.5 -17.5l-25 -131q-65 -8 -131.5 -23.5t-129 -39t-117 -56.5t-95.5 -76.5t-64.5 -97.5t-23.5 -121q0 -43 15.5 -72.5t46 -51.5t76 -38t105.5 -33
q57 -16 105.5 -33.5t84.5 -42.5t56.5 -60t20.5 -86q0 -43 -13.5 -81.5t-34 -74t-46 -66.5t-49.5 -59l-102 72q12 14 26.5 31.5t26.5 38t20 42t8 42.5q0 27 -15 46.5t-44.5 35.5t-73 29.5t-99.5 27.5q-63 16 -118 39.5t-96.5 59.5t-65.5 88t-24 124q0 92 38 174.5
t109.5 148.5t173.5 112t230 65v5q-54 9 -104 30t-88 54t-61 76.5t-23 97.5q0 70 33.5 118.5t84 81t109.5 51.5t110 29l1 8q-8 0 -27 -1t-44 -2t-53.5 -2t-55 -1.5t-48.5 -1t-34 -0.5h-74l26 131h634z" />
    <glyph glyph-name="omicron" unicode="&#x3bf;" 
d="M1074 683q0 -52 -6 -104.5t-20 -111.5q-30 -132 -83.5 -225t-125.5 -151t-160 -84.5t-188 -26.5q-96 0 -174 29.5t-133.5 86t-86 138t-30.5 185.5q1 47 5.5 97t16.5 104q29 126 80 216.5t121 149.5t158.5 87t193.5 28q106 0 186.5 -28t135 -82t82.5 -131.5t28 -176.5z
M888 683q0 77 -17 131t-49.5 88.5t-78.5 50.5t-103 16q-53 0 -106.5 -12.5t-102 -50.5t-88.5 -108t-67 -186q-13 -55 -18.5 -104.5t-5.5 -91.5q0 -82 19 -140t52.5 -94t79 -52.5t99.5 -16.5t106.5 12t99.5 50.5t86.5 109.5t66.5 188q14 60 19.5 110t7.5 100z" />
    <glyph glyph-name="pi" unicode="&#x3c0;" horiz-adv-x="1372" 
d="M1011 266q-3 -15 -5 -32.5t-2 -30.5q0 -48 21.5 -65t50.5 -17q22 0 46.5 4.5t48.5 10.5l-15 -134q-34 -9 -72.5 -15.5t-81.5 -6.5q-94 0 -137 51.5t-43 141.5q0 23 3.5 52t6.5 46l131 680h-402l-14 -72q-25 -130 -57.5 -256t-68 -240t-72.5 -211.5t-70 -171.5h-188
q34 76 72.5 174.5t76.5 211.5t72 236.5t58 248.5q1 2 3 14.5t5 27.5q4 18 7 38q-39 0 -79 -3t-75.5 -8.5t-63 -12t-41.5 -13.5l27 139q14 6 36.5 11.5t48.5 9.5t53.5 6t50.5 2h1061l-26 -131h-234z" />
    <glyph glyph-name="rho" unicode="&#x3c1;" horiz-adv-x="1173" 
d="M680 1102q98 0 177.5 -31.5t135.5 -89.5t86.5 -141t30.5 -187q0 -36 -4 -77t-12 -83q-23 -118 -72 -213t-119 -161.5t-157.5 -102.5t-187.5 -36q-59 0 -107 11t-87.5 30.5t-70.5 45.5t-57 56h-4q-4 -30 -8.5 -60.5t-10.5 -62.5l-83 -425h-180l195 1006q23 120 66 216.5
t108.5 164t155 104t205.5 36.5zM664 969q-75 0 -130.5 -28t-96 -79.5t-68 -124t-44.5 -160.5l-62 -317q21 -27 52.5 -53.5t69 -47t79.5 -33.5t86 -13q71 0 128.5 27t101 78t74 124.5t48.5 165.5q16 79 16 150q0 152 -67.5 231.5t-186.5 79.5z" />
    <glyph glyph-name="sigma1" unicode="&#x3c2;" horiz-adv-x="996" 
d="M67 330q0 74 16.5 160t49.5 171.5t83 165.5t118 141t153.5 97.5t188.5 36.5q62 0 109.5 -10t85 -28.5t66.5 -44t53 -56.5l-136 -108q-34 45 -81.5 75.5t-110.5 30.5q-61 0 -114.5 -27t-98.5 -73t-80.5 -107t-60 -129.5t-37.5 -140.5t-13 -140q0 -46 15.5 -78t45.5 -55
t75.5 -40t105.5 -34q57 -16 105.5 -33.5t84.5 -42.5t56.5 -60t20.5 -86q0 -43 -13.5 -81.5t-34 -74t-46 -66.5t-49.5 -59l-102 72q12 14 26.5 31.5t26.5 38t20 42t8 42.5q0 27 -15 46.5t-44.5 35.5t-73 29.5t-99.5 27.5q-63 16 -118 40t-96.5 62.5t-65.5 94.5t-24 134z" />
    <glyph glyph-name="sigma" unicode="&#x3c3;" horiz-adv-x="1235" 
d="M490 -20q-104 0 -183 31t-132 87t-80 136t-27 177q0 36 3.5 78t11.5 82q28 144 91.5 242t152 157.5t196 85.5t224.5 26h552l-26 -131h-145q-9 0 -26.5 0.5t-38.5 1.5t-42.5 2t-38.5 2l-1 -4q29 -61 52.5 -142.5t23.5 -178.5q0 -134 -34.5 -253t-104.5 -207.5t-176.5 -140
t-251.5 -51.5zM500 113q105 0 176 42t114.5 117t62.5 179.5t19 229.5q0 81 -11.5 148.5t-27.5 121.5h-83q-82 0 -159 -20t-141 -66.5t-110.5 -121.5t-67.5 -185q-8 -41 -12 -77.5t-4 -71.5q0 -139 63 -217.5t181 -78.5z" />
    <glyph glyph-name="tau" unicode="&#x3c4;" horiz-adv-x="766" 
d="M334 951q-39 0 -79 -3t-75.5 -8.5t-63 -12t-41.5 -13.5l27 139q14 6 36.5 11.5t48.5 9.5t53.5 6t50.5 2h580l-26 -131h-304l-133 -685q-3 -15 -5 -32.5t-2 -30.5q0 -48 21.5 -65t50.5 -17q22 0 46.5 4.5t48.5 10.5l-15 -134q-34 -9 -72.5 -15.5t-81.5 -6.5
q-94 0 -137 51.5t-43 141.5q0 23 3 51.5t7 46.5l132 680h-27z" />
    <glyph glyph-name="upsilon" unicode="&#x3c5;" horiz-adv-x="1126" 
d="M416 1082l-121 -621q-14 -73 -14 -129q0 -101 49.5 -157t155.5 -56q73 0 129 27.5t97 75t69.5 112.5t45.5 140t24.5 157t7.5 164q0 87 -11.5 163t-22.5 124h188q13 -50 23 -122.5t10 -160.5q0 -103 -14.5 -204t-44.5 -192t-76.5 -168.5t-110.5 -134t-146.5 -88.5
t-184.5 -32q-80 0 -147 22t-115.5 66t-75.5 112t-27 159q0 35 4 72.5t12 79.5l115 591h181z" />
    <glyph glyph-name="phi" unicode="&#x3c6;" horiz-adv-x="1336" 
d="M977 1104q67 0 121 -24t92.5 -71.5t59 -117.5t20.5 -162q0 -43 -5 -96t-15 -104q-29 -151 -85.5 -254t-135 -167t-178 -93.5t-214.5 -32.5l-79 -407h-170l79 407q-94 4 -167.5 37t-124.5 91.5t-77.5 140.5t-26.5 183q0 136 36 251t102.5 202.5t162 144t214.5 74.5
l28 -133q-138 -32 -221.5 -126.5t-115.5 -258.5q-18 -90 -18 -165q0 -138 58.5 -217.5t176.5 -86.5l112 580q19 96 47.5 171.5t72 127.5t105 79t146.5 27zM967 971q-34 0 -63 -14.5t-52.5 -46.5t-42 -83t-32.5 -125l-113 -583q78 2 141.5 25t113 72.5t85.5 128t58 190.5
q13 66 19 122t6 101q0 110 -32 161.5t-88 51.5z" />
    <glyph glyph-name="chi" unicode="&#x3c7;" horiz-adv-x="1118" 
d="M520 239l-472 -663h-197l609 825l-103 343q-16 54 -30 95t-29 68.5t-33 41.5t-43 14q-11 0 -27.5 -4.5t-24.5 -7.5l-34 124q14 5 31.5 10.5t36.5 9.5t38 6.5t35 2.5q48 0 80 -13.5t56 -44.5t43.5 -82t41.5 -126l85 -295l369 539h193l-504 -697l259 -809h-180z" />
    <glyph glyph-name="psi" unicode="&#x3c8;" horiz-adv-x="1490" 
d="M744 119q92 1 157.5 16.5t111 52t74 97t46.5 151.5l126 646h182l-125 -644q-24 -122 -67 -208t-113.5 -141t-173 -81.5t-245.5 -27.5l-79 -405h-170l79 405q-111 1 -192 24.5t-133.5 67.5t-78 108t-25.5 146q0 32 4 68t12 76l118 612h181l-122 -627q-7 -35 -11.5 -67
t-4.5 -59q0 -113 68.5 -160.5t210.5 -49.5l237 1221h170z" />
    <glyph glyph-name="omega" unicode="&#x3c9;" horiz-adv-x="1595" 
d="M870 449q-5 -29 -8 -55.5t-3 -51.5q0 -49 10.5 -90t31 -70.5t51 -46t70.5 -16.5q65 0 114 26t85.5 75.5t61.5 120.5t42 161q17 85 17 155q0 116 -44.5 195.5t-138.5 111.5l50 139q85 -15 146 -58t100 -105.5t57 -139t18 -158.5q0 -79 -15 -156q-25 -128 -70 -223
t-107 -158t-140.5 -94t-169.5 -31q-66 0 -113.5 18.5t-80.5 53t-52 84t-27 110.5h-4q-26 -62 -59.5 -111.5t-77 -84t-97.5 -52.5t-122 -18q-78 0 -139 28.5t-103 81t-64 127.5t-22 169q0 79 13 159t40.5 154.5t70 141.5t102 120.5t136.5 90.5t173 51l11 -139
q-140 -30 -223.5 -137.5t-118.5 -284.5q-9 -48 -14 -91.5t-5 -84.5q0 -55 10 -100.5t31.5 -78t55.5 -50.5t81 -18q103 0 173.5 87t100.5 243l49 252h166z" />
    <glyph glyph-name="iotadieresis" unicode="&#x3ca;" horiz-adv-x="455" 
d="M244 139q0 -38 12.5 -74t32.5 -65h-198q-14 20 -21 52.5t-7 72.5q0 27 3 55.5t8 55.5l165 846h180l-166 -855q-4 -20 -6.5 -45t-2.5 -43zM457 1219l35 184h173l-35 -184h-173zM73 1219l35 184h175l-35 -184h-175z" />
    <glyph glyph-name="upsilondieresis" unicode="&#x3cb;" horiz-adv-x="1126" 
d="M416 1082l-121 -621q-14 -73 -14 -129q0 -101 49.5 -157t155.5 -56q73 0 129 27.5t97 75t69.5 112.5t45.5 140t24.5 157t7.5 164q0 87 -11.5 163t-22.5 124h188q13 -50 23 -122.5t10 -160.5q0 -103 -14.5 -204t-44.5 -192t-76.5 -168.5t-110.5 -134t-146.5 -88.5
t-184.5 -32q-80 0 -147 22t-115.5 66t-75.5 112t-27 159q0 35 4 72.5t12 79.5l115 591h181zM763 1219l35 184h173l-35 -184h-173zM379 1219l35 184h175l-35 -184h-175z" />
    <glyph glyph-name="omicrontonos" unicode="&#x3cc;" 
d="M1074 683q0 -52 -6 -104.5t-20 -111.5q-30 -132 -83.5 -225t-125.5 -151t-160 -84.5t-188 -26.5q-96 0 -174 29.5t-133.5 86t-86 138t-30.5 185.5q1 47 5.5 97t16.5 104q29 126 80 216.5t121 149.5t158.5 87t193.5 28q106 0 186.5 -28t135 -82t82.5 -131.5t28 -176.5z
M888 683q0 77 -17 131t-49.5 88.5t-78.5 50.5t-103 16q-53 0 -106.5 -12.5t-102 -50.5t-88.5 -108t-67 -186q-13 -55 -18.5 -104.5t-5.5 -91.5q0 -82 19 -140t52.5 -94t79 -52.5t99.5 -16.5t106.5 12t99.5 50.5t86.5 109.5t66.5 188q14 60 19.5 110t7.5 100zM617 1218l6 33
l126 292h207l-7 -37l-257 -288h-75z" />
    <glyph glyph-name="upsilontonos" unicode="&#x3cd;" horiz-adv-x="1126" 
d="M416 1082l-121 -621q-14 -73 -14 -129q0 -101 49.5 -157t155.5 -56q73 0 129 27.5t97 75t69.5 112.5t45.5 140t24.5 157t7.5 164q0 87 -11.5 163t-22.5 124h188q13 -50 23 -122.5t10 -160.5q0 -103 -14.5 -204t-44.5 -192t-76.5 -168.5t-110.5 -134t-146.5 -88.5
t-184.5 -32q-80 0 -147 22t-115.5 66t-75.5 112t-27 159q0 35 4 72.5t12 79.5l115 591h181zM598 1218l6 33l126 292h207l-7 -37l-257 -288h-75z" />
    <glyph glyph-name="omegatonos" unicode="&#x3ce;" horiz-adv-x="1595" 
d="M870 449q-5 -29 -8 -55.5t-3 -51.5q0 -49 10.5 -90t31 -70.5t51 -46t70.5 -16.5q65 0 114 26t85.5 75.5t61.5 120.5t42 161q17 85 17 155q0 116 -44.5 195.5t-138.5 111.5l50 139q85 -15 146 -58t100 -105.5t57 -139t18 -158.5q0 -79 -15 -156q-25 -128 -70 -223
t-107 -158t-140.5 -94t-169.5 -31q-66 0 -113.5 18.5t-80.5 53t-52 84t-27 110.5h-4q-26 -62 -59.5 -111.5t-77 -84t-97.5 -52.5t-122 -18q-78 0 -139 28.5t-103 81t-64 127.5t-22 169q0 79 13 159t40.5 154.5t70 141.5t102 120.5t136.5 90.5t173 51l11 -139
q-140 -30 -223.5 -137.5t-118.5 -284.5q-9 -48 -14 -91.5t-5 -84.5q0 -55 10 -100.5t31.5 -78t55.5 -50.5t81 -18q103 0 173.5 87t100.5 243l49 252h166zM859 1218l6 33l126 292h207l-7 -37l-257 -288h-75z" />
    <glyph glyph-name="afii10023" unicode="&#x401;" horiz-adv-x="1366" 
d="M63 0l273 1409h1049l-30 -156h-858l-88 -452h798l-30 -154h-798l-95 -491h899l-30 -156h-1090zM977 1530l35 184h173l-35 -184h-173zM593 1530l35 184h175l-35 -184h-175z" />
    <glyph glyph-name="afii10051" unicode="&#x402;" horiz-adv-x="1726" 
d="M858 1253l-68 -352q34 7 87.5 17t114.5 19.5t124.5 16t116.5 6.5q195 0 294 -79t99 -231q0 -24 -2.5 -52t-7.5 -51l-37 -196q-18 -93 -47 -162.5t-75.5 -116t-113 -69.5t-158.5 -23q-106 0 -181.5 37.5t-122.5 94.5l128 120q15 -16 33.5 -33.5t41.5 -31.5t50.5 -23.5
t60.5 -9.5q42 0 73 12.5t54 38.5t38.5 66t26.5 95l39 201q2 9 3.5 21t3 24.5t2.5 24t1 18.5q0 82 -59.5 126.5t-180.5 44.5q-51 0 -112 -5t-121.5 -12.5t-113.5 -16t-88 -16.5l-146 -756h-190l243 1253h-484l30 156h1158l-30 -156h-484z" />
    <glyph glyph-name="afii10052" unicode="&#x403;" horiz-adv-x="1114" 
d="M1241 1410l-30 -156h-713l-244 -1253h-191l274 1409h904zM642 1530l3 20l261 226h207l-5 -29l-352 -217h-114z" />
    <glyph glyph-name="afii10053" unicode="&#x404;" horiz-adv-x="1449" 
d="M679 -20q-146 0 -254.5 46t-180.5 125.5t-107.5 187t-35.5 230.5q0 124 26.5 236t76 207.5t120.5 173t160 131.5t194.5 83.5t223.5 29.5q127 0 223 -29.5t163.5 -77.5t109 -110t60.5 -128l-180 -55q-15 47 -45 90.5t-77.5 78t-113 55t-150.5 20.5q-115 0 -210 -35
t-168 -98.5t-123 -152t-76 -196.5h631l-29 -154h-625q-1 -18 -1.5 -36t-0.5 -36q0 -94 25.5 -173t76 -136.5t125.5 -89.5t175 -32q94 0 169 24.5t134 65.5t105 93.5t83 107.5l143 -89q-48 -73 -108 -138t-137.5 -113.5t-176.5 -77t-225 -28.5z" />
    <glyph glyph-name="afii10054" unicode="&#x405;" horiz-adv-x="1366" 
d="M616 -20q-130 0 -227.5 23.5t-165.5 69t-108.5 112t-56.5 153.5l177 37q13 -62 41 -108t75 -76.5t116 -45.5t163 -15q98 0 176 13.5t132.5 45t83.5 82t29 125.5q0 51 -17 87t-59 64.5t-113.5 54t-179.5 55.5q-88 24 -165.5 53.5t-135.5 73t-92 105.5t-34 152
q0 105 47.5 178.5t127 120.5t182 68.5t212.5 21.5q121 0 211.5 -22t154 -61.5t101.5 -94.5t53 -120l-173 -51q-15 48 -42 86t-69 64.5t-100.5 40.5t-136.5 14q-104 0 -175.5 -17.5t-116 -49t-64.5 -75t-20 -94.5q0 -54 20.5 -89.5t62.5 -60.5t106.5 -45.5t152.5 -44.5
q87 -24 169.5 -53t146.5 -73.5t102.5 -110.5t38.5 -165q0 -206 -155 -317t-475 -111z" />
    <glyph glyph-name="afii10055" unicode="&#x406;" horiz-adv-x="569" 
d="M81 0l274 1409h191l-274 -1409h-191z" />
    <glyph glyph-name="afii10056" unicode="&#x407;" horiz-adv-x="569" 
d="M81 0l274 1409h191l-274 -1409h-191zM571 1530l35 184h173l-35 -184h-173zM187 1530l35 184h175l-35 -184h-175z" />
    <glyph glyph-name="afii10057" unicode="&#x408;" horiz-adv-x="1024" 
d="M381 -20q-159 0 -259.5 93t-126.5 270l168 33q23 -117 79 -179t156 -62q60 0 104 22t75.5 62t52 96.5t33.5 124.5l157 813h-291l30 156h481l-193 -986q-19 -100 -54.5 -182t-91 -140t-134.5 -89.5t-186 -31.5z" />
    <glyph glyph-name="afii10058" unicode="&#x409;" horiz-adv-x="2183" 
d="M1151 1249h-461l-120 -368q-56 -172 -103.5 -305.5t-91.5 -233t-87 -168t-90.5 -111t-101.5 -61t-121 -18.5q-25 0 -48 2.5t-36 7.5l30 152q11 -4 28 -5.5t27 -1.5q30 0 58 11.5t57 42.5t60 84.5t67 138t79 203.5t95 280l166 510h817l-115 -596h325q117 0 207 -26
t151.5 -74.5t93 -118t31.5 -157.5q0 -104 -38 -185t-110 -137t-174.5 -85.5t-231.5 -29.5h-605zM1131 151h374q369 0 369 276q0 61 -21.5 105.5t-60.5 73t-94 42t-122 13.5h-345z" />
    <glyph glyph-name="afii10059" unicode="&#x40a;" horiz-adv-x="2012" 
d="M778 0l126 653h-524l-126 -653h-191l273 1409h191l-115 -596h524l115 596h191l-115 -596h277q117 0 207 -26t151.5 -74.5t93 -118t31.5 -157.5q0 -104 -38 -185t-110 -137t-174.5 -85.5t-231.5 -29.5h-555zM998 151h326q369 0 369 276q0 61 -21.5 105.5t-60.5 73t-94 42
t-122 13.5h-297z" />
    <glyph glyph-name="afii10060" unicode="&#x40b;" horiz-adv-x="1729" 
d="M615 0h-190l243 1253h-484l30 156h1203l-30 -156h-529l-68 -352q34 8 81 18t100 19t110 15.5t110 6.5q194 0 288.5 -79.5t94.5 -230.5q0 -27 -3.5 -58t-7.5 -51l-105 -541h-190l106 547q4 18 7 46.5t3 46.5q0 79 -54.5 122.5t-175.5 43.5q-51 0 -105.5 -5t-107 -12.5
t-99 -16t-81.5 -16.5z" />
    <glyph glyph-name="afii10061" unicode="&#x40c;" horiz-adv-x="1207" 
d="M336 1409h191l-120 -619q38 0 68.5 5t59 18t57 35t63 57t77.5 84t100 115l264 305h206l-359 -415q-83 -97 -137 -148.5t-87 -74.5l357 -771h-211l-303 677q-19 -7 -43.5 -13t-50 -10.5t-49 -6.5t-40.5 -2l-124 -645h-192zM713 1530l3 20l261 226h207l-5 -29l-352 -217
h-114z" />
    <glyph glyph-name="afii10062" unicode="&#x40e;" horiz-adv-x="1309" 
d="M703 318q-64 -88 -119 -152t-110.5 -105t-115.5 -61t-135 -20q-63 0 -123 21t-103 56l85 137q31 -22 69 -40.5t86 -18.5q43 0 77 12.5t67.5 41t72 75.5t90.5 116l66 89l-387 940h208l297 -784l536 784h215zM875 1530q-72 0 -128.5 16t-100.5 46.5t-77 76t-57 104.5
l147 61q18 -42 40 -76t51.5 -58t67.5 -36.5t87 -12.5q52 0 95 15t77 41t59 61.5t41 75.5l103 -36q-16 -50 -49 -100t-83 -89.5t-118 -64t-155 -24.5z" />
    <glyph glyph-name="afii10145" unicode="&#x40f;" horiz-adv-x="1482" 
d="M466 -408l80 408h-483l273 1409h191l-242 -1249h769l242 1249h186l-273 -1409h-483l-80 -408h-180z" />
    <glyph glyph-name="afii10017" unicode="&#x410;" horiz-adv-x="1366" 
d="M1061 0l-75 412h-639l-240 -412h-208l848 1409h217l292 -1409h-195zM871 1034q-8 41 -15.5 80t-12.5 71.5t-8.5 54t-4.5 25.5q-2 -4 -13.5 -26t-29.5 -54.5t-40 -72t-46 -79.5l-270 -472h527z" />
    <glyph glyph-name="afii10018" unicode="&#x411;" horiz-adv-x="1333" 
d="M336 1409h926l-30 -156h-735l-85 -440h324q117 0 207 -26t151.5 -74.5t93 -118t31.5 -157.5q0 -104 -38 -185t-110 -137t-174.5 -85.5t-231.5 -29.5h-603zM282 151h374q369 0 369 276q0 61 -21.5 105.5t-60.5 73t-94 42t-122 13.5h-345z" />
    <glyph glyph-name="afii10019" unicode="&#x412;" horiz-adv-x="1366" 
d="M336 1409h510q104 0 187 -22t141.5 -63.5t90 -101.5t31.5 -135q0 -146 -86 -230.5t-253 -113.5q71 -12 125.5 -39.5t91 -67.5t55 -90t18.5 -107q0 -83 -23 -148t-64 -114t-96.5 -82.5t-121 -54.5t-138 -30.5t-146.5 -9.5h-595zM411 810h331q181 0 268 65t87 193
q0 95 -68.5 141.5t-199.5 46.5h-331zM283 153h368q78 0 151.5 12t129.5 44t90 88t34 145q0 107 -79.5 163t-228.5 56h-366z" />
    <glyph glyph-name="afii10020" unicode="&#x413;" horiz-adv-x="1114" 
d="M1241 1410l-30 -156h-713l-244 -1253h-191l274 1409h904z" />
    <glyph glyph-name="afii10021" unicode="&#x414;" horiz-adv-x="1442" 
d="M1142 160h175l-111 -568h-180l80 408h-1036l-80 -408h-179l110 568h144q51 51 97.5 120t91 159.5t88.5 204.5t90 255l166 510h786zM956 160l211 1089h-437l-120 -368q-44 -134 -85.5 -244.5t-82 -199.5t-80.5 -157.5t-82 -119.5h676z" />
    <glyph glyph-name="afii10022" unicode="&#x415;" horiz-adv-x="1366" 
d="M63 0l273 1409h1049l-30 -156h-858l-88 -452h798l-30 -154h-798l-95 -491h899l-30 -156h-1090z" />
    <glyph glyph-name="afii10024" unicode="&#x416;" horiz-adv-x="1878" 
d="M866 659q-34 0 -78 7.5t-76 22.5l-560 -689h-235l669 775q-21 18 -56.5 73.5t-83.5 150.5l-209 410h194l146 -305q47 -99 80.5 -160.5t66.5 -95.5t72 -46t96 -12l120 619h191l-120 -619q38 0 68.5 5t59 18t57 35t63 57t77.5 84t100 115l264 305h206l-359 -415
q-83 -97 -137 -148.5t-87 -74.5l357 -771h-211l-301 693q-19 -7 -43.5 -13t-50 -10.5t-49 -6.5t-40.5 -2l-126 -661h-192z" />
    <glyph glyph-name="afii10025" unicode="&#x417;" horiz-adv-x="1257" 
d="M553 -20q-117 0 -205 25.5t-152 71t-107 109.5t-70 142l168 70q23 -58 52 -106.5t72 -84t104 -55t146 -19.5q88 0 157.5 19t118 55.5t74 91t25.5 125.5q0 105 -79 167.5t-244 62.5h-99l28 148h71q96 0 171.5 13.5t127.5 44.5t79.5 82.5t27.5 126.5q0 45 -17 82.5
t-49.5 64.5t-80 42.5t-108.5 15.5q-84 0 -147 -18t-111 -51t-83 -78.5t-61 -99.5l-166 61q80 169 221.5 255t355.5 86q98 0 179 -25t140 -69.5t91.5 -107t32.5 -137.5q0 -79 -26.5 -141.5t-73 -107.5t-110.5 -73t-140 -39q50 -9 97.5 -32.5t84.5 -61.5t60 -90t23 -118
q0 -105 -40.5 -187.5t-115.5 -140.5t-182 -88.5t-240 -30.5z" />
    <glyph glyph-name="afii10026" unicode="&#x418;" horiz-adv-x="1465" 
d="M63 0l273 1409h172l-179 -924q-10 -51 -20.5 -100t-19.5 -88q-11 -46 -21 -86l977 1198h222l-273 -1409h-170l181 936q8 39 18 83.5t18 82.5q10 45 20 88l-968 -1190h-230z" />
    <glyph glyph-name="afii10027" unicode="&#x419;" horiz-adv-x="1465" 
d="M63 0l273 1409h172l-179 -924q-10 -51 -20.5 -100t-19.5 -88q-11 -46 -21 -86l977 1198h222l-273 -1409h-170l181 936q8 39 18 83.5t18 82.5q10 45 20 88l-968 -1190h-230zM921 1530q-72 0 -128.5 16t-100.5 46.5t-77 76t-57 104.5l147 61q18 -42 40 -76t51.5 -58
t67.5 -36.5t87 -12.5q52 0 95 15t77 41t59 61.5t41 75.5l103 -36q-16 -50 -49 -100t-83 -89.5t-118 -64t-155 -24.5z" />
    <glyph glyph-name="afii10028" unicode="&#x41a;" horiz-adv-x="1207" 
d="M336 1409h191l-120 -619q38 0 68.5 5t59 18t57 35t63 57t77.5 84t100 115l264 305h206l-359 -415q-83 -97 -137 -148.5t-87 -74.5l357 -771h-211l-303 677q-19 -7 -43.5 -13t-50 -10.5t-49 -6.5t-40.5 -2l-124 -645h-192z" />
    <glyph glyph-name="afii10029" unicode="&#x41b;" horiz-adv-x="1404" 
d="M1190 1249h-500l-120 -368q-56 -172 -103.5 -305.5t-91.5 -233t-87 -168t-90.5 -111t-101.5 -61t-121 -18.5q-25 0 -48 2.5t-36 7.5l30 152q11 -4 28 -5.5t27 -1.5q30 0 58 11.5t57 42.5t60 84.5t67 138t79 203.5t95 280l166 510h849l-273 -1409h-186z" />
    <glyph glyph-name="afii10030" unicode="&#x41c;" horiz-adv-x="1706" 
d="M1261 0l180 928q10 51 21 104t21 97q11 51 23 99q-25 -52 -51 -103q-22 -44 -47 -92t-47 -85l-548 -948h-124l-185 948q-6 30 -13 77.5t-13 92.5q-7 53 -15 110q-8 -56 -17 -111q-8 -47 -16.5 -98t-16.5 -91l-180 -928h-170l273 1409h236l189 -977q3 -15 8.5 -48.5
t10.5 -68.5q6 -40 13 -88q21 44 40 84q17 35 34.5 70.5t29.5 58.5l553 969h256l-273 -1409h-172z" />
    <glyph glyph-name="afii10031" unicode="&#x41d;" horiz-adv-x="1479" 
d="M1021 0l127 653h-767l-127 -653h-191l274 1409h191l-116 -596h767l116 596h186l-274 -1409h-186z" />
    <glyph glyph-name="afii10032" unicode="&#x41e;" horiz-adv-x="1593" 
d="M938 1430q144 0 255 -42.5t187.5 -119.5t116 -183t39.5 -234q-1 -49 -5.5 -101.5t-14.5 -100.5q-30 -154 -101 -277.5t-175.5 -210.5t-239 -134t-291.5 -47q-150 0 -262 43.5t-186.5 122t-112 187.5t-37.5 240q0 46 4.5 94t14.5 97q30 150 100 273t174.5 210.5t239.5 135
t294 47.5zM929 1276q-131 0 -233 -37t-177.5 -107t-124.5 -171t-75 -229q-9 -43 -13 -86.5t-4 -82.5q0 -107 28 -187.5t81.5 -134t131 -80t175.5 -26.5q132 0 234.5 37.5t177.5 108t124.5 171t74.5 225.5q9 42 12.5 87t3.5 83q0 107 -29 187.5t-83 134t-131 80.5t-173 27z
" />
    <glyph glyph-name="afii10033" unicode="&#x41f;" horiz-adv-x="1484" 
d="M1021 0l243 1248h-767l-243 -1248h-191l274 1409h1149l-274 -1409h-191z" />
    <glyph glyph-name="afii10034" unicode="&#x420;" horiz-adv-x="1366" 
d="M852 1409q116 0 208.5 -27t157.5 -77t100 -122.5t35 -162.5q0 -110 -39.5 -197.5t-113 -148t-179 -93t-237.5 -32.5h-424l-106 -549h-191l273 1409h516zM390 700h387q192 0 287 78t95 233q0 65 -22.5 111t-63.5 76t-98.5 44t-127.5 14h-349z" />
    <glyph glyph-name="afii10035" unicode="&#x421;" horiz-adv-x="1479" 
d="M1358 337q-49 -73 -110 -138t-139.5 -113.5t-179 -77t-229.5 -28.5q-148 0 -258.5 46t-183.5 125.5t-109 187t-36 230.5q0 124 27 236t77 207.5t122 173t162.5 131.5t197.5 83.5t227 29.5q129 0 226 -29.5t166 -77.5t111 -110t61 -128l-180 -55q-15 47 -46 90.5t-79.5 78
t-115 55t-153.5 20.5q-146 0 -260 -53.5t-193 -148t-120 -224t-41 -282.5q0 -94 26 -173t77.5 -136.5t128.5 -89.5t179 -32q90 0 165 24.5t137.5 65t112 93t87.5 108.5z" />
    <glyph glyph-name="afii10036" unicode="&#x422;" horiz-adv-x="1251" 
d="M858 1253l-244 -1253h-190l244 1253h-484l30 156h1158l-30 -156h-484z" />
    <glyph glyph-name="afii10037" unicode="&#x423;" horiz-adv-x="1309" 
d="M703 318q-64 -88 -119 -152t-110.5 -105t-115.5 -61t-135 -20q-63 0 -123 21t-103 56l85 137q31 -22 69 -40.5t86 -18.5q43 0 77 12.5t67.5 41t72 75.5t90.5 116l66 89l-387 940h208l297 -784l536 784h215z" />
    <glyph glyph-name="afii10038" unicode="&#x424;" horiz-adv-x="1628" 
d="M599 216q-107 0 -195 31.5t-150.5 90.5t-97 145t-34.5 195q0 129 46 232t128 176t194.5 112t245.5 39h100l36 182h188l-35 -182h36q113 0 203.5 -31t153.5 -90t96.5 -144.5t33.5 -194.5q0 -129 -45.5 -232.5t-127 -176.5t-194.5 -112.5t-247 -39.5h-106l-44 -227h-188
l44 227h-41zM853 358h77q98 0 176 27t133 78.5t84 126t29 169.5q0 88 -25 151.5t-66.5 104t-96 60t-113.5 19.5h-55zM811 1094h-61q-215 0 -325 -103t-110 -296q0 -89 24.5 -152.5t65.5 -104.5t94.5 -60.5t111.5 -19.5h57z" />
    <glyph glyph-name="afii10039" unicode="&#x425;" horiz-adv-x="1366" 
d="M999 0l-303 606l-524 -606h-211l654 746l-340 663h199l270 -551l475 551h211l-600 -676l368 -733h-199z" />
    <glyph glyph-name="afii10040" unicode="&#x426;" horiz-adv-x="1489" 
d="M1363 160l-111 -568h-180l80 408h-1089l273 1409h191l-242 -1249h717l242 1249h186l-242 -1249h175z" />
    <glyph glyph-name="afii10041" unicode="&#x427;" horiz-adv-x="1379" 
d="M1016 508q-35 -8 -83.5 -18t-103.5 -19t-113.5 -15.5t-113.5 -6.5q-197 0 -296.5 79t-99.5 231q0 24 2.5 52t7.5 51l106 547h190l-106 -547q-2 -9 -3.5 -21t-3 -24.5t-2.5 -24t-1 -18.5q0 -82 60.5 -126.5t185.5 -44.5q52 0 108 5t109.5 12.5t101.5 16t83 16.5l147 756
h190l-273 -1409h-190z" />
    <glyph glyph-name="afii10042" unicode="&#x428;" horiz-adv-x="1885" 
d="M63 0l273 1409h191l-242 -1249h493l242 1249h186l-242 -1249h493l242 1249h186l-273 -1409h-1549z" />
    <glyph glyph-name="afii10043" unicode="&#x429;" horiz-adv-x="1890" 
d="M1765 160l-111 -568h-180l80 408h-1491l273 1409h191l-242 -1249h467l242 1249h186l-242 -1249h466l242 1249h186l-242 -1249h175z" />
    <glyph glyph-name="afii10044" unicode="&#x42a;" horiz-adv-x="1649" 
d="M643 1253h-459l30 156h650l-115 -596h292q117 0 207 -26t151.5 -74.5t93 -118t31.5 -157.5q0 -104 -38 -185t-110 -137t-174.5 -85.5t-231.5 -29.5h-570zM619 151h342q369 0 369 276q0 61 -21.5 105.5t-60.5 73t-94 42t-122 13.5h-313z" />
    <glyph glyph-name="afii10045" unicode="&#x42b;" horiz-adv-x="1815" 
d="M1326 0l273 1409h191l-273 -1409h-191zM412 813h324q117 0 207 -26t151.5 -74.5t93 -118t31.5 -157.5q0 -104 -38 -185t-110 -137t-174.5 -85.5t-231.5 -29.5h-603l274 1409h191zM282 151h374q369 0 369 276q0 61 -21.5 105.5t-60.5 73t-94 42t-122 13.5h-345z" />
    <glyph glyph-name="afii10046" unicode="&#x42c;" horiz-adv-x="1333" 
d="M412 813h313q117 0 207 -26t151.5 -74.5t93 -118t31.5 -157.5q0 -104 -38 -185t-110 -137t-174.5 -85.5t-231.5 -29.5h-592l274 1409h191zM282 151h363q369 0 369 276q0 61 -21.5 105.5t-60.5 73t-94 42t-122 13.5h-334z" />
    <glyph glyph-name="afii10047" unicode="&#x42d;" horiz-adv-x="1421" 
d="M780 1274q-157 0 -267 -66.5t-170 -186.5l-169 60q40 82 96.5 146.5t132 109.5t171 69t213.5 24q134 0 239.5 -42.5t178.5 -120.5t111.5 -187.5t38.5 -243.5q0 -187 -53 -344t-152.5 -271t-243.5 -177.5t-327 -63.5q-107 0 -197.5 23t-162 69.5t-122 116.5t-77.5 163
l174 58q42 -133 141 -203t252 -70q109 0 203 33t167.5 97t122.5 157.5t67 213.5h-626l27 154h611q2 20 3 38.5t1 37.5q0 94 -26.5 169t-76 127.5t-120.5 81t-160 28.5z" />
    <glyph glyph-name="afii10048" unicode="&#x42e;" horiz-adv-x="2094" 
d="M1458 1430q137 0 243 -42.5t179 -119.5t110.5 -183t37.5 -234q-1 -49 -5.5 -101.5t-13.5 -100.5q-29 -154 -96.5 -277.5t-167.5 -210.5t-228 -134t-278 -47q-142 0 -249 43.5t-178.5 122t-107 187.5t-35.5 240q0 40 3 80h-292l-126 -653h-191l273 1409h191l-115 -596h285
q34 140 102.5 254t166 194.5t222 124.5t270.5 44zM1449 1276q-122 0 -217 -37t-165 -107t-116 -171t-70 -229q-8 -43 -12 -86.5t-4 -82.5q0 -214 102.5 -321t285.5 -107q123 0 218.5 37.5t165.5 108t116 171t69 225.5q8 42 11.5 87t3.5 83q0 107 -27 187.5t-77.5 134
t-122.5 80.5t-161 27z" />
    <glyph glyph-name="afii10049" unicode="&#x42f;" horiz-adv-x="1396" 
d="M-91 0l554 613q-45 16 -93.5 44.5t-88 73.5t-65.5 108t-26 148q0 213 148.5 317.5t457.5 104.5h602l-273 -1409h-191l113 585h-395l-516 -585h-227zM1178 1256h-412q-188 0 -285 -62.5t-97 -202.5q0 -73 25 -122t67 -78.5t97 -42t114 -12.5h390z" />
    <glyph glyph-name="afii10065" unicode="&#x430;" 
d="M1055 6q-29 -7 -62.5 -11.5t-65.5 -4.5q-93 0 -135.5 38.5t-42.5 114.5q0 15 2 32.5t3 31.5h-6q-35 -53 -72.5 -95t-83 -71.5t-101.5 -45t-130 -15.5q-78 0 -136.5 25t-98.5 66.5t-60 95.5t-20 111q0 81 23.5 140t64 101t95 68.5t116 41.5t127.5 21t129 7l232 3l7 36
q5 25 8.5 48t3.5 43q0 91 -53 134.5t-147 43.5q-49 0 -91.5 -7.5t-76 -27t-59 -53t-41.5 -84.5l-178 29q19 62 52 113.5t87 88.5t131.5 57.5t185.5 20.5q89 0 158 -22t116 -61t71.5 -93t24.5 -119q0 -31 -5.5 -74.5t-13.5 -82.5l-74 -378q-5 -22 -8 -45t-3 -43
q0 -37 19.5 -55t61.5 -18q15 0 30.5 2t29.5 5zM809 536l-199 -4q-40 -1 -83 -4t-84.5 -12.5t-79 -25.5t-65.5 -43.5t-44.5 -66.5t-16.5 -94q0 -32 10.5 -62.5t32.5 -54t54.5 -38t76.5 -14.5q87 0 152 30t111 74t72.5 95.5t35.5 94.5z" />
    <glyph glyph-name="afii10066" unicode="&#x431;" horiz-adv-x="1152" 
d="M661 895q-58 0 -114.5 -15t-106 -54.5t-89.5 -107t-64 -172.5q-7 -29 -9.5 -65t-2.5 -65q0 -81 18.5 -138.5t52.5 -94t80.5 -53.5t101.5 -17q66 0 122 18.5t101 60.5t77.5 110.5t51.5 168.5q8 44 12.5 82.5t4.5 72.5q0 72 -17 123.5t-48.5 83.5t-74.5 47t-96 15z
M700 1027q186 0 286 -100.5t100 -290.5q0 -38 -4.5 -78t-12.5 -84q-25 -132 -75 -226t-120.5 -153.5t-159.5 -87t-193 -27.5q-97 0 -174 29t-131 91t-82.5 158t-28.5 231q0 56 8.5 132t25.5 154q37 171 91 286t135 190.5t193.5 119t265.5 71.5q59 11 110.5 19.5t98.5 15.5
t91 13l88 12l-31 -161q-88 -11 -170.5 -23t-177.5 -28q-83 -14 -149.5 -28.5t-120 -37t-95.5 -57t-76 -88.5t-61 -131.5t-51 -185.5q30 56 69.5 104t91 84t116 56.5t143.5 20.5z" />
    <glyph glyph-name="afii10067" unicode="&#x432;" horiz-adv-x="1069" 
d="M1008 840q0 -64 -23 -111t-61 -80t-87.5 -53t-102.5 -29l-1 -7q44 -7 84.5 -25t71.5 -47t49.5 -69.5t18.5 -92.5q0 -90 -35.5 -155t-100 -107.5t-154.5 -63t-198 -20.5q-112 0 -221 10.5t-209 30.5l116 618q25 131 70.5 218t108 139.5t140 74t167.5 21.5q85 0 153 -16
t115.5 -48t73 -79t25.5 -109zM239 133q24 -4 54.5 -7.5t62.5 -6.5t63 -4.5t56 -1.5q135 0 213 50t78 158q0 80 -62 127t-195 47h-199zM532 625q140 0 212 47t72 145q0 65 -46 103t-138 38q-45 0 -88.5 -10.5t-82 -42t-69.5 -88.5t-49 -151l-8 -41h197z" />
    <glyph glyph-name="afii10068" unicode="&#x433;" horiz-adv-x="1010" 
d="M579 962q-56 0 -99 -8.5t-74.5 -26.5t-53.5 -46.5t-37 -68.5l-150 48q38 118 144.5 180.5t283.5 62.5q100 0 170.5 -21.5t115 -58.5t65 -86.5t20.5 -104.5q0 -70 -26 -120.5t-77 -88t-125 -66.5t-170 -57q-82 -24 -145.5 -44.5t-106.5 -45.5t-65 -57t-22 -79
q0 -78 56.5 -115.5t170.5 -37.5q63 0 110.5 9.5t82 29t58 49.5t38.5 70l147 -56q-38 -118 -147.5 -180.5t-293.5 -62.5q-121 0 -199.5 25.5t-124.5 67t-63.5 93t-17.5 103.5q0 77 29.5 132.5t85 97t137 73t184.5 59.5q101 27 161.5 50.5t92.5 47t42.5 49t10.5 55.5
q0 26 -10.5 49.5t-35 41t-64.5 28t-98 10.5z" />
    <glyph glyph-name="afii10069" unicode="&#x434;" horiz-adv-x="1132" 
d="M492 -20q-102 0 -181 31.5t-133 89t-82.5 138t-28.5 178.5q0 30 2.5 63.5t9.5 67.5q24 125 72.5 215.5t114 148.5t145 85.5t166.5 27.5q50 0 98 -10.5t90.5 -30t77 -46.5t58.5 -61q3 38 3 73q0 108 -25.5 185t-70.5 126.5t-106.5 72.5t-132.5 23q-37 0 -77 -8.5
t-68 -19.5l-42 123q37 14 86.5 23.5t97.5 9.5q245 0 373.5 -151t128.5 -454q0 -145 -32 -332q-30 -153 -79 -260.5t-117 -176t-155 -100t-193 -31.5zM501 113q96 0 157.5 35t99.5 92t58 128.5t33 143.5q11 58 11 117q0 50 -11 98t-40 85.5t-78 60t-126 22.5
q-70 0 -125.5 -21t-97 -65.5t-71 -114t-47.5 -167.5q-6 -35 -9.5 -68.5t-3.5 -64.5q0 -65 15 -117t45.5 -88.5t78 -56t111.5 -19.5z" />
    <glyph glyph-name="afii10070" unicode="&#x435;" 
d="M256 503q-5 -28 -6.5 -56.5t-2.5 -56.5q0 -133 66.5 -204t200.5 -71q56 0 102 14.5t83.5 39t66 57t47.5 68.5l138 -63q-25 -45 -61 -89.5t-89.5 -80.5t-128.5 -58.5t-179 -22.5q-100 0 -179 28.5t-133.5 83t-83 133.5t-28.5 180q0 158 42.5 287t118 220t178 140.5
t222.5 49.5q110 0 191 -29t135 -81t80.5 -124.5t26.5 -159.5q0 -21 -1.5 -46t-4.5 -52t-7.5 -54.5t-10.5 -52.5h-783zM880 641q2 20 3 37.5t1 34.5q0 66 -18 114.5t-51 80t-79 46.5t-102 15q-48 0 -101 -14.5t-101.5 -51.5t-88.5 -100.5t-63 -161.5h600z" />
    <glyph glyph-name="afii10072" unicode="&#x436;" horiz-adv-x="1409" 
d="M609 485q-26 0 -54 6t-45 14l-384 -505h-200l472 599q-12 12 -35.5 48.5t-53.5 103.5l-151 331h175l101 -239q33 -76 56.5 -122.5t45 -71.5t44 -33t52.5 -8l92 474h180l-92 -474q30 0 55 8t55 33t71 71.5t103 122.5l195 239h192l-270 -325q-56 -67 -98.5 -110.5
t-67.5 -60.5l235 -586h-186l-186 506q-10 -4 -25.5 -7.5t-32.5 -6.5t-33.5 -5t-29.5 -2l-95 -485h-180z" />
    <glyph glyph-name="afii10073" unicode="&#x437;" horiz-adv-x="952" 
d="M383 -20q-169 0 -269 61t-127 193l168 44q9 -37 27.5 -67.5t47.5 -52t70 -33t96 -11.5q47 0 90 10.5t75.5 34.5t51.5 62.5t19 93.5q0 50 -20.5 85.5t-59.5 58t-95.5 32.5t-128.5 10l28 134q67 0 131 7.5t113.5 28.5t80 59t30.5 99q0 69 -50 104t-132 35q-36 0 -71 -6.5
t-65 -22.5t-54 -44t-37 -71l-165 20q21 71 58 120t88.5 80t117 44.5t143.5 13.5q81 0 146 -19t111 -53.5t70.5 -82t24.5 -104.5q0 -69 -28.5 -119.5t-73 -84.5t-97.5 -52t-102 -23v-4q54 -6 96.5 -28t71.5 -55.5t44.5 -75.5t15.5 -88q0 -76 -29.5 -137.5t-85.5 -105
t-138 -67t-187 -23.5z" />
    <glyph glyph-name="afii10074" unicode="&#x438;" 
d="M415 1082l-126 -645q-8 -39 -13 -79.5t-5 -70.5q0 -79 42 -123t137 -44q64 0 120.5 25.5t102.5 72t78.5 112t48.5 146.5l118 606h180l-166 -851q-7 -34 -13.5 -71.5t-12 -71t-9 -57.5t-4.5 -31h-170q0 5 3 27t7.5 50.5t9 58t8.5 49.5h-3q-34 -47 -70 -85t-79.5 -64.5
t-96 -40.5t-119.5 -14q-148 0 -222.5 73t-74.5 211q0 36 6.5 81t14.5 83l127 653h181z" />
    <glyph glyph-name="afii10075" unicode="&#x439;" 
d="M415 1082l-126 -645q-8 -39 -13 -79.5t-5 -70.5q0 -79 42 -123t137 -44q64 0 120.5 25.5t102.5 72t78.5 112t48.5 146.5l118 606h180l-166 -851q-7 -34 -13.5 -71.5t-12 -71t-9 -57.5t-4.5 -31h-170q0 5 3 27t7.5 50.5t9 58t8.5 49.5h-3q-34 -47 -70 -85t-79.5 -64.5
t-96 -40.5t-119.5 -14q-148 0 -222.5 73t-74.5 211q0 36 6.5 81t14.5 83l127 653h181zM681 1200q-72 0 -128.5 16t-100.5 46.5t-77 76t-57 104.5l147 61q18 -42 40 -76t51.5 -58t67.5 -36.5t87 -12.5q52 0 95 15t77 41t59 61.5t41 75.5l103 -36q-16 -50 -49 -100t-83 -89.5
t-118 -64t-155 -24.5z" />
    <glyph glyph-name="afii10076" unicode="&#x43a;" horiz-adv-x="967" 
d="M244 1082h180l-92 -474q33 0 62.5 8t65 33t80 71.5t106.5 122.5l195 239h192l-270 -325q-56 -67 -98.5 -110.5t-67.5 -60.5l235 -586h-186l-189 498q-30 -11 -67.5 -16t-83.5 -5l-92 -477h-180z" />
    <glyph glyph-name="afii10077" unicode="&#x43b;" horiz-adv-x="1155" 
d="M722 0l184 951h-333q-68 -205 -120.5 -356.5t-96 -259.5t-81 -177t-77 -108.5t-84 -54.5t-100.5 -15q-34 0 -64.5 5.5t-47.5 12.5l32 130q11 -5 30.5 -10t38.5 -5q27 0 51 15.5t50 55.5t56 109.5t69 177t90 258.5t118 353h676l-210 -1082h-181z" />
    <glyph glyph-name="afii10078" unicode="&#x43c;" horiz-adv-x="1404" 
d="M1365 1082l-210 -1082h-173l140 724q5 22 11.5 52t13.5 62t14.5 62.5t13.5 52.5l-502 -953h-149l-138 951q-3 -25 -8 -55l-10 -62q-5 -30 -10 -58.5t-10 -51.5l-140 -724h-174l210 1082h265l84 -582q6 -42 10.5 -93.5t7.5 -102.5t4.5 -95.5t1.5 -73.5q29 80 63.5 156.5
t62.5 129.5l351 661h271z" />
    <glyph glyph-name="afii10079" unicode="&#x43d;" horiz-adv-x="1127" 
d="M424 1082l-89 -458h483l89 458h180l-210 -1082h-180l95 493h-483l-95 -493h-180l210 1082h180z" />
    <glyph glyph-name="afii10080" unicode="&#x43e;" 
d="M1074 683q0 -52 -6 -104.5t-20 -111.5q-30 -132 -83.5 -225t-125.5 -151t-160 -84.5t-188 -26.5q-96 0 -174 29.5t-133.5 86t-86 138t-30.5 185.5q1 47 5.5 97t16.5 104q29 126 80 216.5t121 149.5t158.5 87t193.5 28q106 0 186.5 -28t135 -82t82.5 -131.5t28 -176.5z
M888 683q0 77 -17 131t-49.5 88.5t-78.5 50.5t-103 16q-53 0 -106.5 -12.5t-102 -50.5t-88.5 -108t-67 -186q-13 -55 -18.5 -104.5t-5.5 -91.5q0 -82 19 -140t52.5 -94t79 -52.5t99.5 -16.5t106.5 12t99.5 50.5t86.5 109.5t66.5 188q14 60 19.5 110t7.5 100z" />
    <glyph glyph-name="afii10081" unicode="&#x43f;" horiz-adv-x="1127" 
d="M1088 1082l-210 -1082h-180l184 951h-484l-184 -951h-180l210 1082h844z" />
    <glyph glyph-name="afii10082" unicode="&#x440;" 
d="M554 -20q-123 0 -200.5 52t-109.5 146h-5q0 -2 -2 -19.5t-6 -43.5t-9.5 -57t-11.5 -60l-82 -423h-179l249 1286q8 39 14 75t10.5 65.5t7 50.5t3.5 30h167q0 -8 -1 -26t-3.5 -40.5t-5.5 -47.5t-7 -47h4q36 47 73.5 81t80 56.5t91.5 33t109 10.5q80 0 142 -25t104 -71
t64 -111.5t22 -146.5q0 -50 -4.5 -109.5t-16.5 -122.5q-27 -142 -71 -243.5t-106 -166.5t-142 -95.5t-179 -30.5zM689 963q-64 0 -121.5 -19t-106.5 -65.5t-86.5 -125.5t-60.5 -199q-19 -98 -19 -177q0 -64 17 -113.5t48.5 -83t76 -50.5t98.5 -17q62 0 112 18.5t90.5 64
t71.5 122t53 192.5q23 121 23 206q0 123 -47 185t-149 62z" />
    <glyph glyph-name="afii10083" unicode="&#x441;" horiz-adv-x="1024" 
d="M469 122q56 0 101 16.5t80 46.5t62 72.5t46 94.5l156 -49q-28 -75 -68.5 -134.5t-96 -101.5t-126.5 -64.5t-158 -22.5q-103 0 -178.5 31t-124 86.5t-72 131.5t-23.5 166q0 40 3.5 87t12.5 92q22 111 56.5 193t77 140.5t92 96.5t102 59.5t107 30t107.5 8.5q89 0 156.5 -23
t114.5 -65t73.5 -100.5t31.5 -129.5l-177 -25q-3 45 -17 82t-39.5 63.5t-62.5 41.5t-86 15q-69 0 -124 -20t-98.5 -65t-74.5 -117.5t-52 -177.5q-9 -48 -14 -101t-5 -91q0 -127 51.5 -197t166.5 -70z" />
    <glyph glyph-name="afii10084" unicode="&#x442;" horiz-adv-x="1706" 
d="M660 0l124 634q4 20 8.5 44t8 48t6 45.5t2.5 36.5q0 75 -38 114.5t-124 39.5q-57 0 -108.5 -25.5t-92.5 -72t-71 -113t-44 -147.5l-118 -604h-179l166 851q7 34 13.5 71.5t12 71t9 57.5t4.5 31h170q0 -5 -3 -27t-7.5 -50.5t-9 -58t-8.5 -49.5h3q30 47 62 85t70 64.5
t84.5 40.5t105.5 14q121 0 192 -59.5t85 -172.5q32 50 66 92t75.5 73.5t92 49t114.5 17.5q135 0 207.5 -73t72.5 -211q0 -36 -6.5 -81t-14.5 -83l-127 -653h-178l124 634q4 20 8.5 44t8 48t6 45.5t2.5 36.5q0 75 -38 114.5t-124 39.5q-57 0 -108.5 -25t-92.5 -71t-71 -112
t-44 -147l-118 -607h-178z" />
    <glyph glyph-name="afii10085" unicode="&#x443;" horiz-adv-x="1024" 
d="M501 0q-55 -95 -106 -173t-107 -134t-121.5 -87t-150.5 -31q-33 0 -67.5 3.5t-64.5 10.5l31 134q17 -3 38.5 -5.5t38.5 -2.5q95 0 167.5 64t142.5 186l27 47l-217 1070h183l112 -598q6 -32 13 -74t13 -83.5t10.5 -77t5.5 -53.5q10 22 26 53.5t35.5 67t40 73t39.5 72.5
l338 620h199z" />
    <glyph glyph-name="afii10086" unicode="&#x444;" horiz-adv-x="1711" 
d="M371 -21q-73 0 -129 25t-94.5 71t-58.5 111.5t-20 146.5q0 45 4 107t15 125q26 142 66.5 243.5t97.5 166.5t131.5 95.5t166.5 30.5q114 0 186 -52t101 -146h5q2 10 6 33t8.5 48.5t8.5 48.5t5 32l82 419h180l-110 -563h2q33 47 67 81t72.5 56.5t83 33t98.5 10.5
q72 0 128.5 -25t94.5 -71t58 -111.5t20 -146.5q0 -50 -4 -109.5t-15 -122.5q-25 -142 -66 -243.5t-98 -166.5t-130.5 -95.5t-165.5 -30.5q-114 0 -185.5 52t-100.5 146h-5q0 -2 -2 -19.5t-6 -43.5t-9.5 -57t-11.5 -60l-82 -423h-179l113 585h-5q-33 -47 -67 -81t-73 -56.5
t-84 -33t-99 -10.5zM432 118q57 0 108.5 19t95 65.5t77 125.5t54.5 199q19 98 19 177q0 65 -15.5 114t-44 82.5t-68.5 50.5t-88 17q-55 0 -100 -18.5t-81 -64t-63.5 -122t-47.5 -192.5q-21 -118 -21 -206q0 -123 42 -185t133 -62zM1283 963q-57 0 -108.5 -19t-94.5 -65.5
t-76.5 -125.5t-54.5 -199q-9 -51 -13 -95t-4 -82q0 -130 58.5 -197t155.5 -67q55 0 99.5 18.5t80.5 64t63.5 122t47.5 192.5q21 119 21 206q0 123 -42 185t-133 62z" />
    <glyph glyph-name="afii10087" unicode="&#x445;" horiz-adv-x="1024" 
d="M706 0l-209 444l-380 -444h-199l492 556l-264 526h189l193 -421l350 421h206l-469 -524l281 -558h-190z" />
    <glyph glyph-name="afii10088" unicode="&#x446;" horiz-adv-x="1171" 
d="M418 1082l-126 -645q-8 -39 -13 -79.5t-5 -70.5q0 -79 42 -123t137 -44q64 0 120.5 25.5t102.5 72t78.5 112t48.5 146.5l118 606h180l-166 -851q-5 -24 -9.5 -49.5t-9.5 -50.5h147l-105 -539h-163l80 408h-149q0 5 3 27t7.5 50.5t9 58t8.5 49.5h-3q-34 -47 -70 -85
t-79.5 -64.5t-96 -40.5t-119.5 -14q-148 0 -222.5 73t-74.5 211q0 36 6.5 81t14.5 83l127 653h181z" />
    <glyph glyph-name="afii10089" unicode="&#x447;" horiz-adv-x="1060" 
d="M399 1082l-67 -344q-2 -9 -4 -22t-4 -26.5t-3 -26t-1 -20.5q0 -65 38.5 -95t116.5 -30q35 0 66 3t62.5 8.5t64.5 14.5t72 21l101 517h180l-210 -1082h-180l89 461q-82 -42 -156.5 -64t-156.5 -22q-62 0 -112 16t-85 48t-54 79.5t-19 110.5q0 11 1 26t3 30.5t4.5 31.5
t5.5 29l68 336h180z" />
    <glyph glyph-name="afii10090" unicode="&#x448;" horiz-adv-x="1700" 
d="M1037 1082l-124 -634q-4 -19 -8.5 -43t-8 -48t-6 -46t-2.5 -37q0 -75 38 -114.5t124 -39.5q57 0 108.5 25.5t92.5 72t71 113t44 147.5l118 604h179l-166 -851q-7 -34 -13.5 -71.5t-12 -71t-9 -57.5t-4.5 -31h-170q0 5 3 27t7.5 50.5t9 58t8.5 49.5h-3q-30 -47 -62 -85
t-70 -64.5t-84.5 -40.5t-105.5 -14q-121 0 -192 59.5t-85 172.5q-31 -49 -65.5 -91.5t-76 -74t-92 -49t-114.5 -17.5q-135 0 -207.5 73t-72.5 211q0 36 6.5 81t14.5 83l127 653h178l-124 -634q-4 -19 -8.5 -43t-8 -48t-6 -46t-2.5 -37q0 -75 38 -114.5t124 -39.5
q57 0 108.5 25t92.5 71t71 112t44 147l118 607h178z" />
    <glyph glyph-name="afii10091" unicode="&#x449;" horiz-adv-x="1743" 
d="M1298 0q0 5 3 27t7.5 50.5t9 58t8.5 49.5h-3q-30 -47 -62.5 -85t-71.5 -64.5t-86.5 -40.5t-106.5 -14q-121 0 -192 59.5t-85 172.5q-31 -49 -65.5 -91.5t-76 -74t-92 -49t-114.5 -17.5q-135 0 -210 73t-75 211q0 36 6.5 81t14.5 83l127 653h178l-124 -634
q-4 -19 -8.5 -43t-8 -48t-6 -46t-2.5 -37q0 -75 40.5 -114.5t126.5 -39.5q57 0 108.5 25t92.5 71t71 112t44 147l118 607h178l-124 -634q-4 -19 -8.5 -43t-8 -48t-6 -46t-2.5 -37q0 -75 38 -114.5t124 -39.5q57 0 109 25.5t94.5 72t73 113t44.5 147.5l118 604h179l-166 -851
q-5 -24 -9 -49.5t-9 -50.5h147l-105 -539h-163l80 408h-150z" />
    <glyph glyph-name="afii10092" unicode="&#x44a;" horiz-adv-x="1272" 
d="M1152 335q0 -91 -33.5 -158t-96.5 -111t-153.5 -65t-204.5 -21q-112 0 -221.5 10.5t-209.5 30.5l180 930h-347l26 131h527l-89 -458h184q98 0 179 -16t138.5 -50.5t89 -89.5t31.5 -133zM434 133q24 -4 54.5 -7.5t62.5 -6.5t63 -4.5t56 -1.5q135 0 213 50t78 158
q0 41 -14 73.5t-45 55t-80 34t-118 11.5h-199z" />
    <glyph glyph-name="afii10093" unicode="&#x44b;" horiz-adv-x="1507" 
d="M1076 0l210 1082h180l-210 -1082h-180zM957 335q0 -91 -33.5 -158t-96.5 -111t-153.5 -65t-204.5 -21q-112 0 -221.5 10.5t-209.5 30.5l206 1061h180l-89 -458h184q98 0 179 -16t138.5 -50.5t89 -89.5t31.5 -133zM239 133q24 -4 54.5 -7.5t62.5 -6.5t63 -4.5t56 -1.5
q135 0 213 50t78 158q0 41 -14 73.5t-45 55t-80 34t-118 11.5h-199z" />
    <glyph glyph-name="afii10094" unicode="&#x44c;" horiz-adv-x="1077" 
d="M957 335q0 -91 -33.5 -158t-96.5 -111t-153.5 -65t-204.5 -21q-112 0 -221.5 10.5t-209.5 30.5l206 1061h180l-89 -458h184q98 0 179 -16t138.5 -50.5t89 -89.5t31.5 -133zM239 133q24 -4 54.5 -7.5t62.5 -6.5t63 -4.5t56 -1.5q135 0 213 50t78 158q0 41 -14 73.5t-45 55
t-80 34t-118 11.5h-199z" />
    <glyph glyph-name="afii10095" unicode="&#x44d;" horiz-adv-x="1007" 
d="M547 1101q80 0 152.5 -21.5t127.5 -70.5t87 -128.5t32 -195.5q0 -76 -11.5 -157.5t-37.5 -160t-68 -148.5t-102.5 -123.5t-141 -84.5t-184.5 -31q-177 0 -273.5 83t-118.5 241l165 28q10 -58 31 -99.5t51.5 -68t69 -39t82.5 -12.5q73 0 128 25t95.5 72.5t66.5 116
t41 155.5h-398l25 131h393q2 21 4 44.5t2 43.5q0 134 -58.5 200.5t-165.5 66.5q-105 0 -173.5 -47.5t-96.5 -148.5l-167 32q35 143 150.5 220t292.5 77z" />
    </font>
</defs>
</svg>
