<?xml version="1.0" standalone="no"?>
<!DOCTYPE svg PUBLIC "-//W3C//DTD SVG 1.1//EN" "http://www.w3.org/Graphics/SVG/1.1/DTD/svg11.dtd" >
<svg xmlns="http://www.w3.org/2000/svg" xmlns:xlink="http://www.w3.org/1999/xlink" version="1.1">
<metadata>
Created by FontForge 20170731 at Mon Jan 12 13:32:54 2009
 By Aleksey,,,
Digitized data `2007 Ascender Corporation. All rights reserved.
</metadata>
<defs>
<font id="LiberationSans-Regular" horiz-adv-x="1139" >
  <font-face 
    font-family="Liberation Sans"
    font-weight="400"
    font-stretch="normal"
    units-per-em="2048"
    panose-1="2 11 6 4 2 2 2 2 2 4"
    ascent="1638"
    descent="-410"
    x-height="1082"
    cap-height="1409"
    bbox="-416 -621 2151 1864"
    underline-thickness="150"
    underline-position="-592"
    unicode-range="U+0020-F005"
  />
<missing-glyph horiz-adv-x="1536" 
d="M205 1409h1125v-1409h-1125v1409zM281 1333v-1257h973v1257h-973z" />
    <glyph glyph-name=".notdef" horiz-adv-x="1536" 
d="M205 1409h1125v-1409h-1125v1409zM281 1333v-1257h973v1257h-973z" />
    <glyph glyph-name=".null" horiz-adv-x="0" 
 />
    <glyph glyph-name="nonmarkingreturn" horiz-adv-x="569" 
 />
    <glyph glyph-name="space" unicode=" " horiz-adv-x="569" 
 />
    <glyph glyph-name="space" unicode="&#xa0;" horiz-adv-x="569" 
 />
    <glyph glyph-name="exclam" unicode="!" horiz-adv-x="569" 
d="M359 397h-148l-24 1012h196zM185 0v201h194v-201h-194z" />
    <glyph glyph-name="quotedbl" unicode="&#x22;" horiz-adv-x="727" 
d="M618 966h-142l-20 443h184zM249 966h-141l-21 443h184z" />
    <glyph glyph-name="numbersign" unicode="#" 
d="M896 885l-78 -369h260v-108h-283l-88 -408h-110l86 408h-363l-84 -408h-110l84 408h-201v108h225l78 369h-252v108h274l89 408h110l-88 -408h363l88 408h110l-88 -408h211v-108h-233zM425 885l-80 -369h362l78 369h-360z" />
    <glyph glyph-name="dollar" unicode="$" 
d="M518 20q-217 9 -339.5 101.5t-156.5 257.5l170 37q11 -53 34 -96.5t62 -75.5t95.5 -51.5t134.5 -24.5v496l-20 5q-77 18 -151 43t-132 66.5t-93.5 105.5t-35.5 162q0 84 32 146t89.5 103.5t136.5 63.5t174 26v131h124v-131q100 -5 172.5 -27.5t123.5 -62.5t84 -97.5
t53 -132.5l-174 -33q-20 94 -81 146.5t-178 63.5v-445q59 -14 116 -29t108.5 -35.5t95.5 -48.5t76 -67.5t50 -94t18 -126.5q0 -77 -28 -142.5t-85 -115.5t-144.5 -81t-206.5 -37v-162h-124v162zM934 394q0 63 -23.5 103t-64 65.5t-93.5 41.5t-111 31v-468q65 4 119 19.5
t92.5 43.5t59.5 68.5t21 95.5zM258 1048q0 -54 20 -91t55 -62t82.5 -41.5t102.5 -30.5v421q-72 -4 -122 -20.5t-80.5 -42.5t-44 -60t-13.5 -73z" />
    <glyph glyph-name="percent" unicode="%" horiz-adv-x="1821" 
d="M1748 434q0 -125 -25.5 -210.5t-69 -138t-101.5 -75t-124 -22.5t-123.5 22.5t-100 74.5t-67 137.5t-24.5 211.5q0 133 24 220t67 138.5t101.5 72t126.5 20.5q66 0 123.5 -20.5t100 -72t67.5 -138.5t25 -220zM527 0h-155l922 1409h157zM394 1421q64 0 121 -20.5t100 -71.5
t67.5 -137t24.5 -217q0 -126 -25 -212t-67.5 -139.5t-100.5 -76.5t-124 -23q-67 0 -125 23t-100.5 76t-67 139t-24.5 213q0 131 24.5 217t67.5 137t102 71.5t127 20.5zM1600 434q0 99 -11 164.5t-32.5 104.5t-53 55t-71.5 16q-42 0 -74 -16.5t-54 -55.5t-33 -104.5
t-11 -163.5q0 -95 11.5 -159t33 -103.5t53 -56.5t72.5 -17q39 0 70.5 17t53.5 56.5t34 103.5t12 159zM560 975q0 98 -11 163t-32 104t-52 55t-71 16q-43 0 -75.5 -16.5t-54.5 -55.5t-33 -104t-11 -162q0 -95 11.5 -160t33 -104.5t53.5 -56.5t74 -17q38 0 69 17t53 56.5
t34 104.5t12 160z" />
    <glyph glyph-name="ampersand" unicode="&#x26;" horiz-adv-x="1366" 
d="M1193 -12q-96 0 -168 33t-130 94q-30 -26 -68 -50t-84.5 -43t-101 -30.5t-118.5 -11.5q-117 0 -202.5 30t-140.5 82.5t-81.5 124t-26.5 154.5q0 79 25.5 143.5t71 117t108.5 94t138 74.5q-18 34 -32.5 72.5t-25.5 77.5t-17 78t-6 74q0 66 20 123.5t62.5 100t109 67
t159.5 24.5q73 0 134.5 -19t106.5 -55t70 -89t25 -121q0 -75 -33 -133.5t-89 -104.5t-130 -83.5t-157 -70.5q62 -114 135 -214.5t158 -197.5q61 90 101.5 189.5t69.5 220.5l145 -43q-35 -139 -88.5 -252.5t-123.5 -216.5q53 -54 106 -76t102 -22q32 0 61.5 3.5t55.5 12.5
v-135q-28 -11 -65.5 -16.5t-75.5 -5.5zM869 1133q0 37 -13.5 67t-37.5 51.5t-58.5 33t-76.5 11.5q-96 0 -146 -51.5t-50 -142.5q0 -59 18.5 -123.5t46.5 -120.5q65 26 123 53.5t101 60t68 72t25 89.5zM795 217q-89 105 -171 220t-148 237q-113 -48 -174.5 -122t-61.5 -179
q0 -55 17.5 -102.5t53.5 -83t90.5 -56t127.5 -20.5q44 0 83.5 9.5t73.5 24.5t61.5 34t47.5 38z" />
    <glyph glyph-name="quotesingle" unicode="'" horiz-adv-x="391" 
d="M266 966h-141l-21 443h184z" />
    <glyph glyph-name="parenleft" unicode="(" horiz-adv-x="682" 
d="M127 532q0 139 21 266t66 244t115 227t167 215h174q-94 -105 -162.5 -215.5t-112.5 -228t-65.5 -244.5t-21.5 -266t21.5 -266t65.5 -245t112.5 -228t162.5 -215h-174q-97 105 -167 215t-115 227t-66 243.5t-21 266.5v4z" />
    <glyph glyph-name="parenright" unicode=")" horiz-adv-x="682" 
d="M555 528q0 -140 -21 -266.5t-66 -243.5t-115 -227t-167 -215h-174q94 105 162.5 215t112.5 228t65.5 245t21.5 266t-21.5 266t-65.5 244.5t-112.5 228t-162.5 215.5h174q97 -105 167 -215t115 -227t66 -244t21 -266v-4z" />
    <glyph glyph-name="asterisk" unicode="*" horiz-adv-x="797" 
d="M456 1114l264 103l45 -132l-282 -73l185 -250l-119 -72l-150 258l-156 -256l-119 72l189 248l-280 73l45 134l267 -107l-12 297h136z" />
    <glyph glyph-name="plus" unicode="+" horiz-adv-x="1196" 
d="M671 608v-428h-147v428h-424v146h424v428h147v-428h424v-146h-424z" />
    <glyph glyph-name="comma" unicode="," horiz-adv-x="569" 
d="M385 219v-168q0 -53 -4.5 -96.5t-14.5 -81t-24.5 -70.5t-34.5 -65h-123q45 65 69.5 131t24.5 131h-88v219h195z" />
    <glyph glyph-name="hyphen" unicode="-" horiz-adv-x="682" 
d="M91 464v160h500v-160h-500z" />
    <glyph glyph-name="hyphen" unicode="&#xad;" horiz-adv-x="682" 
d="M91 464v160h500v-160h-500z" />
    <glyph glyph-name="period" unicode="." horiz-adv-x="569" 
d="M187 0v219h195v-219h-195z" />
    <glyph glyph-name="slash" unicode="/" horiz-adv-x="569" 
d="M0 -20l411 1504h158l-407 -1504h-162z" />
    <glyph glyph-name="zero" unicode="0" 
d="M1059 705q0 -203 -38.5 -341.5t-105 -224t-156.5 -122.5t-192 -37q-103 0 -192 37t-154.5 122t-103 223.5t-37.5 342.5q0 213 37.5 352.5t103.5 222.5t156 116.5t196 33.5q101 0 189.5 -33.5t154.5 -116.5t104 -222.5t38 -352.5zM876 705q0 168 -20 279.5t-59 178
t-95.5 94t-128.5 27.5q-76 0 -134 -28t-97.5 -94.5t-59.5 -178t-20 -278.5q0 -162 20.5 -273t60 -178.5t96.5 -97t130 -29.5q71 0 128 29.5t96.5 97t61 178.5t21.5 273z" />
    <glyph glyph-name="one" unicode="1" 
d="M156 0v153h359v1084l-318 -227v170l333 229h166v-1256h343v-153h-883z" />
    <glyph glyph-name="two" unicode="2" 
d="M103 0v127q51 117 124.5 206.5t154.5 162t160.5 134.5t143.5 124t103.5 130t39.5 154q0 60 -18 105.5t-52 76.5t-81.5 46.5t-105.5 15.5q-54 0 -101.5 -15t-84.5 -45t-60.5 -74.5t-30.5 -103.5l-184 17q9 76 42 143t91 117.5t139.5 79.5t188.5 29q105 0 187 -25
t138.5 -74t86.5 -121t30 -166q0 -71 -25.5 -135t-68 -122t-98.5 -112t-117 -105.5t-123 -102t-116.5 -101.5t-97.5 -103.5t-67 -109.5h735v-153h-933z" />
    <glyph glyph-name="three" unicode="3" 
d="M1049 389q0 -97 -31.5 -173t-92 -128.5t-150 -80t-204.5 -27.5q-131 0 -220.5 32.5t-147.5 86t-87 122t-38 141.5l186 17q8 -56 29.5 -102t58.5 -79t91 -51t128 -18q136 0 213.5 67t77.5 199q0 78 -34.5 125.5t-86 74t-112 35.5t-111.5 9h-102v156h98q51 0 106 10.5
t100.5 38t75 74.5t29.5 120q0 113 -66.5 178.5t-197.5 65.5q-119 0 -192.5 -61t-85.5 -172l-181 14q11 93 51 162t101.5 114.5t140.5 68t168 22.5q118 0 203 -29.5t139 -80t79.5 -118.5t25.5 -145q0 -62 -17 -116t-53 -97t-91.5 -74t-133.5 -47v-4q85 -9 148 -38.5
t104 -73.5t61.5 -100t20.5 -118z" />
    <glyph glyph-name="four" unicode="4" 
d="M881 319v-319h-170v319h-664v140l645 950h189v-948h198v-142h-198zM711 1206q-2 -5 -10 -19.5t-18 -32.5t-20.5 -36.5t-18.5 -30.5l-361 -532q-5 -8 -14.5 -21t-19.5 -26.5t-20 -26.5t-16 -20h498v745z" />
    <glyph glyph-name="five" unicode="5" 
d="M1053 459q0 -106 -32 -194t-95 -151.5t-156.5 -98.5t-216.5 -35q-111 0 -193.5 26t-139.5 71.5t-90.5 106.5t-47.5 131l182 21q11 -40 31 -77.5t54.5 -67t85 -47t122.5 -17.5q70 0 127 21.5t97.5 63.5t62.5 103t22 140q0 65 -21 119.5t-60 94t-95.5 61.5t-128.5 22
q-45 0 -83 -8t-70.5 -22t-59 -32.5t-49.5 -38.5h-176l47 758h801v-153h-637l-27 -447q48 37 120 63.5t171 26.5q105 0 189 -32t143 -90.5t91 -139.5t32 -178z" />
    <glyph glyph-name="six" unicode="6" 
d="M1049 461q0 -106 -29.5 -194.5t-87 -152t-142.5 -99t-196 -35.5q-123 0 -215 47t-153 135.5t-91.5 217t-30.5 292.5q0 188 34.5 330t99.5 237t158.5 143t211.5 48q72 0 135 -15t114.5 -48.5t90.5 -88.5t62 -135l-172 -31q-28 91 -89.5 131.5t-142.5 40.5q-74 0 -134 -35
t-102 -104.5t-64.5 -174.5t-22.5 -245q49 91 138 138.5t204 47.5q96 0 174 -31t133.5 -89.5t86 -142t30.5 -187.5zM866 453q0 73 -18 132t-54 100.5t-89 64t-123 22.5q-49 0 -99 -14.5t-90.5 -47t-66 -85.5t-25.5 -129q0 -78 20 -145.5t57.5 -117.5t90.5 -79t119 -29
q65 0 116.5 22.5t87.5 65t55 103.5t19 137z" />
    <glyph glyph-name="seven" unicode="7" 
d="M1036 1263q-106 -162 -195 -311.5t-153 -301t-99.5 -311t-35.5 -339.5h-188q0 169 40 331.5t108 319t158 307.5t191 298h-757v153h931v-146z" />
    <glyph glyph-name="eight" unicode="8" 
d="M1050 393q0 -90 -28.5 -165.5t-87 -130.5t-149.5 -86t-215 -31t-214.5 31t-150 85.5t-88 130t-28.5 164.5q0 77 23.5 137t63 103.5t90 70t104.5 35.5v4q-59 14 -105.5 45t-78 74.5t-48 96.5t-16.5 112q0 74 28.5 139.5t84.5 115t139 78t192 28.5q115 0 199.5 -29
t140 -78.5t82.5 -115.5t27 -140q0 -58 -16.5 -111t-48 -96.5t-78 -74t-107.5 -42.5v-4q61 -10 113 -36.5t90 -70t60 -103.5t22 -136zM828 1057q0 53 -13.5 97t-44.5 75.5t-81 49t-123 17.5q-71 0 -120 -17.5t-80.5 -49t-45.5 -75.5t-14 -97q0 -42 11 -86t40 -80t80 -59
t131 -23q85 0 136.5 23t79 59t36 80t8.5 86zM863 410q0 51 -14 98.5t-48 84t-91.5 59t-143.5 22.5q-79 0 -134.5 -22.5t-90 -59.5t-50.5 -85.5t-16 -100.5q0 -65 16 -118.5t51 -92t92 -59.5t138 -21q82 0 138 21t90 59.5t48.5 93t14.5 121.5z" />
    <glyph glyph-name="nine" unicode="9" 
d="M1042 733q0 -188 -35.5 -329.5t-101.5 -235.5t-160.5 -141t-212.5 -47q-81 0 -146 16.5t-116 51.5t-87 91t-58 135l172 27q28 -91 87.5 -133.5t150.5 -42.5q73 0 133.5 34.5t103 103.5t66.5 173t26 244q-21 -47 -57.5 -84t-83 -62.5t-100.5 -39t-109 -13.5
q-96 0 -173.5 34.5t-131.5 96.5t-83.5 149.5t-29.5 194.5q0 109 31.5 197t91.5 149.5t147.5 94.5t198.5 33q235 0 356 -174t121 -523zM846 907q0 78 -18.5 147t-55 120t-90 80.5t-123.5 29.5q-65 0 -117 -23t-88 -65.5t-55.5 -103.5t-19.5 -136q0 -71 17.5 -132t52.5 -105.5
t87 -70t121 -25.5q50 0 101.5 17t93 52t68 88.5t26.5 126.5z" />
    <glyph glyph-name="colon" unicode=":" horiz-adv-x="569" 
d="M187 875v207h195v-207h-195zM187 0v207h195v-207h-195z" />
    <glyph glyph-name="semicolon" unicode=";" horiz-adv-x="569" 
d="M385 207v-156q0 -53 -4.5 -96.5t-14.5 -81t-24.5 -70.5t-34.5 -65h-123q45 65 69.5 131t24.5 131h-88v207h195zM190 875v207h195v-207h-195z" />
    <glyph glyph-name="semicolon" unicode="&#x37e;" horiz-adv-x="569" 
d="M385 207v-156q0 -53 -4.5 -96.5t-14.5 -81t-24.5 -70.5t-34.5 -65h-123q45 65 69.5 131t24.5 131h-88v207h195zM190 875v207h195v-207h-195z" />
    <glyph glyph-name="less" unicode="&#x3c;" horiz-adv-x="1196" 
d="M101 571v205l995 418v-154l-858 -366l858 -367v-153z" />
    <glyph glyph-name="equal" unicode="=" horiz-adv-x="1196" 
d="M100 856v148h995v-148h-995zM100 344v148h995v-148h-995z" />
    <glyph glyph-name="greater" unicode="&#x3e;" horiz-adv-x="1196" 
d="M101 154v153l858 367l-858 366v154l995 -418v-205z" />
    <glyph glyph-name="question" unicode="?" 
d="M1063 1032q0 -71 -18.5 -125t-49.5 -96.5t-70.5 -76t-80.5 -63.5t-80.5 -59t-71 -63t-51 -75.5t-20.5 -96.5h-175q2 69 21.5 121t50.5 92t70 71.5t79 60t78.5 57t68.5 63.5t48.5 79t18.5 103t-21 105t-59.5 77.5t-93 47.5t-121.5 16q-140 0 -222 -70t-96 -192l-184 12
q11 84 44.5 158.5t94 130.5t150 88.5t211.5 32.5q114 0 203 -28t150.5 -79.5t93.5 -125.5t32 -165zM438 0v201h195v-201h-195z" />
    <glyph glyph-name="at" unicode="@" horiz-adv-x="2079" 
d="M1902 755q0 -144 -33.5 -263.5t-92.5 -205.5t-141.5 -134t-179.5 -48q-56 0 -95.5 13.5t-64.5 37t-36 55.5t-11 70q0 15 1 36.5t2 33.5h-6q-24 -45 -58.5 -89.5t-81 -79t-105 -56t-129.5 -21.5q-84 0 -146.5 29t-103 80.5t-60.5 122t-20 153.5q0 120 35.5 230.5
t101.5 195t158.5 135.5t206.5 51q60 0 108 -13.5t84.5 -37.5t63.5 -57.5t45 -73.5h6l39 160h156l-116 -506q-19 -84 -28 -144t-9 -109q0 -48 21.5 -71t59.5 -23q62 0 115.5 40.5t93 111.5t62 167t22.5 208q0 129 -41.5 240t-122 192t-199.5 127t-275 46q-134 0 -247.5 -32
t-205.5 -90t-161.5 -138.5t-116.5 -176.5t-71 -205.5t-24 -224.5q0 -141 43 -260t125.5 -204.5t204 -133.5t279.5 -48q105 0 196 16.5t167 40.5t136 52.5t104 52.5l55 -112q-50 -30 -117.5 -61.5t-150.5 -57.5t-181 -42.5t-209 -16.5q-190 0 -337.5 57.5t-249 160.5
t-154 245t-52.5 311q0 139 31.5 267t90.5 238t144 200t192.5 154t235 99t271.5 35q201 0 347 -59t241.5 -159t141.5 -232t46 -279zM1296 747q0 50 -17 92t-48.5 72t-76 46.5t-100.5 16.5q-86 0 -151 -42.5t-108.5 -111.5t-66 -155.5t-22.5 -173.5q0 -120 47.5 -188
t146.5 -68q69 0 129 31t108 82t83 117t53 137q9 36 16 76t7 69z" />
    <glyph glyph-name="A" unicode="A" horiz-adv-x="1366" 
d="M1167 0l-161 412h-642l-162 -412h-198l575 1409h217l566 -1409h-195zM768 1026q-16 40 -30.5 81t-25.5 74.5t-18.5 56t-8.5 27.5q-2 -5 -9 -28t-18.5 -57t-26 -75t-29.5 -81l-180 -463h527z" />
    <glyph glyph-name="B" unicode="B" horiz-adv-x="1366" 
d="M1258 397q0 -107 -42 -182.5t-113 -123t-165 -69.5t-198 -22h-572v1409h512q117 0 209 -19.5t156 -61.5t97.5 -106.5t33.5 -154.5q0 -59 -16.5 -111t-50 -94.5t-84 -73t-117.5 -45.5q85 -10 150.5 -39t109.5 -74t67 -104.5t23 -128.5zM984 1044q0 114 -78 163t-226 49
h-321v-446h321q84 0 142 16.5t94 47t52 73.5t16 97zM1065 412q0 67 -24.5 114t-70.5 77t-110.5 44t-144.5 14h-356v-508h371q73 0 134.5 12t106 42t69.5 80t25 125z" />
    <glyph glyph-name="C" unicode="C" horiz-adv-x="1479" 
d="M792 1274q-120 0 -212.5 -40t-155 -114t-94.5 -178t-32 -231t34.5 -232.5t99 -181.5t158 -118t210.5 -42q82 0 149.5 21.5t122 60.5t97.5 92.5t76 118.5l156 -78q-38 -79 -94 -147t-131.5 -118t-171 -78.5t-213.5 -28.5q-171 0 -299.5 54.5t-215 152t-129.5 231.5
t-43 293q0 165 45.5 298t133 226.5t215.5 144t292 50.5q225 0 376 -88t222 -261l-181 -60q-20 50 -54 95.5t-85 80.5t-119.5 56t-156.5 21z" />
    <glyph glyph-name="D" unicode="D" horiz-adv-x="1479" 
d="M1381 719q0 -176 -53 -310.5t-145 -225t-217.5 -137t-270.5 -46.5h-527v1409h466q163 0 300.5 -40.5t236.5 -125t154.5 -214.5t55.5 -310zM1189 719q0 143 -41 244.5t-115 166.5t-177 95.5t-226 30.5h-271v-1103h314q111 0 205.5 36t163.5 107t108 177t39 246z" />
    <glyph glyph-name="E" unicode="E" horiz-adv-x="1366" 
d="M168 0v1409h1069v-156h-878v-452h818v-154h-818v-491h919v-156h-1110z" />
    <glyph glyph-name="F" unicode="F" horiz-adv-x="1251" 
d="M359 1253v-524h786v-158h-786v-571h-191v1409h1001v-156h-810z" />
    <glyph glyph-name="G" unicode="G" horiz-adv-x="1593" 
d="M103 711q0 165 44.5 298t133 226.5t219.5 144t304 50.5q130 0 228 -23t170 -66t122 -104.5t85 -138.5l-182 -54q-26 52 -62.5 94.5t-88.5 72.5t-120.5 46.5t-156.5 16.5q-128 0 -222.5 -40t-156.5 -114t-92.5 -178t-30.5 -231t33 -232.5t98 -182t161.5 -119t223.5 -42.5
q83 0 153 14t126.5 36.5t99.5 50t72 55.5v254h-421v160h597v-486q-47 -48 -110.5 -91.5t-142.5 -76.5t-173 -52t-201 -19q-178 0 -311 54.5t-221.5 152t-133 231.5t-44.5 293z" />
    <glyph glyph-name="H" unicode="H" horiz-adv-x="1479" 
d="M1121 0v653h-762v-653h-191v1409h191v-596h762v596h191v-1409h-191z" />
    <glyph glyph-name="I" unicode="I" horiz-adv-x="569" 
d="M189 0v1409h191v-1409h-191z" />
    <glyph glyph-name="J" unicode="J" horiz-adv-x="1024" 
d="M457 -20q-171 0 -280.5 89t-144.5 281l187 31q10 -65 33 -111.5t55 -76.5t71 -44t80 -14q104 0 164 71.5t60 209.5v837h-271v156h461v-989q0 -101 -28 -182t-81.5 -138.5t-130.5 -88.5t-175 -31z" />
    <glyph glyph-name="K" unicode="K" horiz-adv-x="1366" 
d="M1106 0l-563 680l-184 -140v-540h-191v1409h191v-706l679 706h225l-600 -612l680 -797h-237z" />
    <glyph glyph-name="L" unicode="L" 
d="M168 0v1409h191v-1253h712v-156h-903z" />
    <glyph glyph-name="M" unicode="M" horiz-adv-x="1706" 
d="M1366 0v940q0 51 1 104t3 97q2 51 5 99q-14 -51 -29 -101q-13 -43 -28.5 -91.5t-30.5 -87.5l-364 -960h-134l-369 960q-6 15 -12.5 35t-14 42.5t-15 46t-14.5 46.5q-17 53 -33 110q1 -56 3 -111q2 -47 3 -98.5t1 -90.5v-940h-170v1409h251l375 -977q7 -20 17 -51.5
t19 -64.5t16.5 -62.5t10.5 -45.5q3 16 11 46t18.5 63t20.5 64t18 51l368 977h245v-1409h-172z" />
    <glyph glyph-name="N" unicode="N" horiz-adv-x="1479" 
d="M1082 0l-754 1200q2 -49 5 -97q2 -41 3.5 -86.5t1.5 -80.5v-936h-170v1409h222l762 -1208l-6 98q-2 42 -4 91.5t-2 94.5v924h172v-1409h-230z" />
    <glyph glyph-name="O" unicode="O" horiz-adv-x="1593" 
d="M1495 711q0 -165 -47.5 -300t-137.5 -231t-220 -148t-295 -52q-174 0 -305 54.5t-218 152t-131 231.5t-44 293q0 165 46 298t135 226.5t219.5 144t299.5 50.5q168 0 298.5 -51t219 -145t134.5 -227t46 -296zM1300 711q0 127 -32.5 231t-96 178t-157.5 114t-217 40
q-126 0 -221 -40t-158.5 -114t-95 -178t-31.5 -231t32.5 -232.5t96 -182t158 -119t217.5 -42.5q132 0 227.5 43t157 119.5t91 182.5t29.5 231z" />
    <glyph glyph-name="P" unicode="P" horiz-adv-x="1366" 
d="M1258 985q0 -92 -30.5 -171.5t-91 -138t-151.5 -92.5t-212 -34h-414v-549h-191v1409h593q125 0 218 -30.5t155 -86t93 -134t31 -173.5zM1066 983q0 134 -82 203.5t-246 69.5h-379v-556h387q165 0 242.5 73t77.5 210z" />
    <glyph glyph-name="Q" unicode="Q" horiz-adv-x="1593" 
d="M1495 711q0 -149 -38.5 -272.5t-111 -216.5t-178 -151.5t-239.5 -76.5q21 -64 47.5 -109t60.5 -73.5t75.5 -42t92.5 -13.5q28 0 60 4t55 9v-134q-38 -9 -83.5 -15.5t-94.5 -6.5q-86 0 -150 25.5t-112.5 73t-83.5 116.5t-62 156q-158 8 -277.5 65.5t-199 154t-119.5 226
t-40 281.5q0 165 46 298t135 226.5t219.5 144t299.5 50.5q168 0 298.5 -51t219 -145t134.5 -227t46 -296zM1300 711q0 127 -32.5 231t-96 178t-157.5 114t-217 40q-126 0 -221 -40t-158.5 -114t-95 -178t-31.5 -231t32.5 -232.5t96 -182t158 -119t217.5 -42.5
q132 0 227.5 43t157 119.5t91 182.5t29.5 231z" />
    <glyph glyph-name="R" unicode="R" horiz-adv-x="1479" 
d="M1164 0l-366 585h-439v-585h-191v1409h663q120 0 212.5 -27.5t155.5 -79.5t96 -127t33 -169q0 -67 -19.5 -132t-61.5 -119t-107 -93t-156 -55l400 -607h-220zM1136 1004q0 64 -22 111t-64 78.5t-102 47t-136 15.5h-453v-520h461q82 0 142 20.5t98.5 56.5t57 85t18.5 106z
" />
    <glyph glyph-name="S" unicode="S" horiz-adv-x="1366" 
d="M1272 389q0 -89 -34.5 -164t-106.5 -129.5t-181.5 -85t-259.5 -30.5q-263 0 -410 92t-187 266l185 37q14 -55 43 -100t78.5 -77.5t122.5 -50.5t175 -18q85 0 156 14.5t122 44.5t79.5 77.5t28.5 113.5q0 69 -31.5 112t-88.5 71t-136 47t-175 41q-59 13 -118.5 28.5
t-114 37t-102.5 50.5t-83 69.5t-55 94t-20 123.5q0 100 40.5 171.5t112.5 117.5t170 67t212 21q131 0 224 -20.5t157 -61.5t102.5 -101.5t61.5 -140.5l-188 -33q-14 51 -40.5 91t-69.5 67t-104.5 41t-144.5 14q-98 0 -164.5 -17.5t-107 -47.5t-58 -70.5t-17.5 -87.5
q0 -63 31.5 -103.5t85.5 -67.5t125 -45t151 -36q65 -15 129.5 -30.5t123.5 -37t110.5 -50.5t89.5 -71t59.5 -99t21.5 -134z" />
    <glyph glyph-name="T" unicode="T" horiz-adv-x="1251" 
d="M720 1253v-1253h-190v1253h-484v156h1158v-156h-484z" />
    <glyph glyph-name="U" unicode="U" horiz-adv-x="1479" 
d="M731 -20q-116 0 -220 31t-182.5 96.5t-124.5 166t-46 238.5v897h191v-881q0 -107 28.5 -181.5t79.5 -121.5t120.5 -68.5t152.5 -21.5q82 0 155 22t128 70t86.5 125.5t31.5 188.5v868h190v-879q0 -141 -46.5 -244.5t-126.5 -171.5t-187.5 -101t-229.5 -33z" />
    <glyph glyph-name="V" unicode="V" horiz-adv-x="1366" 
d="M782 0h-198l-575 1409h201l390 -992q15 -45 30 -89.5t27 -79.5q14 -41 27 -80q12 37 26 78q12 35 26.5 79t31.5 92l388 992h201z" />
    <glyph glyph-name="W" unicode="W" horiz-adv-x="1933" 
d="M1511 0h-228l-244 895q-11 38 -23.5 90t-22.5 99q-12 55 -24 112q-13 -58 -25 -113q-11 -48 -23 -99t-23 -89l-246 -895h-228l-415 1409h199l253 -895q17 -63 32.5 -125t26.5 -111q13 -58 24 -110q15 69 31 136q7 28 14 59t14.5 61t15 57.5t13.5 50.5l245 877h183
l245 -877q6 -23 13.5 -50.5t15 -57t14.5 -60.5t14 -59q16 -67 31 -137q1 0 9 34.5t20 86.5t26.5 112.5t29.5 112.5l249 895h199z" />
    <glyph glyph-name="X" unicode="X" horiz-adv-x="1366" 
d="M1112 0l-423 616l-432 -616h-211l536 732l-495 677h211l392 -553l381 553h211l-482 -670l523 -739h-211z" />
    <glyph glyph-name="Y" unicode="Y" horiz-adv-x="1366" 
d="M777 584v-584h-190v584l-542 825h210l429 -671l427 671h210z" />
    <glyph glyph-name="Z" unicode="Z" horiz-adv-x="1251" 
d="M1187 0h-1122v143l858 1110h-785v156h1002v-139l-858 -1114h905v-156z" />
    <glyph glyph-name="bracketleft" unicode="[" horiz-adv-x="569" 
d="M146 -425v1909h407v-129h-233v-1651h233v-129h-407z" />
    <glyph glyph-name="backslash" unicode="\" horiz-adv-x="569" 
d="M407 -20l-407 1504h158l411 -1504h-162z" />
    <glyph glyph-name="bracketright" unicode="]" horiz-adv-x="569" 
d="M16 -425v129h233v1651h-233v129h407v-1909h-407z" />
    <glyph glyph-name="asciicircum" unicode="^" horiz-adv-x="961" 
d="M787 673l-309 633l-306 -633h-162l368 736h203l370 -736h-164z" />
    <glyph glyph-name="underscore" unicode="_" 
d="M-31 -407v130h1193v-130h-1193z" />
    <glyph glyph-name="grave" unicode="`" horiz-adv-x="682" 
d="M436 1201l-330 278v29h207l217 -287v-20h-94z" />
    <glyph glyph-name="a" unicode="a" 
d="M414 -20q-163 0 -245 86t-82 236q0 107 40.5 175.5t106 107.5t149.5 54t171 17l243 4v59q0 67 -14 114t-43 76t-72.5 42.5t-102.5 13.5q-52 0 -94 -7.5t-73 -27t-50 -53t-25 -84.5l-188 17q10 64 38 117.5t79.5 92.5t129 60.5t187.5 21.5q204 0 307 -93.5t103 -270.5
v-466q0 -80 21 -120.5t80 -40.5q15 0 30 2t29 5v-112q-34 -8 -67.5 -12t-71.5 -4q-51 0 -87.5 13.5t-59.5 41t-35 68t-15 94.5h-6q-29 -52 -63.5 -94t-80.5 -71.5t-104.5 -45.5t-134.5 -16zM455 115q86 0 150.5 31.5t107 80.5t63.5 107t21 111v89l-197 -4
q-66 -1 -125.5 -9.5t-104.5 -33.5t-71.5 -70t-26.5 -118q0 -88 47.5 -136t135.5 -48z" />
    <glyph glyph-name="b" unicode="b" 
d="M1053 546q0 -566 -398 -566q-123 0 -204.5 44.5t-132.5 143.5h-2q0 -26 -1.5 -54t-3 -52t-3 -41t-2.5 -21h-174q1 9 2 30.5t2 51.5t1.5 66t0.5 75v1261h180v-423q0 -30 -0.5 -57.5t-1.5 -48.5q-1 -25 -2 -47h4q50 104 132.5 149t204.5 45q205 0 301.5 -138t96.5 -418z
M864 540q0 112 -14 192t-45 131.5t-79 75.5t-117 24q-71 0 -125.5 -23t-91 -74t-55.5 -134t-19 -203q0 -116 19 -195t55.5 -128.5t90.5 -71t124 -21.5q66 0 114 23t80 74t47.5 132.5t15.5 197.5z" />
    <glyph glyph-name="c" unicode="c" horiz-adv-x="1024" 
d="M275 546q0 -93 13.5 -171t45.5 -134.5t84.5 -87.5t129.5 -31q96 0 160.5 52t79.5 160l182 -12q-9 -67 -39 -129t-81.5 -109t-125.5 -75.5t-171 -28.5q-127 0 -216 43t-144.5 118.5t-80.5 178t-25 222.5q0 109 18 192.5t50.5 146t76.5 105t95.5 68t108.5 37t115 11.5
q91 0 162 -25t122.5 -68.5t83.5 -102.5t45 -127l-185 -14q-14 90 -71 143t-162 53q-77 0 -128.5 -25.5t-83.5 -77t-45.5 -129.5t-13.5 -183z" />
    <glyph glyph-name="d" unicode="d" 
d="M821 174q-50 -104 -132.5 -149t-204.5 -45q-205 0 -301.5 138t-96.5 418q0 566 398 566q123 0 205 -45t132 -143h2q0 10 -0.5 31.5t-1 45t-0.5 44.5v30v419h180v-1261q0 -39 0.5 -75t1.5 -66t2 -51.5t2 -30.5h-172q-2 10 -3.5 28.5t-3 42.5t-2.5 50.5t-1 52.5h-4z
M275 542q0 -112 14 -192t45 -131.5t79 -75.5t117 -24q71 0 125.5 23t91 74.5t55.5 134.5t19 203q0 115 -19 194.5t-56 128.5t-90.5 70.5t-123.5 21.5q-66 0 -114 -23t-80 -74t-47.5 -132.5t-15.5 -197.5z" />
    <glyph glyph-name="e" unicode="e" 
d="M276 503q0 -85 17.5 -156.5t54 -123t93.5 -80t137 -28.5q117 0 187.5 47t95.5 119l158 -45q-17 -45 -47.5 -90.5t-81.5 -82t-127.5 -60t-184.5 -23.5q-240 0 -365.5 143t-125.5 425q0 152 38 257.5t104 171.5t154 95.5t188 29.5q136 0 227.5 -44t147 -121.5t79 -182.5
t23.5 -227v-24h-772zM862 641q-15 171 -87 249.5t-207 78.5q-45 0 -94.5 -14.5t-91.5 -51.5t-71 -100.5t-33 -161.5h584z" />
    <glyph glyph-name="f" unicode="f" horiz-adv-x="569" 
d="M361 951v-951h-180v951h-152v131h152v122q0 59 11 109.5t40.5 88t80.5 59t132 21.5q32 0 66.5 -3t60.5 -9v-137q-17 3 -39.5 5.5t-40.5 2.5q-40 0 -65.5 -11t-40 -31.5t-20 -50.5t-5.5 -69v-97h211v-131h-211z" />
    <glyph glyph-name="g" unicode="g" 
d="M548 -425q-93 0 -165 19t-123 54.5t-83 84.5t-46 109l181 26q18 -75 79.5 -115.5t161.5 -40.5q61 0 111 17t85 54.5t54 97.5t19 146v174h-2q-20 -41 -49.5 -78.5t-72 -66.5t-98.5 -46.5t-128 -17.5q-103 0 -176.5 34.5t-120 103.5t-68 171.5t-21.5 237.5q0 130 21.5 234
t70 176.5t126 111t188.5 38.5q115 0 199.5 -52.5t130.5 -149.5h2q0 25 1.5 56t3 58.5t3.5 47.5t4 23h171q-1 -9 -2 -30.5t-2 -51.5t-1.5 -66.5t-0.5 -75.5v-827q0 -227 -111.5 -341.5t-341.5 -114.5zM822 541q0 113 -24.5 193.5t-64.5 131.5t-91.5 75t-105.5 24
q-69 0 -118.5 -24t-82 -75.5t-48 -132t-15.5 -192.5q0 -117 15.5 -196.5t47.5 -128.5t81 -70t117 -21q54 0 105.5 23t92.5 73t66 129t25 191z" />
    <glyph glyph-name="h" unicode="h" 
d="M317 897q30 55 65 93.5t77 63.5t92 36.5t112 11.5q104 0 170.5 -28t105 -78.5t53 -120.5t14.5 -154v-721h-181v686q0 69 -8.5 121t-32.5 86.5t-68 52t-114 17.5q-64 0 -115.5 -23t-88 -65t-56.5 -102t-20 -135v-638h-180v1484h180v-386q0 -33 -1 -66t-2.5 -61t-2.5 -47.5
t-2 -26.5h3z" />
    <glyph glyph-name="i" unicode="i" horiz-adv-x="455" 
d="M137 1312v172h180v-172h-180zM137 0v1082h180v-1082h-180z" />
    <glyph glyph-name="j" unicode="j" horiz-adv-x="455" 
d="M137 1312v172h180v-172h-180zM317 -134q0 -62 -10.5 -115t-37.5 -92t-73.5 -61.5t-118.5 -22.5q-34 0 -66.5 2t-60.5 7v139q13 -2 31 -4t31 -2q38 0 62.5 10t38.5 31.5t19 55t5 79.5v1189h180v-1216z" />
    <glyph glyph-name="k" unicode="k" horiz-adv-x="1024" 
d="M816 0l-366 494l-132 -109v-385h-180v1484h180v-927l475 525h211l-439 -465l462 -617h-211z" />
    <glyph glyph-name="l" unicode="l" horiz-adv-x="455" 
d="M138 0v1484h180v-1484h-180z" />
    <glyph glyph-name="m" unicode="m" horiz-adv-x="1706" 
d="M768 0v686q0 79 -10 132t-33.5 85.5t-61.5 46t-93 13.5q-57 0 -103 -22.5t-78.5 -65t-50 -105t-17.5 -143.5v-627h-179v851q0 34 -0.5 71.5t-1.5 71t-2 57.5t-2 31h170q1 -5 2 -27t2.5 -50.5t2.5 -58t1 -49.5h3q24 47 52 85t65.5 64.5t86 41t112.5 14.5q123 0 194.5 -49
t99.5 -156h3q24 47 54 85t70 64.5t90 41t114 14.5q82 0 141.5 -22t97.5 -68t56 -118.5t18 -172.5v-721h-178v686q0 79 -10 132t-33.5 85.5t-61.5 46t-93 13.5q-57 0 -103 -21.5t-78.5 -63.5t-50 -105t-17.5 -146v-627h-178z" />
    <glyph glyph-name="n" unicode="n" 
d="M825 0v686q0 79 -11.5 132t-37.5 85.5t-68.5 46t-105.5 13.5q-64 0 -115.5 -22.5t-88 -65t-56.5 -105t-20 -143.5v-627h-180v851q0 34 -0.5 71.5t-1.5 71t-2 57.5t-2 31h170q1 -5 2 -27t2.5 -50.5t2.5 -58t1 -49.5h3q26 47 57 85t72 64.5t94 41t123 14.5q90 0 155 -22
t107 -68t61.5 -118.5t19.5 -172.5v-721h-181z" />
    <glyph glyph-name="o" unicode="o" 
d="M1053 542q0 -284 -125 -423t-363 -139q-113 0 -202 34t-150.5 104t-94 175.5t-32.5 248.5q0 560 485 560q126 0 217.5 -35t150 -105t86.5 -175t28 -245zM864 542q0 126 -19.5 208t-57 131t-91.5 68.5t-122 19.5q-69 0 -124.5 -20.5t-94.5 -70t-59.5 -131.5t-20.5 -205
q0 -126 22 -208.5t60.5 -131.5t91 -69t114.5 -20q69 0 125 19.5t95 68.5t60 132t21 209z" />
    <glyph glyph-name="p" unicode="p" 
d="M1053 546q0 -123 -20 -227t-66.5 -179t-123 -117.5t-188.5 -42.5q-116 0 -203 44t-133 144h-5q1 -2 1.5 -18t1 -40t1 -53.5t0.5 -58.5v-423h-180v1286q0 39 -0.5 75t-1.5 65.5t-2 50.5t-2 30h174q1 -3 2.5 -21t3 -43.5t3 -54.5t1.5 -55h4q25 52 57 88.5t73 60t91.5 34
t113.5 10.5q112 0 188.5 -40t123 -112.5t66.5 -175t20 -227.5zM864 542q0 100 -12 178t-41.5 132t-78.5 82t-123 28q-60 0 -113 -17t-92.5 -65t-62.5 -132.5t-23 -219.5q0 -115 19 -194.5t55.5 -128.5t90.5 -70.5t124 -21.5q75 0 124.5 29t79 84t41.5 134.5t12 181.5z" />
    <glyph glyph-name="q" unicode="q" 
d="M484 -20q-206 0 -302 139t-96 417q0 282 98.5 424t299.5 142q67 0 118.5 -12t92 -35.5t71 -58.5t55.5 -82h2q0 25 1.5 55.5t3 57.5t3.5 46.5t4 22.5h173q-2 -17 -4.5 -89t-2.5 -206v-1226h-180v439q0 26 0.5 54t1.5 53q1 28 2 57h-2q-26 -51 -57.5 -88.5t-72.5 -62
t-92.5 -36t-116.5 -11.5zM821 554q0 118 -20.5 198t-58 128t-91 68.5t-119.5 20.5q-69 0 -118 -25.5t-79.5 -78t-45 -133t-14.5 -190.5q0 -108 13.5 -188t44 -132t79 -77.5t118.5 -25.5q60 0 113 18.5t92.5 67t62.5 133t23 216.5z" />
    <glyph glyph-name="r" unicode="r" horiz-adv-x="682" 
d="M142 0v830q0 34 -0.5 69.5t-1.5 68.5t-2 62t-2 52h170q1 -23 2.5 -52.5t3 -60.5t2 -59.5t0.5 -48.5h4q19 62 40.5 107.5t50.5 75t69 44t97 14.5q22 0 42 -3.5t31 -6.5v-165q-18 5 -42 7.5t-54 2.5q-62 0 -105.5 -28t-71 -77.5t-40.5 -118t-13 -149.5v-564h-180z" />
    <glyph glyph-name="s" unicode="s" horiz-adv-x="1024" 
d="M950 299q0 -76 -29.5 -135.5t-85.5 -100t-137.5 -62t-186.5 -21.5q-94 0 -169.5 14.5t-132.5 46.5t-95.5 84.5t-56.5 128.5l159 31q23 -87 95 -127.5t200 -40.5q58 0 106.5 8t83.5 27.5t54.5 52t19.5 80.5q0 49 -23 80.5t-64 52.5t-99.5 36.5t-128.5 34.5q-65 17 -129 38
t-115.5 55.5t-83.5 85.5t-32 128q0 148 105.5 225.5t307.5 77.5q179 0 284.5 -63t133.5 -202l-162 -20q-9 42 -33 70.5t-58 46t-76.5 25t-88.5 7.5q-122 0 -180 -37t-58 -112q0 -44 21.5 -72.5t60 -48t92.5 -34t119 -30.5q43 -11 88 -23.5t87.5 -30t80 -41t65.5 -56.5
t44.5 -77t16.5 -102z" />
    <glyph glyph-name="t" unicode="t" horiz-adv-x="569" 
d="M554 8q-41 -11 -83.5 -17.5t-98.5 -6.5q-216 0 -216 245v722h-125v131h132l53 242h120v-242h200v-131h-200v-683q0 -78 25.5 -109.5t88.5 -31.5q26 0 50.5 4t53.5 10v-133z" />
    <glyph glyph-name="u" unicode="u" 
d="M314 1082v-686q0 -79 11.5 -132t37.5 -85.5t68.5 -46t105.5 -13.5q64 0 115.5 22.5t88 65t56.5 105t20 143.5v627h180v-851q0 -34 0.5 -71.5t1.5 -71t2 -57.5t2 -31h-170q-1 5 -2 27t-2.5 50.5t-2.5 58t-1 49.5h-3q-26 -47 -57 -85t-72 -64.5t-94 -41t-123 -14.5
q-90 0 -155 22t-107 68t-61.5 118t-19.5 173v721h181z" />
    <glyph glyph-name="v" unicode="v" horiz-adv-x="1024" 
d="M613 0h-213l-393 1082h192l238 -704q7 -22 16.5 -53.5t19.5 -65.5t18.5 -65.5t14.5 -52.5q6 21 15.5 52.5t19.5 64.5t20.5 64.5t18.5 53.5l246 706h191z" />
    <glyph glyph-name="w" unicode="w" horiz-adv-x="1479" 
d="M1174 0h-209l-173 698q-8 27 -16.5 67t-16.5 78q-10 44 -19 91q-9 -45 -19 -89q-8 -38 -17.5 -79t-17.5 -72l-178 -694h-208l-303 1082h178l183 -735q7 -23 14 -56.5t14 -65.5q7 -37 15 -76q8 38 17 74q8 31 16 63t14 53l196 743h193l189 -743q7 -26 15 -59t15 -62
q8 -34 16 -69q8 38 16 74q7 31 14.5 64.5t14.5 59.5l191 735h176z" />
    <glyph glyph-name="x" unicode="x" horiz-adv-x="1024" 
d="M801 0l-291 444l-293 -444h-194l385 556l-367 526h199l270 -421l268 421h201l-367 -524l390 -558h-201z" />
    <glyph glyph-name="y" unicode="y" horiz-adv-x="1024" 
d="M604 0q-38 -98 -77.5 -176.5t-88.5 -134t-109 -85t-138 -29.5q-34 0 -63 2t-61 9v135q19 -3 43 -4.5t41 -1.5q79 0 147 59t119 188l17 43l-429 1077h192l228 -598q10 -27 25.5 -72l31 -90t27.5 -81t14 -45q3 11 14.5 43.5t26 72.5t29.5 81t25 71l212 618h190z" />
    <glyph glyph-name="z" unicode="z" horiz-adv-x="1024" 
d="M49 0v137l661 806h-621v139h824v-137l-662 -806h699v-139h-901z" />
    <glyph glyph-name="braceleft" unicode="{" horiz-adv-x="684" 
d="M513 -425q-65 0 -114.5 20.5t-82.5 58.5t-50 92t-17 122v361q0 63 -14.5 107t-42 72t-67.5 42t-91 16v127q51 2 91 16t67.5 42t42 72t14.5 106v362q0 141 66.5 217t197.5 76h135v-129h-63q-91 0 -129.5 -53.5t-38.5 -161.5v-356q0 -50 -15 -92t-41 -74t-61.5 -54
t-76.5 -32v-2q43 -10 78.5 -32t61 -54.5t40 -74.5t14.5 -93v-357q0 -106 38.5 -160.5t129.5 -54.5h63v-129h-135z" />
    <glyph glyph-name="bar" unicode="|" horiz-adv-x="532" 
d="M183 -434v1918h166v-1918h-166z" />
    <glyph glyph-name="braceright" unicode="}" horiz-adv-x="684" 
d="M94 -296q91 0 130.5 54.5t39.5 160.5v357q0 51 14 93t39.5 74.5t61 54.5t78.5 32v2q-42 10 -77 32t-61 54t-40.5 74t-14.5 92v356q0 108 -39.5 161.5t-130.5 53.5h-60v129h132q131 0 197.5 -76t66.5 -217v-362q0 -62 14.5 -106t42 -72t68 -42t92.5 -16v-127
q-52 -2 -92.5 -16t-68 -42t-42 -72t-14.5 -107v-361q0 -68 -17 -122t-50 -92t-82.5 -58.5t-114.5 -20.5h-132v129h60z" />
    <glyph glyph-name="asciitilde" unicode="~" horiz-adv-x="1196" 
d="M844 553q-69 0 -141.5 22t-145.5 48q-129 45 -217 45q-38 0 -70.5 -6t-62.5 -17.5t-58 -27.5t-57 -37v143q50 38 116 61t147 23q40 0 80 -6.5t78.5 -16.5t76 -23t74.5 -26q21 -8 46 -15.5t50.5 -14.5t51 -11t48.5 -4q69 0 130.5 25t113.5 67v-149q-32 -23 -61.5 -38
t-60 -24.5t-64.5 -13.5t-74 -4z" />
    <glyph glyph-name="exclamdown" unicode="&#xa1;" horiz-adv-x="682" 
d="M266 685h148l24 -1012h-196zM440 1082v-201h-194v201h194z" />
    <glyph glyph-name="cent" unicode="&#xa2;" 
d="M538 282v830q-41 -6 -72 -22q-52 -25 -84 -76.5t-45.5 -129.5t-13.5 -183q0 -93 13.5 -171t45.5 -134.5t84 -87.5q32 -19 72 -26zM662 1109v-825q54 12 94 45q65 52 80 160l182 -12q-8 -62 -33.5 -120t-69.5 -104t-107 -77t-146 -39v-168h-124v168q-111 10 -188 56.5
t-124.5 121t-69 172t-21.5 210.5q0 150 33 253t88.5 168.5t128.5 97t153 38.5v155h124v-155q78 -8 138 -35.5t103 -70t70 -97t39 -117.5l-185 -14q-14 90 -71 143q-37 34 -94 46z" />
    <glyph glyph-name="sterling" unicode="&#xa3;" 
d="M1104 311q-9 -80 -37.5 -138.5t-73 -97t-102 -57t-124.5 -18.5h-698v154q89 46 132 126t43 201v144h-186v129h186v280q0 92 24 165.5t73.5 124.5t125.5 78.5t179 27.5q70 0 131.5 -14.5t111 -43.5t85 -72t53.5 -100l-174 -57q-10 31 -29.5 57t-46 44t-59 28t-68.5 10
q-114 0 -170 -57.5t-56 -182.5v-288h408v-129h-408v-126q0 -56 -11 -109t-33 -99t-53.5 -81.5t-71.5 -56.5h483q38 0 71.5 9.5t60 30.5t45 54.5t26.5 81.5z" />
    <glyph glyph-name="currency" unicode="&#xa4;" 
d="M137 684q0 71 20.5 134.5t57.5 117.5l-100 100l104 103l99 -101q54 39 117.5 60.5t136.5 21.5q71 0 134 -21t117 -59l97 97l104 -105l-96 -96q37 -54 58.5 -117.5t21.5 -134.5t-22 -135t-60 -117l100 -100l-102 -105l-101 101q-54 -37 -117 -57.5t-134 -20.5
q-72 0 -136 21t-116 59l-105 -105l-102 105l102 102q-37 54 -57.5 117.5t-20.5 134.5zM291 686q0 -58 22 -109t60.5 -89t89.5 -60t109 -22q57 0 108 22t89.5 60t60.5 89t22 109t-22 109t-60.5 89t-89.5 60.5t-108 22.5q-58 0 -109 -22.5t-89.5 -60.5t-60.5 -89t-22 -109z
" />
    <glyph glyph-name="yen" unicode="&#xa5;" 
d="M720 709h321v-125h-383v-154h383v-127h-383v-303h-178v303h-381v127h381l2 154h-383v125h320l-421 700h199l371 -647l375 647h199z" />
    <glyph glyph-name="brokenbar" unicode="&#xa6;" horiz-adv-x="532" 
d="M183 706v778h166v-778h-166zM183 -434v779h166v-779h-166z" />
    <glyph glyph-name="section" unicode="&#xa7;" 
d="M588 1484q79 0 148 -15t123 -46.5t90.5 -80.5t51.5 -118l-161 -20q-8 45 -31 74t-57 46t-76 23.5t-88 6.5q-125 0 -189.5 -39.5t-64.5 -110.5q0 -45 25 -77t66.5 -55t96 -39t113.5 -30q68 -16 137.5 -39t125.5 -59.5t91 -89.5t35 -129q0 -45 -14 -88.5t-41.5 -80
t-68.5 -64t-95 -40.5q49 -21 88.5 -46.5t67 -57.5t42.5 -72.5t15 -91.5q0 -73 -29 -131.5t-85 -100t-138 -63.5t-189 -22q-93 0 -170 13.5t-135.5 45.5t-98 84t-58.5 129l161 31q12 -55 39 -88.5t66 -52t89 -25t107 -6.5q58 0 109 9t89 29t60.5 52.5t22.5 79.5
q0 54 -28.5 90t-76 61.5t-109 43.5t-126.5 34q-65 15 -130.5 38t-117.5 59.5t-84.5 89t-32.5 126.5q0 45 16 86.5t45.5 77t71.5 62t95 41.5q-42 14 -79.5 37t-66 55t-45 72t-16.5 88q0 139 105.5 216.5t308.5 77.5zM866 663q0 48 -26.5 82.5t-70.5 60t-100.5 43t-117.5 31.5
q-58 -3 -102.5 -19.5t-74.5 -42.5t-45.5 -60.5t-15.5 -73.5q0 -46 24.5 -79t65.5 -57t95 -41t114 -32q54 1 100.5 13t80.5 35.5t53.5 58.5t19.5 81z" />
    <glyph glyph-name="dieresis" unicode="&#xa8;" horiz-adv-x="682" 
d="M439 1219v184h163v-184h-163zM45 1219v184h165v-184h-165z" />
    <glyph glyph-name="copyright" unicode="&#xa9;" horiz-adv-x="1509" 
d="M1477 707q0 -100 -26 -192.5t-73 -173t-112.5 -146t-146 -112.5t-173 -73t-192.5 -26q-99 0 -191.5 26t-172.5 73t-146.5 112.5t-113.5 146t-73 173t-26 192.5t26 192t73 172.5t113 146.5t146.5 113t172.5 73t192 26q150 0 281.5 -57t230 -155t155 -229.5t56.5 -281.5z
M1385 707q0 86 -22.5 166.5t-63.5 150t-99 127t-128 98.5t-150.5 63.5t-167.5 22.5q-130 0 -244 -49.5t-199.5 -135t-135 -199.5t-49.5 -244q0 -131 49.5 -245.5t135 -200t199.5 -134.5t244 -49q87 0 167.5 22.5t150.5 63t128 98t99 127.5t63.5 150.5t22.5 167.5zM498 709
q0 -72 16.5 -132t50 -103t83.5 -67t117 -24q49 0 86.5 13.5t65.5 36t47.5 50t33.5 56.5l115 -35q-22 -43 -51 -83.5t-70 -72t-96.5 -50.5t-130.5 -19q-101 0 -175.5 32t-123.5 89t-73 136t-24 173q0 97 24 175.5t72.5 134t121.5 85t171 29.5q75 0 131 -18t96 -47.5t67.5 -67
t45.5 -76.5l-114 -33q-12 26 -31 51t-46.5 44t-63.5 30.5t-83 11.5q-69 0 -118.5 -23t-81.5 -64.5t-47 -100.5t-15 -131z" />
    <glyph glyph-name="ordfeminine" unicode="&#xaa;" horiz-adv-x="758" 
d="M260 651q-53 0 -96 14.5t-74 42.5t-47.5 69t-16.5 93q0 69 25.5 115t68.5 74t99.5 40t118.5 13l178 4v60q0 46 -10.5 76t-30 47.5t-47.5 24.5t-63 7q-67 0 -107.5 -29.5t-49.5 -105.5l-149 10q7 47 28.5 88t59 72t91.5 48.5t125 17.5q68 0 122.5 -14.5t93 -44.5
t59.5 -77.5t21 -113.5v-308q0 -58 14 -83t49 -25q12 0 23 2.5t20 5.5v-104q-19 -5 -40 -9t-43 -4q-41 0 -69.5 11t-47.5 30.5t-29 45t-12 54.5h-4q-38 -77 -104 -112t-156 -35zM299 762q48 0 88 17t68.5 44.5t44.5 63t16 72.5v65l-138 -4q-41 -2 -78 -7.5t-64.5 -20
t-43.5 -40.5t-16 -69q0 -56 29 -88.5t94 -32.5z" />
    <glyph glyph-name="guillemotleft" unicode="&#xab;" 
d="M886 141l-338 365v63l338 371h168v-31l-338 -372l340 -367v-29h-170zM419 141l-336 365v63l336 371h167v-31l-335 -372l337 -367v-29h-169z" />
    <glyph glyph-name="logicalnot" unicode="&#xac;" horiz-adv-x="1196" 
d="M950 180v428h-850v146h995v-574h-145z" />
    <glyph glyph-name="registered" unicode="&#xae;" horiz-adv-x="1509" 
d="M1477 707q0 -100 -26 -192.5t-73 -173t-112.5 -146t-146 -112.5t-173 -73t-192.5 -26q-99 0 -191.5 26t-172.5 73t-146.5 112.5t-113.5 146t-73 173t-26 192.5t26 192t73 172.5t113 146.5t146.5 113t172.5 73t192 26q150 0 281.5 -57t230 -155t155 -229.5t56.5 -281.5z
M1385 707q0 86 -22.5 166.5t-63.5 150t-99 127t-128 98.5t-150.5 63.5t-167.5 22.5q-130 0 -244 -49.5t-199.5 -135t-135 -199.5t-49.5 -244q0 -131 49.5 -245.5t135 -200t199.5 -134.5t244 -49q87 0 167.5 22.5t150.5 63t128 98t99 127.5t63.5 150.5t22.5 167.5zM955 289
l-199 336h-161v-336h-127v831h307q142 0 217.5 -63t75.5 -174q0 -102 -52 -163.5t-137 -80.5l221 -350h-145zM941 881q0 69 -47.5 105t-128.5 36h-170v-301h182q80 0 122 42.5t42 117.5z" />
    <glyph glyph-name="macron" unicode="&#xaf;" horiz-adv-x="1131" 
d="M1148 1452h-1165v94h1165v-94z" />
    <glyph glyph-name="degree" unicode="&#xb0;" horiz-adv-x="819" 
d="M696 1145q0 -59 -22.5 -111t-61.5 -90.5t-91.5 -61t-111.5 -22.5t-111 22.5t-91 61t-62 90.5t-23 111q0 60 23 112t62 90.5t91 60.5t111 22t111.5 -22t91.5 -60.5t61.5 -90.5t22.5 -112zM587 1145q0 37 -13.5 70t-37.5 57.5t-56.5 38.5t-70.5 14q-37 0 -69.5 -14
t-56.5 -38.5t-38 -57.5t-14 -70t14 -69.5t38 -57t56.5 -39t69.5 -14.5q38 0 70.5 14.5t56.5 39t37.5 57t13.5 69.5z" />
    <glyph glyph-name="plusminus" unicode="&#xb1;" horiz-adv-x="1124" 
d="M636 680v-395h-147v395h-424v145h424v394h147v-394h424v-145h-424zM65 0v145h995v-145h-995z" />
    <glyph glyph-name="uni00B2" unicode="&#xb2;" horiz-adv-x="682" 
d="M43 563l-2 103q27 61 71 109t94 88.5t101.5 76.5t92.5 72.5t67 76.5t26 89q0 62 -35.5 99.5t-109.5 37.5q-68 0 -112 -36.5t-52 -104.5l-133 8q6 51 29 94.5t61 75.5t91.5 50.5t121.5 18.5q65 0 116.5 -16.5t87 -46.5t54 -73t18.5 -97q0 -62 -27 -112t-68.5 -93
t-92.5 -80.5t-98.5 -74t-86.5 -73.5t-57 -79h443v-113h-600z" />
    <glyph glyph-name="uni00B3" unicode="&#xb3;" horiz-adv-x="682" 
d="M642 795q0 -116 -77.5 -180t-219.5 -64q-87 0 -145 19.5t-94.5 51.5t-54.5 72.5t-24 83.5l136 13q9 -67 53 -101.5t129 -34.5q77 0 118.5 36t41.5 112q0 45 -18.5 72t-46.5 41.5t-61.5 19t-62.5 4.5h-61v109h57q29 0 59.5 6.5t55.5 22t41 42t16 66.5q0 60 -37 94.5
t-108 34.5q-68 0 -110 -35t-48 -100l-135 12q7 58 32 101t64.5 71.5t90.5 42.5t110 14q69 0 121 -16.5t87 -46t52.5 -69t17.5 -85.5q0 -75 -43 -130t-133 -75v-2q52 -5 89.5 -23.5t61.5 -45.5t35 -61.5t11 -71.5z" />
    <glyph glyph-name="acute" unicode="&#xb4;" horiz-adv-x="682" 
d="M72 1201v20l217 287h207v-29l-330 -278h-94z" />
    <glyph glyph-name="u00B5" unicode="&#xb5;" horiz-adv-x="1180" 
d="M140 -425v1507h181v-686q0 -78 16 -131t45 -85.5t71 -46.5t94 -14q128 0 201 87t73 249v627h180v-816q0 -44 5.5 -72t15.5 -44t24.5 -22.5t32.5 -6.5q11 0 27 2.5t27 5.5v-129q-26 -8 -51.5 -14t-61.5 -6q-54 0 -89.5 15t-57.5 41t-32 61.5t-12 76.5h-3
q-52 -95 -125.5 -144.5t-173.5 -49.5q-67 0 -121.5 20.5t-85.5 58.5v-484h-180z" />
    <glyph glyph-name="paragraph" unicode="&#xb6;" horiz-adv-x="1100" 
d="M884 1307v-1571h-112v1571h-217v-1571h-113v958q-80 0 -146.5 22.5t-114.5 66.5t-74.5 110.5t-26.5 155.5q0 84 25 150.5t72.5 113t116.5 71.5t156 25h563v-102h-129z" />
    <glyph glyph-name="periodcentered" unicode="&#xb7;" horiz-adv-x="569" 
d="M187 446v220h195v-220h-195z" />
    <glyph glyph-name="periodcentered" unicode="&#x2219;" horiz-adv-x="569" 
d="M187 446v220h195v-220h-195z" />
    <glyph glyph-name="cedilla" unicode="&#xb8;" horiz-adv-x="682" 
d="M483 -253q0 -41 -15 -74.5t-47.5 -57.5t-84.5 -36.5t-127 -12.5q-20 0 -42.5 0.5t-47.5 3.5v98q49 -6 86 -6q41 0 69 6t45.5 16.5t25 25.5t7.5 33q0 37 -30.5 57t-102.5 20h-28.5t-28.5 -2l65 182h107l-39 -100q94 -3 141 -43.5t47 -109.5z" />
    <glyph glyph-name="uni00B9" unicode="&#xb9;" horiz-adv-x="682" 
d="M80 563v107h211v620l-202 -138v120l210 137h123v-739h215v-107h-557z" />
    <glyph glyph-name="ordmasculine" unicode="&#xba;" horiz-adv-x="748" 
d="M723 1042q0 -188 -88 -289.5t-263 -101.5q-168 0 -256.5 100.5t-88.5 290.5q0 91 21.5 163.5t65 123t109 77t153.5 26.5q93 0 158.5 -26.5t107.5 -76.5t61.5 -122.5t19.5 -164.5zM574 1042q0 83 -12.5 138t-37.5 87.5t-61 46t-84 13.5t-85.5 -13.5t-63 -46.5t-38.5 -88
t-13 -137q0 -84 14 -139t39.5 -88t60.5 -46t78 -13q49 0 86.5 13t63.5 46t39.5 88t13.5 139z" />
    <glyph glyph-name="guillemotright" unicode="&#xbb;" 
d="M718 141h-168v29l338 367l-336 372v31h166l338 -371v-63zM253 141h-170v29l338 367l-336 372v31h168l335 -371v-63z" />
    <glyph glyph-name="onequarter" unicode="&#xbc;" horiz-adv-x="1708" 
d="M56 563v107h211v620l-202 -138v120l210 137h123v-739h215v-107h-557zM493 0h-148l881 1409h145zM1503 180v-178h-131v178h-406v111l386 557h151v-555h111v-113h-111zM1374 715q-7 -13 -18 -31.5t-23 -38t-23 -37t-18 -28.5l-199 -287h279v289v33v38q0 19 0.5 36t1.5 26z
" />
    <glyph glyph-name="onehalf" unicode="&#xbd;" horiz-adv-x="1708" 
d="M56 563v107h211v620l-202 -138v120l210 137h123v-739h215v-107h-557zM493 0h-148l881 1409h145zM1053 2l-2 103q27 61 71 109t94 88.5t101.5 76.5t92.5 72.5t67 76.5t26 89q0 62 -35.5 99.5t-109.5 37.5q-68 0 -112 -36.5t-52 -104.5l-133 8q6 51 29 94.5t61 75.5
t91.5 50.5t121.5 18.5q65 0 116.5 -16.5t87 -46.5t54 -73t18.5 -97q0 -62 -27 -112t-68.5 -93t-92.5 -80.5t-98.5 -74t-86.5 -73.5t-57 -79h443v-113h-600z" />
    <glyph glyph-name="threequarters" unicode="&#xbe;" horiz-adv-x="1708" 
d="M513 0h-148l881 1409h145zM1503 180v-178h-131v178h-406v111l386 557h151v-555h111v-113h-111zM1374 715q-7 -13 -18 -31.5t-23 -38t-23 -37t-18 -28.5l-199 -287h279v289v33v38q0 19 0.5 36t1.5 26zM688 795q0 -116 -77.5 -180t-219.5 -64q-87 0 -145 19.5t-94.5 51.5
t-54.5 72.5t-24 83.5l136 13q9 -67 53 -101.5t129 -34.5q77 0 118.5 36t41.5 112q0 45 -18.5 72t-46.5 41.5t-61.5 19t-62.5 4.5h-61v109h57q29 0 59.5 6.5t55.5 22t41 42t16 66.5q0 60 -37 94.5t-108 34.5q-68 0 -110 -35t-48 -100l-135 12q7 58 32 101t64.5 71.5
t90.5 42.5t110 14q69 0 121 -16.5t87 -46t52.5 -69t17.5 -85.5q0 -75 -43 -130t-133 -75v-2q52 -5 89.5 -23.5t61.5 -45.5t35 -61.5t11 -71.5z" />
    <glyph glyph-name="questiondown" unicode="&#xbf;" horiz-adv-x="1251" 
d="M131 50q0 71 18.5 125t49.5 96.5t70.5 76t80.5 63.5t80.5 59t71 63t51 75.5t20.5 96.5h175q-2 -69 -21.5 -121t-50.5 -92t-70 -71.5t-79 -60t-78.5 -57t-68.5 -63.5t-48.5 -79t-18.5 -103t21 -105t59.5 -77.5t93 -47.5t121.5 -16q140 0 222 70t96 192l184 -12
q-11 -84 -44.5 -158.5t-94 -130.5t-150 -88.5t-211.5 -32.5q-114 0 -203 28t-150.5 79.5t-93.5 125t-32 165.5zM756 1082v-201h-195v201h195z" />
    <glyph glyph-name="Agrave" unicode="&#xc0;" horiz-adv-x="1366" 
d="M1167 0l-161 412h-642l-162 -412h-198l575 1409h217l566 -1409h-195zM768 1026q-16 40 -30.5 81t-25.5 74.5t-18.5 56t-8.5 27.5q-2 -5 -9 -28t-18.5 -57t-26 -75t-29.5 -81l-180 -463h527zM750 1530l-310 217v29h207l217 -226v-20h-114z" />
    <glyph glyph-name="Aacute" unicode="&#xc1;" horiz-adv-x="1366" 
d="M1167 0l-161 412h-642l-162 -412h-198l575 1409h217l566 -1409h-195zM768 1026q-16 40 -30.5 81t-25.5 74.5t-18.5 56t-8.5 27.5q-2 -5 -9 -28t-18.5 -57t-26 -75t-29.5 -81l-180 -463h527zM547 1530v20l217 226h207v-29l-310 -217h-114z" />
    <glyph glyph-name="Acircumflex" unicode="&#xc2;" horiz-adv-x="1366" 
d="M1167 0l-161 412h-642l-162 -412h-198l575 1409h217l566 -1409h-195zM768 1026q-16 40 -30.5 81t-25.5 74.5t-18.5 56t-8.5 27.5q-2 -5 -9 -28t-18.5 -57t-26 -75t-29.5 -81l-180 -463h527zM1014 1550v-20h-105l-219 139h-2l-232 -139h-104v20l234 240h204z" />
    <glyph glyph-name="Atilde" unicode="&#xc3;" horiz-adv-x="1366" 
d="M1167 0l-161 412h-642l-162 -412h-198l575 1409h217l566 -1409h-195zM768 1026q-16 40 -30.5 81t-25.5 74.5t-18.5 56t-8.5 27.5q-2 -5 -9 -28t-18.5 -57t-26 -75t-29.5 -81l-180 -463h527zM842 1530q-42 0 -84 18.5t-81 41t-74.5 41t-66.5 18.5q-55 0 -82 -31t-36 -88
h-91q5 45 15 92.5t32.5 86.5t59.5 64t96 25q44 0 86 -18.5t81 -41t73.5 -41t64.5 -18.5q54 0 81.5 31.5t35.5 87.5h92q-5 -44 -15 -91.5t-31.5 -86.5t-58.5 -64.5t-97 -25.5z" />
    <glyph glyph-name="Adieresis" unicode="&#xc4;" horiz-adv-x="1366" 
d="M1167 0l-161 412h-642l-162 -412h-198l575 1409h217l566 -1409h-195zM768 1026q-16 40 -30.5 81t-25.5 74.5t-18.5 56t-8.5 27.5q-2 -5 -9 -28t-18.5 -57t-26 -75t-29.5 -81l-180 -463h527zM803 1530v184h163v-184h-163zM409 1530v184h165v-184h-165z" />
    <glyph glyph-name="Aring" unicode="&#xc5;" horiz-adv-x="1366" 
d="M1167 0l-161 412h-642l-162 -412h-198l575 1409h217l566 -1409h-195zM768 1026q-16 40 -30.5 81t-25.5 74.5t-18.5 56t-8.5 27.5q-2 -5 -9 -28t-18.5 -57t-26 -75t-29.5 -81l-180 -463h527zM928 1546q0 -50 -19 -94t-52 -77t-77 -52t-94 -19t-94 19t-77 52t-52 77t-19 94
t19 94t52 76.5t77 51.5t94 19t94 -19t77 -51.5t52 -76.5t19 -94zM820 1546q0 28 -10.5 52.5t-28.5 42.5t-42.5 28.5t-52.5 10.5q-29 0 -53.5 -10.5t-42.5 -28.5t-28.5 -42.5t-10.5 -52.5q0 -29 10.5 -53.5t28.5 -43.5t42.5 -29.5t53.5 -10.5q28 0 52.5 10.5t42.5 29.5
t28.5 43.5t10.5 53.5z" />
    <glyph glyph-name="AE" unicode="&#xc6;" horiz-adv-x="2048" 
d="M969 0v412h-548l-198 -412h-199l686 1409h1209v-156h-759v-452h699v-154h-699v-491h800v-156h-991zM969 1262h-151q-1 -3 -9 -20.5t-19 -42.5t-24.5 -54t-25.5 -54.5t-21 -44.5t-11 -24l-217 -461h478v701z" />
    <glyph glyph-name="Ccedilla" unicode="&#xc7;" horiz-adv-x="1479" 
d="M792 1274q-120 0 -212.5 -40t-155 -114t-94.5 -178t-32 -231t34.5 -232.5t99 -181.5t158 -118t210.5 -42q82 0 149.5 21.5t122 60.5t97.5 92.5t76 118.5l156 -78q-38 -79 -94 -147t-131.5 -118t-171 -78.5t-213.5 -28.5q-171 0 -299.5 54.5t-215 152t-129.5 231.5
t-43 293q0 165 45.5 298t133 226.5t215.5 144t292 50.5q225 0 376 -88t222 -261l-181 -60q-20 50 -54 95.5t-85 80.5t-119.5 56t-156.5 21zM993 -253q0 -41 -15 -74.5t-47.5 -57.5t-84.5 -36.5t-127 -12.5q-20 0 -42.5 0.5t-47.5 3.5v98q49 -6 86 -6q41 0 69 6t45.5 16.5
t25 25.5t7.5 33q0 37 -30.5 57t-102.5 20h-28.5t-28.5 -2l65 182h107l-39 -100q94 -3 141 -43.5t47 -109.5z" />
    <glyph glyph-name="Egrave" unicode="&#xc8;" horiz-adv-x="1366" 
d="M168 0v1409h1069v-156h-878v-452h818v-154h-818v-491h919v-156h-1110zM735 1530l-310 217v29h207l217 -226v-20h-114z" />
    <glyph glyph-name="Eacute" unicode="&#xc9;" horiz-adv-x="1366" 
d="M168 0v1409h1069v-156h-878v-452h818v-154h-818v-491h919v-156h-1110zM551 1530v20l217 226h207v-29l-310 -217h-114z" />
    <glyph glyph-name="Ecircumflex" unicode="&#xca;" horiz-adv-x="1366" 
d="M168 0v1409h1069v-156h-878v-452h818v-154h-818v-491h919v-156h-1110zM1037 1550v-20h-105l-219 139h-2l-232 -139h-104v20l234 240h204z" />
    <glyph glyph-name="Edieresis" unicode="&#xcb;" horiz-adv-x="1366" 
d="M168 0v1409h1069v-156h-878v-452h818v-154h-818v-491h919v-156h-1110zM816 1530v184h163v-184h-163zM422 1530v184h165v-184h-165z" />
    <glyph glyph-name="Igrave" unicode="&#xcc;" horiz-adv-x="569" 
d="M189 0v1409h191v-1409h-191zM319 1530l-310 217v29h207l217 -226v-20h-114z" />
    <glyph glyph-name="Iacute" unicode="&#xcd;" horiz-adv-x="569" 
d="M189 0v1409h191v-1409h-191zM142 1530v20l217 226h207v-29l-310 -217h-114z" />
    <glyph glyph-name="Icircumflex" unicode="&#xce;" horiz-adv-x="569" 
d="M189 0v1409h191v-1409h-191zM616 1550v-20h-105l-219 139h-2l-232 -139h-104v20l234 240h204z" />
    <glyph glyph-name="Idieresis" unicode="&#xcf;" horiz-adv-x="569" 
d="M189 0v1409h191v-1409h-191zM401 1530v184h163v-184h-163zM7 1530v184h165v-184h-165z" />
    <glyph glyph-name="Eth" unicode="&#xd0;" horiz-adv-x="1479" 
d="M14 801h154v608h466q163 0 300.5 -40.5t236.5 -125t154.5 -214.5t55.5 -310q0 -176 -53 -310.5t-145 -225t-217.5 -137t-270.5 -46.5h-527v647h-154v154zM1189 719q0 143 -41 244.5t-115 166.5t-177 95.5t-226 30.5h-271v-455h406v-154h-406v-494h314q111 0 205.5 36
t163.5 107t108 177t39 246z" />
    <glyph glyph-name="Ntilde" unicode="&#xd1;" horiz-adv-x="1479" 
d="M1082 0l-754 1200q2 -49 5 -97q2 -41 3.5 -86.5t1.5 -80.5v-936h-170v1409h222l762 -1208l-6 98q-2 42 -4 91.5t-2 94.5v924h172v-1409h-230zM909 1530q-42 0 -84 18.5t-81 41t-74.5 41t-66.5 18.5q-55 0 -82 -31t-36 -88h-91q5 45 15 92.5t32.5 86.5t59.5 64t96 25
q44 0 86 -18.5t81 -41t73.5 -41t64.5 -18.5q54 0 81.5 31.5t35.5 87.5h92q-5 -44 -15 -91.5t-31.5 -86.5t-58.5 -64.5t-97 -25.5z" />
    <glyph glyph-name="Ograve" unicode="&#xd2;" horiz-adv-x="1593" 
d="M1495 711q0 -165 -47.5 -300t-137.5 -231t-220 -148t-295 -52q-174 0 -305 54.5t-218 152t-131 231.5t-44 293q0 165 46 298t135 226.5t219.5 144t299.5 50.5q168 0 298.5 -51t219 -145t134.5 -227t46 -296zM1300 711q0 127 -32.5 231t-96 178t-157.5 114t-217 40
q-126 0 -221 -40t-158.5 -114t-95 -178t-31.5 -231t32.5 -232.5t96 -182t158 -119t217.5 -42.5q132 0 227.5 43t157 119.5t91 182.5t29.5 231zM854 1530l-310 217v29h207l217 -226v-20h-114z" />
    <glyph glyph-name="Oacute" unicode="&#xd3;" horiz-adv-x="1593" 
d="M1495 711q0 -165 -47.5 -300t-137.5 -231t-220 -148t-295 -52q-174 0 -305 54.5t-218 152t-131 231.5t-44 293q0 165 46 298t135 226.5t219.5 144t299.5 50.5q168 0 298.5 -51t219 -145t134.5 -227t46 -296zM1300 711q0 127 -32.5 231t-96 178t-157.5 114t-217 40
q-126 0 -221 -40t-158.5 -114t-95 -178t-31.5 -231t32.5 -232.5t96 -182t158 -119t217.5 -42.5q132 0 227.5 43t157 119.5t91 182.5t29.5 231zM621 1530v20l217 226h207v-29l-310 -217h-114z" />
    <glyph glyph-name="Ocircumflex" unicode="&#xd4;" horiz-adv-x="1593" 
d="M1495 711q0 -165 -47.5 -300t-137.5 -231t-220 -148t-295 -52q-174 0 -305 54.5t-218 152t-131 231.5t-44 293q0 165 46 298t135 226.5t219.5 144t299.5 50.5q168 0 298.5 -51t219 -145t134.5 -227t46 -296zM1300 711q0 127 -32.5 231t-96 178t-157.5 114t-217 40
q-126 0 -221 -40t-158.5 -114t-95 -178t-31.5 -231t32.5 -232.5t96 -182t158 -119t217.5 -42.5q132 0 227.5 43t157 119.5t91 182.5t29.5 231zM1131 1550v-20h-105l-219 139h-2l-232 -139h-104v20l234 240h204z" />
    <glyph glyph-name="Otilde" unicode="&#xd5;" horiz-adv-x="1593" 
d="M1495 711q0 -165 -47.5 -300t-137.5 -231t-220 -148t-295 -52q-174 0 -305 54.5t-218 152t-131 231.5t-44 293q0 165 46 298t135 226.5t219.5 144t299.5 50.5q168 0 298.5 -51t219 -145t134.5 -227t46 -296zM1300 711q0 127 -32.5 231t-96 178t-157.5 114t-217 40
q-126 0 -221 -40t-158.5 -114t-95 -178t-31.5 -231t32.5 -232.5t96 -182t158 -119t217.5 -42.5q132 0 227.5 43t157 119.5t91 182.5t29.5 231zM941 1530q-42 0 -84 18.5t-81 41t-74.5 41t-66.5 18.5q-55 0 -82 -31t-36 -88h-91q5 45 15 92.5t32.5 86.5t59.5 64t96 25
q44 0 86 -18.5t81 -41t73.5 -41t64.5 -18.5q54 0 81.5 31.5t35.5 87.5h92q-5 -44 -15 -91.5t-31.5 -86.5t-58.5 -64.5t-97 -25.5z" />
    <glyph glyph-name="Odieresis" unicode="&#xd6;" horiz-adv-x="1593" 
d="M1495 711q0 -165 -47.5 -300t-137.5 -231t-220 -148t-295 -52q-174 0 -305 54.5t-218 152t-131 231.5t-44 293q0 165 46 298t135 226.5t219.5 144t299.5 50.5q168 0 298.5 -51t219 -145t134.5 -227t46 -296zM1300 711q0 127 -32.5 231t-96 178t-157.5 114t-217 40
q-126 0 -221 -40t-158.5 -114t-95 -178t-31.5 -231t32.5 -232.5t96 -182t158 -119t217.5 -42.5q132 0 227.5 43t157 119.5t91 182.5t29.5 231zM910 1530v184h163v-184h-163zM516 1530v184h165v-184h-165z" />
    <glyph glyph-name="multiply" unicode="&#xd7;" horiz-adv-x="1196" 
d="M142 330l354 354l-352 352l104 103l350 -353l350 351l105 -105l-350 -348l352 -352l-102 -105l-353 353l-356 -355z" />
    <glyph glyph-name="Oslash" unicode="&#xd8;" horiz-adv-x="1593" 
d="M1495 711q0 -165 -47.5 -300t-137.5 -231t-220 -148t-295 -52q-127 0 -230 29t-184 83l-120 -145h-190l200 241q-88 97 -131 230t-43 293q0 165 46 298t135 226.5t219.5 144t299.5 50.5q125 0 228.5 -28t185.5 -82l121 146h192l-201 -242q85 -94 128.5 -223.5
t43.5 -289.5zM1300 711q0 112 -24.5 204t-73.5 164l-709 -853q59 -44 134 -67.5t168 -23.5q132 0 227.5 43t157 119.5t91 182.5t29.5 231zM291 711q0 -113 25 -208t76 -170l707 853q-59 42 -134.5 65t-167.5 23q-126 0 -221 -40t-158.5 -114t-95 -178t-31.5 -231z" />
    <glyph glyph-name="Ugrave" unicode="&#xd9;" horiz-adv-x="1479" 
d="M731 -20q-116 0 -220 31t-182.5 96.5t-124.5 166t-46 238.5v897h191v-881q0 -107 28.5 -181.5t79.5 -121.5t120.5 -68.5t152.5 -21.5q82 0 155 22t128 70t86.5 125.5t31.5 188.5v868h190v-879q0 -141 -46.5 -244.5t-126.5 -171.5t-187.5 -101t-229.5 -33zM813 1530
l-310 217v29h207l217 -226v-20h-114z" />
    <glyph glyph-name="Uacute" unicode="&#xda;" horiz-adv-x="1479" 
d="M731 -20q-116 0 -220 31t-182.5 96.5t-124.5 166t-46 238.5v897h191v-881q0 -107 28.5 -181.5t79.5 -121.5t120.5 -68.5t152.5 -21.5q82 0 155 22t128 70t86.5 125.5t31.5 188.5v868h190v-879q0 -141 -46.5 -244.5t-126.5 -171.5t-187.5 -101t-229.5 -33zM565 1530v20
l217 226h207v-29l-310 -217h-114z" />
    <glyph glyph-name="Ucircumflex" unicode="&#xdb;" horiz-adv-x="1479" 
d="M731 -20q-116 0 -220 31t-182.5 96.5t-124.5 166t-46 238.5v897h191v-881q0 -107 28.5 -181.5t79.5 -121.5t120.5 -68.5t152.5 -21.5q82 0 155 22t128 70t86.5 125.5t31.5 188.5v868h190v-879q0 -141 -46.5 -244.5t-126.5 -171.5t-187.5 -101t-229.5 -33zM1070 1550v-20
h-105l-219 139h-2l-232 -139h-104v20l234 240h204z" />
    <glyph glyph-name="Udieresis" unicode="&#xdc;" horiz-adv-x="1479" 
d="M731 -20q-116 0 -220 31t-182.5 96.5t-124.5 166t-46 238.5v897h191v-881q0 -107 28.5 -181.5t79.5 -121.5t120.5 -68.5t152.5 -21.5q82 0 155 22t128 70t86.5 125.5t31.5 188.5v868h190v-879q0 -141 -46.5 -244.5t-126.5 -171.5t-187.5 -101t-229.5 -33zM853 1530v184
h163v-184h-163zM459 1530v184h165v-184h-165z" />
    <glyph glyph-name="Yacute" unicode="&#xdd;" horiz-adv-x="1366" 
d="M777 584v-584h-190v584l-542 825h210l429 -671l427 671h210zM536 1530v20l217 226h207v-29l-310 -217h-114z" />
    <glyph glyph-name="Thorn" unicode="&#xde;" horiz-adv-x="1366" 
d="M1258 735q0 -88 -29.5 -167.5t-90 -139.5t-151.5 -95.5t-214 -35.5h-414v-297h-191v1409h191v-252h402q125 0 218 -30t155 -85.5t93 -133.5t31 -173zM1066 731q0 134 -82 208.5t-246 74.5h-379v-576h387q82 0 142.5 22t100 61.5t58.5 93t19 116.5z" />
    <glyph glyph-name="germandbls" unicode="&#xdf;" horiz-adv-x="1251" 
d="M1167 295q0 -66 -20.5 -123.5t-64 -100t-111.5 -67t-162 -24.5q-80 0 -154 12.5t-129 36.5l-2 164q25 -14 58.5 -26.5t70.5 -22t76 -15t76 -5.5q92 0 141 43t49 122q0 56 -27 94.5t-67.5 69.5t-88 59.5t-88 65t-67.5 85.5t-27 122q0 51 16.5 87.5t41 65.5t53.5 53
t53.5 50t41 57.5t16.5 74.5q0 37 -16.5 68t-48 53.5t-76.5 35.5t-102 13q-68 0 -121.5 -17.5t-90 -56t-56 -99.5t-19.5 -149v-1021h-180v1027q0 118 31.5 204.5t91.5 142.5t147 83t197 27q102 0 179.5 -23t130 -63t79 -94.5t26.5 -116.5q0 -61 -16.5 -106t-42 -79.5
t-54.5 -61t-54.5 -50t-42 -47.5t-16.5 -52q0 -38 27.5 -67.5t68.5 -58t88.5 -60.5t88.5 -74.5t68.5 -99.5t27.5 -136z" />
    <glyph glyph-name="agrave" unicode="&#xe0;" 
d="M414 -20q-163 0 -245 86t-82 236q0 107 40.5 175.5t106 107.5t149.5 54t171 17l243 4v59q0 67 -14 114t-43 76t-72.5 42.5t-102.5 13.5q-52 0 -94 -7.5t-73 -27t-50 -53t-25 -84.5l-188 17q10 64 38 117.5t79.5 92.5t129 60.5t187.5 21.5q204 0 307 -93.5t103 -270.5
v-466q0 -80 21 -120.5t80 -40.5q15 0 30 2t29 5v-112q-34 -8 -67.5 -12t-71.5 -4q-51 0 -87.5 13.5t-59.5 41t-35 68t-15 94.5h-6q-29 -52 -63.5 -94t-80.5 -71.5t-104.5 -45.5t-134.5 -16zM455 115q86 0 150.5 31.5t107 80.5t63.5 107t21 111v89l-197 -4
q-66 -1 -125.5 -9.5t-104.5 -33.5t-71.5 -70t-26.5 -118q0 -88 47.5 -136t135.5 -48zM624 1201l-330 278v29h207l217 -287v-20h-94z" />
    <glyph glyph-name="aacute" unicode="&#xe1;" 
d="M414 -20q-163 0 -245 86t-82 236q0 107 40.5 175.5t106 107.5t149.5 54t171 17l243 4v59q0 67 -14 114t-43 76t-72.5 42.5t-102.5 13.5q-52 0 -94 -7.5t-73 -27t-50 -53t-25 -84.5l-188 17q10 64 38 117.5t79.5 92.5t129 60.5t187.5 21.5q204 0 307 -93.5t103 -270.5
v-466q0 -80 21 -120.5t80 -40.5q15 0 30 2t29 5v-112q-34 -8 -67.5 -12t-71.5 -4q-51 0 -87.5 13.5t-59.5 41t-35 68t-15 94.5h-6q-29 -52 -63.5 -94t-80.5 -71.5t-104.5 -45.5t-134.5 -16zM455 115q86 0 150.5 31.5t107 80.5t63.5 107t21 111v89l-197 -4
q-66 -1 -125.5 -9.5t-104.5 -33.5t-71.5 -70t-26.5 -118q0 -88 47.5 -136t135.5 -48zM412 1201v20l217 287h207v-29l-330 -278h-94z" />
    <glyph glyph-name="acircumflex" unicode="&#xe2;" 
d="M414 -20q-163 0 -245 86t-82 236q0 107 40.5 175.5t106 107.5t149.5 54t171 17l243 4v59q0 67 -14 114t-43 76t-72.5 42.5t-102.5 13.5q-52 0 -94 -7.5t-73 -27t-50 -53t-25 -84.5l-188 17q10 64 38 117.5t79.5 92.5t129 60.5t187.5 21.5q204 0 307 -93.5t103 -270.5
v-466q0 -80 21 -120.5t80 -40.5q15 0 30 2t29 5v-112q-34 -8 -67.5 -12t-71.5 -4q-51 0 -87.5 13.5t-59.5 41t-35 68t-15 94.5h-6q-29 -52 -63.5 -94t-80.5 -71.5t-104.5 -45.5t-134.5 -16zM455 115q86 0 150.5 31.5t107 80.5t63.5 107t21 111v89l-197 -4
q-66 -1 -125.5 -9.5t-104.5 -33.5t-71.5 -70t-26.5 -118q0 -88 47.5 -136t135.5 -48zM880 1221v-20h-105l-219 169h-2l-232 -169h-104v20l234 270h204z" />
    <glyph glyph-name="atilde" unicode="&#xe3;" 
d="M414 -20q-163 0 -245 86t-82 236q0 107 40.5 175.5t106 107.5t149.5 54t171 17l243 4v59q0 67 -14 114t-43 76t-72.5 42.5t-102.5 13.5q-52 0 -94 -7.5t-73 -27t-50 -53t-25 -84.5l-188 17q10 64 38 117.5t79.5 92.5t129 60.5t187.5 21.5q204 0 307 -93.5t103 -270.5
v-466q0 -80 21 -120.5t80 -40.5q15 0 30 2t29 5v-112q-34 -8 -67.5 -12t-71.5 -4q-51 0 -87.5 13.5t-59.5 41t-35 68t-15 94.5h-6q-29 -52 -63.5 -94t-80.5 -71.5t-104.5 -45.5t-134.5 -16zM455 115q86 0 150.5 31.5t107 80.5t63.5 107t21 111v89l-197 -4
q-66 -1 -125.5 -9.5t-104.5 -33.5t-71.5 -70t-26.5 -118q0 -88 47.5 -136t135.5 -48zM737 1201q-42 0 -84 18.5t-81 41t-74.5 41t-66.5 18.5q-55 0 -82 -31t-36 -88h-91q5 45 15 92.5t32.5 86.5t59.5 64t96 25q44 0 86 -18.5t81 -41t73.5 -41t64.5 -18.5q54 0 81.5 31.5
t35.5 87.5h92q-5 -44 -15 -91.5t-31.5 -86.5t-58.5 -64.5t-97 -25.5z" />
    <glyph glyph-name="adieresis" unicode="&#xe4;" 
d="M414 -20q-163 0 -245 86t-82 236q0 107 40.5 175.5t106 107.5t149.5 54t171 17l243 4v59q0 67 -14 114t-43 76t-72.5 42.5t-102.5 13.5q-52 0 -94 -7.5t-73 -27t-50 -53t-25 -84.5l-188 17q10 64 38 117.5t79.5 92.5t129 60.5t187.5 21.5q204 0 307 -93.5t103 -270.5
v-466q0 -80 21 -120.5t80 -40.5q15 0 30 2t29 5v-112q-34 -8 -67.5 -12t-71.5 -4q-51 0 -87.5 13.5t-59.5 41t-35 68t-15 94.5h-6q-29 -52 -63.5 -94t-80.5 -71.5t-104.5 -45.5t-134.5 -16zM455 115q86 0 150.5 31.5t107 80.5t63.5 107t21 111v89l-197 -4
q-66 -1 -125.5 -9.5t-104.5 -33.5t-71.5 -70t-26.5 -118q0 -88 47.5 -136t135.5 -48zM674 1219v184h163v-184h-163zM280 1219v184h165v-184h-165z" />
    <glyph glyph-name="aring" unicode="&#xe5;" 
d="M414 -20q-163 0 -245 86t-82 236q0 107 40.5 175.5t106 107.5t149.5 54t171 17l243 4v59q0 67 -14 114t-43 76t-72.5 42.5t-102.5 13.5q-52 0 -94 -7.5t-73 -27t-50 -53t-25 -84.5l-188 17q10 64 38 117.5t79.5 92.5t129 60.5t187.5 21.5q204 0 307 -93.5t103 -270.5
v-466q0 -80 21 -120.5t80 -40.5q15 0 30 2t29 5v-112q-34 -8 -67.5 -12t-71.5 -4q-51 0 -87.5 13.5t-59.5 41t-35 68t-15 94.5h-6q-29 -52 -63.5 -94t-80.5 -71.5t-104.5 -45.5t-134.5 -16zM455 115q86 0 150.5 31.5t107 80.5t63.5 107t21 111v89l-197 -4
q-66 -1 -125.5 -9.5t-104.5 -33.5t-71.5 -70t-26.5 -118q0 -88 47.5 -136t135.5 -48zM799 1410q0 -50 -19 -94t-52 -77t-77 -52t-94 -19t-94 19t-77 52t-52 77t-19 94t19 94t52 76.5t77 51.5t94 19t94 -19t77 -51.5t52 -76.5t19 -94zM691 1410q0 28 -10.5 52.5t-28.5 42.5
t-42.5 28.5t-52.5 10.5q-29 0 -53.5 -10.5t-42.5 -28.5t-28.5 -42.5t-10.5 -52.5q0 -29 10.5 -53.5t28.5 -43.5t42.5 -29.5t53.5 -10.5q28 0 52.5 10.5t42.5 29.5t28.5 43.5t10.5 53.5z" />
    <glyph glyph-name="ae" unicode="&#xe6;" horiz-adv-x="1821" 
d="M968 503v-17q1 -82 18 -150t52 -117t89.5 -76.5t132.5 -27.5q117 0 187.5 47t95.5 119l158 -45q-17 -45 -47.5 -90.5t-81.5 -82t-127.5 -60t-184.5 -23.5q-321 0 -423 257q-29 -51 -66 -97.5t-88 -82t-119.5 -56.5t-161.5 -21q-167 0 -251.5 86t-84.5 236q0 71 19 125
t52.5 93t79 64.5t99 41.5t112 22.5t118.5 7.5l240 4v59q0 67 -13 114t-41.5 76t-72.5 42.5t-105 13.5q-54 0 -98 -7.5t-76 -27t-51.5 -53t-26.5 -84.5l-188 17q10 64 39 117.5t81.5 92.5t132 60.5t191.5 21.5q128 0 214 -35t135 -104q63 74 151.5 106.5t194.5 32.5
q136 0 227.5 -44t147 -121.5t79 -182.5t23.5 -227v-24h-762zM786 534l-195 -4q-40 -1 -80.5 -4t-78.5 -12t-71 -24.5t-57.5 -41t-38.5 -62t-14 -87.5q0 -87 50 -135.5t143 -48.5q90 0 154.5 31.5t106 80.5t61.5 107t20 111v89zM1544 641q-15 171 -87 249.5t-207 78.5
q-45 0 -93 -14.5t-88.5 -51.5t-67.5 -100.5t-31 -161.5h574z" />
    <glyph glyph-name="ccedilla" unicode="&#xe7;" horiz-adv-x="1024" 
d="M275 546q0 -93 13.5 -171t45.5 -134.5t84.5 -87.5t129.5 -31q96 0 160.5 52t79.5 160l182 -12q-9 -67 -39 -129t-81.5 -109t-125.5 -75.5t-171 -28.5q-127 0 -216 43t-144.5 118.5t-80.5 178t-25 222.5q0 109 18 192.5t50.5 146t76.5 105t95.5 68t108.5 37t115 11.5
q91 0 162 -25t122.5 -68.5t83.5 -102.5t45 -127l-185 -14q-14 90 -71 143t-162 53q-77 0 -128.5 -25.5t-83.5 -77t-45.5 -129.5t-13.5 -183zM751 -253q0 -41 -15 -74.5t-47.5 -57.5t-84.5 -36.5t-127 -12.5q-20 0 -42.5 0.5t-47.5 3.5v98q49 -6 86 -6q41 0 69 6t45.5 16.5
t25 25.5t7.5 33q0 37 -30.5 57t-102.5 20h-28.5t-28.5 -2l65 182h107l-39 -100q94 -3 141 -43.5t47 -109.5z" />
    <glyph glyph-name="egrave" unicode="&#xe8;" 
d="M276 503q0 -85 17.5 -156.5t54 -123t93.5 -80t137 -28.5q117 0 187.5 47t95.5 119l158 -45q-17 -45 -47.5 -90.5t-81.5 -82t-127.5 -60t-184.5 -23.5q-240 0 -365.5 143t-125.5 425q0 152 38 257.5t104 171.5t154 95.5t188 29.5q136 0 227.5 -44t147 -121.5t79 -182.5
t23.5 -227v-24h-772zM862 641q-15 171 -87 249.5t-207 78.5q-45 0 -94.5 -14.5t-91.5 -51.5t-71 -100.5t-33 -161.5h584zM657 1201l-330 278v29h207l217 -287v-20h-94z" />
    <glyph glyph-name="eacute" unicode="&#xe9;" 
d="M276 503q0 -85 17.5 -156.5t54 -123t93.5 -80t137 -28.5q117 0 187.5 47t95.5 119l158 -45q-17 -45 -47.5 -90.5t-81.5 -82t-127.5 -60t-184.5 -23.5q-240 0 -365.5 143t-125.5 425q0 152 38 257.5t104 171.5t154 95.5t188 29.5q136 0 227.5 -44t147 -121.5t79 -182.5
t23.5 -227v-24h-772zM862 641q-15 171 -87 249.5t-207 78.5q-45 0 -94.5 -14.5t-91.5 -51.5t-71 -100.5t-33 -161.5h584zM440 1201v20l217 287h207v-29l-330 -278h-94z" />
    <glyph glyph-name="ecircumflex" unicode="&#xea;" 
d="M276 503q0 -85 17.5 -156.5t54 -123t93.5 -80t137 -28.5q117 0 187.5 47t95.5 119l158 -45q-17 -45 -47.5 -90.5t-81.5 -82t-127.5 -60t-184.5 -23.5q-240 0 -365.5 143t-125.5 425q0 152 38 257.5t104 171.5t154 95.5t188 29.5q136 0 227.5 -44t147 -121.5t79 -182.5
t23.5 -227v-24h-772zM862 641q-15 171 -87 249.5t-207 78.5q-45 0 -94.5 -14.5t-91.5 -51.5t-71 -100.5t-33 -161.5h584zM907 1221v-20h-105l-219 169h-2l-232 -169h-104v20l234 270h204z" />
    <glyph glyph-name="edieresis" unicode="&#xeb;" 
d="M276 503q0 -85 17.5 -156.5t54 -123t93.5 -80t137 -28.5q117 0 187.5 47t95.5 119l158 -45q-17 -45 -47.5 -90.5t-81.5 -82t-127.5 -60t-184.5 -23.5q-240 0 -365.5 143t-125.5 425q0 152 38 257.5t104 171.5t154 95.5t188 29.5q136 0 227.5 -44t147 -121.5t79 -182.5
t23.5 -227v-24h-772zM862 641q-15 171 -87 249.5t-207 78.5q-45 0 -94.5 -14.5t-91.5 -51.5t-71 -100.5t-33 -161.5h584zM687 1219v184h163v-184h-163zM293 1219v184h165v-184h-165z" />
    <glyph glyph-name="igrave" unicode="&#xec;" horiz-adv-x="569" 
d="M194 0v1082h180v-1082h-180zM340 1201l-330 278v29h207l217 -287v-20h-94z" />
    <glyph glyph-name="iacute" unicode="&#xed;" horiz-adv-x="569" 
d="M194 0v1082h180v-1082h-180zM135 1201v20l217 287h207v-29l-330 -278h-94z" />
    <glyph glyph-name="icircumflex" unicode="&#xee;" horiz-adv-x="569" 
d="M194 0v1082h180v-1082h-180zM617 1221v-20h-105l-219 169h-2l-232 -169h-104v20l234 270h204z" />
    <glyph glyph-name="idieresis" unicode="&#xef;" horiz-adv-x="569" 
d="M194 0v1082h180v-1082h-180zM402 1219v184h163v-184h-163zM8 1219v184h165v-184h-165z" />
    <glyph glyph-name="eth" unicode="&#xf0;" 
d="M566 -20q-125 0 -215.5 36.5t-149.5 102.5t-87 158.5t-28 203.5q0 107 26 198t84 158t151 104.5t226 37.5q71 0 129.5 -16t101.5 -43q-43 86 -100.5 174t-133.5 157l-301 -133v114l218 94q-56 45 -116 84t-126 74h209q45 -20 86.5 -45.5t83.5 -56.5l306 132l-1 -112
l-211 -92q81 -74 145.5 -162t108.5 -188t67.5 -211.5t23.5 -232.5v-6q0 -122 -28.5 -220t-88.5 -167t-154 -106t-226 -37zM874 481q0 94 -16.5 162.5t-52 113.5t-92 67t-136.5 22q-81 0 -138.5 -22.5t-94 -68.5t-53 -114.5t-16.5 -159.5q0 -190 72 -279t217 -89q81 0 140 22
t96.5 67t55.5 114.5t18 164.5z" />
    <glyph glyph-name="ntilde" unicode="&#xf1;" 
d="M829 0v686q0 79 -11.5 132t-37.5 85.5t-68.5 46t-105.5 13.5q-64 0 -115.5 -22.5t-88 -65t-56.5 -105t-20 -143.5v-627h-180v851q0 34 -0.5 71.5t-1.5 71t-2 57.5t-2 31h170q1 -5 2 -27t2.5 -50.5t2.5 -58t1 -49.5h3q26 47 57 85t72 64.5t94 41t123 14.5q90 0 155 -22
t107 -68t61.5 -118.5t19.5 -172.5v-721h-181zM737 1201q-42 0 -84 18.5t-81 41t-74.5 41t-66.5 18.5q-55 0 -82 -31t-36 -88h-91q5 45 15 92.5t32.5 86.5t59.5 64t96 25q44 0 86 -18.5t81 -41t73.5 -41t64.5 -18.5q54 0 81.5 31.5t35.5 87.5h92q-5 -44 -15 -91.5
t-31.5 -86.5t-58.5 -64.5t-97 -25.5z" />
    <glyph glyph-name="ograve" unicode="&#xf2;" 
d="M1053 542q0 -284 -125 -423t-363 -139q-113 0 -202 34t-150.5 104t-94 175.5t-32.5 248.5q0 560 485 560q126 0 217.5 -35t150 -105t86.5 -175t28 -245zM864 542q0 126 -19.5 208t-57 131t-91.5 68.5t-122 19.5q-69 0 -124.5 -20.5t-94.5 -70t-59.5 -131.5t-20.5 -205
q0 -126 22 -208.5t60.5 -131.5t91 -69t114.5 -20q69 0 125 19.5t95 68.5t60 132t21 209zM659 1201l-330 278v29h207l217 -287v-20h-94z" />
    <glyph glyph-name="oacute" unicode="&#xf3;" 
d="M1053 542q0 -284 -125 -423t-363 -139q-113 0 -202 34t-150.5 104t-94 175.5t-32.5 248.5q0 560 485 560q126 0 217.5 -35t150 -105t86.5 -175t28 -245zM864 542q0 126 -19.5 208t-57 131t-91.5 68.5t-122 19.5q-69 0 -124.5 -20.5t-94.5 -70t-59.5 -131.5t-20.5 -205
q0 -126 22 -208.5t60.5 -131.5t91 -69t114.5 -20q69 0 125 19.5t95 68.5t60 132t21 209zM431 1201v20l217 287h207v-29l-330 -278h-94z" />
    <glyph glyph-name="ocircumflex" unicode="&#xf4;" 
d="M1053 542q0 -284 -125 -423t-363 -139q-113 0 -202 34t-150.5 104t-94 175.5t-32.5 248.5q0 560 485 560q126 0 217.5 -35t150 -105t86.5 -175t28 -245zM864 542q0 126 -19.5 208t-57 131t-91.5 68.5t-122 19.5q-69 0 -124.5 -20.5t-94.5 -70t-59.5 -131.5t-20.5 -205
q0 -126 22 -208.5t60.5 -131.5t91 -69t114.5 -20q69 0 125 19.5t95 68.5t60 132t21 209zM902 1221v-20h-105l-219 169h-2l-232 -169h-104v20l234 270h204z" />
    <glyph glyph-name="otilde" unicode="&#xf5;" 
d="M1053 542q0 -284 -125 -423t-363 -139q-113 0 -202 34t-150.5 104t-94 175.5t-32.5 248.5q0 560 485 560q126 0 217.5 -35t150 -105t86.5 -175t28 -245zM864 542q0 126 -19.5 208t-57 131t-91.5 68.5t-122 19.5q-69 0 -124.5 -20.5t-94.5 -70t-59.5 -131.5t-20.5 -205
q0 -126 22 -208.5t60.5 -131.5t91 -69t114.5 -20q69 0 125 19.5t95 68.5t60 132t21 209zM739 1201q-42 0 -84 18.5t-81 41t-74.5 41t-66.5 18.5q-55 0 -82 -31t-36 -88h-91q5 45 15 92.5t32.5 86.5t59.5 64t96 25q44 0 86 -18.5t81 -41t73.5 -41t64.5 -18.5q54 0 81.5 31.5
t35.5 87.5h92q-5 -44 -15 -91.5t-31.5 -86.5t-58.5 -64.5t-97 -25.5z" />
    <glyph glyph-name="odieresis" unicode="&#xf6;" 
d="M1053 542q0 -284 -125 -423t-363 -139q-113 0 -202 34t-150.5 104t-94 175.5t-32.5 248.5q0 560 485 560q126 0 217.5 -35t150 -105t86.5 -175t28 -245zM864 542q0 126 -19.5 208t-57 131t-91.5 68.5t-122 19.5q-69 0 -124.5 -20.5t-94.5 -70t-59.5 -131.5t-20.5 -205
q0 -126 22 -208.5t60.5 -131.5t91 -69t114.5 -20q69 0 125 19.5t95 68.5t60 132t21 209zM689 1219v184h163v-184h-163zM295 1219v184h165v-184h-165z" />
    <glyph glyph-name="divide" unicode="&#xf7;" horiz-adv-x="1124" 
d="M478 958v183h168v-183h-168zM65 608v146h995v-146h-995zM478 223v183h168v-183h-168z" />
    <glyph glyph-name="oslash" unicode="&#xf8;" horiz-adv-x="1251" 
d="M1112 542q0 -284 -125 -423t-363 -139q-97 0 -175 24t-138 74l-100 -116h-167l184 214q-41 68 -62 159t-21 207q0 560 485 560q103 0 181 -23t135 -68l91 105h167l-173 -201q42 -69 61.5 -161.5t19.5 -211.5zM923 542q0 68 -6 122.5t-17 98.5l-483 -562
q38 -49 90.5 -68.5t114.5 -19.5q69 0 125 19.5t95 68.5t60 132t21 209zM334 542q0 -130 24 -215l482 561q-37 45 -89 63t-118 18q-69 0 -124.5 -20.5t-94.5 -70t-59.5 -131.5t-20.5 -205z" />
    <glyph glyph-name="ugrave" unicode="&#xf9;" 
d="M320 1082v-686q0 -79 11.5 -132t37.5 -85.5t68.5 -46t105.5 -13.5q64 0 115.5 22.5t88 65t56.5 105t20 143.5v627h180v-851q0 -34 0.5 -71.5t1.5 -71t2 -57.5t2 -31h-170q-1 5 -2 27t-2.5 50.5t-2.5 58t-1 49.5h-3q-26 -47 -57 -85t-72 -64.5t-94 -41t-123 -14.5
q-90 0 -155 22t-107 68t-61.5 118t-19.5 173v721h181zM672 1201l-330 278v29h207l217 -287v-20h-94z" />
    <glyph glyph-name="uacute" unicode="&#xfa;" 
d="M320 1082v-686q0 -79 11.5 -132t37.5 -85.5t68.5 -46t105.5 -13.5q64 0 115.5 22.5t88 65t56.5 105t20 143.5v627h180v-851q0 -34 0.5 -71.5t1.5 -71t2 -57.5t2 -31h-170q-1 5 -2 27t-2.5 50.5t-2.5 58t-1 49.5h-3q-26 -47 -57 -85t-72 -64.5t-94 -41t-123 -14.5
q-90 0 -155 22t-107 68t-61.5 118t-19.5 173v721h181zM415 1201v20l217 287h207v-29l-330 -278h-94z" />
    <glyph glyph-name="ucircumflex" unicode="&#xfb;" 
d="M320 1082v-686q0 -79 11.5 -132t37.5 -85.5t68.5 -46t105.5 -13.5q64 0 115.5 22.5t88 65t56.5 105t20 143.5v627h180v-851q0 -34 0.5 -71.5t1.5 -71t2 -57.5t2 -31h-170q-1 5 -2 27t-2.5 50.5t-2.5 58t-1 49.5h-3q-26 -47 -57 -85t-72 -64.5t-94 -41t-123 -14.5
q-90 0 -155 22t-107 68t-61.5 118t-19.5 173v721h181zM901 1221v-20h-105l-219 169h-2l-232 -169h-104v20l234 270h204z" />
    <glyph glyph-name="udieresis" unicode="&#xfc;" 
d="M320 1082v-686q0 -79 11.5 -132t37.5 -85.5t68.5 -46t105.5 -13.5q64 0 115.5 22.5t88 65t56.5 105t20 143.5v627h180v-851q0 -34 0.5 -71.5t1.5 -71t2 -57.5t2 -31h-170q-1 5 -2 27t-2.5 50.5t-2.5 58t-1 49.5h-3q-26 -47 -57 -85t-72 -64.5t-94 -41t-123 -14.5
q-90 0 -155 22t-107 68t-61.5 118t-19.5 173v721h181zM676 1219v184h163v-184h-163zM282 1219v184h165v-184h-165z" />
    <glyph glyph-name="yacute" unicode="&#xfd;" horiz-adv-x="1024" 
d="M604 0q-38 -98 -77.5 -176.5t-88.5 -134t-109 -85t-138 -29.5q-34 0 -63 2t-61 9v135q19 -3 43 -4.5t41 -1.5q79 0 147 59t119 188l17 43l-429 1077h192l228 -598q10 -27 25.5 -72l31 -90t27.5 -81t14 -45q3 11 14.5 43.5t26 72.5t29.5 81t25 71l212 618h190zM355 1201
v20l217 287h207v-29l-330 -278h-94z" />
    <glyph glyph-name="thorn" unicode="&#xfe;" 
d="M138 1484h180v-423q0 -30 -0.5 -57.5t-1.5 -48.5q-1 -25 -2 -47h6q25 52 57 88.5t73 60t91.5 34t113.5 10.5q112 0 188.5 -40t123 -112.5t66.5 -175t20 -227.5q0 -123 -20 -227t-66.5 -179t-123 -117.5t-188.5 -42.5q-116 0 -203 44t-133 144h-5q1 -2 1.5 -18t1 -40
t1 -53.5t0.5 -58.5v-423h-180v1909zM864 542q0 100 -12 178t-41.5 132t-78.5 82t-123 28q-60 0 -113 -17t-92.5 -65t-62.5 -132.5t-23 -219.5q0 -115 19 -194.5t55.5 -128.5t90.5 -70.5t124 -21.5q75 0 124.5 29t79 84t41.5 134.5t12 181.5z" />
    <glyph glyph-name="ydieresis" unicode="&#xff;" horiz-adv-x="1024" 
d="M604 0q-38 -98 -77.5 -176.5t-88.5 -134t-109 -85t-138 -29.5q-34 0 -63 2t-61 9v135q19 -3 43 -4.5t41 -1.5q79 0 147 59t119 188l17 43l-429 1077h192l228 -598q10 -27 25.5 -72l31 -90t27.5 -81t14 -45q3 11 14.5 43.5t26 72.5t29.5 81t25 71l212 618h190zM626 1219
v184h163v-184h-163zM232 1219v184h165v-184h-165z" />
    <glyph glyph-name="Amacron" unicode="&#x100;" horiz-adv-x="1366" 
d="M1167 0l-161 412h-642l-162 -412h-198l575 1409h217l566 -1409h-195zM768 1026q-16 40 -30.5 81t-25.5 74.5t-18.5 56t-8.5 27.5q-2 -5 -9 -28t-18.5 -57t-26 -75t-29.5 -81l-180 -463h527zM960 1570h-549v127h549v-127z" />
    <glyph glyph-name="amacron" unicode="&#x101;" 
d="M414 -20q-163 0 -245 86t-82 236q0 107 40.5 175.5t106 107.5t149.5 54t171 17l243 4v59q0 67 -14 114t-43 76t-72.5 42.5t-102.5 13.5q-52 0 -94 -7.5t-73 -27t-50 -53t-25 -84.5l-188 17q10 64 38 117.5t79.5 92.5t129 60.5t187.5 21.5q204 0 307 -93.5t103 -270.5
v-466q0 -80 21 -120.5t80 -40.5q15 0 30 2t29 5v-112q-34 -8 -67.5 -12t-71.5 -4q-51 0 -87.5 13.5t-59.5 41t-35 68t-15 94.5h-6q-29 -52 -63.5 -94t-80.5 -71.5t-104.5 -45.5t-134.5 -16zM455 115q86 0 150.5 31.5t107 80.5t63.5 107t21 111v89l-197 -4
q-66 -1 -125.5 -9.5t-104.5 -33.5t-71.5 -70t-26.5 -118q0 -88 47.5 -136t135.5 -48zM833 1236h-549v127h549v-127z" />
    <glyph glyph-name="Abreve" unicode="&#x102;" horiz-adv-x="1366" 
d="M1167 0l-161 412h-642l-162 -412h-198l575 1409h217l566 -1409h-195zM768 1026q-16 40 -30.5 81t-25.5 74.5t-18.5 56t-8.5 27.5q-2 -5 -9 -28t-18.5 -57t-26 -75t-29.5 -81l-180 -463h527zM685 1530q-74 0 -132 20.5t-100 55t-67 79.5t-33 94h117q17 -53 71.5 -83
t145.5 -30t144.5 30.5t70.5 82.5h117q-9 -49 -34 -94t-66.5 -79.5t-99.5 -55t-134 -20.5z" />
    <glyph glyph-name="abreve" unicode="&#x103;" 
d="M414 -20q-163 0 -245 86t-82 236q0 107 40.5 175.5t106 107.5t149.5 54t171 17l243 4v59q0 67 -14 114t-43 76t-72.5 42.5t-102.5 13.5q-52 0 -94 -7.5t-73 -27t-50 -53t-25 -84.5l-188 17q10 64 38 117.5t79.5 92.5t129 60.5t187.5 21.5q204 0 307 -93.5t103 -270.5
v-466q0 -80 21 -120.5t80 -40.5q15 0 30 2t29 5v-112q-34 -8 -67.5 -12t-71.5 -4q-51 0 -87.5 13.5t-59.5 41t-35 68t-15 94.5h-6q-29 -52 -63.5 -94t-80.5 -71.5t-104.5 -45.5t-134.5 -16zM455 115q86 0 150.5 31.5t107 80.5t63.5 107t21 111v89l-197 -4
q-66 -1 -125.5 -9.5t-104.5 -33.5t-71.5 -70t-26.5 -118q0 -88 47.5 -136t135.5 -48zM560 1201q-74 0 -132 25.5t-100 68t-67 98.5t-33 117h117q8 -43 27.5 -72.5t47.5 -47.5t64 -25.5t78 -7.5t77.5 8t63.5 26t47 47.5t27 71.5h117q-9 -61 -34 -117t-66.5 -98.5t-99.5 -68
t-134 -25.5z" />
    <glyph glyph-name="Aogonek" unicode="&#x104;" horiz-adv-x="1366" 
d="M1167 0l-161 412h-642l-162 -412h-198l575 1409h217l566 -1409h-195zM768 1026q-16 40 -30.5 81t-25.5 74.5t-18.5 56t-8.5 27.5q-2 -5 -9 -28t-18.5 -57t-26 -75t-29.5 -81l-180 -463h527zM1379 -389q-28 -12 -63.5 -19.5t-75.5 -7.5q-105 0 -158 51t-53 136
q0 47 17 86.5t41 70t50.5 51.5t46.5 32h133q-25 -14 -51 -36.5t-47.5 -52t-35 -64.5t-13.5 -74q0 -42 24.5 -66t69.5 -24q29 0 58 6.5t57 17.5v-107z" />
    <glyph glyph-name="aogonek" unicode="&#x105;" 
d="M414 -20q-163 0 -245 86t-82 236q0 107 40.5 175.5t106 107.5t149.5 54t171 17l243 4v59q0 67 -14 114t-43 76t-72.5 42.5t-102.5 13.5q-52 0 -94 -7.5t-73 -27t-50 -53t-25 -84.5l-188 17q10 64 38 117.5t79.5 92.5t129 60.5t187.5 21.5q204 0 307 -93.5t103 -270.5
v-466q0 -80 21 -120.5t80 -40.5q15 0 30 2t29 5v-112q-34 -8 -67.5 -12t-71.5 -4q-51 0 -87.5 13.5t-59.5 41t-35 68t-15 94.5h-6q-29 -52 -63.5 -94t-80.5 -71.5t-104.5 -45.5t-134.5 -16zM455 115q86 0 150.5 31.5t107 80.5t63.5 107t21 111v89l-197 -4
q-66 -1 -125.5 -9.5t-104.5 -33.5t-71.5 -70t-26.5 -118q0 -88 47.5 -136t135.5 -48zM1139 -400q-28 -12 -63.5 -19.5t-75.5 -7.5q-105 0 -158 51t-53 136q0 47 17 86.5t41 70t50.5 51.5t46.5 32h133q-25 -14 -51 -36.5t-47.5 -52t-35 -64.5t-13.5 -74q0 -42 24.5 -66
t69.5 -24q29 0 58 6.5t57 17.5v-107z" />
    <glyph glyph-name="Cacute" unicode="&#x106;" horiz-adv-x="1479" 
d="M792 1274q-120 0 -212.5 -40t-155 -114t-94.5 -178t-32 -231t34.5 -232.5t99 -181.5t158 -118t210.5 -42q82 0 149.5 21.5t122 60.5t97.5 92.5t76 118.5l156 -78q-38 -79 -94 -147t-131.5 -118t-171 -78.5t-213.5 -28.5q-171 0 -299.5 54.5t-215 152t-129.5 231.5
t-43 293q0 165 45.5 298t133 226.5t215.5 144t292 50.5q225 0 376 -88t222 -261l-181 -60q-20 50 -54 95.5t-85 80.5t-119.5 56t-156.5 21zM667 1530v20l217 226h207v-29l-310 -217h-114z" />
    <glyph glyph-name="cacute" unicode="&#x107;" horiz-adv-x="1024" 
d="M275 546q0 -93 13.5 -171t45.5 -134.5t84.5 -87.5t129.5 -31q96 0 160.5 52t79.5 160l182 -12q-9 -67 -39 -129t-81.5 -109t-125.5 -75.5t-171 -28.5q-127 0 -216 43t-144.5 118.5t-80.5 178t-25 222.5q0 109 18 192.5t50.5 146t76.5 105t95.5 68t108.5 37t115 11.5
q91 0 162 -25t122.5 -68.5t83.5 -102.5t45 -127l-185 -14q-14 90 -71 143t-162 53q-77 0 -128.5 -25.5t-83.5 -77t-45.5 -129.5t-13.5 -183zM431 1201v20l217 287h207v-29l-330 -278h-94z" />
    <glyph glyph-name="Ccircumflex" unicode="&#x108;" horiz-adv-x="1479" 
d="M792 1274q-120 0 -212.5 -40t-155 -114t-94.5 -178t-32 -231t34.5 -232.5t99 -181.5t158 -118t210.5 -42q82 0 149.5 21.5t122 60.5t97.5 92.5t76 118.5l156 -78q-38 -79 -94 -147t-131.5 -118t-171 -78.5t-213.5 -28.5q-171 0 -299.5 54.5t-215 152t-129.5 231.5
t-43 293q0 165 45.5 298t133 226.5t215.5 144t292 50.5q225 0 376 -88t222 -261l-181 -60q-20 50 -54 95.5t-85 80.5t-119.5 56t-156.5 21zM1122 1550v-20h-105l-219 139h-2l-232 -139h-104v20l234 240h204z" />
    <glyph glyph-name="ccircumflex" unicode="&#x109;" horiz-adv-x="1024" 
d="M275 546q0 -93 13.5 -171t45.5 -134.5t84.5 -87.5t129.5 -31q96 0 160.5 52t79.5 160l182 -12q-9 -67 -39 -129t-81.5 -109t-125.5 -75.5t-171 -28.5q-127 0 -216 43t-144.5 118.5t-80.5 178t-25 222.5q0 109 18 192.5t50.5 146t76.5 105t95.5 68t108.5 37t115 11.5
q91 0 162 -25t122.5 -68.5t83.5 -102.5t45 -127l-185 -14q-14 90 -71 143t-162 53q-77 0 -128.5 -25.5t-83.5 -77t-45.5 -129.5t-13.5 -183zM870 1221v-20h-105l-219 169h-2l-232 -169h-104v20l234 270h204z" />
    <glyph glyph-name="Cdotaccent" unicode="&#x10a;" horiz-adv-x="1479" 
d="M792 1274q-120 0 -212.5 -40t-155 -114t-94.5 -178t-32 -231t34.5 -232.5t99 -181.5t158 -118t210.5 -42q82 0 149.5 21.5t122 60.5t97.5 92.5t76 118.5l156 -78q-38 -79 -94 -147t-131.5 -118t-171 -78.5t-213.5 -28.5q-171 0 -299.5 54.5t-215 152t-129.5 231.5
t-43 293q0 165 45.5 298t133 226.5t215.5 144t292 50.5q225 0 376 -88t222 -261l-181 -60q-20 50 -54 95.5t-85 80.5t-119.5 56t-156.5 21zM702 1605v172h180v-172h-180z" />
    <glyph glyph-name="cdotaccent" unicode="&#x10b;" horiz-adv-x="1024" 
d="M275 546q0 -93 13.5 -171t45.5 -134.5t84.5 -87.5t129.5 -31q96 0 160.5 52t79.5 160l182 -12q-9 -67 -39 -129t-81.5 -109t-125.5 -75.5t-171 -28.5q-127 0 -216 43t-144.5 118.5t-80.5 178t-25 222.5q0 109 18 192.5t50.5 146t76.5 105t95.5 68t108.5 37t115 11.5
q91 0 162 -25t122.5 -68.5t83.5 -102.5t45 -127l-185 -14q-14 90 -71 143t-162 53q-77 0 -128.5 -25.5t-83.5 -77t-45.5 -129.5t-13.5 -183zM456 1312v172h180v-172h-180z" />
    <glyph glyph-name="Ccaron" unicode="&#x10c;" horiz-adv-x="1479" 
d="M792 1274q-120 0 -212.5 -40t-155 -114t-94.5 -178t-32 -231t34.5 -232.5t99 -181.5t158 -118t210.5 -42q82 0 149.5 21.5t122 60.5t97.5 92.5t76 118.5l156 -78q-38 -79 -94 -147t-131.5 -118t-171 -78.5t-213.5 -28.5q-171 0 -299.5 54.5t-215 152t-129.5 231.5
t-43 293q0 165 45.5 298t133 226.5t215.5 144t292 50.5q225 0 376 -88t222 -261l-181 -60q-20 50 -54 95.5t-85 80.5t-119.5 56t-156.5 21zM898 1530h-204l-234 239v21h104l232 -139h2l219 139h105v-21z" />
    <glyph glyph-name="ccaron" unicode="&#x10d;" horiz-adv-x="1024" 
d="M275 546q0 -93 13.5 -171t45.5 -134.5t84.5 -87.5t129.5 -31q96 0 160.5 52t79.5 160l182 -12q-9 -67 -39 -129t-81.5 -109t-125.5 -75.5t-171 -28.5q-127 0 -216 43t-144.5 118.5t-80.5 178t-25 222.5q0 109 18 192.5t50.5 146t76.5 105t95.5 68t108.5 37t115 11.5
q91 0 162 -25t122.5 -68.5t83.5 -102.5t45 -127l-185 -14q-14 90 -71 143t-162 53q-77 0 -128.5 -25.5t-83.5 -77t-45.5 -129.5t-13.5 -183zM652 1201h-204l-234 270v20h104l232 -169h2l219 169h105v-20z" />
    <glyph glyph-name="Dcaron" unicode="&#x10e;" horiz-adv-x="1479" 
d="M1381 719q0 -176 -53 -310.5t-145 -225t-217.5 -137t-270.5 -46.5h-527v1409h466q163 0 300.5 -40.5t236.5 -125t154.5 -214.5t55.5 -310zM1189 719q0 143 -41 244.5t-115 166.5t-177 95.5t-226 30.5h-271v-1103h314q111 0 205.5 36t163.5 107t108 177t39 246zM796 1530
h-204l-234 239v21h104l232 -139h2l219 139h105v-21z" />
    <glyph glyph-name="dcaron" unicode="&#x10f;" horiz-adv-x="1259" 
d="M821 174q-50 -104 -132.5 -149t-204.5 -45q-205 0 -301.5 138t-96.5 418q0 566 398 566q123 0 205 -45t132 -143h2q0 10 -0.5 31.5t-1 45t-0.5 44.5v30v419h180v-1261q0 -39 0.5 -75t1.5 -66t2 -51.5t2 -30.5h-172q-2 10 -3.5 28.5t-3 42.5t-2.5 50.5t-1 52.5h-4z
M275 542q0 -112 14 -192t45 -131.5t79 -75.5t117 -24q71 0 125.5 23t91 74.5t55.5 134.5t19 203q0 115 -19 194.5t-56 128.5t-90.5 70.5t-123.5 21.5q-66 0 -114 -23t-80 -74t-47.5 -132.5t-15.5 -197.5zM1279 1378q0 -87 -22 -145.5t-62 -105.5h-117q45 48 69.5 96t24.5 94
h-88v167h195v-106z" />
    <glyph glyph-name="Dcroat" unicode="&#x110;" horiz-adv-x="1479" 
d="M14 801h154v608h466q163 0 300.5 -40.5t236.5 -125t154.5 -214.5t55.5 -310q0 -176 -53 -310.5t-145 -225t-217.5 -137t-270.5 -46.5h-527v647h-154v154zM1189 719q0 143 -41 244.5t-115 166.5t-177 95.5t-226 30.5h-271v-455h406v-154h-406v-494h314q111 0 205.5 36
t163.5 107t108 177t39 246z" />
    <glyph glyph-name="dcroat" unicode="&#x111;" 
d="M821 174q-50 -104 -132.5 -149t-204.5 -45q-205 0 -301.5 138t-96.5 418q0 566 398 566q123 0 205 -45t132 -143h2q0 10 -0.5 31.5t-1 45t-0.5 44.5v30v141h-300v131h300v147h180v-147h132v-131h-132v-983q0 -39 0.5 -75t1.5 -66t2 -51.5t2 -30.5h-172q-2 10 -3.5 28.5
t-3 42.5t-2.5 50.5t-1 52.5h-4zM275 542q0 -112 14 -192t45 -131.5t79 -75.5t117 -24q71 0 125.5 23t91 74.5t55.5 134.5t19 203q0 115 -19 194.5t-56 128.5t-90.5 70.5t-123.5 21.5q-66 0 -114 -23t-80 -74t-47.5 -132.5t-15.5 -197.5z" />
    <glyph glyph-name="Emacron" unicode="&#x112;" horiz-adv-x="1366" 
d="M168 0v1409h1069v-156h-878v-452h818v-154h-818v-491h919v-156h-1110zM978 1570h-549v127h549v-127z" />
    <glyph glyph-name="emacron" unicode="&#x113;" 
d="M276 503q0 -85 17.5 -156.5t54 -123t93.5 -80t137 -28.5q117 0 187.5 47t95.5 119l158 -45q-17 -45 -47.5 -90.5t-81.5 -82t-127.5 -60t-184.5 -23.5q-240 0 -365.5 143t-125.5 425q0 152 38 257.5t104 171.5t154 95.5t188 29.5q136 0 227.5 -44t147 -121.5t79 -182.5
t23.5 -227v-24h-772zM862 641q-15 171 -87 249.5t-207 78.5q-45 0 -94.5 -14.5t-91.5 -51.5t-71 -100.5t-33 -161.5h584zM845 1236h-549v127h549v-127z" />
    <glyph glyph-name="Ebreve" unicode="&#x114;" horiz-adv-x="1366" 
d="M168 0v1409h1069v-156h-878v-452h818v-154h-818v-491h919v-156h-1110zM701 1530q-74 0 -132 20.5t-100 55t-67 79.5t-33 94h117q17 -53 71.5 -83t145.5 -30t144.5 30.5t70.5 82.5h117q-9 -49 -34 -94t-66.5 -79.5t-99.5 -55t-134 -20.5z" />
    <glyph glyph-name="ebreve" unicode="&#x115;" 
d="M276 503q0 -85 17.5 -156.5t54 -123t93.5 -80t137 -28.5q117 0 187.5 47t95.5 119l158 -45q-17 -45 -47.5 -90.5t-81.5 -82t-127.5 -60t-184.5 -23.5q-240 0 -365.5 143t-125.5 425q0 152 38 257.5t104 171.5t154 95.5t188 29.5q136 0 227.5 -44t147 -121.5t79 -182.5
t23.5 -227v-24h-772zM862 641q-15 171 -87 249.5t-207 78.5q-45 0 -94.5 -14.5t-91.5 -51.5t-71 -100.5t-33 -161.5h584zM569 1201q-74 0 -132 25.5t-100 68t-67 98.5t-33 117h117q8 -43 27.5 -72.5t47.5 -47.5t64 -25.5t78 -7.5t77.5 8t63.5 26t47 47.5t27 71.5h117
q-9 -61 -34 -117t-66.5 -98.5t-99.5 -68t-134 -25.5z" />
    <glyph glyph-name="Edotaccent" unicode="&#x116;" horiz-adv-x="1366" 
d="M168 0v1409h1069v-156h-878v-452h818v-154h-818v-491h919v-156h-1110zM613 1605v172h180v-172h-180z" />
    <glyph glyph-name="edotaccent" unicode="&#x117;" 
d="M276 503q0 -85 17.5 -156.5t54 -123t93.5 -80t137 -28.5q117 0 187.5 47t95.5 119l158 -45q-17 -45 -47.5 -90.5t-81.5 -82t-127.5 -60t-184.5 -23.5q-240 0 -365.5 143t-125.5 425q0 152 38 257.5t104 171.5t154 95.5t188 29.5q136 0 227.5 -44t147 -121.5t79 -182.5
t23.5 -227v-24h-772zM862 641q-15 171 -87 249.5t-207 78.5q-45 0 -94.5 -14.5t-91.5 -51.5t-71 -100.5t-33 -161.5h584zM480 1312v172h180v-172h-180z" />
    <glyph glyph-name="Eogonek" unicode="&#x118;" horiz-adv-x="1366" 
d="M168 0v1409h1069v-156h-878v-452h818v-154h-818v-491h919v-156h-1110zM1278 -400q-28 -12 -63.5 -19.5t-75.5 -7.5q-105 0 -158 51t-53 136q0 47 17 86.5t41 70t50.5 51.5t46.5 32h133q-25 -14 -51 -36.5t-47.5 -52t-35 -64.5t-13.5 -74q0 -42 24.5 -66t69.5 -24
q29 0 58 6.5t57 17.5v-107z" />
    <glyph glyph-name="eogonek" unicode="&#x119;" 
d="M276 503q0 -85 17.5 -156.5t54 -123t93.5 -80t137 -28.5q117 0 187.5 47t95.5 119l158 -45q-17 -45 -47.5 -90.5t-81.5 -82t-127.5 -60t-184.5 -23.5q-240 0 -365.5 143t-125.5 425q0 152 38 257.5t104 171.5t154 95.5t188 29.5q136 0 227.5 -44t147 -121.5t79 -182.5
t23.5 -227v-24h-772zM862 641q-15 171 -87 249.5t-207 78.5q-45 0 -94.5 -14.5t-91.5 -51.5t-71 -100.5t-33 -161.5h584zM811 -400q-28 -12 -63.5 -19.5t-75.5 -7.5q-105 0 -158 51t-53 136q0 47 17 86.5t41 70t50.5 51.5t46.5 32h133q-25 -14 -51 -36.5t-47.5 -52
t-35 -64.5t-13.5 -74q0 -42 24.5 -66t69.5 -24q29 0 58 6.5t57 17.5v-107z" />
    <glyph glyph-name="Ecaron" unicode="&#x11a;" horiz-adv-x="1366" 
d="M168 0v1409h1069v-156h-878v-452h818v-154h-818v-491h919v-156h-1110zM805 1530h-204l-234 239v21h104l232 -139h2l219 139h105v-21z" />
    <glyph glyph-name="ecaron" unicode="&#x11b;" 
d="M276 503q0 -85 17.5 -156.5t54 -123t93.5 -80t137 -28.5q117 0 187.5 47t95.5 119l158 -45q-17 -45 -47.5 -90.5t-81.5 -82t-127.5 -60t-184.5 -23.5q-240 0 -365.5 143t-125.5 425q0 152 38 257.5t104 171.5t154 95.5t188 29.5q136 0 227.5 -44t147 -121.5t79 -182.5
t23.5 -227v-24h-772zM862 641q-15 171 -87 249.5t-207 78.5q-45 0 -94.5 -14.5t-91.5 -51.5t-71 -100.5t-33 -161.5h584zM672 1201h-204l-234 270v20h104l232 -169h2l219 169h105v-20z" />
    <glyph glyph-name="Gcircumflex" unicode="&#x11c;" horiz-adv-x="1593" 
d="M103 711q0 165 44.5 298t133 226.5t219.5 144t304 50.5q130 0 228 -23t170 -66t122 -104.5t85 -138.5l-182 -54q-26 52 -62.5 94.5t-88.5 72.5t-120.5 46.5t-156.5 16.5q-128 0 -222.5 -40t-156.5 -114t-92.5 -178t-30.5 -231t33 -232.5t98 -182t161.5 -119t223.5 -42.5
q83 0 153 14t126.5 36.5t99.5 50t72 55.5v254h-421v160h597v-486q-47 -48 -110.5 -91.5t-142.5 -76.5t-173 -52t-201 -19q-178 0 -311 54.5t-221.5 152t-133 231.5t-44.5 293zM1137 1550v-20h-105l-219 139h-2l-232 -139h-104v20l234 240h204z" />
    <glyph glyph-name="gcircumflex" unicode="&#x11d;" 
d="M548 -425q-93 0 -165 19t-123 54.5t-83 84.5t-46 109l181 26q18 -75 79.5 -115.5t161.5 -40.5q61 0 111 17t85 54.5t54 97.5t19 146v174h-2q-20 -41 -49.5 -78.5t-72 -66.5t-98.5 -46.5t-128 -17.5q-103 0 -176.5 34.5t-120 103.5t-68 171.5t-21.5 237.5q0 130 21.5 234
t70 176.5t126 111t188.5 38.5q115 0 199.5 -52.5t130.5 -149.5h2q0 25 1.5 56t3 58.5t3.5 47.5t4 23h171q-1 -9 -2 -30.5t-2 -51.5t-1.5 -66.5t-0.5 -75.5v-827q0 -227 -111.5 -341.5t-341.5 -114.5zM822 541q0 113 -24.5 193.5t-64.5 131.5t-91.5 75t-105.5 24
q-69 0 -118.5 -24t-82 -75.5t-48 -132t-15.5 -192.5q0 -117 15.5 -196.5t47.5 -128.5t81 -70t117 -21q54 0 105.5 23t92.5 73t66 129t25 191zM878 1221v-20h-105l-219 169h-2l-232 -169h-104v20l234 270h204z" />
    <glyph glyph-name="Gbreve" unicode="&#x11e;" horiz-adv-x="1593" 
d="M103 711q0 165 44.5 298t133 226.5t219.5 144t304 50.5q130 0 228 -23t170 -66t122 -104.5t85 -138.5l-182 -54q-26 52 -62.5 94.5t-88.5 72.5t-120.5 46.5t-156.5 16.5q-128 0 -222.5 -40t-156.5 -114t-92.5 -178t-30.5 -231t33 -232.5t98 -182t161.5 -119t223.5 -42.5
q83 0 153 14t126.5 36.5t99.5 50t72 55.5v254h-421v160h597v-486q-47 -48 -110.5 -91.5t-142.5 -76.5t-173 -52t-201 -19q-178 0 -311 54.5t-221.5 152t-133 231.5t-44.5 293zM810 1530q-74 0 -132 20.5t-100 55t-67 79.5t-33 94h117q17 -53 71.5 -83t145.5 -30t144.5 30.5
t70.5 82.5h117q-9 -49 -34 -94t-66.5 -79.5t-99.5 -55t-134 -20.5z" />
    <glyph glyph-name="gbreve" unicode="&#x11f;" 
d="M548 -425q-93 0 -165 19t-123 54.5t-83 84.5t-46 109l181 26q18 -75 79.5 -115.5t161.5 -40.5q61 0 111 17t85 54.5t54 97.5t19 146v174h-2q-20 -41 -49.5 -78.5t-72 -66.5t-98.5 -46.5t-128 -17.5q-103 0 -176.5 34.5t-120 103.5t-68 171.5t-21.5 237.5q0 130 21.5 234
t70 176.5t126 111t188.5 38.5q115 0 199.5 -52.5t130.5 -149.5h2q0 25 1.5 56t3 58.5t3.5 47.5t4 23h171q-1 -9 -2 -30.5t-2 -51.5t-1.5 -66.5t-0.5 -75.5v-827q0 -227 -111.5 -341.5t-341.5 -114.5zM822 541q0 113 -24.5 193.5t-64.5 131.5t-91.5 75t-105.5 24
q-69 0 -118.5 -24t-82 -75.5t-48 -132t-15.5 -192.5q0 -117 15.5 -196.5t47.5 -128.5t81 -70t117 -21q54 0 105.5 23t92.5 73t66 129t25 191zM546 1201q-74 0 -132 25.5t-100 68t-67 98.5t-33 117h117q8 -43 27.5 -72.5t47.5 -47.5t64 -25.5t78 -7.5t77.5 8t63.5 26t47 47.5
t27 71.5h117q-9 -61 -34 -117t-66.5 -98.5t-99.5 -68t-134 -25.5z" />
    <glyph glyph-name="Gdotaccent" unicode="&#x120;" horiz-adv-x="1593" 
d="M103 711q0 165 44.5 298t133 226.5t219.5 144t304 50.5q130 0 228 -23t170 -66t122 -104.5t85 -138.5l-182 -54q-26 52 -62.5 94.5t-88.5 72.5t-120.5 46.5t-156.5 16.5q-128 0 -222.5 -40t-156.5 -114t-92.5 -178t-30.5 -231t33 -232.5t98 -182t161.5 -119t223.5 -42.5
q83 0 153 14t126.5 36.5t99.5 50t72 55.5v254h-421v160h597v-486q-47 -48 -110.5 -91.5t-142.5 -76.5t-173 -52t-201 -19q-178 0 -311 54.5t-221.5 152t-133 231.5t-44.5 293zM721 1605v172h180v-172h-180z" />
    <glyph glyph-name="gdotaccent" unicode="&#x121;" 
d="M548 -425q-93 0 -165 19t-123 54.5t-83 84.5t-46 109l181 26q18 -75 79.5 -115.5t161.5 -40.5q61 0 111 17t85 54.5t54 97.5t19 146v174h-2q-20 -41 -49.5 -78.5t-72 -66.5t-98.5 -46.5t-128 -17.5q-103 0 -176.5 34.5t-120 103.5t-68 171.5t-21.5 237.5q0 130 21.5 234
t70 176.5t126 111t188.5 38.5q115 0 199.5 -52.5t130.5 -149.5h2q0 25 1.5 56t3 58.5t3.5 47.5t4 23h171q-1 -9 -2 -30.5t-2 -51.5t-1.5 -66.5t-0.5 -75.5v-827q0 -227 -111.5 -341.5t-341.5 -114.5zM822 541q0 113 -24.5 193.5t-64.5 131.5t-91.5 75t-105.5 24
q-69 0 -118.5 -24t-82 -75.5t-48 -132t-15.5 -192.5q0 -117 15.5 -196.5t47.5 -128.5t81 -70t117 -21q54 0 105.5 23t92.5 73t66 129t25 191zM457 1312v172h180v-172h-180z" />
    <glyph glyph-name="Gcommaaccent" unicode="&#x122;" horiz-adv-x="1593" 
d="M103 711q0 165 44.5 298t133 226.5t219.5 144t304 50.5q130 0 228 -23t170 -66t122 -104.5t85 -138.5l-182 -54q-26 52 -62.5 94.5t-88.5 72.5t-120.5 46.5t-156.5 16.5q-128 0 -222.5 -40t-156.5 -114t-92.5 -178t-30.5 -231t33 -232.5t98 -182t161.5 -119t223.5 -42.5
q83 0 153 14t126.5 36.5t99.5 50t72 55.5v254h-421v160h597v-486q-47 -48 -110.5 -91.5t-142.5 -76.5t-173 -52t-201 -19q-178 0 -311 54.5t-221.5 152t-133 231.5t-44.5 293zM918 -193q0 -87 -22 -140.5t-62 -100.5h-117q45 48 69.5 91t24.5 89h-88v156h195v-95z" />
    <glyph glyph-name="gcommaaccent" unicode="&#x123;" 
d="M548 -425q-93 0 -165 19t-123 54.5t-83 84.5t-46 109l181 26q18 -75 79.5 -115.5t161.5 -40.5q61 0 111 17t85 54.5t54 97.5t19 146v174h-2q-20 -41 -49.5 -78.5t-72 -66.5t-98.5 -46.5t-128 -17.5q-103 0 -176.5 34.5t-120 103.5t-68 171.5t-21.5 237.5q0 130 21.5 234
t70 176.5t126 111t188.5 38.5q115 0 199.5 -52.5t130.5 -149.5h2q0 25 1.5 56t3 58.5t3.5 47.5t4 23h171q-1 -9 -2 -30.5t-2 -51.5t-1.5 -66.5t-0.5 -75.5v-827q0 -227 -111.5 -341.5t-341.5 -114.5zM822 541q0 113 -24.5 193.5t-64.5 131.5t-91.5 75t-105.5 24
q-69 0 -118.5 -24t-82 -75.5t-48 -132t-15.5 -192.5q0 -117 15.5 -196.5t47.5 -128.5t81 -70t117 -21q54 0 105.5 23t92.5 73t66 129t25 191zM442 1317q0 87 22 145.5t62 105.5h117q-45 -48 -69.5 -96t-24.5 -94h88v-167h-195v106z" />
    <glyph glyph-name="Hcircumflex" unicode="&#x124;" horiz-adv-x="1479" 
d="M1121 0v653h-762v-653h-191v1409h191v-596h762v596h191v-1409h-191zM1071 1550v-20h-105l-219 139h-2l-232 -139h-104v20l234 240h204z" />
    <glyph glyph-name="hcircumflex" unicode="&#x125;" 
d="M317 897q30 55 65 93.5t77 63.5t92 36.5t112 11.5q104 0 170.5 -28t105 -78.5t53 -120.5t14.5 -154v-721h-181v686q0 69 -8.5 121t-32.5 86.5t-68 52t-114 17.5q-64 0 -115.5 -23t-88 -65t-56.5 -102t-20 -135v-638h-180v1484h180v-386q0 -33 -1 -66t-2.5 -61t-2.5 -47.5
t-2 -26.5h3zM904 1614v-20h-105l-219 139h-2l-232 -139h-104v20l234 240h204z" />
    <glyph glyph-name="Hbar" unicode="&#x126;" horiz-adv-x="1479" 
d="M1126 0v653h-767v-653h-191v1025h-154v154h154v230h191v-230h767v230h186v-230h153v-154h-153v-1025h-186zM1126 813v212h-767v-212h767z" />
    <glyph glyph-name="hbar" unicode="&#x127;" 
d="M317 857q30 55 65 93.5t77 63.5t92 36.5t112 11.5q104 0 170.5 -28t105 -78.5t53 -120.5t14.5 -154v-681h-181v646q0 69 -8.5 121t-32.5 86.5t-68 52t-114 17.5q-64 0 -115.5 -23t-88 -65t-56.5 -102t-20 -135v-598h-180v1206h-132v131h132v147h180v-147h300v-131h-300
v-148q0 -33 -1 -66t-2.5 -61t-2.5 -47.5t-2 -26.5h3z" />
    <glyph glyph-name="Itilde" unicode="&#x128;" horiz-adv-x="569" 
d="M189 0v1409h191v-1409h-191zM443 1530q-42 0 -84 18.5t-81 41t-74.5 41t-66.5 18.5q-55 0 -82 -31t-36 -88h-91q5 45 15 92.5t32.5 86.5t59.5 64t96 25q44 0 86 -18.5t81 -41t73.5 -41t64.5 -18.5q54 0 81.5 31.5t35.5 87.5h92q-5 -44 -15 -91.5t-31.5 -86.5t-58.5 -64.5
t-97 -25.5z" />
    <glyph glyph-name="itilde" unicode="&#x129;" horiz-adv-x="569" 
d="M194 0v1082h180v-1082h-180zM443 1201q-42 0 -84 18.5t-81 41t-74.5 41t-66.5 18.5q-55 0 -82 -31t-36 -88h-91q5 45 15 92.5t32.5 86.5t59.5 64t96 25q44 0 86 -18.5t81 -41t73.5 -41t64.5 -18.5q54 0 81.5 31.5t35.5 87.5h92q-5 -44 -15 -91.5t-31.5 -86.5t-58.5 -64.5
t-97 -25.5z" />
    <glyph glyph-name="Imacron" unicode="&#x12a;" horiz-adv-x="569" 
d="M189 0v1409h191v-1409h-191zM561 1570h-549v127h549v-127z" />
    <glyph glyph-name="imacron" unicode="&#x12b;" horiz-adv-x="569" 
d="M194 0v1082h180v-1082h-180zM561 1236h-549v127h549v-127z" />
    <glyph glyph-name="Ibreve" unicode="&#x12c;" horiz-adv-x="569" 
d="M189 0v1409h191v-1409h-191zM286 1530q-74 0 -132 20.5t-100 55t-67 79.5t-33 94h117q17 -53 71.5 -83t145.5 -30t144.5 30.5t70.5 82.5h117q-9 -49 -34 -94t-66.5 -79.5t-99.5 -55t-134 -20.5z" />
    <glyph glyph-name="ibreve" unicode="&#x12d;" horiz-adv-x="569" 
d="M194 0v1082h180v-1082h-180zM286 1201q-74 0 -132 25.5t-100 68t-67 98.5t-33 117h117q8 -43 27.5 -72.5t47.5 -47.5t64 -25.5t78 -7.5t77.5 8t63.5 26t47 47.5t27 71.5h117q-9 -61 -34 -117t-66.5 -98.5t-99.5 -68t-134 -25.5z" />
    <glyph glyph-name="Iogonek" unicode="&#x12e;" horiz-adv-x="569" 
d="M189 0v1409h191v-1409h-191zM442 -400q-28 -12 -63.5 -19.5t-75.5 -7.5q-105 0 -158 51t-53 136q0 47 17 86.5t41 70t50.5 51.5t46.5 32h133q-25 -14 -51 -36.5t-47.5 -52t-35 -64.5t-13.5 -74q0 -42 24.5 -66t69.5 -24q29 0 58 6.5t57 17.5v-107z" />
    <glyph glyph-name="iogonek" unicode="&#x12f;" horiz-adv-x="455" 
d="M137 1312v172h180v-172h-180zM137 0v1082h180v-1082h-180zM381 -400q-28 -12 -63.5 -19.5t-75.5 -7.5q-105 0 -158 51t-53 136q0 47 17 86.5t41 70t50.5 51.5t46.5 32h133q-25 -14 -51 -36.5t-47.5 -52t-35 -64.5t-13.5 -74q0 -42 24.5 -66t69.5 -24q29 0 58 6.5t57 17.5
v-107z" />
    <glyph glyph-name="Idotaccent" unicode="&#x130;" horiz-adv-x="569" 
d="M189 0v1409h191v-1409h-191zM195 1605v172h180v-172h-180z" />
    <glyph glyph-name="dotlessi" unicode="&#x131;" horiz-adv-x="569" 
d="M194 0v1082h180v-1082h-180z" />
    <glyph glyph-name="IJ" unicode="&#x132;" horiz-adv-x="1505" 
d="M170 0v1409h191v-1409h-191zM938 -20q-171 0 -280.5 89t-144.5 281l187 31q10 -65 33 -111.5t55 -76.5t71 -44t80 -14q104 0 164 71.5t60 209.5v837h-271v156h461v-989q0 -101 -28 -182t-81.5 -138.5t-130.5 -88.5t-175 -31z" />
    <glyph glyph-name="ij" unicode="&#x133;" horiz-adv-x="909" 
d="M137 1312v172h180v-172h-180zM137 0v1082h180v-1082h-180zM591 1312v172h180v-172h-180zM771 -134q0 -62 -10.5 -115t-37.5 -92t-73.5 -61.5t-118.5 -22.5q-34 0 -66.5 2t-60.5 7v139q13 -2 31 -4t31 -2q38 0 62.5 10t38.5 31.5t19 55t5 79.5v1189h180v-1216z" />
    <glyph glyph-name="Jcircumflex" unicode="&#x134;" horiz-adv-x="1024" 
d="M457 -20q-171 0 -280.5 89t-144.5 281l187 31q10 -65 33 -111.5t55 -76.5t71 -44t80 -14q104 0 164 71.5t60 209.5v837h-271v156h461v-989q0 -101 -28 -182t-81.5 -138.5t-130.5 -88.5t-175 -31zM973 1550v-20h-105l-219 139h-2l-232 -139h-104v20l234 240h204z" />
    <glyph glyph-name="jcircumflex" unicode="&#x135;" horiz-adv-x="455" 
d="M77 -425q-34 0 -66.5 2t-60.5 7v139q13 -2 31 -4t31 -2q38 0 62.5 10t38.5 31.5t19 55t5 79.5v1189h180v-1216q0 -62 -10.5 -115t-37.5 -92t-73.5 -61.5t-118.5 -22.5zM559 1221v-20h-105l-219 169h-2l-232 -169h-104v20l234 270h204z" />
    <glyph glyph-name="Kcommaaccent" unicode="&#x136;" horiz-adv-x="1366" 
d="M1106 0l-563 680l-184 -140v-540h-191v1409h191v-706l679 706h225l-600 -612l680 -797h-237zM805 -193q0 -87 -22 -140.5t-62 -100.5h-117q45 48 69.5 91t24.5 89h-88v156h195v-95z" />
    <glyph glyph-name="kcommaaccent" unicode="&#x137;" horiz-adv-x="1024" 
d="M816 0l-366 494l-132 -109v-385h-180v1484h180v-927l475 525h211l-439 -465l462 -617h-211zM662 -193q0 -87 -22 -140.5t-62 -100.5h-117q45 48 69.5 91t24.5 89h-88v156h195v-95z" />
    <glyph glyph-name="kgreenlandic" unicode="&#x138;" horiz-adv-x="1024" 
d="M816 0l-366 494l-132 -108v-386h-180v1082h180v-525l475 525h211l-439 -465l462 -617h-211z" />
    <glyph glyph-name="Lacute" unicode="&#x139;" 
d="M168 0v1409h191v-1253h712v-156h-903zM245 1530v20l217 226h207v-29l-310 -217h-114z" />
    <glyph glyph-name="lacute" unicode="&#x13a;" horiz-adv-x="455" 
d="M138 0v1484h180v-1484h-180zM91 1608v20l217 226h207v-29l-310 -217h-114z" />
    <glyph glyph-name="Lcommaaccent" unicode="&#x13b;" 
d="M168 0v1409h191v-1253h712v-156h-903zM717 -193q0 -87 -22 -140.5t-62 -100.5h-117q45 48 69.5 91t24.5 89h-88v156h195v-95z" />
    <glyph glyph-name="lcommaaccent" unicode="&#x13c;" horiz-adv-x="455" 
d="M138 0v1484h180v-1484h-180zM327 -193q0 -87 -22 -140.5t-62 -100.5h-117q45 48 69.5 91t24.5 89h-88v156h195v-95z" />
    <glyph glyph-name="Lcaron" unicode="&#x13d;" 
d="M168 0v1409h191v-1253h712v-156h-903zM858 1303q0 -87 -22 -145.5t-62 -105.5h-117q45 48 69.5 96t24.5 94h-88v167h195v-106z" />
    <glyph glyph-name="lcaron" unicode="&#x13e;" horiz-adv-x="597" 
d="M138 0v1484h180v-1484h-180zM617 1378q0 -87 -22 -145.5t-62 -105.5h-117q45 48 69.5 96t24.5 94h-88v167h195v-106z" />
    <glyph glyph-name="Ldot" unicode="&#x13f;" 
d="M168 0v1409h191v-1253h712v-156h-903zM625 687v172h180v-172h-180z" />
    <glyph glyph-name="ldot" unicode="&#x140;" horiz-adv-x="684" 
d="M138 0v1484h180v-1484h-180zM478 687v172h180v-172h-180z" />
    <glyph glyph-name="Lslash" unicode="&#x141;" 
d="M616 797l-257 -149v-492h712v-156h-903v538l-148 -85v158l148 85v713h191v-603l257 148v-157z" />
    <glyph glyph-name="lslash" unicode="&#x142;" horiz-adv-x="455" 
d="M138 0v542l-122 -68v158l122 68v784h180v-680l124 72v-159l-124 -71v-646h-180z" />
    <glyph glyph-name="Nacute" unicode="&#x143;" horiz-adv-x="1479" 
d="M1082 0l-754 1200q2 -49 5 -97q2 -41 3.5 -86.5t1.5 -80.5v-936h-170v1409h222l762 -1208l-6 98q-2 42 -4 91.5t-2 94.5v924h172v-1409h-230zM601 1530v20l217 226h207v-29l-310 -217h-114z" />
    <glyph glyph-name="nacute" unicode="&#x144;" 
d="M829 0v686q0 79 -11.5 132t-37.5 85.5t-68.5 46t-105.5 13.5q-64 0 -115.5 -22.5t-88 -65t-56.5 -105t-20 -143.5v-627h-180v851q0 34 -0.5 71.5t-1.5 71t-2 57.5t-2 31h170q1 -5 2 -27t2.5 -50.5t2.5 -58t1 -49.5h3q26 47 57 85t72 64.5t94 41t123 14.5q90 0 155 -22
t107 -68t61.5 -118.5t19.5 -172.5v-721h-181zM460 1201v20l217 287h207v-29l-330 -278h-94z" />
    <glyph glyph-name="Ncommaaccent" unicode="&#x145;" horiz-adv-x="1479" 
d="M1082 0l-754 1200q2 -49 5 -97q2 -41 3.5 -86.5t1.5 -80.5v-936h-170v1409h222l762 -1208l-6 98q-2 42 -4 91.5t-2 94.5v924h172v-1409h-230zM836 -193q0 -87 -22 -140.5t-62 -100.5h-117q45 48 69.5 91t24.5 89h-88v156h195v-95z" />
    <glyph glyph-name="ncommaaccent" unicode="&#x146;" 
d="M829 0v686q0 79 -11.5 132t-37.5 85.5t-68.5 46t-105.5 13.5q-64 0 -115.5 -22.5t-88 -65t-56.5 -105t-20 -143.5v-627h-180v851q0 34 -0.5 71.5t-1.5 71t-2 57.5t-2 31h170q1 -5 2 -27t2.5 -50.5t2.5 -58t1 -49.5h3q26 47 57 85t72 64.5t94 41t123 14.5q90 0 155 -22
t107 -68t61.5 -118.5t19.5 -172.5v-721h-181zM675 -193q0 -87 -22 -140.5t-62 -100.5h-117q45 48 69.5 91t24.5 89h-88v156h195v-95z" />
    <glyph glyph-name="Ncaron" unicode="&#x147;" horiz-adv-x="1479" 
d="M1082 0l-754 1200q2 -49 5 -97q2 -41 3.5 -86.5t1.5 -80.5v-936h-170v1409h222l762 -1208l-6 98q-2 42 -4 91.5t-2 94.5v924h172v-1409h-230zM841 1530h-204l-234 239v21h104l232 -139h2l219 139h105v-21z" />
    <glyph glyph-name="ncaron" unicode="&#x148;" 
d="M829 0v686q0 79 -11.5 132t-37.5 85.5t-68.5 46t-105.5 13.5q-64 0 -115.5 -22.5t-88 -65t-56.5 -105t-20 -143.5v-627h-180v851q0 34 -0.5 71.5t-1.5 71t-2 57.5t-2 31h170q1 -5 2 -27t2.5 -50.5t2.5 -58t1 -49.5h3q26 47 57 85t72 64.5t94 41t123 14.5q90 0 155 -22
t107 -68t61.5 -118.5t19.5 -172.5v-721h-181zM680 1201h-204l-234 270v20h104l232 -169h2l219 169h105v-20z" />
    <glyph glyph-name="napostrophe" unicode="&#x149;" horiz-adv-x="1237" 
d="M923 0v686q0 79 -11.5 132t-37.5 85.5t-68.5 46t-105.5 13.5q-64 0 -115.5 -22.5t-88 -65t-56.5 -105t-20 -143.5v-627h-180v851q0 34 -0.5 71.5t-1.5 71t-2 57.5t-2 31h170q1 -5 2 -27t2.5 -50.5t2.5 -58t1 -49.5h3q26 47 57 85t72 64.5t94 41t123 14.5q90 0 155 -22
t107 -68t61.5 -118.5t19.5 -172.5v-721h-181zM199 1264q0 -53 -4.5 -96t-14.5 -80.5t-24.5 -70.5t-34.5 -65h-123q45 65 69.5 131t24.5 129h-88v197h195v-145z" />
    <glyph glyph-name="Eng" unicode="&#x14a;" horiz-adv-x="1481" 
d="M941 -20q-56 0 -104 12t-87.5 32t-71 47t-55.5 57l127 115q37 -45 87 -77.5t109 -32.5q64 0 103 29t59.5 82.5t27 130t6.5 171.5v322q0 108 -19.5 185t-60 126t-104 72t-150.5 23q-94 0 -175.5 -31t-142 -83.5t-95.5 -122t-35 -146.5v-891h-191v1092q0 37 -0.5 83t-1 91
t-1 83t-1.5 60h184q1 -22 2.5 -53.5t2.5 -66t1.5 -69t0.5 -62.5h4q34 61 85.5 111.5t116.5 85.5t141.5 54.5t162.5 19.5q124 0 212.5 -32t144.5 -98.5t82.5 -168.5t26.5 -241v-347q0 -130 -15 -234t-58 -177t-119 -112t-199 -39z" />
    <glyph glyph-name="eng" unicode="&#x14b;" 
d="M769 -425q-34 0 -66.5 2t-60.5 7v139q13 -2 31 -4t31 -2q38 0 62.5 10t38.5 31.5t19 55t5 79.5v793q0 79 -11.5 132t-37.5 85.5t-68.5 46t-105.5 13.5q-64 0 -115.5 -22.5t-88 -65t-56.5 -105t-20 -143.5v-627h-180v851q0 34 -0.5 71.5t-1.5 71t-2 57.5t-2 31h170
q1 -5 2 -27t2.5 -50.5t2.5 -58t1 -49.5h3q26 47 57 85t72 64.5t94 41t123 14.5q90 0 155 -22t107 -68t61.5 -118.5t19.5 -172.5v-855q0 -62 -11 -115t-38 -92t-73.5 -61.5t-118.5 -22.5z" />
    <glyph glyph-name="Omacron" unicode="&#x14c;" horiz-adv-x="1593" 
d="M1495 711q0 -165 -47.5 -300t-137.5 -231t-220 -148t-295 -52q-174 0 -305 54.5t-218 152t-131 231.5t-44 293q0 165 46 298t135 226.5t219.5 144t299.5 50.5q168 0 298.5 -51t219 -145t134.5 -227t46 -296zM1300 711q0 127 -32.5 231t-96 178t-157.5 114t-217 40
q-126 0 -221 -40t-158.5 -114t-95 -178t-31.5 -231t32.5 -232.5t96 -182t158 -119t217.5 -42.5q132 0 227.5 43t157 119.5t91 182.5t29.5 231zM1070 1570h-549v127h549v-127z" />
    <glyph glyph-name="omacron" unicode="&#x14d;" 
d="M1053 542q0 -284 -125 -423t-363 -139q-113 0 -202 34t-150.5 104t-94 175.5t-32.5 248.5q0 560 485 560q126 0 217.5 -35t150 -105t86.5 -175t28 -245zM864 542q0 126 -19.5 208t-57 131t-91.5 68.5t-122 19.5q-69 0 -124.5 -20.5t-94.5 -70t-59.5 -131.5t-20.5 -205
q0 -126 22 -208.5t60.5 -131.5t91 -69t114.5 -20q69 0 125 19.5t95 68.5t60 132t21 209zM844 1236h-549v127h549v-127z" />
    <glyph glyph-name="Obreve" unicode="&#x14e;" horiz-adv-x="1593" 
d="M1495 711q0 -165 -47.5 -300t-137.5 -231t-220 -148t-295 -52q-174 0 -305 54.5t-218 152t-131 231.5t-44 293q0 165 46 298t135 226.5t219.5 144t299.5 50.5q168 0 298.5 -51t219 -145t134.5 -227t46 -296zM1300 711q0 127 -32.5 231t-96 178t-157.5 114t-217 40
q-126 0 -221 -40t-158.5 -114t-95 -178t-31.5 -231t32.5 -232.5t96 -182t158 -119t217.5 -42.5q132 0 227.5 43t157 119.5t91 182.5t29.5 231zM795 1530q-74 0 -132 20.5t-100 55t-67 79.5t-33 94h117q17 -53 71.5 -83t145.5 -30t144.5 30.5t70.5 82.5h117q-9 -49 -34 -94
t-66.5 -79.5t-99.5 -55t-134 -20.5z" />
    <glyph glyph-name="obreve" unicode="&#x14f;" 
d="M1053 542q0 -284 -125 -423t-363 -139q-113 0 -202 34t-150.5 104t-94 175.5t-32.5 248.5q0 560 485 560q126 0 217.5 -35t150 -105t86.5 -175t28 -245zM864 542q0 126 -19.5 208t-57 131t-91.5 68.5t-122 19.5q-69 0 -124.5 -20.5t-94.5 -70t-59.5 -131.5t-20.5 -205
q0 -126 22 -208.5t60.5 -131.5t91 -69t114.5 -20q69 0 125 19.5t95 68.5t60 132t21 209zM569 1201q-74 0 -132 25.5t-100 68t-67 98.5t-33 117h117q8 -43 27.5 -72.5t47.5 -47.5t64 -25.5t78 -7.5t77.5 8t63.5 26t47 47.5t27 71.5h117q-9 -61 -34 -117t-66.5 -98.5
t-99.5 -68t-134 -25.5z" />
    <glyph glyph-name="Ohungarumlaut" unicode="&#x150;" horiz-adv-x="1593" 
d="M1495 711q0 -165 -47.5 -300t-137.5 -231t-220 -148t-295 -52q-174 0 -305 54.5t-218 152t-131 231.5t-44 293q0 165 46 298t135 226.5t219.5 144t299.5 50.5q168 0 298.5 -51t219 -145t134.5 -227t46 -296zM1300 711q0 127 -32.5 231t-96 178t-157.5 114t-217 40
q-126 0 -221 -40t-158.5 -114t-95 -178t-31.5 -231t32.5 -232.5t96 -182t158 -119t217.5 -42.5q132 0 227.5 43t157 119.5t91 182.5t29.5 231zM514 1530v20l197 227h207v-29l-310 -218h-94zM861 1530v20l197 227h207v-29l-310 -218h-94z" />
    <glyph glyph-name="ohungarumlaut" unicode="&#x151;" 
d="M1053 542q0 -284 -125 -423t-363 -139q-113 0 -202 34t-150.5 104t-94 175.5t-32.5 248.5q0 560 485 560q126 0 217.5 -35t150 -105t86.5 -175t28 -245zM864 542q0 126 -19.5 208t-57 131t-91.5 68.5t-122 19.5q-69 0 -124.5 -20.5t-94.5 -70t-59.5 -131.5t-20.5 -205
q0 -126 22 -208.5t60.5 -131.5t91 -69t114.5 -20q69 0 125 19.5t95 68.5t60 132t21 209zM287 1201v20l217 287h207v-29l-330 -278h-94zM634 1201v20l217 287h207v-29l-330 -278h-94z" />
    <glyph glyph-name="OE" unicode="&#x152;" horiz-adv-x="2048" 
d="M999 0q-20 -3 -45.5 -4.5t-54 -3t-57 -2t-53.5 -0.5q-169 0 -298.5 53t-217 148.5t-132 228t-44.5 291.5q0 165 47 296.5t136 223t218 140.5t293 49q26 0 55 -1t57.5 -2.5t54.5 -3.5t45 -4h914v-156h-803v-452h743v-154h-743v-491h844v-156h-959zM789 145q32 0 70 1t64 3
v1111q-11 1 -27 2t-34.5 1.5t-37 0.5h-33.5q-125 0 -218.5 -37t-156 -108t-94 -174t-31.5 -234q0 -129 32 -233.5t95 -178.5t156 -114t215 -40z" />
    <glyph glyph-name="oe" unicode="&#x153;" horiz-adv-x="1933" 
d="M1070 503q0 -85 17.5 -156.5t54 -123t93.5 -80t137 -28.5q117 0 187.5 47t95.5 119l158 -45q-17 -45 -47.5 -90.5t-81.5 -82t-127.5 -60t-184.5 -23.5q-137 0 -236 45.5t-160 137.5q-63 -93 -163.5 -138t-237.5 -45q-113 0 -203.5 34t-154 104t-97.5 175.5t-34 248.5
q0 279 126.5 419.5t368.5 140.5q281 0 398 -177q67 94 167 135.5t219 41.5q136 0 227.5 -44t147 -121.5t79 -182.5t23.5 -227v-24h-772zM881 542q0 126 -21 208t-59.5 131t-93.5 68.5t-123 19.5q-69 0 -126 -20.5t-97.5 -70t-63 -131.5t-22.5 -205q0 -126 23.5 -208.5
t64 -131.5t94.5 -69t116 -20q69 0 126 19.5t97.5 68.5t62.5 132t22 209zM1656 641q-15 171 -87 249.5t-207 78.5q-45 0 -94.5 -14.5t-91.5 -51.5t-71 -100.5t-33 -161.5h584z" />
    <glyph glyph-name="Racute" unicode="&#x154;" horiz-adv-x="1479" 
d="M1164 0l-366 585h-439v-585h-191v1409h663q120 0 212.5 -27.5t155.5 -79.5t96 -127t33 -169q0 -67 -19.5 -132t-61.5 -119t-107 -93t-156 -55l400 -607h-220zM1136 1004q0 64 -22 111t-64 78.5t-102 47t-136 15.5h-453v-520h461q82 0 142 20.5t98.5 56.5t57 85t18.5 106z
M553 1530v20l217 226h207v-29l-310 -217h-114z" />
    <glyph glyph-name="racute" unicode="&#x155;" horiz-adv-x="682" 
d="M142 0v830q0 34 -0.5 69.5t-1.5 68.5t-2 62t-2 52h170q1 -23 2.5 -52.5t3 -60.5t2 -59.5t0.5 -48.5h4q19 62 40.5 107.5t50.5 75t69 44t97 14.5q22 0 42 -3.5t31 -6.5v-165q-18 5 -42 7.5t-54 2.5q-62 0 -105.5 -28t-71 -77.5t-40.5 -118t-13 -149.5v-564h-180zM254 1201
v20l217 287h207v-29l-330 -278h-94z" />
    <glyph glyph-name="Rcommaaccent" unicode="&#x156;" horiz-adv-x="1479" 
d="M1164 0l-366 585h-439v-585h-191v1409h663q120 0 212.5 -27.5t155.5 -79.5t96 -127t33 -169q0 -67 -19.5 -132t-61.5 -119t-107 -93t-156 -55l400 -607h-220zM1136 1004q0 64 -22 111t-64 78.5t-102 47t-136 15.5h-453v-520h461q82 0 142 20.5t98.5 56.5t57 85t18.5 106z
M845 -193q0 -87 -22 -140.5t-62 -100.5h-117q45 48 69.5 91t24.5 89h-88v156h195v-95z" />
    <glyph glyph-name="rcommaaccent" unicode="&#x157;" horiz-adv-x="682" 
d="M142 0v830q0 34 -0.5 69.5t-1.5 68.5t-2 62t-2 52h170q1 -23 2.5 -52.5t3 -60.5t2 -59.5t0.5 -48.5h4q19 62 40.5 107.5t50.5 75t69 44t97 14.5q22 0 42 -3.5t31 -6.5v-165q-18 5 -42 7.5t-54 2.5q-62 0 -105.5 -28t-71 -77.5t-40.5 -118t-13 -149.5v-564h-180zM330 -193
q0 -87 -22 -140.5t-62 -100.5h-117q45 48 69.5 91t24.5 89h-88v156h195v-95z" />
    <glyph glyph-name="Rcaron" unicode="&#x158;" horiz-adv-x="1479" 
d="M1164 0l-366 585h-439v-585h-191v1409h663q120 0 212.5 -27.5t155.5 -79.5t96 -127t33 -169q0 -67 -19.5 -132t-61.5 -119t-107 -93t-156 -55l400 -607h-220zM1136 1004q0 64 -22 111t-64 78.5t-102 47t-136 15.5h-453v-520h461q82 0 142 20.5t98.5 56.5t57 85t18.5 106z
M796 1530h-204l-234 239v21h104l232 -139h2l219 139h105v-21z" />
    <glyph glyph-name="rcaron" unicode="&#x159;" horiz-adv-x="682" 
d="M142 0v830q0 34 -0.5 69.5t-1.5 68.5t-2 62t-2 52h170q1 -23 2.5 -52.5t3 -60.5t2 -59.5t0.5 -48.5h4q19 62 40.5 107.5t50.5 75t69 44t97 14.5q22 0 42 -3.5t31 -6.5v-165q-18 5 -42 7.5t-54 2.5q-62 0 -105.5 -28t-71 -77.5t-40.5 -118t-13 -149.5v-564h-180zM494 1201
h-204l-234 270v20h104l232 -169h2l219 169h105v-20z" />
    <glyph glyph-name="Sacute" unicode="&#x15a;" horiz-adv-x="1366" 
d="M1272 389q0 -89 -34.5 -164t-106.5 -129.5t-181.5 -85t-259.5 -30.5q-263 0 -410 92t-187 266l185 37q14 -55 43 -100t78.5 -77.5t122.5 -50.5t175 -18q85 0 156 14.5t122 44.5t79.5 77.5t28.5 113.5q0 69 -31.5 112t-88.5 71t-136 47t-175 41q-59 13 -118.5 28.5
t-114 37t-102.5 50.5t-83 69.5t-55 94t-20 123.5q0 100 40.5 171.5t112.5 117.5t170 67t212 21q131 0 224 -20.5t157 -61.5t102.5 -101.5t61.5 -140.5l-188 -33q-14 51 -40.5 91t-69.5 67t-104.5 41t-144.5 14q-98 0 -164.5 -17.5t-107 -47.5t-58 -70.5t-17.5 -87.5
q0 -63 31.5 -103.5t85.5 -67.5t125 -45t151 -36q65 -15 129.5 -30.5t123.5 -37t110.5 -50.5t89.5 -71t59.5 -99t21.5 -134zM562 1530v20l217 287h207v-29l-330 -278h-94z" />
    <glyph glyph-name="sacute" unicode="&#x15b;" horiz-adv-x="1024" 
d="M950 299q0 -76 -29.5 -135.5t-85.5 -100t-137.5 -62t-186.5 -21.5q-94 0 -169.5 14.5t-132.5 46.5t-95.5 84.5t-56.5 128.5l159 31q23 -87 95 -127.5t200 -40.5q58 0 106.5 8t83.5 27.5t54.5 52t19.5 80.5q0 49 -23 80.5t-64 52.5t-99.5 36.5t-128.5 34.5q-65 17 -129 38
t-115.5 55.5t-83.5 85.5t-32 128q0 148 105.5 225.5t307.5 77.5q179 0 284.5 -63t133.5 -202l-162 -20q-9 42 -33 70.5t-58 46t-76.5 25t-88.5 7.5q-122 0 -180 -37t-58 -112q0 -44 21.5 -72.5t60 -48t92.5 -34t119 -30.5q43 -11 88 -23.5t87.5 -30t80 -41t65.5 -56.5
t44.5 -77t16.5 -102zM385 1201v20l217 287h207v-29l-330 -278h-94z" />
    <glyph glyph-name="Scircumflex" unicode="&#x15c;" horiz-adv-x="1366" 
d="M1272 389q0 -89 -34.5 -164t-106.5 -129.5t-181.5 -85t-259.5 -30.5q-263 0 -410 92t-187 266l185 37q14 -55 43 -100t78.5 -77.5t122.5 -50.5t175 -18q85 0 156 14.5t122 44.5t79.5 77.5t28.5 113.5q0 69 -31.5 112t-88.5 71t-136 47t-175 41q-59 13 -118.5 28.5
t-114 37t-102.5 50.5t-83 69.5t-55 94t-20 123.5q0 100 40.5 171.5t112.5 117.5t170 67t212 21q131 0 224 -20.5t157 -61.5t102.5 -101.5t61.5 -140.5l-188 -33q-14 51 -40.5 91t-69.5 67t-104.5 41t-144.5 14q-98 0 -164.5 -17.5t-107 -47.5t-58 -70.5t-17.5 -87.5
q0 -63 31.5 -103.5t85.5 -67.5t125 -45t151 -36q65 -15 129.5 -30.5t123.5 -37t110.5 -50.5t89.5 -71t59.5 -99t21.5 -134zM1032 1548v-20h-105l-219 169h-2l-232 -169h-104v20l234 270h204z" />
    <glyph glyph-name="scircumflex" unicode="&#x15d;" horiz-adv-x="1024" 
d="M950 299q0 -76 -29.5 -135.5t-85.5 -100t-137.5 -62t-186.5 -21.5q-94 0 -169.5 14.5t-132.5 46.5t-95.5 84.5t-56.5 128.5l159 31q23 -87 95 -127.5t200 -40.5q58 0 106.5 8t83.5 27.5t54.5 52t19.5 80.5q0 49 -23 80.5t-64 52.5t-99.5 36.5t-128.5 34.5q-65 17 -129 38
t-115.5 55.5t-83.5 85.5t-32 128q0 148 105.5 225.5t307.5 77.5q179 0 284.5 -63t133.5 -202l-162 -20q-9 42 -33 70.5t-58 46t-76.5 25t-88.5 7.5q-122 0 -180 -37t-58 -112q0 -44 21.5 -72.5t60 -48t92.5 -34t119 -30.5q43 -11 88 -23.5t87.5 -30t80 -41t65.5 -56.5
t44.5 -77t16.5 -102zM834 1221v-20h-105l-219 169h-2l-232 -169h-104v20l234 270h204z" />
    <glyph glyph-name="Scedilla" unicode="&#x15e;" horiz-adv-x="1366" 
d="M1272 389q0 -89 -34.5 -164t-106.5 -129.5t-181.5 -85t-259.5 -30.5q-263 0 -410 92t-187 266l185 37q14 -55 43 -100t78.5 -77.5t122.5 -50.5t175 -18q85 0 156 14.5t122 44.5t79.5 77.5t28.5 113.5q0 69 -31.5 112t-88.5 71t-136 47t-175 41q-59 13 -118.5 28.5
t-114 37t-102.5 50.5t-83 69.5t-55 94t-20 123.5q0 100 40.5 171.5t112.5 117.5t170 67t212 21q131 0 224 -20.5t157 -61.5t102.5 -101.5t61.5 -140.5l-188 -33q-14 51 -40.5 91t-69.5 67t-104.5 41t-144.5 14q-98 0 -164.5 -17.5t-107 -47.5t-58 -70.5t-17.5 -87.5
q0 -63 31.5 -103.5t85.5 -67.5t125 -45t151 -36q65 -15 129.5 -30.5t123.5 -37t110.5 -50.5t89.5 -71t59.5 -99t21.5 -134zM905 -253q0 -41 -15 -74.5t-47.5 -57.5t-84.5 -36.5t-127 -12.5q-20 0 -42.5 0.5t-47.5 3.5v98q49 -6 86 -6q41 0 69 6t45.5 16.5t25 25.5t7.5 33
q0 37 -30.5 57t-102.5 20h-28.5t-28.5 -2l65 182h107l-39 -100q94 -3 141 -43.5t47 -109.5z" />
    <glyph glyph-name="scedilla" unicode="&#x15f;" horiz-adv-x="1024" 
d="M950 299q0 -76 -29.5 -135.5t-85.5 -100t-137.5 -62t-186.5 -21.5q-94 0 -169.5 14.5t-132.5 46.5t-95.5 84.5t-56.5 128.5l159 31q23 -87 95 -127.5t200 -40.5q58 0 106.5 8t83.5 27.5t54.5 52t19.5 80.5q0 49 -23 80.5t-64 52.5t-99.5 36.5t-128.5 34.5q-65 17 -129 38
t-115.5 55.5t-83.5 85.5t-32 128q0 148 105.5 225.5t307.5 77.5q179 0 284.5 -63t133.5 -202l-162 -20q-9 42 -33 70.5t-58 46t-76.5 25t-88.5 7.5q-122 0 -180 -37t-58 -112q0 -44 21.5 -72.5t60 -48t92.5 -34t119 -30.5q43 -11 88 -23.5t87.5 -30t80 -41t65.5 -56.5
t44.5 -77t16.5 -102zM701 -253q0 -41 -15 -74.5t-47.5 -57.5t-84.5 -36.5t-127 -12.5q-20 0 -42.5 0.5t-47.5 3.5v98q49 -6 86 -6q41 0 69 6t45.5 16.5t25 25.5t7.5 33q0 37 -30.5 57t-102.5 20h-28.5t-28.5 -2l65 182h107l-39 -100q94 -3 141 -43.5t47 -109.5z" />
    <glyph glyph-name="Scaron" unicode="&#x160;" horiz-adv-x="1366" 
d="M1272 389q0 -89 -34.5 -164t-106.5 -129.5t-181.5 -85t-259.5 -30.5q-263 0 -410 92t-187 266l185 37q14 -55 43 -100t78.5 -77.5t122.5 -50.5t175 -18q85 0 156 14.5t122 44.5t79.5 77.5t28.5 113.5q0 69 -31.5 112t-88.5 71t-136 47t-175 41q-59 13 -118.5 28.5
t-114 37t-102.5 50.5t-83 69.5t-55 94t-20 123.5q0 100 40.5 171.5t112.5 117.5t170 67t212 21q131 0 224 -20.5t157 -61.5t102.5 -101.5t61.5 -140.5l-188 -33q-14 51 -40.5 91t-69.5 67t-104.5 41t-144.5 14q-98 0 -164.5 -17.5t-107 -47.5t-58 -70.5t-17.5 -87.5
q0 -63 31.5 -103.5t85.5 -67.5t125 -45t151 -36q65 -15 129.5 -30.5t123.5 -37t110.5 -50.5t89.5 -71t59.5 -99t21.5 -134zM809 1530h-204l-234 239v21h104l232 -139h2l219 139h105v-21z" />
    <glyph glyph-name="scaron" unicode="&#x161;" horiz-adv-x="1024" 
d="M950 299q0 -76 -29.5 -135.5t-85.5 -100t-137.5 -62t-186.5 -21.5q-94 0 -169.5 14.5t-132.5 46.5t-95.5 84.5t-56.5 128.5l159 31q23 -87 95 -127.5t200 -40.5q58 0 106.5 8t83.5 27.5t54.5 52t19.5 80.5q0 49 -23 80.5t-64 52.5t-99.5 36.5t-128.5 34.5q-65 17 -129 38
t-115.5 55.5t-83.5 85.5t-32 128q0 148 105.5 225.5t307.5 77.5q179 0 284.5 -63t133.5 -202l-162 -20q-9 42 -33 70.5t-58 46t-76.5 25t-88.5 7.5q-122 0 -180 -37t-58 -112q0 -44 21.5 -72.5t60 -48t92.5 -34t119 -30.5q43 -11 88 -23.5t87.5 -30t80 -41t65.5 -56.5
t44.5 -77t16.5 -102zM611 1201h-204l-234 270v20h104l232 -169h2l219 169h105v-20z" />
    <glyph glyph-name="Tcommaaccent" unicode="&#x162;" horiz-adv-x="1251" 
d="M806 -253q0 -41 -15 -74.5t-47.5 -57.5t-84.5 -36.5t-127 -12.5q-20 0 -42.5 0.5t-47.5 3.5v98q49 -6 86 -6q41 0 69 6t45.5 16.5t25 25.5t7.5 33q0 37 -30.5 57t-102.5 20h-28.5t-28.5 -2l65 182h107l-39 -100q94 -3 141 -43.5t47 -109.5zM720 1253v-1253h-190v1253
h-484v156h1158v-156h-484z" />
    <glyph glyph-name="tcommaaccent" unicode="&#x163;" horiz-adv-x="569" 
d="M532 -253q0 -41 -15 -74.5t-47.5 -57.5t-84.5 -36.5t-127 -12.5q-20 0 -42.5 0.5t-47.5 3.5v98q49 -6 86 -6q41 0 69 6t45.5 16.5t25 25.5t7.5 33q0 37 -30.5 57t-102.5 20h-28.5t-28.5 -2l65 182h107l-39 -100q94 -3 141 -43.5t47 -109.5zM554 8q-41 -11 -83.5 -17.5
t-98.5 -6.5q-216 0 -216 245v722h-125v131h132l53 242h120v-242h200v-131h-200v-683q0 -78 25.5 -109.5t88.5 -31.5q26 0 50.5 4t53.5 10v-133z" />
    <glyph glyph-name="Tcaron" unicode="&#x164;" horiz-adv-x="1251" 
d="M720 1253v-1253h-190v1253h-484v156h1158v-156h-484zM727 1530h-204l-234 239v21h104l232 -139h2l219 139h105v-21z" />
    <glyph glyph-name="tcaron" unicode="&#x165;" horiz-adv-x="768" 
d="M554 8q-41 -11 -83.5 -17.5t-98.5 -6.5q-216 0 -216 245v722h-125v131h132l53 242h120v-242h200v-131h-200v-683q0 -78 25.5 -109.5t88.5 -31.5q26 0 50.5 4t53.5 10v-133zM785 1378q0 -87 -22 -145.5t-62 -105.5h-117q45 48 69.5 96t24.5 94h-88v167h195v-106z" />
    <glyph glyph-name="Tbar" unicode="&#x166;" horiz-adv-x="1251" 
d="M720 1253v-452h281v-154h-281v-647h-190v647h-279v154h279v452h-484v156h1158v-156h-484z" />
    <glyph glyph-name="tbar" unicode="&#x167;" horiz-adv-x="569" 
d="M336 516v-248q0 -78 25.5 -109.5t88.5 -31.5q26 0 50.5 4t53.5 10v-133q-41 -11 -83.5 -17.5t-98.5 -6.5q-216 0 -216 245v287h-125v131h125v304h-125v131h132l53 242h120v-242h200v-131h-200v-304h200v-131h-200z" />
    <glyph glyph-name="Utilde" unicode="&#x168;" horiz-adv-x="1479" 
d="M731 -20q-116 0 -220 31t-182.5 96.5t-124.5 166t-46 238.5v897h191v-881q0 -107 28.5 -181.5t79.5 -121.5t120.5 -68.5t152.5 -21.5q82 0 155 22t128 70t86.5 125.5t31.5 188.5v868h190v-879q0 -141 -46.5 -244.5t-126.5 -171.5t-187.5 -101t-229.5 -33zM896 1530
q-42 0 -84 18.5t-81 41t-74.5 41t-66.5 18.5q-55 0 -82 -31t-36 -88h-91q5 45 15 92.5t32.5 86.5t59.5 64t96 25q44 0 86 -18.5t81 -41t73.5 -41t64.5 -18.5q54 0 81.5 31.5t35.5 87.5h92q-5 -44 -15 -91.5t-31.5 -86.5t-58.5 -64.5t-97 -25.5z" />
    <glyph glyph-name="utilde" unicode="&#x169;" 
d="M314 1082v-686q0 -79 11.5 -132t37.5 -85.5t68.5 -46t105.5 -13.5q64 0 115.5 22.5t88 65t56.5 105t20 143.5v627h180v-851q0 -34 0.5 -71.5t1.5 -71t2 -57.5t2 -31h-170q-1 5 -2 27t-2.5 50.5t-2.5 58t-1 49.5h-3q-26 -47 -57 -85t-72 -64.5t-94 -41t-123 -14.5
q-90 0 -155 22t-107 68t-61.5 118t-19.5 173v721h181zM738 1201q-42 0 -84 18.5t-81 41t-74.5 41t-66.5 18.5q-55 0 -82 -31t-36 -88h-91q5 45 15 92.5t32.5 86.5t59.5 64t96 25q44 0 86 -18.5t81 -41t73.5 -41t64.5 -18.5q54 0 81.5 31.5t35.5 87.5h92q-5 -44 -15 -91.5
t-31.5 -86.5t-58.5 -64.5t-97 -25.5z" />
    <glyph glyph-name="Umacron" unicode="&#x16a;" horiz-adv-x="1479" 
d="M731 -20q-116 0 -220 31t-182.5 96.5t-124.5 166t-46 238.5v897h191v-881q0 -107 28.5 -181.5t79.5 -121.5t120.5 -68.5t152.5 -21.5q82 0 155 22t128 70t86.5 125.5t31.5 188.5v868h190v-879q0 -141 -46.5 -244.5t-126.5 -171.5t-187.5 -101t-229.5 -33zM1015 1565h-549
v127h549v-127z" />
    <glyph glyph-name="umacron" unicode="&#x16b;" 
d="M314 1082v-686q0 -79 11.5 -132t37.5 -85.5t68.5 -46t105.5 -13.5q64 0 115.5 22.5t88 65t56.5 105t20 143.5v627h180v-851q0 -34 0.5 -71.5t1.5 -71t2 -57.5t2 -31h-170q-1 5 -2 27t-2.5 50.5t-2.5 58t-1 49.5h-3q-26 -47 -57 -85t-72 -64.5t-94 -41t-123 -14.5
q-90 0 -155 22t-107 68t-61.5 118t-19.5 173v721h181zM840 1236h-549v127h549v-127z" />
    <glyph glyph-name="Ubreve" unicode="&#x16c;" horiz-adv-x="1479" 
d="M731 -20q-116 0 -220 31t-182.5 96.5t-124.5 166t-46 238.5v897h191v-881q0 -107 28.5 -181.5t79.5 -121.5t120.5 -68.5t152.5 -21.5q82 0 155 22t128 70t86.5 125.5t31.5 188.5v868h190v-879q0 -141 -46.5 -244.5t-126.5 -171.5t-187.5 -101t-229.5 -33zM738 1530
q-74 0 -132 20.5t-100 55t-67 79.5t-33 94h117q17 -53 71.5 -83t145.5 -30t144.5 30.5t70.5 82.5h117q-9 -49 -34 -94t-66.5 -79.5t-99.5 -55t-134 -20.5z" />
    <glyph glyph-name="ubreve" unicode="&#x16d;" 
d="M314 1082v-686q0 -79 11.5 -132t37.5 -85.5t68.5 -46t105.5 -13.5q64 0 115.5 22.5t88 65t56.5 105t20 143.5v627h180v-851q0 -34 0.5 -71.5t1.5 -71t2 -57.5t2 -31h-170q-1 5 -2 27t-2.5 50.5t-2.5 58t-1 49.5h-3q-26 -47 -57 -85t-72 -64.5t-94 -41t-123 -14.5
q-90 0 -155 22t-107 68t-61.5 118t-19.5 173v721h181zM564 1201q-74 0 -132 25.5t-100 68t-67 98.5t-33 117h117q8 -43 27.5 -72.5t47.5 -47.5t64 -25.5t78 -7.5t77.5 8t63.5 26t47 47.5t27 71.5h117q-9 -61 -34 -117t-66.5 -98.5t-99.5 -68t-134 -25.5z" />
    <glyph glyph-name="Uring" unicode="&#x16e;" horiz-adv-x="1479" 
d="M731 -20q-116 0 -220 31t-182.5 96.5t-124.5 166t-46 238.5v897h191v-881q0 -107 28.5 -181.5t79.5 -121.5t120.5 -68.5t152.5 -21.5q82 0 155 22t128 70t86.5 125.5t31.5 188.5v868h190v-879q0 -141 -46.5 -244.5t-126.5 -171.5t-187.5 -101t-229.5 -33zM982 1613
q0 -50 -19 -94t-52 -77t-77 -52t-94 -19t-94 19t-77 52t-52 77t-19 94t19 94t52 76.5t77 51.5t94 19t94 -19t77 -51.5t52 -76.5t19 -94zM874 1613q0 28 -10.5 52.5t-28.5 42.5t-42.5 28.5t-52.5 10.5q-29 0 -53.5 -10.5t-42.5 -28.5t-28.5 -42.5t-10.5 -52.5
q0 -29 10.5 -53.5t28.5 -43.5t42.5 -29.5t53.5 -10.5q28 0 52.5 10.5t42.5 29.5t28.5 43.5t10.5 53.5z" />
    <glyph glyph-name="uring" unicode="&#x16f;" 
d="M314 1082v-686q0 -79 11.5 -132t37.5 -85.5t68.5 -46t105.5 -13.5q64 0 115.5 22.5t88 65t56.5 105t20 143.5v627h180v-851q0 -34 0.5 -71.5t1.5 -71t2 -57.5t2 -31h-170q-1 5 -2 27t-2.5 50.5t-2.5 58t-1 49.5h-3q-26 -47 -57 -85t-72 -64.5t-94 -41t-123 -14.5
q-90 0 -155 22t-107 68t-61.5 118t-19.5 173v721h181zM811 1410q0 -50 -19 -94t-52 -77t-77 -52t-94 -19t-94 19t-77 52t-52 77t-19 94t19 94t52 76.5t77 51.5t94 19t94 -19t77 -51.5t52 -76.5t19 -94zM703 1410q0 28 -10.5 52.5t-28.5 42.5t-42.5 28.5t-52.5 10.5
q-29 0 -53.5 -10.5t-42.5 -28.5t-28.5 -42.5t-10.5 -52.5q0 -29 10.5 -53.5t28.5 -43.5t42.5 -29.5t53.5 -10.5q28 0 52.5 10.5t42.5 29.5t28.5 43.5t10.5 53.5z" />
    <glyph glyph-name="Uhungarumlaut" unicode="&#x170;" horiz-adv-x="1479" 
d="M731 -20q-116 0 -220 31t-182.5 96.5t-124.5 166t-46 238.5v897h191v-881q0 -107 28.5 -181.5t79.5 -121.5t120.5 -68.5t152.5 -21.5q82 0 155 22t128 70t86.5 125.5t31.5 188.5v868h190v-879q0 -141 -46.5 -244.5t-126.5 -171.5t-187.5 -101t-229.5 -33zM445 1530v20
l197 227h207v-29l-310 -218h-94zM792 1530v20l197 227h207v-29l-310 -218h-94z" />
    <glyph glyph-name="uhungarumlaut" unicode="&#x171;" 
d="M314 1082v-686q0 -79 11.5 -132t37.5 -85.5t68.5 -46t105.5 -13.5q64 0 115.5 22.5t88 65t56.5 105t20 143.5v627h180v-851q0 -34 0.5 -71.5t1.5 -71t2 -57.5t2 -31h-170q-1 5 -2 27t-2.5 50.5t-2.5 58t-1 49.5h-3q-26 -47 -57 -85t-72 -64.5t-94 -41t-123 -14.5
q-90 0 -155 22t-107 68t-61.5 118t-19.5 173v721h181zM283 1201v20l217 287h207v-29l-330 -278h-94zM630 1201v20l217 287h207v-29l-330 -278h-94z" />
    <glyph glyph-name="Uogonek" unicode="&#x172;" horiz-adv-x="1479" 
d="M731 -20q-116 0 -220 31t-182.5 96.5t-124.5 166t-46 238.5v897h191v-881q0 -107 28.5 -181.5t79.5 -121.5t120.5 -68.5t152.5 -21.5q82 0 155 22t128 70t86.5 125.5t31.5 188.5v868h190v-879q0 -141 -46.5 -244.5t-126.5 -171.5t-187.5 -101t-229.5 -33zM974 -400
q-28 -12 -63.5 -19.5t-75.5 -7.5q-105 0 -158 51t-53 136q0 47 17 86.5t41 70t50.5 51.5t46.5 32h133q-25 -14 -51 -36.5t-47.5 -52t-35 -64.5t-13.5 -74q0 -42 24.5 -66t69.5 -24q29 0 58 6.5t57 17.5v-107z" />
    <glyph glyph-name="uogonek" unicode="&#x173;" 
d="M314 1082v-686q0 -79 11.5 -132t37.5 -85.5t68.5 -46t105.5 -13.5q64 0 115.5 22.5t88 65t56.5 105t20 143.5v627h180v-851q0 -34 0.5 -71.5t1.5 -71t2 -57.5t2 -31h-170q-1 5 -2 27t-2.5 50.5t-2.5 58t-1 49.5h-3q-26 -47 -57 -85t-72 -64.5t-94 -41t-123 -14.5
q-90 0 -155 22t-107 68t-61.5 118t-19.5 173v721h181zM1029 -400q-28 -12 -63.5 -19.5t-75.5 -7.5q-105 0 -158 51t-53 136q0 47 17 86.5t41 70t50.5 51.5t46.5 32h133q-25 -14 -51 -36.5t-47.5 -52t-35 -64.5t-13.5 -74q0 -42 24.5 -66t69.5 -24q29 0 58 6.5t57 17.5v-107z
" />
    <glyph glyph-name="Wcircumflex" unicode="&#x174;" horiz-adv-x="1933" 
d="M1511 0h-228l-244 895q-11 38 -23.5 90t-22.5 99q-12 55 -24 112q-13 -58 -25 -113q-11 -48 -23 -99t-23 -89l-246 -895h-228l-415 1409h199l253 -895q17 -63 32.5 -125t26.5 -111q13 -58 24 -110q15 69 31 136q7 28 14 59t14.5 61t15 57.5t13.5 50.5l245 877h183
l245 -877q6 -23 13.5 -50.5t15 -57t14.5 -60.5t14 -59q16 -67 31 -137q1 0 9 34.5t20 86.5t26.5 112.5t29.5 112.5l249 895h199zM1295 1550v-20h-105l-219 139h-2l-232 -139h-104v20l234 240h204z" />
    <glyph glyph-name="wcircumflex" unicode="&#x175;" horiz-adv-x="1479" 
d="M1174 0h-209l-173 698q-8 27 -16.5 67t-16.5 78q-10 44 -19 91q-9 -45 -19 -89q-8 -38 -17.5 -79t-17.5 -72l-178 -694h-208l-303 1082h178l183 -735q7 -23 14 -56.5t14 -65.5q7 -37 15 -76q8 38 17 74q8 31 16 63t14 53l196 743h193l189 -743q7 -26 15 -59t15 -62
q8 -34 16 -69q8 38 16 74q7 31 14.5 64.5t14.5 59.5l191 735h176zM1066 1221v-20h-105l-219 169h-2l-232 -169h-104v20l234 270h204z" />
    <glyph glyph-name="Ycircumflex" unicode="&#x176;" horiz-adv-x="1366" 
d="M777 584v-584h-190v584l-542 825h210l429 -671l427 671h210zM1009 1550v-20h-105l-219 139h-2l-232 -139h-104v20l234 240h204z" />
    <glyph glyph-name="ycircumflex" unicode="&#x177;" horiz-adv-x="1024" 
d="M604 0q-38 -98 -77.5 -176.5t-88.5 -134t-109 -85t-138 -29.5q-34 0 -63 2t-61 9v135q19 -3 43 -4.5t41 -1.5q79 0 147 59t119 188l17 43l-429 1077h192l228 -598q10 -27 25.5 -72l31 -90t27.5 -81t14 -45q3 11 14.5 43.5t26 72.5t29.5 81t25 71l212 618h190zM844 1221
v-20h-105l-219 169h-2l-232 -169h-104v20l234 270h204z" />
    <glyph glyph-name="Ydieresis" unicode="&#x178;" horiz-adv-x="1366" 
d="M777 584v-584h-190v584l-542 825h210l429 -671l427 671h210zM799 1530v184h163v-184h-163zM405 1530v184h165v-184h-165z" />
    <glyph glyph-name="Zacute" unicode="&#x179;" horiz-adv-x="1251" 
d="M1187 0h-1122v143l858 1110h-785v156h1002v-139l-858 -1114h905v-156zM488 1530v20l217 226h207v-29l-310 -217h-114z" />
    <glyph glyph-name="zacute" unicode="&#x17a;" horiz-adv-x="1024" 
d="M49 0v137l661 806h-621v139h824v-137l-662 -806h699v-139h-901zM381 1201v20l217 287h207v-29l-330 -278h-94z" />
    <glyph glyph-name="Zdotaccent" unicode="&#x17b;" horiz-adv-x="1251" 
d="M1187 0h-1122v143l858 1110h-785v156h1002v-139l-858 -1114h905v-156zM536 1605v172h180v-172h-180z" />
    <glyph glyph-name="zdotaccent" unicode="&#x17c;" horiz-adv-x="1024" 
d="M49 0v137l661 806h-621v139h824v-137l-662 -806h699v-139h-901zM409 1312v172h180v-172h-180z" />
    <glyph glyph-name="Zcaron" unicode="&#x17d;" horiz-adv-x="1251" 
d="M1187 0h-1122v143l858 1110h-785v156h1002v-139l-858 -1114h905v-156zM750 1530h-204l-234 239v21h104l232 -139h2l219 139h105v-21z" />
    <glyph glyph-name="zcaron" unicode="&#x17e;" horiz-adv-x="1024" 
d="M49 0v137l661 806h-621v139h824v-137l-662 -806h699v-139h-901zM594 1201h-204l-234 270v20h104l232 -169h2l219 169h105v-20z" />
    <glyph glyph-name="longs" unicode="&#x17f;" horiz-adv-x="455" 
d="M318 0h-180v1204q0 59 11 109.5t40.5 88t80.5 59t132 21.5q32 0 66.5 -3t60.5 -9v-137q-17 3 -39.5 5.5t-40.5 2.5q-40 0 -65.5 -11t-40 -31.5t-20 -50.5t-5.5 -69v-1179z" />
    <glyph glyph-name="florin" unicode="&#x192;" 
d="M932 1312q-17 5 -48 10t-62 5t-54 -9.5t-39.5 -29.5t-28.5 -52t-21 -77l-26 -137h211l-25 -131h-213l-254 -1325h-180l254 1325h-152l27 131h151l29 152q12 59 32 110t55.5 89t90 59.5t135.5 21.5q32 0 73 -5t76 -15z" />
    <glyph glyph-name="Aringacute" unicode="&#x1fa;" horiz-adv-x="1366" 
d="M926 1392q0 -45 -19 -84.5t-52 -69.5q-16 -15 -34 -26l541 -1212h-195l-161 371h-642l-162 -371h-198l548 1209q-21 12 -39 29q-33 30 -52 69.5t-19 84.5t19 84.5t52 69t77 46.5t94 17t94 -17t77 -46.5t52 -69t19 -84.5zM768 923q-16 36 -30.5 73t-25.5 67t-18.5 50.5
t-8.5 24.5q-2 -4 -9 -24.5t-18.5 -51.5t-26 -67.5t-29.5 -72.5l-180 -417h527zM818 1392q0 25 -10.5 47t-28.5 38.5t-42.5 26t-52.5 9.5q-29 0 -53.5 -9.5t-42.5 -26t-28.5 -38.5t-10.5 -47q0 -26 10.5 -48t28.5 -39.5t42 -27.5q21 -8 45 -9h9q28 0 52.5 9.5t42.5 27
t28.5 39.5t10.5 48zM571 1657v16l217 181h207v-23l-310 -174h-114z" />
    <glyph glyph-name="aringacute" unicode="&#x1fb;" 
d="M414 -20q-163 0 -245 86t-82 236q0 107 40.5 175.5t106 107.5t149.5 54t171 17l243 4v59q0 67 -14 114t-43 76t-72.5 42.5t-102.5 13.5q-52 0 -94 -7.5t-73 -27t-50 -53t-25 -84.5l-188 17q10 64 38 117.5t79.5 92.5t129 60.5t187.5 21.5q204 0 307 -93.5t103 -270.5
v-466q0 -80 21 -120.5t80 -40.5q15 0 30 2t29 5v-112q-34 -8 -67.5 -12t-71.5 -4q-51 0 -87.5 13.5t-59.5 41t-35 68t-15 94.5h-6q-29 -52 -63.5 -94t-80.5 -71.5t-104.5 -45.5t-134.5 -16zM455 115q86 0 150.5 31.5t107 80.5t63.5 107t21 111v89l-197 -4
q-66 -1 -125.5 -9.5t-104.5 -33.5t-71.5 -70t-26.5 -118q0 -88 47.5 -136t135.5 -48zM811 1239q0 -50 -19 -94t-52 -77t-77 -52t-94 -19t-94 19t-77 52t-52 77t-19 94t19 94t52 76.5t77 51.5t94 19t94 -19t77 -51.5t52 -76.5t19 -94zM703 1239q0 28 -10.5 52.5t-28.5 42.5
t-42.5 28.5t-52.5 10.5q-29 0 -53.5 -10.5t-42.5 -28.5t-28.5 -42.5t-10.5 -52.5q0 -29 10.5 -53.5t28.5 -43.5t42.5 -29.5t53.5 -10.5q28 0 52.5 10.5t42.5 29.5t28.5 43.5t10.5 53.5zM427 1547v20l217 287h207v-29l-330 -278h-94z" />
    <glyph glyph-name="AEacute" unicode="&#x1fc;" horiz-adv-x="2048" 
d="M969 0v412h-548l-198 -412h-199l686 1409h1209v-156h-759v-452h699v-154h-699v-491h800v-156h-991zM969 1262h-151q-1 -3 -9 -20.5t-19 -42.5t-24.5 -54t-25.5 -54.5t-21 -44.5t-11 -24l-217 -461h478v701zM1068 1530v20l217 226h207v-29l-310 -217h-114z" />
    <glyph glyph-name="aeacute" unicode="&#x1fd;" horiz-adv-x="1821" 
d="M968 503v-17q1 -82 18 -150t52 -117t89.5 -76.5t132.5 -27.5q117 0 187.5 47t95.5 119l158 -45q-17 -45 -47.5 -90.5t-81.5 -82t-127.5 -60t-184.5 -23.5q-321 0 -423 257q-29 -51 -66 -97.5t-88 -82t-119.5 -56.5t-161.5 -21q-167 0 -251.5 86t-84.5 236q0 71 19 125
t52.5 93t79 64.5t99 41.5t112 22.5t118.5 7.5l240 4v59q0 67 -13 114t-41.5 76t-72.5 42.5t-105 13.5q-54 0 -98 -7.5t-76 -27t-51.5 -53t-26.5 -84.5l-188 17q10 64 39 117.5t81.5 92.5t132 60.5t191.5 21.5q128 0 214 -35t135 -104q63 74 151.5 106.5t194.5 32.5
q136 0 227.5 -44t147 -121.5t79 -182.5t23.5 -227v-24h-762zM786 534l-195 -4q-40 -1 -80.5 -4t-78.5 -12t-71 -24.5t-57.5 -41t-38.5 -62t-14 -87.5q0 -87 50 -135.5t143 -48.5q90 0 154.5 31.5t106 80.5t61.5 107t20 111v89zM1544 641q-15 171 -87 249.5t-207 78.5
q-45 0 -93 -14.5t-88.5 -51.5t-67.5 -100.5t-31 -161.5h574zM759 1201v20l217 287h207v-29l-330 -278h-94z" />
    <glyph glyph-name="Oslashacute" unicode="&#x1fe;" horiz-adv-x="1593" 
d="M1495 711q0 -165 -47.5 -300t-137.5 -231t-220 -148t-295 -52q-127 0 -230 29t-184 83l-120 -145h-190l200 241q-88 97 -131 230t-43 293q0 165 46 298t135 226.5t219.5 144t299.5 50.5q125 0 228.5 -28t185.5 -82l121 146h192l-201 -242q85 -94 128.5 -223.5
t43.5 -289.5zM1300 711q0 112 -24.5 204t-73.5 164l-709 -853q59 -44 134 -67.5t168 -23.5q132 0 227.5 43t157 119.5t91 182.5t29.5 231zM291 711q0 -113 25 -208t76 -170l707 853q-59 42 -134.5 65t-167.5 23q-126 0 -221 -40t-158.5 -114t-95 -178t-31.5 -231zM659 1530
v20l217 226h207v-29l-310 -217h-114z" />
    <glyph glyph-name="oslashacute" unicode="&#x1ff;" horiz-adv-x="1251" 
d="M1112 542q0 -284 -125 -423t-363 -139q-97 0 -175 24t-138 74l-100 -116h-167l184 214q-41 68 -62 159t-21 207q0 560 485 560q103 0 181 -23t135 -68l91 105h167l-173 -201q42 -69 61.5 -161.5t19.5 -211.5zM923 542q0 68 -6 122.5t-17 98.5l-483 -562
q38 -49 90.5 -68.5t114.5 -19.5q69 0 125 19.5t95 68.5t60 132t21 209zM334 542q0 -130 24 -215l482 561q-37 45 -89 63t-118 18q-69 0 -124.5 -20.5t-94.5 -70t-59.5 -131.5t-20.5 -205zM506 1201v20l217 287h207v-29l-330 -278h-94z" />
    <glyph glyph-name="Scommaaccent" unicode="&#x218;" horiz-adv-x="1366" 
d="M798 -193q0 -87 -22 -140.5t-62 -100.5h-117q45 48 69.5 91t24.5 89h-88v156h195v-95zM1272 389q0 -89 -34.5 -164t-106.5 -129.5t-181.5 -85t-259.5 -30.5q-263 0 -410 92t-187 266l185 37q14 -55 43 -100t78.5 -77.5t122.5 -50.5t175 -18q85 0 156 14.5t122 44.5
t79.5 77.5t28.5 113.5q0 69 -31.5 112t-88.5 71t-136 47t-175 41q-59 13 -118.5 28.5t-114 37t-102.5 50.5t-83 69.5t-55 94t-20 123.5q0 100 40.5 171.5t112.5 117.5t170 67t212 21q131 0 224 -20.5t157 -61.5t102.5 -101.5t61.5 -140.5l-188 -33q-14 51 -40.5 91t-69.5 67
t-104.5 41t-144.5 14q-98 0 -164.5 -17.5t-107 -47.5t-58 -70.5t-17.5 -87.5q0 -63 31.5 -103.5t85.5 -67.5t125 -45t151 -36q65 -15 129.5 -30.5t123.5 -37t110.5 -50.5t89.5 -71t59.5 -99t21.5 -134z" />
    <glyph glyph-name="scommaaccent" unicode="&#x219;" horiz-adv-x="1024" 
d="M615 -193q0 -87 -22 -140.5t-62 -100.5h-117q45 48 69.5 91t24.5 89h-88v156h195v-95zM950 299q0 -76 -29.5 -135.5t-85.5 -100t-137.5 -62t-186.5 -21.5q-94 0 -169.5 14.5t-132.5 46.5t-95.5 84.5t-56.5 128.5l159 31q23 -87 95 -127.5t200 -40.5q58 0 106.5 8
t83.5 27.5t54.5 52t19.5 80.5q0 49 -23 80.5t-64 52.5t-99.5 36.5t-128.5 34.5q-65 17 -129 38t-115.5 55.5t-83.5 85.5t-32 128q0 148 105.5 225.5t307.5 77.5q179 0 284.5 -63t133.5 -202l-162 -20q-9 42 -33 70.5t-58 46t-76.5 25t-88.5 7.5q-122 0 -180 -37t-58 -112
q0 -44 21.5 -72.5t60 -48t92.5 -34t119 -30.5q43 -11 88 -23.5t87.5 -30t80 -41t65.5 -56.5t44.5 -77t16.5 -102z" />
    <glyph glyph-name="uni021A" unicode="&#x21a;" horiz-adv-x="1251" 
d="M723 -193q0 -87 -22 -140.5t-62 -100.5h-117q45 48 69.5 91t24.5 89h-88v156h195v-95zM720 1253v-1253h-190v1253h-484v156h1158v-156h-484z" />
    <glyph glyph-name="uni021B" unicode="&#x21b;" horiz-adv-x="569" 
d="M443 -193q0 -87 -22 -140.5t-62 -100.5h-117q45 48 69.5 91t24.5 89h-88v156h195v-95zM554 8q-41 -11 -83.5 -17.5t-98.5 -6.5q-216 0 -216 245v722h-125v131h132l53 242h120v-242h200v-131h-200v-683q0 -78 25.5 -109.5t88.5 -31.5q26 0 50.5 4t53.5 10v-133z" />
    <glyph glyph-name="circumflex" unicode="&#x2c6;" horiz-adv-x="682" 
d="M662 1221v-20h-105l-219 169h-2l-232 -169h-104v20l234 270h204z" />
    <glyph glyph-name="caron" unicode="&#x2c7;" horiz-adv-x="682" 
d="M438 1201h-204l-234 270v20h104l232 -169h2l219 169h105v-20z" />
    <glyph glyph-name="uni02C9" unicode="&#x2c9;" horiz-adv-x="682" 
d="M600 1236h-549v127h549v-127z" />
    <glyph glyph-name="breve" unicode="&#x2d8;" horiz-adv-x="682" 
d="M297 1201q-74 0 -132 25.5t-100 68t-67 98.5t-33 117h117q8 -43 27.5 -72.5t47.5 -47.5t64 -25.5t78 -7.5t77.5 8t63.5 26t47 47.5t27 71.5h117q-9 -61 -34 -117t-66.5 -98.5t-99.5 -68t-134 -25.5z" />
    <glyph glyph-name="dotaccent" unicode="&#x2d9;" horiz-adv-x="682" 
d="M156 1312v172h180v-172h-180z" />
    <glyph glyph-name="ring" unicode="&#x2da;" horiz-adv-x="682" 
d="M535 1410q0 -50 -19 -94t-52 -77t-77 -52t-94 -19t-94 19t-77 52t-52 77t-19 94t19 94t52 76.5t77 51.5t94 19t94 -19t77 -51.5t52 -76.5t19 -94zM427 1410q0 28 -10.5 52.5t-28.5 42.5t-42.5 28.5t-52.5 10.5q-29 0 -53.5 -10.5t-42.5 -28.5t-28.5 -42.5t-10.5 -52.5
q0 -29 10.5 -53.5t28.5 -43.5t42.5 -29.5t53.5 -10.5q28 0 52.5 10.5t42.5 29.5t28.5 43.5t10.5 53.5z" />
    <glyph glyph-name="ogonek" unicode="&#x2db;" horiz-adv-x="682" 
d="M430 -400q-28 -12 -63.5 -19.5t-75.5 -7.5q-105 0 -158 51t-53 136q0 47 17 86.5t41 70t50.5 51.5t46.5 32h133q-25 -14 -51 -36.5t-47.5 -52t-35 -64.5t-13.5 -74q0 -42 24.5 -66t69.5 -24q29 0 58 6.5t57 17.5v-107z" />
    <glyph glyph-name="tilde" unicode="&#x2dc;" horiz-adv-x="682" 
d="M492 1201q-42 0 -84 18.5t-81 41t-74.5 41t-66.5 18.5q-55 0 -82 -31t-36 -88h-91q5 45 15 92.5t32.5 86.5t59.5 64t96 25q44 0 86 -18.5t81 -41t73.5 -41t64.5 -18.5q54 0 81.5 31.5t35.5 87.5h92q-5 -44 -15 -91.5t-31.5 -86.5t-58.5 -64.5t-97 -25.5z" />
    <glyph glyph-name="hungarumlaut" unicode="&#x2dd;" horiz-adv-x="682" 
d="M22 1201v20l217 287h207v-29l-330 -278h-94zM369 1201v20l217 287h207v-29l-330 -278h-94z" />
    <glyph glyph-name="tonos" unicode="&#x384;" horiz-adv-x="682" 
d="M205 1218v33l69 292h207v-37l-201 -288h-75z" />
    <glyph glyph-name="dieresistonos" unicode="&#x385;" horiz-adv-x="682" 
d="M250 1200v33l69 368h187v-37l-181 -364h-75zM29 1231v172h150v-172h-150zM501 1231v172h150v-172h-150z" />
    <glyph glyph-name="Alphatonos" unicode="&#x386;" horiz-adv-x="1367" 
d="M1167 0l-161 412h-642l-162 -412h-198l575 1409h217l566 -1409h-195zM768 1026q-16 40 -30.5 81t-25.5 74.5t-18.5 56t-8.5 27.5q-2 -5 -9 -28t-18.5 -57t-26 -75t-29.5 -81l-180 -463h527zM57 1086v33l69 292h207v-37l-201 -288h-75z" />
    <glyph glyph-name="anoteleia" unicode="&#x387;" horiz-adv-x="569" 
d="M187 446v220h195v-220h-195z" />
    <glyph glyph-name="Epsilontonos" unicode="&#x388;" horiz-adv-x="1606" 
d="M408 0v1409h1069v-156h-878v-452h818v-154h-818v-491h919v-156h-1110zM-11 1086v33l69 292h207v-37l-201 -288h-75z" />
    <glyph glyph-name="Etatonos" unicode="&#x389;" horiz-adv-x="1716" 
d="M1358 0v653h-762v-653h-191v1409h191v-596h762v596h191v-1409h-191zM-14 1086v33l69 292h207v-37l-201 -288h-75z" />
    <glyph glyph-name="Iotatonos" unicode="&#x38a;" horiz-adv-x="786" 
d="M406 0v1409h191v-1409h-191zM-24 1086v33l69 292h207v-37l-201 -288h-75z" />
    <glyph glyph-name="Omicrontonos" unicode="&#x38c;" horiz-adv-x="1586" 
d="M1491 711q0 -165 -47.5 -300t-137.5 -231t-220 -148t-295 -52q-174 0 -305 54.5t-218 152t-131 231.5t-44 293q0 165 46 298t135 226.5t219.5 144t299.5 50.5q168 0 298.5 -51t219 -145t134.5 -227t46 -296zM1296 711q0 127 -32.5 231t-96 178t-157.5 114t-217 40
q-126 0 -221 -40t-158.5 -114t-95 -178t-31.5 -231t32.5 -232.5t96 -182t158 -119t217.5 -42.5q132 0 227.5 43t157 119.5t91 182.5t29.5 231zM-69 1086v33l69 292h207v-37l-201 -288h-75z" />
    <glyph glyph-name="Upsilontonos" unicode="&#x38e;" horiz-adv-x="1752" 
d="M1163 584v-584h-190v584l-542 825h210l429 -671l427 671h210zM65 1086v33l69 292h207v-37l-201 -288h-75z" />
    <glyph glyph-name="Omegatonos" unicode="&#x38f;" horiz-adv-x="1541" 
d="M775 1430q151 0 271.5 -43t204.5 -124t129 -198t45 -264q0 -106 -29.5 -201.5t-84 -179t-133 -152.5t-177.5 -123q42 2 81 5q33 2 68.5 4t58.5 2h244v-156h-589v224q96 51 165.5 114t114 134.5t65.5 151t21 164.5q0 116 -30.5 206.5t-88.5 152.5t-142.5 94.5t-192.5 32.5
q-109 0 -194 -32.5t-143 -94.5t-88.5 -152.5t-30.5 -206.5q0 -85 21 -164.5t65.5 -151t114 -134.5t165.5 -114v-224h-589v156h244q23 0 58.5 -2t68.5 -4q39 -3 81 -5q-99 54 -177.5 123t-133 152.5t-84 179t-29.5 201.5q0 147 45 264t129 198t204.5 124t271.5 43zM-69 1086
v33l69 292h207v-37l-201 -288h-75z" />
    <glyph glyph-name="iotadieresistonos" unicode="&#x390;" horiz-adv-x="455" 
d="M199 0q-15 16 -27 42.5t-19.5 58.5t-11.5 67t-4 68v846h180v-855q0 -32 5.5 -64t16 -62t25.5 -56t33 -45h-198zM141 1200v33l69 368h187v-37l-181 -364h-75zM-80 1231v172h150v-172h-150zM392 1231v172h150v-172h-150z" />
    <glyph glyph-name="Alpha" unicode="&#x391;" horiz-adv-x="1366" 
d="M1167 0l-161 412h-642l-162 -412h-198l575 1409h217l566 -1409h-195zM768 1026q-16 40 -30.5 81t-25.5 74.5t-18.5 56t-8.5 27.5q-2 -5 -9 -28t-18.5 -57t-26 -75t-29.5 -81l-180 -463h527z" />
    <glyph glyph-name="Beta" unicode="&#x392;" horiz-adv-x="1366" 
d="M1258 397q0 -107 -42 -182.5t-113 -123t-165 -69.5t-198 -22h-572v1409h512q117 0 209 -19.5t156 -61.5t97.5 -106.5t33.5 -154.5q0 -59 -16.5 -111t-50 -94.5t-84 -73t-117.5 -45.5q85 -10 150.5 -39t109.5 -74t67 -104.5t23 -128.5zM984 1044q0 114 -78 163t-226 49
h-321v-446h321q84 0 142 16.5t94 47t52 73.5t16 97zM1065 412q0 67 -24.5 114t-70.5 77t-110.5 44t-144.5 14h-356v-508h371q73 0 134.5 12t106 42t69.5 80t25 125z" />
    <glyph glyph-name="Gamma" unicode="&#x393;" horiz-adv-x="1128" 
d="M1071 1410v-156h-712v-1253h-191v1409h903z" />
    <glyph glyph-name="Delta" unicode="&#x394;" horiz-adv-x="1368" 
d="M62 141l517 1268h217l510 -1268v-141h-1245zM1106 156l-338 862q-16 40 -30.5 81t-25.5 75.5t-18.5 58.5t-8.5 32q-2 -8 -9 -32.5t-18.5 -59.5t-25.5 -76t-30 -81l-339 -860h843z" />
    <glyph glyph-name="Epsilon" unicode="&#x395;" horiz-adv-x="1366" 
d="M168 0v1409h1069v-156h-878v-452h818v-154h-818v-491h919v-156h-1110z" />
    <glyph glyph-name="Zeta" unicode="&#x396;" horiz-adv-x="1251" 
d="M1187 0h-1122v143l858 1110h-785v156h1002v-139l-858 -1114h905v-156z" />
    <glyph glyph-name="Eta" unicode="&#x397;" horiz-adv-x="1479" 
d="M1121 0v653h-762v-653h-191v1409h191v-596h762v596h191v-1409h-191z" />
    <glyph glyph-name="Theta" unicode="&#x398;" horiz-adv-x="1593" 
d="M1495 711q0 -165 -47.5 -300t-137.5 -231t-220 -148t-295 -52q-174 0 -305 54.5t-218 152t-131 231.5t-44 293q0 165 46 298t135 226.5t219.5 144t299.5 50.5q168 0 298.5 -51t219 -145t134.5 -227t46 -296zM1300 711q0 127 -32.5 231t-96 178t-157.5 114t-217 40
q-126 0 -221 -40t-158.5 -114t-95 -178t-31.5 -231t32.5 -232.5t96 -182t158 -119t217.5 -42.5q132 0 227.5 43t157 119.5t91 182.5t29.5 231zM502 794h587v-160h-587v160z" />
    <glyph glyph-name="Iota" unicode="&#x399;" horiz-adv-x="569" 
d="M189 0v1409h191v-1409h-191z" />
    <glyph glyph-name="Kappa" unicode="&#x39a;" horiz-adv-x="1366" 
d="M1106 0l-563 680l-184 -140v-540h-191v1409h191v-706l679 706h225l-600 -612l680 -797h-237z" />
    <glyph glyph-name="Lambda" unicode="&#x39b;" horiz-adv-x="1368" 
d="M1358 1h-201l-388 992q-17 47 -31.5 91.5t-26.5 79.5q-14 41 -26 78q-13 -39 -27 -80q-12 -35 -27 -79.5t-30 -89.5l-390 -992h-201l575 1409h198z" />
    <glyph glyph-name="Mu" unicode="&#x39c;" horiz-adv-x="1706" 
d="M1366 0v940q0 51 1 104t3 97q2 51 5 99q-14 -51 -29 -101q-13 -43 -28.5 -91.5t-30.5 -87.5l-364 -960h-134l-369 960q-6 15 -12.5 35t-14 42.5t-15 46t-14.5 46.5q-17 53 -33 110q1 -56 3 -111q2 -47 3 -98.5t1 -90.5v-940h-170v1409h251l375 -977q7 -20 17 -51.5
t19 -64.5t16.5 -62.5t10.5 -45.5q3 16 11 46t18.5 63t20.5 64t18 51l368 977h245v-1409h-172z" />
    <glyph glyph-name="Nu" unicode="&#x39d;" horiz-adv-x="1479" 
d="M1082 0l-754 1200q2 -49 5 -97q2 -41 3.5 -86.5t1.5 -80.5v-936h-170v1409h222l762 -1208l-6 98q-2 42 -4 91.5t-2 94.5v924h172v-1409h-230z" />
    <glyph glyph-name="Xi" unicode="&#x39e;" horiz-adv-x="1331" 
d="M125 1409h1081v-156h-1081v156zM1241 156v-156h-1151v156h1151zM1086 801v-154h-841v154h841z" />
    <glyph glyph-name="Omicron" unicode="&#x39f;" horiz-adv-x="1593" 
d="M1495 711q0 -165 -47.5 -300t-137.5 -231t-220 -148t-295 -52q-174 0 -305 54.5t-218 152t-131 231.5t-44 293q0 165 46 298t135 226.5t219.5 144t299.5 50.5q168 0 298.5 -51t219 -145t134.5 -227t46 -296zM1300 711q0 127 -32.5 231t-96 178t-157.5 114t-217 40
q-126 0 -221 -40t-158.5 -114t-95 -178t-31.5 -231t32.5 -232.5t96 -182t158 -119t217.5 -42.5q132 0 227.5 43t157 119.5t91 182.5t29.5 231z" />
    <glyph glyph-name="Pi" unicode="&#x3a0;" horiz-adv-x="1479" 
d="M1121 0v1248h-762v-1248h-191v1409h1144v-1409h-191z" />
    <glyph glyph-name="Rho" unicode="&#x3a1;" horiz-adv-x="1366" 
d="M1258 985q0 -92 -30.5 -171.5t-91 -138t-151.5 -92.5t-212 -34h-414v-549h-191v1409h593q125 0 218 -30.5t155 -86t93 -134t31 -173.5zM1066 983q0 134 -82 203.5t-246 69.5h-379v-556h387q165 0 242.5 73t77.5 210z" />
    <glyph glyph-name="Sigma" unicode="&#x3a3;" horiz-adv-x="1266" 
d="M108 0v162l538 579l-521 507v161h999v-156h-784l458 -445v-124l-490 -528h877v-156h-1077z" />
    <glyph glyph-name="Tau" unicode="&#x3a4;" horiz-adv-x="1251" 
d="M720 1253v-1253h-190v1253h-484v156h1158v-156h-484z" />
    <glyph glyph-name="Upsilon" unicode="&#x3a5;" horiz-adv-x="1366" 
d="M777 584v-584h-190v584l-542 825h210l429 -671l427 671h210z" />
    <glyph glyph-name="Phi" unicode="&#x3a6;" horiz-adv-x="1634" 
d="M1518 736q0 -105 -32 -199t-97.5 -165.5t-164 -113.5t-231.5 -42h-83v-227h-185v227h-83q-133 0 -231.5 42t-164 113.5t-97.5 165.5t-32 199q0 113 33.5 205.5t100 158t167 101.5t235.5 36h72v182h185v-182h71q135 0 236 -36t167.5 -101.5t100 -158t33.5 -205.5z
M1326 732q0 187 -92.5 277t-275.5 90h-48v-746h56q92 0 160 26.5t112.5 75.5t66 119t21.5 158zM309 732q0 -88 21.5 -158t66 -119t112.5 -75.5t160 -26.5h56v746h-52q-182 0 -273 -90t-91 -277z" />
    <glyph glyph-name="Chi" unicode="&#x3a7;" horiz-adv-x="1366" 
d="M1112 0l-423 616l-432 -616h-211l536 732l-495 677h211l392 -553l381 553h211l-482 -670l523 -739h-211z" />
    <glyph glyph-name="Psi" unicode="&#x3a8;" horiz-adv-x="1711" 
d="M763 0v427h-83q-133 0 -233.5 42t-167.5 113t-100.5 165.5t-33.5 198.5v463h191v-467q0 -80 23.5 -148.5t70 -118.5t116 -78.5t161.5 -28.5h56v841h185v-841h56q95 0 165 28.5t115.5 78.5t68 118.5t22.5 148.5v467h191v-463q0 -104 -34 -198.5t-101 -165.5t-167.5 -113
t-232.5 -42h-83v-427h-185z" />
    <glyph glyph-name="Omega" unicode="&#x3a9;" horiz-adv-x="1531" 
d="M765 1430q151 0 271.5 -43t204.5 -124t129 -198t45 -264q0 -106 -29.5 -201.5t-84 -179t-133 -152.5t-177.5 -123q42 2 81 5q33 2 68.5 4t58.5 2h244v-156h-589v224q96 51 165.5 114t114 134.5t65.5 151t21 164.5q0 116 -30.5 206.5t-88.5 152.5t-142.5 94.5t-192.5 32.5
q-109 0 -194 -32.5t-143 -94.5t-88.5 -152.5t-30.5 -206.5q0 -85 21 -164.5t65.5 -151t114 -134.5t165.5 -114v-224h-589v156h244q23 0 58.5 -2t68.5 -4q39 -3 81 -5q-99 54 -177.5 123t-133 152.5t-84 179t-29.5 201.5q0 147 45 264t129 198t204.5 124t271.5 43z" />
    <glyph glyph-name="Iotadieresis" unicode="&#x3aa;" horiz-adv-x="569" 
d="M189 0v1409h191v-1409h-191zM401 1530v184h163v-184h-163zM7 1530v184h165v-184h-165z" />
    <glyph glyph-name="Upsilondieresis" unicode="&#x3ab;" horiz-adv-x="1366" 
d="M777 584v-584h-190l2 584l-544 825h205l434 -671l432 671h205zM802 1530v184h163v-184h-163zM408 1530v184h165v-184h-165z" />
    <glyph glyph-name="alphatonos" unicode="&#x3ac;" horiz-adv-x="1184" 
d="M843 237q-26 -56 -58.5 -103t-76 -81.5t-99 -53.5t-125.5 -19q-205 0 -301.5 138t-96.5 418q0 284 108.5 425t317.5 141q69 0 125 -19.5t99 -54t74.5 -81t51.5 -100.5h2q4 21 11 49t16.5 59.5t21 64t24.5 62.5h188q-22 -47 -45 -111t-42.5 -133.5t-34.5 -139t-20 -127.5
q3 -103 14.5 -190.5t27 -159.5t33.5 -127t36 -94h-183q-11 28 -21.5 61t-18.5 65.5t-14.5 61.5t-9.5 49h-4zM275 542q0 -112 14 -192t43.5 -131.5t76 -75.5t112.5 -24q54 0 104 26t91 79.5t71.5 133.5t44.5 188q-12 86 -34.5 163t-58 134.5t-86.5 91.5t-121 34
q-66 0 -114 -23t-80 -74t-47.5 -132.5t-15.5 -197.5zM494 1218v33l69 292h207v-37l-201 -288h-75z" />
    <glyph glyph-name="epsilontonos" unicode="&#x3ad;" horiz-adv-x="913" 
d="M456 114q54 0 102 15.5t87.5 39.5t71 52t52.5 54l105 -100q-32 -39 -74 -74.5t-95 -62t-118 -42.5t-143 -16q-96 0 -166.5 23t-116.5 65t-68.5 100t-22.5 127q0 58 21 105.5t57 82t84 55.5t102 26v2q-51 6 -93.5 26t-73 52t-47.5 75t-17 94q0 62 25 115t72.5 91.5
t115.5 60.5t155 22q118 0 213.5 -43t162.5 -142l-128 -88q-47 71 -109.5 105t-137.5 34q-91 0 -139 -42.5t-48 -116.5q0 -57 27.5 -92t76 -53.5t114 -24.5t140.5 -6v-135q-72 0 -141.5 -5.5t-124 -25.5t-87.5 -60t-33 -109q0 -45 14.5 -79.5t40.5 -57.5t63 -35t81 -12z
M407 1218v33l69 292h207v-37l-201 -288h-75z" />
    <glyph glyph-name="etatonos" unicode="&#x3ae;" 
d="M825 -424v1110q0 79 -11.5 132t-37.5 85.5t-68.5 46t-105.5 13.5q-64 0 -115.5 -22.5t-88 -65t-56.5 -105t-20 -143.5v-627h-180v851q0 68 -11 128.5t-25 102.5h170q9 -21 16 -45t12 -48.5t7.5 -48t2.5 -43.5h3q26 47 57 85t72 64.5t94 41t123 14.5q90 0 155 -22t107 -68
t61.5 -118.5t19.5 -172.5v-1145h-181zM518 1218v33l69 292h207v-37l-201 -288h-75z" />
    <glyph glyph-name="iotatonos" unicode="&#x3af;" horiz-adv-x="455" 
d="M199 0q-15 16 -27 42.5t-19.5 58.5t-11.5 67t-4 68v846h180v-855q0 -32 5.5 -64t16 -62t25.5 -56t33 -45h-198zM158 1218v33l69 292h207v-37l-201 -288h-75z" />
    <glyph glyph-name="upsilondieresistonos" unicode="&#x3b0;" horiz-adv-x="1120" 
d="M1022 571q0 -137 -26.5 -246t-83 -186t-144.5 -118t-211 -41q-109 0 -189 25t-132 78.5t-77.5 136.5t-25.5 199v663h181v-669q0 -146 58.5 -220t192.5 -74q73 0 125 25t84.5 79t47.5 139t15 205q0 68 -10 141.5t-26.5 143t-36.5 129.5t-41 101h188q18 -40 38 -96.5
t36 -123.5t26.5 -141.5t10.5 -149.5zM472 1200v33l69 368h187v-37l-181 -364h-75zM251 1231v172h150v-172h-150zM723 1231v172h150v-172h-150z" />
    <glyph glyph-name="alpha" unicode="&#x3b1;" horiz-adv-x="1184" 
d="M843 237q-26 -56 -58.5 -103t-76 -81.5t-99 -53.5t-125.5 -19q-205 0 -301.5 138t-96.5 418q0 284 108.5 425t317.5 141q69 0 125 -19.5t99 -54t74.5 -81t51.5 -100.5h2q4 21 11 49t16.5 59.5t21 64t24.5 62.5h188q-22 -47 -45 -111t-42.5 -133.5t-34.5 -139t-20 -127.5
q3 -103 14.5 -190.5t27 -159.5t33.5 -127t36 -94h-183q-11 28 -21.5 61t-18.5 65.5t-14.5 61.5t-9.5 49h-4zM275 542q0 -112 14 -192t43.5 -131.5t76 -75.5t112.5 -24q54 0 104 26t91 79.5t71.5 133.5t44.5 188q-12 86 -34.5 163t-58 134.5t-86.5 91.5t-121 34
q-66 0 -114 -23t-80 -74t-47.5 -132.5t-15.5 -197.5z" />
    <glyph glyph-name="beta" unicode="&#x3b2;" horiz-adv-x="1178" 
d="M1097 405q0 -89 -26.5 -166t-82 -135t-142 -91t-206.5 -33q-102 0 -182 27.5t-136 66.5h-6q3 -57 4.5 -103t1.5 -99v-297h-180v1452q0 237 114 347t340 110q99 0 175 -23.5t127 -68.5t77.5 -110t26.5 -147q0 -73 -17.5 -128.5t-48 -96.5t-71 -69t-86.5 -46
q57 -11 114 -38.5t102.5 -74t73.5 -115t28 -162.5zM322 205q28 -19 63.5 -36t76 -29.5t84 -19.5t86.5 -7q72 0 127 20.5t91.5 58.5t55.5 91t19 119q0 65 -19 120t-59.5 95.5t-104.5 63t-153 22.5v142q127 27 183.5 96.5t56.5 191.5q0 44 -13.5 82.5t-42 67t-72 44.5
t-103.5 16q-70 0 -122 -17.5t-86 -56t-51 -99.5t-17 -149v-816z" />
    <glyph glyph-name="gamma" unicode="&#x3b3;" horiz-adv-x="1024" 
d="M7 1082h192l245 -675q7 -22 17.5 -53.5t20.5 -65t18.5 -65t12.5 -53.5q5 21 14 52t19.5 64.5t21.5 65t19 53.5l239 677h191l-390 -1029q-17 -45 -32.5 -100.5t-29 -117.5t-25 -128t-18.5 -131h-191q17 131 41 237.5t48 197.5z" />
    <glyph glyph-name="delta" unicode="&#x3b4;" horiz-adv-x="1140" 
d="M864 471q0 85 -24.5 157.5t-59 130t-72.5 100.5t-64 70q-73 -26 -140 -66.5t-118 -97.5t-81 -130t-30 -164q0 -76 17.5 -141.5t54 -113.5t92 -75.5t132.5 -27.5q81 0 137 27t90.5 74.5t50 113t15.5 143.5zM607 1352q-13 0 -34 1t-43.5 2.5t-43 2.5t-33.5 2l316 -324
q54 -55 105 -113t90.5 -125t64 -146.5t24.5 -176.5q0 -110 -32 -201t-93.5 -156.5t-151.5 -101.5t-205 -36q-114 0 -204 34t-152.5 97.5t-95.5 155t-33 206.5q0 112 36.5 200t100 155.5t148 116t180.5 81.5l-319 339v119h733v-132h-358z" />
    <glyph glyph-name="epsilon" unicode="&#x3b5;" horiz-adv-x="913" 
d="M456 114q54 0 102 15.5t87.5 39.5t71 52t52.5 54l105 -100q-32 -39 -74 -74.5t-95 -62t-118 -42.5t-143 -16q-96 0 -166.5 23t-116.5 65t-68.5 100t-22.5 127q0 58 21 105.5t57 82t84 55.5t102 26v2q-51 6 -93.5 26t-73 52t-47.5 75t-17 94q0 62 25 115t72.5 91.5
t115.5 60.5t155 22q118 0 213.5 -43t162.5 -142l-128 -88q-47 71 -109.5 105t-137.5 34q-91 0 -139 -42.5t-48 -116.5q0 -57 27.5 -92t76 -53.5t114 -24.5t140.5 -6v-135q-72 0 -141.5 -5.5t-124 -25.5t-87.5 -60t-33 -109q0 -45 14.5 -79.5t40.5 -57.5t63 -35t81 -12z" />
    <glyph glyph-name="zeta" unicode="&#x3b6;" horiz-adv-x="903" 
d="M277 379q0 -64 21.5 -103.5t58.5 -64t87 -40t107 -30.5q54 -15 109.5 -32t100.5 -45.5t74 -72.5t29 -112q0 -34 -9 -68t-22 -65t-27.5 -56.5t-24.5 -42.5l-126 56q9 12 18.5 28.5t17.5 35.5t13.5 38.5t5.5 38.5q0 34 -18 56.5t-51 39t-80 29t-104 25.5q-42 10 -86.5 21.5
t-85.5 29.5t-77.5 43t-63.5 62t-42.5 87t-15.5 117q0 83 24.5 171t67 176t99 175.5t120 170.5t131 160.5t131.5 145.5v4q-12 -1 -29 -1.5t-35 -1t-35 -1t-28 -0.5h-345v131h642v-127q-62 -70 -127.5 -148.5t-127 -161.5t-115.5 -169t-94.5 -171.5t-64 -168.5t-23.5 -159z
" />
    <glyph glyph-name="eta" unicode="&#x3b7;" 
d="M825 -424v1110q0 79 -11.5 132t-37.5 85.5t-68.5 46t-105.5 13.5q-64 0 -115.5 -22.5t-88 -65t-56.5 -105t-20 -143.5v-627h-180v851q0 68 -11 128.5t-25 102.5h170q9 -21 16 -45t12 -48.5t7.5 -48t2.5 -43.5h3q26 47 57 85t72 64.5t94 41t123 14.5q90 0 155 -22t107 -68
t61.5 -118.5t19.5 -172.5v-1145h-181z" />
    <glyph glyph-name="theta" unicode="&#x3b8;" 
d="M1033 733q0 -381 -120 -567t-348 -186q-108 0 -193.5 46t-144.5 139t-90 234.5t-31 333.5q0 373 116.5 561.5t348.5 188.5q121 0 208.5 -46.5t143.5 -140.5t83 -234.5t27 -328.5zM563 113q62 0 112 26t86.5 90t57.5 172t24 272h-547q3 -164 25 -271.5t57.5 -172
t82.5 -90.5t102 -26zM574 1354q-62 0 -111.5 -25.5t-85.5 -88.5t-57 -169t-24 -267h547q-3 161 -23 267t-54.5 169t-83 88.5t-108.5 25.5z" />
    <glyph glyph-name="iota" unicode="&#x3b9;" horiz-adv-x="455" 
d="M199 0q-15 16 -27 42.5t-19.5 58.5t-11.5 67t-4 68v846h180v-855q0 -32 5.5 -64t16 -62t25.5 -56t33 -45h-198z" />
    <glyph glyph-name="kappa" unicode="&#x3ba;" horiz-adv-x="1024" 
d="M816 0l-366 494l-132 -109v-385h-180v1082h180v-525l475 525h211l-439 -465l462 -617h-211z" />
    <glyph glyph-name="lambda" unicode="&#x3bb;" horiz-adv-x="1024" 
d="M463 965l-36 99q-27 73 -48 125.5t-43.5 86t-51 49t-68.5 15.5q-11 0 -27 -3.5t-22 -6.5l-35 130q25 9 61 16.5t68 7.5q55 0 98.5 -18t80 -58.5t70 -106t69.5 -160.5l427 -1141h-190l-207 577q-8 22 -17 50t-18 57.5t-17 57.5t-13 49q-7 -21 -18 -51t-23.5 -61
t-24.5 -58.5t-20 -45.5l-257 -575h-187z" />
    <glyph glyph-name="mu" unicode="&#x3bc;" horiz-adv-x="1180" 
d="M862 0q-1 6 -2.5 29t-3 52.5l-3 59t-1.5 49.5h-4q-26 -51 -54 -90.5t-62.5 -66t-77.5 -40t-100 -13.5q-82 0 -142 32t-92 90h-4q3 -32 3.5 -63.5t0.5 -58.5v-373h-182v1475h182v-644q0 -69 12.5 -127t42 -100.5t78.5 -66t123 -23.5q67 0 117 26t83.5 71.5t50 108.5
t16.5 138v617h181v-849q0 -34 0.5 -72t1.5 -71.5t2 -58t2 -31.5h-168z" />
    <glyph glyph-name="nu" unicode="&#x3bd;" horiz-adv-x="1024" 
d="M946 846q0 -99 -31.5 -208t-84.5 -219.5t-123 -217.5t-147 -201h-170l-390 1082h189l311 -928q142 185 204 356t62 327q0 81 -14.5 140.5t-34.5 104.5h177q24 -45 38 -101.5t14 -134.5z" />
    <glyph glyph-name="xi" unicode="&#x3be;" horiz-adv-x="917" 
d="M86 354q0 76 25.5 149.5t80.5 135.5t142.5 107t212.5 64v2q-68 5 -127 24.5t-102.5 53.5t-69 82t-25.5 110q0 64 25 110.5t64.5 78.5t88 52t95.5 30v8q-12 -1 -46 -2t-74 -2.5t-78 -2.5t-56 -1h-74v131h634v-125q-77 -9 -149 -26t-128 -46.5t-90 -74.5t-34 -112
q0 -63 30 -103.5t79.5 -65t114.5 -36.5t134 -18v-131q-100 -13 -187.5 -40t-153 -71.5t-103.5 -108t-38 -147.5q0 -64 21.5 -103.5t58.5 -64t87 -40t107 -30.5q54 -15 111 -32t104 -45.5t77.5 -72.5t30.5 -112q0 -34 -9 -68t-22 -65t-27.5 -56.5t-24.5 -42.5l-126 56
q9 12 18.5 28.5t17.5 35.5t13.5 38.5t5.5 38.5q0 34 -19.5 56.5t-54.5 39t-83.5 29t-105.5 25.5q-42 10 -86.5 21.5t-85.5 29.5t-77.5 43t-63.5 62t-42.5 87t-15.5 117z" />
    <glyph glyph-name="omicron" unicode="&#x3bf;" 
d="M1053 542q0 -284 -125 -423t-363 -139q-113 0 -202 34t-150.5 104t-94 175.5t-32.5 248.5q0 560 485 560q126 0 217.5 -35t150 -105t86.5 -175t28 -245zM864 542q0 126 -19.5 208t-57 131t-91.5 68.5t-122 19.5q-69 0 -124.5 -20.5t-94.5 -70t-59.5 -131.5t-20.5 -205
q0 -126 22 -208.5t60.5 -131.5t91 -69t114.5 -20q69 0 125 19.5t95 68.5t60 132t21 209z" />
    <glyph glyph-name="pi" unicode="&#x3c0;" horiz-adv-x="1413" 
d="M1126 -20q-59 0 -100 14t-67 43.5t-38 76.5t-12 113v724h-402v-72q0 -131 -8 -256.5t-21.5 -239.5t-31.5 -211.5t-37 -171.5h-188q19 76 38.5 174.5t35.5 211.5t26 236.5t10 248.5v80q-39 0 -78.5 -3.5t-74 -8.5t-61 -11.5t-38.5 -13.5v139q12 6 33.5 11.5t47 9.5t52.5 6
t50 2h1061v-131h-234v-685q0 -44 6.5 -72t18.5 -44t29.5 -22.5t39.5 -6.5q7 0 18.5 1t24 2t24 2.5t19.5 2.5v-129q-31 -8 -65.5 -14t-77.5 -6z" />
    <glyph glyph-name="rho" unicode="&#x3c1;" horiz-adv-x="1165" 
d="M1083 516q0 -118 -31.5 -216.5t-89 -169.5t-138 -110.5t-178.5 -39.5q-62 0 -111 10t-89 28.5t-73 45t-61 59.5h-4q2 -30 3 -60.5t1 -62.5v-425h-180v1006q0 119 30 215.5t88 164.5t142.5 105t194.5 37q103 0 193.5 -39.5t157.5 -114.5t106 -184.5t39 -248.5zM890 524
q0 104 -22 187t-63.5 140.5t-99.5 88t-130 30.5q-69 0 -119 -26.5t-82 -77t-47 -123.5t-15 -166v-317q28 -35 64 -62.5t76 -46t83.5 -28.5t87.5 -10q67 0 117 29t83.5 82.5t50 129.5t16.5 170z" />
    <glyph glyph-name="sigma1" unicode="&#x3c2;" horiz-adv-x="987" 
d="M582 961q-54 0 -98 -24.5t-77.5 -64.5t-58 -92t-40.5 -106t-23.5 -107t-7.5 -95q0 -68 16 -116t54 -84t100 -64.5t154 -58.5q53 -17 110 -35.5t104.5 -48t78 -74t30.5 -112.5q0 -34 -9 -68t-22 -65t-27.5 -56.5t-24.5 -42.5l-126 56q9 12 18.5 28.5t17.5 35.5t13.5 38.5
t5.5 38.5q0 30 -17.5 52t-51.5 40t-82.5 33.5t-111.5 32.5q-66 18 -122.5 38t-103.5 45.5t-83 59.5t-61 80.5t-38 107.5t-13 142q0 47 10 112t33 135t60.5 138t92.5 122t129 87t171 33q68 0 117.5 -10.5t86 -27.5t63.5 -39t49 -45l-116 -119q-18 19 -39 37t-45.5 32
t-53 22.5t-62.5 8.5z" />
    <glyph glyph-name="sigma" unicode="&#x3c3;" horiz-adv-x="1264" 
d="M1072 491q0 -112 -30.5 -206t-92 -161.5t-153 -105.5t-214.5 -38t-216 37t-155 106.5t-93.5 170.5t-31.5 230q0 144 43 249t119.5 174t183 102t232.5 33h569v-131h-165q-9 0 -26.5 0.5t-39 1.5t-43.5 2t-39 2v-4q28 -42 55.5 -91.5t49 -107t34.5 -123t13 -140.5zM883 488
q0 74 -10 140t-27 124t-39.5 107.5t-47.5 91.5h-89q-83 0 -154.5 -25t-125 -77.5t-84 -132.5t-30.5 -190q0 -207 75.5 -310t222.5 -103q78 0 136.5 26t96.5 74.5t57 118t19 156.5z" />
    <glyph glyph-name="tau" unicode="&#x3c4;" horiz-adv-x="809" 
d="M281 951q-39 0 -78.5 -3.5t-74 -8.5t-61 -11.5t-38.5 -13.5v139q12 6 33.5 11.5t47 9.5t52.5 6t50 2h580v-131h-304v-685q0 -44 6.5 -72t18.5 -44t29.5 -22.5t39.5 -6.5q7 0 18.5 1t24 2t24 2.5t19.5 2.5v-129q-31 -8 -65.5 -14t-77.5 -6q-59 0 -100 14t-67 43.5
t-38 76.5t-12 113v724h-27z" />
    <glyph glyph-name="upsilon" unicode="&#x3c5;" horiz-adv-x="1120" 
d="M1022 571q0 -137 -26.5 -246t-83 -186t-144.5 -118t-211 -41q-109 0 -189 25t-132 78.5t-77.5 136.5t-25.5 199v663h181v-669q0 -146 58.5 -220t192.5 -74q73 0 125 25t84.5 79t47.5 139t15 205q0 68 -10 141.5t-26.5 143t-36.5 129.5t-41 101h188q18 -40 38 -96.5
t36 -123.5t26.5 -141.5t10.5 -149.5z" />
    <glyph glyph-name="phi" unicode="&#x3c6;" horiz-adv-x="1328" 
d="M1242 565q0 -151 -37 -258.5t-103 -177.5t-158 -105.5t-202 -41.5v-407h-170v407q-114 5 -204.5 41t-153 105t-96 172.5t-33.5 244.5q0 102 24.5 196t76 169t131 126.5t188.5 69.5l21 -136q-69 -15 -117 -53.5t-78 -95.5t-43.5 -128.5t-13.5 -151.5q0 -213 73.5 -313.5
t224.5 -108.5v580q0 193 77 299t235 106q84 0 150.5 -38t112.5 -108.5t70.5 -170t24.5 -222.5zM1053 567q0 193 -43.5 298.5t-123.5 105.5q-68 0 -106 -64.5t-38 -204.5v-583q162 7 236.5 116t74.5 332z" />
    <glyph glyph-name="chi" unicode="&#x3c7;" horiz-adv-x="1075" 
d="M542 239l-333 -663h-188l440 825l-170 343q-27 54 -49 95t-42 68.5t-41 41.5t-46 14q-11 0 -27 -3.5t-23 -6.5l-34 131q24 9 55 14.5t63 5.5q48 0 83 -13.5t65 -44.5t59.5 -82t65.5 -126l142 -295l264 539h187l-368 -697l406 -809h-190z" />
    <glyph glyph-name="psi" unicode="&#x3c8;" horiz-adv-x="1460" 
d="M814 119q87 1 149 16.5t102 52t58.5 97t18.5 151.5v646h182v-644q0 -122 -29.5 -208t-91.5 -141t-158.5 -81.5t-230.5 -27.5v-405h-170v405q-134 1 -230 27.5t-158 81.5t-91.5 141t-29.5 208v644h181v-646q0 -90 19 -150.5t58.5 -97t101.5 -52.5t149 -17v1221h170v-1221z
" />
    <glyph glyph-name="omega" unicode="&#x3c9;" horiz-adv-x="1599" 
d="M883 449q0 -157 57 -243.5t159 -86.5q65 0 108.5 28t70 79t37.5 123.5t11 162.5q0 82 -14.5 157t-45 135.5t-79 102.5t-115.5 57l23 139q109 -18 188.5 -74t131 -136.5t76 -177.5t24.5 -198q0 -128 -26.5 -228t-77 -168.5t-124.5 -104.5t-169 -36q-68 0 -120 18t-90.5 52
t-64.5 83.5t-42 113.5h-4q-16 -64 -42 -113.5t-64.5 -83.5t-91 -52t-119.5 -18q-95 0 -169 36t-124.5 104.5t-77 168.5t-26.5 228q0 101 24.5 198t76 177.5t131 136.5t188.5 74l23 -139q-68 -15 -116 -57t-79 -102.5t-45 -135.5t-14 -157q0 -90 11 -162.5t37 -123.5t69 -79
t108 -28q51 0 92 22.5t69.5 64.5t43.5 103.5t15 139.5v252h166v-252z" />
    <glyph glyph-name="iotadieresis" unicode="&#x3ca;" horiz-adv-x="455" 
d="M199 0q-15 16 -27 42.5t-19.5 58.5t-11.5 67t-4 68v846h180v-855q0 -32 5.5 -64t16 -62t25.5 -56t33 -45h-198zM343 1219v184h163v-184h-163zM-51 1219v184h165v-184h-165z" />
    <glyph glyph-name="upsilondieresis" unicode="&#x3cb;" horiz-adv-x="1120" 
d="M1022 571q0 -137 -26.5 -246t-83 -186t-144.5 -118t-211 -41q-109 0 -189 25t-132 78.5t-77.5 136.5t-25.5 199v663h181v-669q0 -146 58.5 -220t192.5 -74q73 0 125 25t84.5 79t47.5 139t15 205q0 68 -10 141.5t-26.5 143t-36.5 129.5t-41 101h188q18 -40 38 -96.5
t36 -123.5t26.5 -141.5t10.5 -149.5zM681 1219v184h163v-184h-163zM287 1219v184h165v-184h-165z" />
    <glyph glyph-name="omicrontonos" unicode="&#x3cc;" 
d="M1053 542q0 -284 -125 -423t-363 -139q-113 0 -202 34t-150.5 104t-94 175.5t-32.5 248.5q0 560 485 560q126 0 217.5 -35t150 -105t86.5 -175t28 -245zM864 542q0 126 -19.5 208t-57 131t-91.5 68.5t-122 19.5q-69 0 -124.5 -20.5t-94.5 -70t-59.5 -131.5t-20.5 -205
q0 -126 22 -208.5t60.5 -131.5t91 -69t114.5 -20q69 0 125 19.5t95 68.5t60 132t21 209zM502 1218v33l69 292h207v-37l-201 -288h-75z" />
    <glyph glyph-name="upsilontonos" unicode="&#x3cd;" horiz-adv-x="1120" 
d="M1022 571q0 -137 -26.5 -246t-83 -186t-144.5 -118t-211 -41q-109 0 -189 25t-132 78.5t-77.5 136.5t-25.5 199v663h181v-669q0 -146 58.5 -220t192.5 -74q73 0 125 25t84.5 79t47.5 139t15 205q0 68 -10 141.5t-26.5 143t-36.5 129.5t-41 101h188q18 -40 38 -96.5
t36 -123.5t26.5 -141.5t10.5 -149.5zM457 1218v33l69 292h207v-37l-201 -288h-75z" />
    <glyph glyph-name="omegatonos" unicode="&#x3ce;" horiz-adv-x="1599" 
d="M883 449q0 -157 57 -243.5t159 -86.5q65 0 108.5 28t70 79t37.5 123.5t11 162.5q0 82 -14.5 157t-45 135.5t-79 102.5t-115.5 57l23 139q109 -18 188.5 -74t131 -136.5t76 -177.5t24.5 -198q0 -128 -26.5 -228t-77 -168.5t-124.5 -104.5t-169 -36q-68 0 -120 18t-90.5 52
t-64.5 83.5t-42 113.5h-4q-16 -64 -42 -113.5t-64.5 -83.5t-91 -52t-119.5 -18q-95 0 -169 36t-124.5 104.5t-77 168.5t-26.5 228q0 101 24.5 198t76 177.5t131 136.5t188.5 74l23 -139q-68 -15 -116 -57t-79 -102.5t-45 -135.5t-14 -157q0 -90 11 -162.5t37 -123.5t69 -79
t108 -28q51 0 92 22.5t69.5 64.5t43.5 103.5t15 139.5v252h166v-252zM716 1218v33l69 292h207v-37l-201 -288h-75z" />
    <glyph glyph-name="afii10023" unicode="&#x401;" horiz-adv-x="1367" 
d="M168 0v1409h1069v-156h-878v-452h818v-154h-818v-491h919v-156h-1110zM816 1530v184h163v-184h-163zM422 1530v184h165v-184h-165z" />
    <glyph glyph-name="afii10051" unicode="&#x402;" horiz-adv-x="1771" 
d="M720 1253v-352q33 7 87.5 17t118 19.5t128.5 16t118 6.5q226 0 334.5 -93.5t108.5 -281.5v-214q0 -93 -20.5 -165.5t-63.5 -122.5t-109.5 -76.5t-158.5 -26.5q-53 0 -97 8.5t-81.5 24.5t-69.5 39t-61 51l111 123q18 -16 38.5 -32.5t44.5 -29.5t52 -21.5t61 -8.5
q84 0 124 50.5t40 161.5v219q0 119 -64.5 180t-208.5 61q-51 0 -112.5 -5t-121.5 -12.5t-112.5 -16t-85.5 -16.5v-756h-190v1253h-484v156h1158v-156h-484z" />
    <glyph glyph-name="afii10052" unicode="&#x403;" horiz-adv-x="1109" 
d="M1071 1410v-156h-712v-1253h-191v1409h903zM441 1530v20l217 226h207v-29l-310 -217h-114z" />
    <glyph glyph-name="afii10053" unicode="&#x404;" horiz-adv-x="1472" 
d="M792 1274q-111 0 -197.5 -34t-148.5 -97t-98.5 -152t-46.5 -199h654v-154h-654q9 -112 47.5 -204.5t102.5 -158.5t152 -102t197 -36q90 0 160.5 25t124.5 66t93.5 93.5t66.5 107.5l156 -77q-40 -79 -94 -147t-128 -118t-169.5 -78.5t-218.5 -28.5q-171 0 -299.5 54.5
t-215 152t-129.5 231.5t-43 293q0 165 45.5 298t133 226.5t215.5 144t292 50.5q225 0 376 -88t222 -261l-181 -60q-20 50 -54 95.5t-85 80.5t-119.5 56t-156.5 21z" />
    <glyph glyph-name="afii10054" unicode="&#x405;" horiz-adv-x="1366" 
d="M1272 389q0 -89 -34.5 -164t-106.5 -129.5t-181.5 -85t-259.5 -30.5q-263 0 -410 92t-187 266l185 37q14 -55 43 -100t78.5 -77.5t122.5 -50.5t175 -18q85 0 156 14.5t122 44.5t79.5 77.5t28.5 113.5q0 69 -31.5 112t-88.5 71t-136 47t-175 41q-59 13 -118.5 28.5
t-114 37t-102.5 50.5t-83 69.5t-55 94t-20 123.5q0 100 40.5 171.5t112.5 117.5t170 67t212 21q131 0 224 -20.5t157 -61.5t102.5 -101.5t61.5 -140.5l-188 -33q-14 51 -40.5 91t-69.5 67t-104.5 41t-144.5 14q-98 0 -164.5 -17.5t-107 -47.5t-58 -70.5t-17.5 -87.5
q0 -63 31.5 -103.5t85.5 -67.5t125 -45t151 -36q65 -15 129.5 -30.5t123.5 -37t110.5 -50.5t89.5 -71t59.5 -99t21.5 -134z" />
    <glyph glyph-name="afii10055" unicode="&#x406;" horiz-adv-x="569" 
d="M189 0v1409h191v-1409h-191z" />
    <glyph glyph-name="afii10056" unicode="&#x407;" horiz-adv-x="569" 
d="M189 0v1409h191v-1409h-191zM401 1530v184h163v-184h-163zM7 1530v184h165v-184h-165z" />
    <glyph glyph-name="afii10057" unicode="&#x408;" horiz-adv-x="1024" 
d="M457 -20q-171 0 -280.5 89t-144.5 281l187 31q10 -65 33 -111.5t55 -76.5t71 -44t80 -14q104 0 164 71.5t60 209.5v837h-271v156h461v-989q0 -101 -28 -182t-81.5 -138.5t-130.5 -88.5t-175 -31z" />
    <glyph glyph-name="afii10058" unicode="&#x409;" horiz-adv-x="2165" 
d="M2059 413q0 -87 -30.5 -162t-91 -131t-151.5 -88t-212 -32h-585v1249h-416l-49 -368q-22 -172 -43.5 -305.5t-46 -233t-54.5 -168t-69 -111t-90 -61t-117 -18.5q-25 0 -48.5 2.5t-37.5 7.5v152q11 -4 28.5 -5.5t27.5 -1.5q30 0 56 11.5t48.5 42.5t43.5 84.5t40.5 138
t39.5 203.5t41 280l67 510h770v-596h382q125 0 218 -29t155 -81.5t93 -126t31 -163.5zM1867 411q0 121 -82 185.5t-246 64.5h-359v-510h367q164 0 242 68t78 192z" />
    <glyph glyph-name="afii10059" unicode="&#x40a;" horiz-adv-x="2069" 
d="M1963 413q0 -87 -30.5 -162t-91 -131t-151.5 -88t-212 -32h-545v653h-574v-653h-191v1409h191v-596h574v596h191v-596h342q125 0 218 -29t155 -81.5t93 -126t31 -163.5zM1771 411q0 121 -82 185.5t-246 64.5h-319v-510h327q164 0 242 68t78 192z" />
    <glyph glyph-name="afii10060" unicode="&#x40b;" horiz-adv-x="1749" 
d="M1393 0v575q0 122 -64 176.5t-197 54.5q-53 0 -111 -5t-113 -12.5t-104 -16.5t-84 -16v-756h-190v1253h-484v156h1203v-156h-529v-352q36 8 85 18t105 19t115 15.5t115 6.5q229 0 336 -93.5t107 -271.5v-595h-190z" />
    <glyph glyph-name="afii10061" unicode="&#x40c;" horiz-adv-x="1193" 
d="M168 1409h191v-619q57 0 97.5 12t78.5 46t83 95.5t111 160.5l205 305h200l-283 -410q-131 -189 -179 -224l509 -775h-222l-427 683q-17 -8 -40 -14.5t-47 -12t-46.5 -8.5t-39.5 -3v-645h-191v1409zM500 1530v20l217 226h207v-29l-310 -217h-114z" />
    <glyph glyph-name="afii10062" unicode="&#x40e;" horiz-adv-x="1301" 
d="M734 318q-47 -88 -87.5 -152t-85.5 -105t-99.5 -61t-129.5 -20q-32 0 -65 5t-65 14t-61 22t-52 29l81 144q35 -22 76.5 -40.5t89.5 -18.5q37 0 66 10.5t55.5 36.5t55 71t66.5 113l49 89l-573 954h218l449 -784l384 784h205zM690 1530q-111 0 -181.5 28.5t-111 74
t-56.5 103t-18 114.5h164q6 -103 58 -151t145 -48t145 48t58 151h164q-2 -57 -18 -114.5t-56.5 -103t-111 -74t-181.5 -28.5z" />
    <glyph glyph-name="afii10145" unicode="&#x40f;" horiz-adv-x="1472" 
d="M646 -408v408h-478v1409h191v-1249h759v1249h186v-1409h-478v-408h-180z" />
    <glyph glyph-name="afii10017" unicode="&#x410;" horiz-adv-x="1366" 
d="M1167 0l-161 412h-642l-162 -412h-198l575 1409h217l566 -1409h-195zM768 1026q-16 40 -30.5 81t-25.5 74.5t-18.5 56t-8.5 27.5q-2 -5 -9 -28t-18.5 -57t-26 -75t-29.5 -81l-180 -463h527z" />
    <glyph glyph-name="afii10018" unicode="&#x411;" horiz-adv-x="1344" 
d="M1238 413q0 -87 -30.5 -162t-91 -131t-151.5 -88t-212 -32h-585v1409h926v-156h-735v-440h382q125 0 218 -29t155 -81.5t93 -126t31 -163.5zM1046 411q0 121 -82 185.5t-246 64.5h-359v-510h367q164 0 242 68t78 192z" />
    <glyph glyph-name="afii10019" unicode="&#x412;" horiz-adv-x="1366" 
d="M1258 397q0 -107 -42 -182.5t-113 -123t-165 -69.5t-198 -22h-572v1409h512q117 0 209 -19.5t156 -61.5t97.5 -106.5t33.5 -154.5q0 -59 -16.5 -111t-50 -94.5t-84 -73t-117.5 -45.5q85 -10 150.5 -39t109.5 -74t67 -104.5t23 -128.5zM984 1044q0 114 -78 163t-226 49
h-321v-446h321q84 0 142 16.5t94 47t52 73.5t16 97zM1065 412q0 67 -24.5 114t-70.5 77t-110.5 44t-144.5 14h-356v-508h371q73 0 134.5 12t106 42t69.5 80t25 125z" />
    <glyph glyph-name="afii10020" unicode="&#x413;" horiz-adv-x="1109" 
d="M1071 1410v-156h-712v-1253h-191v1409h903z" />
    <glyph glyph-name="afii10021" unicode="&#x414;" horiz-adv-x="1387" 
d="M1174 160h175v-568h-180v408h-974v-408h-180v568h144q41 51 74 120t60.5 159.5t49.5 204.5t40 255l67 510h724v-1249zM988 160v1089h-375l-49 -368q-18 -134 -38 -244.5t-43 -199.5t-50 -157.5t-59 -119.5h614z" />
    <glyph glyph-name="afii10022" unicode="&#x415;" horiz-adv-x="1366" 
d="M168 0v1409h1069v-156h-878v-452h818v-154h-818v-491h919v-156h-1110z" />
    <glyph glyph-name="afii10024" unicode="&#x416;" horiz-adv-x="1891" 
d="M850 645q-17 0 -39.5 3t-46.5 8.5t-47 12t-40 14.5l-427 -683h-222l509 775q-48 35 -179 224l-283 410h200l205 -305q66 -99 111 -160.5t83 -95.5t78.5 -46t97.5 -12v619h191v-619q57 0 97.5 12t78.5 46t83 95.5t111 160.5l205 305h200l-283 -410q-131 -189 -179 -224
l509 -775h-222l-427 683q-17 -8 -40 -14.5t-47 -12t-46.5 -8.5t-39.5 -3v-645h-191v645z" />
    <glyph glyph-name="afii10025" unicode="&#x417;" horiz-adv-x="1237" 
d="M621 -20q-118 0 -206 25t-153 70.5t-112 109.5t-83 143l165 77q24 -55 57 -104t78.5 -86.5t106 -59.5t140.5 -22q77 0 138 18.5t103.5 53t65 84.5t22.5 114q0 133 -96 192t-298 59h-71v148h71q181 0 267.5 59.5t86.5 182.5q0 55 -19.5 98t-55.5 72.5t-88 44.5t-117 15
q-77 0 -134 -20t-98.5 -54t-69.5 -79t-47 -94l-178 61q33 82 81 145.5t114 107t150 66t189 22.5q108 0 194 -26.5t146 -74.5t92 -116t32 -151q0 -68 -20 -121.5t-56.5 -93.5t-88.5 -67.5t-115 -42.5q67 -10 125.5 -35t102 -66t69 -98.5t25.5 -130.5q0 -95 -34.5 -173
t-100.5 -134.5t-162 -87.5t-218 -31z" />
    <glyph glyph-name="afii10026" unicode="&#x418;" horiz-adv-x="1472" 
d="M168 0v1409h172v-924q0 -51 -1 -100t-3 -88q-2 -46 -4 -86l750 1198h222v-1409h-170v936q0 39 0.5 83.5t2.5 82.5q1 44 3 88l-742 -1190h-230z" />
    <glyph glyph-name="afii10027" unicode="&#x419;" horiz-adv-x="1472" 
d="M168 0v1409h172v-924q0 -51 -1 -100t-3 -88q-2 -46 -4 -86l750 1198h222v-1409h-170v936q0 39 0.5 83.5t2.5 82.5q1 44 3 88l-742 -1190h-230zM742 1530q-111 0 -181.5 28.5t-111 74t-56.5 103t-18 114.5h164q6 -103 58 -151t145 -48t145 48t58 151h164
q-2 -57 -18 -114.5t-56.5 -103t-111 -74t-181.5 -28.5z" />
    <glyph glyph-name="afii10028" unicode="&#x41a;" horiz-adv-x="1193" 
d="M168 1409h191v-619q57 0 97.5 12t78.5 46t83 95.5t111 160.5l205 305h200l-283 -410q-131 -189 -179 -224l509 -775h-222l-427 683q-17 -8 -40 -14.5t-47 -12t-46.5 -8.5t-39.5 -3v-645h-191v1409z" />
    <glyph glyph-name="afii10029" unicode="&#x41b;" horiz-adv-x="1344" 
d="M991 1249h-418l-49 -368q-22 -172 -43.5 -305.5t-46 -233t-54.5 -168t-69 -111t-90 -61t-117 -18.5q-25 0 -48.5 2.5t-37.5 7.5v152q11 -4 28.5 -5.5t27.5 -1.5q30 0 56 11.5t48.5 42.5t43.5 84.5t40.5 138t39.5 203.5t41 280l67 510h767v-1409h-186v1249z" />
    <glyph glyph-name="afii10030" unicode="&#x41c;" horiz-adv-x="1706" 
d="M1366 0v940q0 51 1 104t3 97q2 51 5 99q-14 -51 -29 -101q-13 -43 -28.5 -91.5t-30.5 -87.5l-364 -960h-134l-369 960q-6 15 -12.5 35t-14 42.5t-15 46t-14.5 46.5q-17 53 -33 110q1 -56 3 -111q2 -47 3 -98.5t1 -90.5v-940h-170v1409h251l375 -977q7 -20 17 -51.5
t19 -64.5t16.5 -62.5t10.5 -45.5q3 16 11 46t18.5 63t20.5 64t18 51l368 977h245v-1409h-172z" />
    <glyph glyph-name="afii10031" unicode="&#x41d;" horiz-adv-x="1479" 
d="M1121 0v653h-762v-653h-191v1409h191v-596h762v596h191v-1409h-191z" />
    <glyph glyph-name="afii10032" unicode="&#x41e;" horiz-adv-x="1593" 
d="M1495 711q0 -165 -47.5 -300t-137.5 -231t-220 -148t-295 -52q-174 0 -305 54.5t-218 152t-131 231.5t-44 293q0 165 46 298t135 226.5t219.5 144t299.5 50.5q168 0 298.5 -51t219 -145t134.5 -227t46 -296zM1300 711q0 127 -32.5 231t-96 178t-157.5 114t-217 40
q-126 0 -221 -40t-158.5 -114t-95 -178t-31.5 -231t32.5 -232.5t96 -182t158 -119t217.5 -42.5q132 0 227.5 43t157 119.5t91 182.5t29.5 231z" />
    <glyph glyph-name="afii10033" unicode="&#x41f;" horiz-adv-x="1472" 
d="M1119 0v1248h-762v-1248h-191v1409h1144v-1409h-191z" />
    <glyph glyph-name="afii10034" unicode="&#x420;" horiz-adv-x="1366" 
d="M1258 985q0 -92 -30.5 -171.5t-91 -138t-151.5 -92.5t-212 -34h-414v-549h-191v1409h593q125 0 218 -30.5t155 -86t93 -134t31 -173.5zM1066 983q0 134 -82 203.5t-246 69.5h-379v-556h387q165 0 242.5 73t77.5 210z" />
    <glyph glyph-name="afii10035" unicode="&#x421;" horiz-adv-x="1479" 
d="M792 1274q-120 0 -212.5 -40t-155 -114t-94.5 -178t-32 -231t34.5 -232.5t99 -181.5t158 -118t210.5 -42q82 0 149.5 21.5t122 60.5t97.5 92.5t76 118.5l156 -78q-38 -79 -94 -147t-131.5 -118t-171 -78.5t-213.5 -28.5q-171 0 -299.5 54.5t-215 152t-129.5 231.5
t-43 293q0 165 45.5 298t133 226.5t215.5 144t292 50.5q225 0 376 -88t222 -261l-181 -60q-20 50 -54 95.5t-85 80.5t-119.5 56t-156.5 21z" />
    <glyph glyph-name="afii10036" unicode="&#x422;" horiz-adv-x="1251" 
d="M720 1253v-1253h-190v1253h-484v156h1158v-156h-484z" />
    <glyph glyph-name="afii10037" unicode="&#x423;" horiz-adv-x="1301" 
d="M734 318q-47 -88 -87.5 -152t-85.5 -105t-99.5 -61t-129.5 -20q-32 0 -65 5t-65 14t-61 22t-52 29l81 144q35 -22 76.5 -40.5t89.5 -18.5q37 0 66 10.5t55.5 36.5t55 71t66.5 113l49 89l-573 954h218l449 -784l384 784h205z" />
    <glyph glyph-name="afii10038" unicode="&#x424;" horiz-adv-x="1557" 
d="M1439 736q0 -105 -32 -199t-97.5 -165.5t-164 -113.5t-231.5 -42h-40v-227h-191v227h-40q-133 0 -231.5 42t-164 113.5t-97.5 165.5t-32 199q0 113 33.5 205.5t100 158t167 101.5t235.5 36h29v182h191v-182h28q135 0 236 -36t167.5 -101.5t100 -158t33.5 -205.5z
M1247 732q0 187 -92.5 277t-275.5 90h-5v-746h13q92 0 160 26.5t112.5 75.5t66 119t21.5 158zM310 732q0 -88 21.5 -158t66 -119t112.5 -75.5t160 -26.5h13v746h-9q-182 0 -273 -90t-91 -277z" />
    <glyph glyph-name="afii10039" unicode="&#x425;" horiz-adv-x="1366" 
d="M1112 0l-423 616l-432 -616h-211l536 732l-495 677h211l392 -553l381 553h211l-482 -670l523 -739h-211z" />
    <glyph glyph-name="afii10040" unicode="&#x426;" horiz-adv-x="1515" 
d="M1477 160v-568h-180v408h-1129v1409h191v-1249h757v1249h186v-1249h175z" />
    <glyph glyph-name="afii10041" unicode="&#x427;" horiz-adv-x="1365" 
d="M1008 508q-36 -8 -83 -18t-100.5 -19t-111 -15t-113.5 -6q-114 0 -197 23.5t-137 69.5t-80 114.5t-26 157.5v594h190v-574q0 -123 65 -177t199 -54q53 0 108 5t107 12.5t98 16t81 15.5v756h190v-1409h-190v508z" />
    <glyph glyph-name="afii10042" unicode="&#x428;" horiz-adv-x="1877" 
d="M168 0v1409h191v-1249h489v1249h186v-1249h489v1249h186v-1409h-1541z" />
    <glyph glyph-name="afii10043" unicode="&#x429;" horiz-adv-x="1920" 
d="M1839 160v-568h-180v408h-1491v1409h191v-1249h467v1249h186v-1249h466v1249h186v-1249h175z" />
    <glyph glyph-name="afii10044" unicode="&#x42a;" horiz-adv-x="1621" 
d="M696 813h322q125 0 218 -29t155 -81.5t93 -126t31 -163.5q0 -87 -30.5 -162t-91 -131t-151.5 -88t-212 -32h-525v1253h-459v156h650v-596zM1323 411q0 121 -82 185.5t-246 64.5h-299v-510h307q164 0 242 68t78 192z" />
    <glyph glyph-name="afii10045" unicode="&#x42b;" horiz-adv-x="1813" 
d="M1238 413q0 -87 -30.5 -162t-91 -131t-151.5 -88t-212 -32h-585v1409h191v-596h382q125 0 218 -29t155 -81.5t93 -126t31 -163.5zM1046 411q0 121 -82 185.5t-246 64.5h-359v-510h367q164 0 242 68t78 192zM1454 0v1409h191v-1409h-191z" />
    <glyph glyph-name="afii10046" unicode="&#x42c;" horiz-adv-x="1344" 
d="M1238 413q0 -87 -30.5 -162t-91 -131t-151.5 -88t-212 -32h-585v1409h191v-596h382q125 0 218 -29t155 -81.5t93 -126t31 -163.5zM1046 407q0 121 -82 186.5t-246 65.5h-359v-508h367q165 0 242.5 65.5t77.5 190.5z" />
    <glyph glyph-name="afii10047" unicode="&#x42d;" horiz-adv-x="1472" 
d="M713 1274q-88 0 -156.5 -21t-119.5 -56t-85.5 -80.5t-53.5 -95.5l-181 60q71 173 222 261t376 88q164 0 292 -50.5t215.5 -144t133 -226.5t45.5 -298q0 -159 -43 -293t-129 -231.5t-214.5 -152t-299.5 -54.5q-118 0 -212.5 27t-169 76.5t-131 117.5t-97.5 151l156 78
q27 -55 67.5 -107.5t95 -94t124.5 -66.5t157 -25q109 0 197 36t152 102t102.5 158.5t47.5 204.5h-654v154h654q-10 110 -46.5 199t-98.5 152t-148.5 97t-197.5 34z" />
    <glyph glyph-name="afii10048" unicode="&#x42e;" horiz-adv-x="2069" 
d="M1971 711q0 -165 -45 -300t-130 -231t-207.5 -148t-277.5 -52q-156 0 -275.5 49.5t-202 139t-127.5 213t-52 271.5h-295v-653h-191v1409h191v-596h298q13 142 62.5 256.5t132.5 194.5t199 123t262 43q159 0 281.5 -51t206 -145t127 -227t43.5 -296zM1776 711
q0 127 -30 231t-88.5 178t-145 114t-199.5 40q-116 0 -203.5 -40t-146 -114t-87.5 -178t-29 -231t30 -232.5t88.5 -182t145 -119t200.5 -42.5q121 0 209 43t145 119.5t84 182.5t27 231z" />
    <glyph glyph-name="afii10049" unicode="&#x42f;" horiz-adv-x="1479" 
d="M96 0l400 607q-91 16 -156 55t-107 93t-61.5 119t-19.5 132q0 94 33 169t96 127t155.5 79.5t212.5 27.5h663v-1409h-191v585h-439l-366 -585h-220zM344 1004q0 -57 18.5 -106t57 -85t98 -56.5t142.5 -20.5h461v520h-453q-76 0 -136 -15.5t-102 -47t-64 -78.5t-22 -111z
" />
    <glyph glyph-name="afii10065" unicode="&#x430;" 
d="M414 -20q-163 0 -245 86t-82 236q0 107 40.5 175.5t106 107.5t149.5 54t171 17l243 4v59q0 67 -14 114t-43 76t-72.5 42.5t-102.5 13.5q-52 0 -94 -7.5t-73 -27t-50 -53t-25 -84.5l-188 17q10 64 38 117.5t79.5 92.5t129 60.5t187.5 21.5q204 0 307 -93.5t103 -270.5
v-466q0 -80 21 -120.5t80 -40.5q15 0 30 2t29 5v-112q-34 -8 -67.5 -12t-71.5 -4q-51 0 -87.5 13.5t-59.5 41t-35 68t-15 94.5h-6q-29 -52 -63.5 -94t-80.5 -71.5t-104.5 -45.5t-134.5 -16zM455 115q86 0 150.5 31.5t107 80.5t63.5 107t21 111v89l-197 -4
q-66 -1 -125.5 -9.5t-104.5 -33.5t-71.5 -70t-26.5 -118q0 -88 47.5 -136t135.5 -48z" />
    <glyph glyph-name="afii10066" unicode="&#x431;" horiz-adv-x="1173" 
d="M898 502q0 114 -19.5 189.5t-56 121t-88.5 64t-117 18.5q-69 0 -126 -19.5t-97.5 -65.5t-62.5 -121t-22 -187q0 -114 22 -189t60.5 -119.5t91 -62.5t114.5 -18q69 0 125 18t95 62t60 119.5t21 189.5zM655 1027q222 0 327 -130.5t105 -392.5q0 -265 -125 -394.5
t-363 -129.5q-113 0 -202 35t-150.5 113t-94 203t-32.5 305q0 192 29 331t93 235.5t167 154t250 85.5q57 11 107 19.5t95.5 15.5t88.5 13l86 12v-161q-86 -11 -166.5 -22.5t-171.5 -28.5q-78 -14 -140 -30.5t-109 -41.5t-80.5 -61.5t-55.5 -90.5t-33.5 -128.5t-13.5 -175.5
q19 55 52.5 103.5t82 84.5t111.5 56.5t143 20.5z" />
    <glyph glyph-name="afii10067" unicode="&#x432;" horiz-adv-x="1088" 
d="M564 1082q76 0 148 -12t128 -43t90 -83t34 -133q0 -53 -17.5 -93.5t-47.5 -69.5t-71 -47.5t-87 -27.5v-7q54 -7 101.5 -24.5t82 -48t54.5 -75.5t20 -106q0 -78 -30.5 -136.5t-85 -97.5t-130 -58.5t-166.5 -19.5h-445v1082h422zM322 133h236q69 0 116.5 10t77 32t43 55.5
t13.5 80.5q0 50 -14 85t-45.5 57t-81.5 32t-121 10h-224v-362zM322 945v-320h216q68 0 113.5 9.5t73 29t39 50t11.5 73.5q0 82 -51 120t-172 38h-230z" />
    <glyph glyph-name="afii10068" unicode="&#x433;" horiz-adv-x="747" 
d="M687 1082v-131h-365v-951h-180v1082h545z" />
    <glyph glyph-name="afii10069" unicode="&#x434;" horiz-adv-x="1195" 
d="M834 951h-306q-24 -177 -48.5 -308.5t-48.5 -228.5t-48 -165t-46 -118h497v820zM1160 -408h-163v408h-814v-408h-163v539h119q30 50 59 121.5t58 181.5t57.5 267.5t56.5 380.5h644v-951h146v-539z" />
    <glyph glyph-name="afii10070" unicode="&#x435;" 
d="M276 503q0 -85 17.5 -156.5t54 -123t93.5 -80t137 -28.5q117 0 187.5 47t95.5 119l158 -45q-17 -45 -47.5 -90.5t-81.5 -82t-127.5 -60t-184.5 -23.5q-240 0 -365.5 143t-125.5 425q0 152 38 257.5t104 171.5t154 95.5t188 29.5q136 0 227.5 -44t147 -121.5t79 -182.5
t23.5 -227v-24h-772zM862 641q-15 171 -87 249.5t-207 78.5q-45 0 -94.5 -14.5t-91.5 -51.5t-71 -100.5t-33 -161.5h584z" />
    <glyph glyph-name="afii10072" unicode="&#x436;" horiz-adv-x="1370" 
d="M595 477q-26 0 -58.5 6t-51.5 14l-278 -497h-200l353 592q-17 14 -50 56.5t-78 108.5l-216 325h188l148 -239q48 -77 80.5 -123t58.5 -71t50 -33t54 -8v474h180v-474q30 0 54 8t50 33t58.5 71t80.5 123l148 239h188l-216 -325q-45 -66 -78 -108.5t-50 -56.5l353 -592
h-200l-278 497q-19 -8 -51.5 -14t-58.5 -6v-477h-180v477z" />
    <glyph glyph-name="afii10073" unicode="&#x437;" horiz-adv-x="939" 
d="M458 -20q-167 0 -265.5 62.5t-143.5 191.5l159 44q25 -78 88 -121t166 -43q96 0 152.5 47t56.5 138q0 59 -27.5 98t-73.5 61.5t-106 31.5t-124 9v137q64 0 121 7.5t100 26.5t67.5 52.5t24.5 85.5q0 74 -49.5 117t-142.5 43q-35 0 -70 -7t-65 -23.5t-51 -44t-28 -69.5
l-162 20q12 68 43 117t79.5 80.5t112.5 46t142 14.5q85 0 154 -21t118 -59t75.5 -90t26.5 -115q0 -57 -22 -101t-57.5 -74.5t-79.5 -48.5t-89 -22v-2q56 -6 106 -26.5t87.5 -54t59 -80t21.5 -104.5q0 -69 -24.5 -128.5t-75 -103t-126.5 -68t-178 -24.5z" />
    <glyph glyph-name="afii10074" unicode="&#x438;" horiz-adv-x="1144" 
d="M316 1082v-592q0 -23 -1.5 -61.5t-3 -79.5t-3 -78t-2.5 -58l499 869h197v-1082h-172v660q0 19 1 47.5t2.5 58.5t3 58.5t3.5 48.5l-506 -873h-192v1082h174z" />
    <glyph glyph-name="afii10075" unicode="&#x439;" horiz-adv-x="1144" 
d="M316 1082v-592q0 -23 -1.5 -61.5t-3 -79.5t-3 -78t-2.5 -58l499 869h197v-1082h-172v660q0 19 1 47.5t2.5 58.5t3 58.5t3.5 48.5l-506 -873h-192v1082h174zM574 1200q-111 0 -181.5 28.5t-111 74t-56.5 103t-18 114.5h164q6 -103 58 -151t145 -48t145 48t58 151h164
q-2 -57 -18 -114.5t-56.5 -103t-111 -74t-181.5 -28.5z" />
    <glyph glyph-name="afii10076" unicode="&#x43a;" horiz-adv-x="896" 
d="M138 1082h180v-474q30 0 54 8t50 33t58.5 71t80.5 123l148 239h188l-216 -325q-45 -66 -78 -108.5t-50 -56.5l353 -592h-200l-278 497q-19 -8 -51.5 -14t-58.5 -6v-477h-180v1082z" />
    <glyph glyph-name="afii10077" unicode="&#x43b;" horiz-adv-x="1195" 
d="M872 0v951h-375q-25 -184 -46 -327.5t-43 -251.5t-47.5 -182.5t-61 -121t-82.5 -67.5t-112 -21q-29 0 -53 4t-41 9v129q11 -4 30 -6.5t38 -2.5q35 0 60.5 21t45.5 68t36.5 121.5t33.5 182.5t36 250.5t44 325.5h718v-1082h-181z" />
    <glyph glyph-name="afii10078" unicode="&#x43c;" horiz-adv-x="1408" 
d="M787 0h-153l-324 951q1 -26 2.5 -56t2 -60.5t1 -59t0.5 -51.5v-724h-174v1082h280l220 -661q23 -63 41.5 -138.5t26.5 -147.5q10 72 27.5 147.5t40.5 138.5l220 661h269v-1082h-173v724q0 22 0.5 52t2 62t2.5 62t3 53z" />
    <glyph glyph-name="afii10079" unicode="&#x43d;" horiz-adv-x="1131" 
d="M322 1082v-458h487v458h180v-1082h-180v493h-487v-493h-180v1082h180z" />
    <glyph glyph-name="afii10080" unicode="&#x43e;" 
d="M1053 542q0 -284 -125 -423t-363 -139q-113 0 -202 34t-150.5 104t-94 175.5t-32.5 248.5q0 560 485 560q126 0 217.5 -35t150 -105t86.5 -175t28 -245zM864 542q0 126 -19.5 208t-57 131t-91.5 68.5t-122 19.5q-69 0 -124.5 -20.5t-94.5 -70t-59.5 -131.5t-20.5 -205
q0 -126 22 -208.5t60.5 -131.5t91 -69t114.5 -20q69 0 125 19.5t95 68.5t60 132t21 209z" />
    <glyph glyph-name="afii10081" unicode="&#x43f;" horiz-adv-x="1109" 
d="M967 1082v-1082h-180v951h-465v-951h-180v1082h825z" />
    <glyph glyph-name="afii10082" unicode="&#x440;" 
d="M1053 546q0 -123 -20 -227t-66.5 -179t-123 -117.5t-188.5 -42.5q-116 0 -203 44t-133 144h-5q1 -2 1.5 -18t1 -40t1 -53.5t0.5 -58.5v-423h-180v1286q0 39 -0.5 75t-1.5 65.5t-2 50.5t-2 30h174q1 -3 2.5 -21t3 -43.5t3 -54.5t1.5 -55h4q25 52 57 88.5t73 60t91.5 34
t113.5 10.5q112 0 188.5 -40t123 -112.5t66.5 -175t20 -227.5zM864 542q0 100 -12 178t-41.5 132t-78.5 82t-123 28q-60 0 -113 -17t-92.5 -65t-62.5 -132.5t-23 -219.5q0 -115 19 -194.5t55.5 -128.5t90.5 -70.5t124 -21.5q75 0 124.5 29t79 84t41.5 134.5t12 181.5z" />
    <glyph glyph-name="afii10083" unicode="&#x441;" horiz-adv-x="1024" 
d="M275 546q0 -93 13.5 -171t45.5 -134.5t84.5 -87.5t129.5 -31q96 0 160.5 52t79.5 160l182 -12q-9 -67 -39 -129t-81.5 -109t-125.5 -75.5t-171 -28.5q-127 0 -216 43t-144.5 118.5t-80.5 178t-25 222.5q0 109 18 192.5t50.5 146t76.5 105t95.5 68t108.5 37t115 11.5
q91 0 162 -25t122.5 -68.5t83.5 -102.5t45 -127l-185 -14q-14 90 -71 143t-162 53q-77 0 -128.5 -25.5t-83.5 -77t-45.5 -129.5t-13.5 -183z" />
    <glyph glyph-name="afii10084" unicode="&#x442;" horiz-adv-x="938" 
d="M35 1082h868v-131h-344v-951h-180v951h-344v131z" />
    <glyph glyph-name="afii10085" unicode="&#x443;" horiz-adv-x="1024" 
d="M604 0q-38 -98 -77.5 -176.5t-88.5 -134t-109 -85t-138 -29.5q-34 0 -63 2t-61 9v135q19 -3 43 -4.5t41 -1.5q79 0 147 59t119 188l17 43l-429 1077h192l228 -598q10 -27 25.5 -72l31 -90t27.5 -81t14 -45q3 11 14.5 43.5t26 72.5t29.5 81t25 71l212 618h190z" />
    <glyph glyph-name="afii10086" unicode="&#x444;" horiz-adv-x="1685" 
d="M1598 546q0 -123 -19 -227t-62 -179t-113 -117.5t-171 -42.5q-105 0 -184 44t-121 144h-6q2 -35 3.5 -73.5t1.5 -96.5v-423h-170v423q0 54 1 95t4 81h-5q-46 -104 -120.5 -149t-185.5 -45q-186 0 -275.5 137.5t-89.5 418.5q0 284 92.5 425t272.5 141q112 0 186.5 -45
t119.5 -143h5q0 10 -1 30.5t-2 43.5t-1.5 44t-0.5 33v419h170v-420q0 -11 -0.5 -32.5t-1 -45t-1 -45t-0.5 -33.5h5q46 104 118 148.5t186 44.5q101 0 171 -40t113 -112.5t62 -175t19 -227.5zM275 542q0 -112 13 -192t41 -131.5t70.5 -75.5t102.5 -24t107 21.5t79.5 70.5
t49.5 127.5t19 191.5v24q0 115 -17 194.5t-49 128.5t-79 70.5t-108 21.5q-57 0 -100 -23t-71.5 -74t-43 -132.5t-14.5 -197.5zM1409 542q0 100 -11.5 178t-37.5 132t-70 82t-108 28q-53 0 -99 -17t-81 -65t-55 -132.5t-20 -219.5v-23q1 -108 18.5 -183t50 -121.5t78.5 -67
t106 -20.5q65 0 109 29t70.5 84t38 134.5t11.5 181.5z" />
    <glyph glyph-name="afii10087" unicode="&#x445;" horiz-adv-x="1024" 
d="M801 0l-291 444l-293 -444h-194l385 556l-367 526h199l270 -421l268 421h201l-367 -524l390 -558h-201z" />
    <glyph glyph-name="afii10088" unicode="&#x446;" horiz-adv-x="1173" 
d="M322 1082v-951h477v951h180v-951h147v-539h-163v408h-821v1082h180z" />
    <glyph glyph-name="afii10089" unicode="&#x447;" horiz-adv-x="1067" 
d="M302 1082v-402q0 -34 8 -63.5t27.5 -51.5t51.5 -34.5t79 -12.5q70 0 136 13t140 34v517h180v-1082h-180v461q-38 -15 -78.5 -30.5t-84 -27.5t-90 -20t-97.5 -8q-66 0 -116.5 20.5t-85 58.5t-52.5 93t-18 124v411h180z" />
    <glyph glyph-name="afii10090" unicode="&#x448;" horiz-adv-x="1643" 
d="M142 0v1082h180v-951h410v951h180v-951h409v951h180v-1082h-1359z" />
    <glyph glyph-name="afii10091" unicode="&#x449;" horiz-adv-x="1685" 
d="M142 0v1082h180v-951h405v951h180v-951h404v951h180v-951h147v-539h-163v408h-1333z" />
    <glyph glyph-name="afii10092" unicode="&#x44a;" horiz-adv-x="1280" 
d="M781 624q205 0 310 -73.5t105 -232.5q0 -74 -26 -133t-78 -100t-129.5 -63t-180.5 -22h-409v951h-328v131h508v-458h228zM553 127h202q69 0 117 12.5t77.5 37t42.5 60t13 81.5q0 94 -58 137.5t-191 43.5h-203v-372z" />
    <glyph glyph-name="afii10093" unicode="&#x44b;" horiz-adv-x="1472" 
d="M550 624q205 0 310 -73.5t105 -232.5q0 -74 -26 -133t-78 -100t-129.5 -63t-180.5 -22h-409v1082h180v-458h228zM322 127h202q69 0 117 12.5t77.5 37t42.5 60t13 81.5q0 94 -58 137.5t-191 43.5h-203v-372zM1150 0v1082h180v-1082h-180z" />
    <glyph glyph-name="afii10094" unicode="&#x44c;" horiz-adv-x="1067" 
d="M568 624q205 0 310 -73.5t105 -232.5q0 -74 -26 -133t-78 -100t-129.5 -63t-180.5 -22h-427v1082h180v-458h246zM322 127h220q69 0 117 12.5t77.5 37t42.5 60t13 81.5q0 94 -58 137.5t-191 43.5h-221v-372z" />
    <glyph glyph-name="afii10095" unicode="&#x44d;" horiz-adv-x="1045" 
d="M55 315l182 12q16 -108 82.5 -160t166.5 -52q73 0 124.5 26.5t85.5 75t51 116t22 149.5h-413v131h413q-4 90 -21 156.5t-50.5 110.5t-85 66t-124.5 22q-109 0 -168 -52.5t-74 -143.5l-185 14q13 68 46 126t85.5 100t125 66t165.5 24q90 0 175 -26.5t152 -90.5t107.5 -172
t40.5 -271q0 -120 -25.5 -222.5t-82.5 -178t-148 -118.5t-221 -43q-99 0 -174.5 27t-128.5 73t-83.5 107t-39.5 128z" />
    <glyph glyph-name="afii10096" unicode="&#x44e;" horiz-adv-x="1536" 
d="M1450 542q0 -284 -117.5 -423t-340.5 -139q-102 0 -182.5 31t-138 95t-90 160t-37.5 227h-222v-493h-180v1082h180v-458h223q33 478 453 478q237 0 344.5 -140t107.5 -420zM1261 542q0 126 -17.5 208t-51 131t-82 68.5t-109.5 19.5q-63 0 -112.5 -20.5t-84.5 -70
t-53.5 -131.5t-18.5 -205q0 -126 19.5 -208.5t54.5 -131.5t82 -69t103 -20q62 0 112 19.5t85 68.5t54 132t19 209z" />
    <glyph glyph-name="afii10097" unicode="&#x44f;" horiz-adv-x="1109" 
d="M535 458l-315 -458h-203l344 471q-131 27 -190 108.5t-59 203.5q0 149 108 224t315 75h432v-1082h-180v458h-252zM787 955h-234q-130 0 -190 -46t-60 -139q0 -94 53.5 -140.5t177.5 -46.5h253v372z" />
    <glyph glyph-name="afii10071" unicode="&#x451;" 
d="M276 503q0 -85 17.5 -156.5t54 -123t93.5 -80t137 -28.5q117 0 187.5 47t95.5 119l158 -45q-17 -45 -47.5 -90.5t-81.5 -82t-127.5 -60t-184.5 -23.5q-240 0 -365.5 143t-125.5 425q0 152 38 257.5t104 171.5t154 95.5t188 29.5q136 0 227.5 -44t147 -121.5t79 -182.5
t23.5 -227v-24h-772zM862 641q-15 171 -87 249.5t-207 78.5q-45 0 -94.5 -14.5t-91.5 -51.5t-71 -100.5t-33 -161.5h584zM687 1219v184h163v-184h-163zM293 1219v184h165v-184h-165z" />
    <glyph glyph-name="afii10099" unicode="&#x452;" 
d="M142 0v1206h-132v131h132v147h180v-147h300v-131h-300v-148q0 -33 -1 -66t-2.5 -61t-2.5 -47.5t-2 -26.5h3q30 55 65 93.5t77 63.5t92 36.5t112 11.5q104 0 170.5 -28t105 -78.5t53 -120.5t14.5 -154v-815q0 -62 -10.5 -115t-37.5 -92t-73.5 -61.5t-118.5 -22.5
q-34 0 -66.5 2t-60.5 7v139q13 -2 31 -4t31 -2q38 0 62.5 10t38 31.5t18.5 55t5 79.5v753q0 69 -8.5 121t-32.5 86.5t-68 52t-114 17.5q-64 0 -115.5 -23t-88 -65t-56.5 -102t-20 -135v-598h-180z" />
    <glyph glyph-name="afii10100" unicode="&#x453;" horiz-adv-x="747" 
d="M687 1082v-131h-365v-951h-180v1082h545zM288 1201v20l217 287h207v-29l-330 -278h-94z" />
    <glyph glyph-name="afii10101" unicode="&#x454;" horiz-adv-x="1045" 
d="M564 -20q-130 0 -221 43t-148 118.5t-82.5 178t-25.5 222.5q0 163 40.5 271t107.5 172t152 90.5t175 26.5q93 0 165.5 -24t125 -66t85.5 -100t46 -126l-185 -14q-15 91 -74 143.5t-168 52.5q-73 0 -124.5 -22t-85 -66t-50.5 -110.5t-21 -156.5h412v-131h-413
q4 -82 21.5 -149.5t51.5 -116t85.5 -75t125.5 -26.5q100 0 166.5 51.5t82.5 160.5l182 -12q-9 -67 -39.5 -128t-83.5 -107t-128.5 -73t-174.5 -27z" />
    <glyph glyph-name="afii10102" unicode="&#x455;" horiz-adv-x="1024" 
d="M950 299q0 -76 -29.5 -135.5t-85.5 -100t-137.5 -62t-186.5 -21.5q-94 0 -169.5 14.5t-132.5 46.5t-95.5 84.5t-56.5 128.5l159 31q23 -87 95 -127.5t200 -40.5q58 0 106.5 8t83.5 27.5t54.5 52t19.5 80.5q0 49 -23 80.5t-64 52.5t-99.5 36.5t-128.5 34.5q-65 17 -129 38
t-115.5 55.5t-83.5 85.5t-32 128q0 148 105.5 225.5t307.5 77.5q179 0 284.5 -63t133.5 -202l-162 -20q-9 42 -33 70.5t-58 46t-76.5 25t-88.5 7.5q-122 0 -180 -37t-58 -112q0 -44 21.5 -72.5t60 -48t92.5 -34t119 -30.5q43 -11 88 -23.5t87.5 -30t80 -41t65.5 -56.5
t44.5 -77t16.5 -102z" />
    <glyph glyph-name="afii10103" unicode="&#x456;" horiz-adv-x="455" 
d="M137 0v1082h180v-1082h-180zM137 1312v172h180v-172h-180z" />
    <glyph glyph-name="afii10104" unicode="&#x457;" horiz-adv-x="569" 
d="M194 0v1082h180v-1082h-180zM386 1219v184h163v-184h-163zM-8 1219v184h165v-184h-165z" />
    <glyph glyph-name="afii10105" unicode="&#x458;" horiz-adv-x="455" 
d="M137 1312v172h180v-172h-180zM317 -134q0 -62 -10.5 -115t-37.5 -92t-73.5 -61.5t-118.5 -22.5q-34 0 -66.5 2t-60.5 7v139q13 -2 31 -4t31 -2q38 0 62.5 10t38.5 31.5t19 55t5 79.5v1189h180v-1216z" />
    <glyph glyph-name="afii10106" unicode="&#x459;" horiz-adv-x="1856" 
d="M1357 624q205 0 310 -73.5t105 -232.5q0 -74 -26 -133t-78 -100t-129.5 -63t-180.5 -22h-450v951h-411q-25 -184 -46 -327.5t-43 -251.5t-47.5 -182.5t-61 -121t-82.5 -67.5t-112 -21q-29 0 -53 4t-41 9v129q11 -4 30 -6.5t38 -2.5q35 0 60.5 21t45.5 68t36.5 121.5
t33.5 182.5t36 250.5t44 325.5h754v-458h268zM1089 127h242q69 0 117 12.5t77.5 37t42.5 60t13 81.5q0 94 -58 137.5t-191 43.5h-243v-372z" />
    <glyph glyph-name="afii10107" unicode="&#x45a;" horiz-adv-x="1664" 
d="M937 1082v-458h228q205 0 310 -73.5t105 -232.5q0 -74 -26 -133t-78 -100t-129.5 -63t-180.5 -22h-410v493h-434v-493h-180v1082h180v-458h434v458h181zM937 127h202q69 0 117 12.5t77.5 37t42.5 60t13 81.5q0 94 -58 137.5t-191 43.5h-203v-372z" />
    <glyph glyph-name="afii10108" unicode="&#x45b;" 
d="M317 857q30 55 65 93.5t77 63.5t92 36.5t112 11.5q104 0 170.5 -28t105 -78.5t53 -120.5t14.5 -154v-681h-181v646q0 69 -8.5 121t-32.5 86.5t-68 52t-114 17.5q-64 0 -115.5 -23t-88 -65t-56.5 -102t-20 -135v-598h-180v1206h-132v131h132v147h180v-147h300v-131h-300
v-148q0 -33 -1 -66t-2.5 -61t-2.5 -47.5t-2 -26.5h3z" />
    <glyph glyph-name="afii10109" unicode="&#x45c;" horiz-adv-x="896" 
d="M138 1082h180v-474q30 0 54 8t50 33t58.5 71t80.5 123l148 239h188l-216 -325q-45 -66 -78 -108.5t-50 -56.5l353 -592h-200l-278 497q-19 -8 -51.5 -14t-58.5 -6v-477h-180v1082zM391 1201v20l217 287h207v-29l-330 -278h-94z" />
    <glyph glyph-name="afii10110" unicode="&#x45e;" horiz-adv-x="1024" 
d="M604 0q-38 -98 -77.5 -176.5t-88.5 -134t-109 -85t-138 -29.5q-34 0 -63 2t-61 9v135q19 -3 43 -4.5t41 -1.5q79 0 147 59t119 188l17 43l-429 1077h192l228 -598q10 -27 25.5 -72l31 -90t27.5 -81t14 -45q3 11 14.5 43.5t26 72.5t29.5 81t25 71l212 618h190zM523 1200
q-111 0 -181.5 28.5t-111 74t-56.5 103t-18 114.5h164q6 -103 58 -151t145 -48t145 48t58 151h164q-2 -57 -18 -114.5t-56.5 -103t-111 -74t-181.5 -28.5z" />
    <glyph glyph-name="afii10193" unicode="&#x45f;" horiz-adv-x="1131" 
d="M142 0v1082h180v-951h487v951h180v-1082h-342v-408h-163v408h-342z" />
    <glyph glyph-name="afii10050" unicode="&#x490;" horiz-adv-x="1001" 
d="M774 1409v411h180v-567h-595v-1252h-191v1408h606z" />
    <glyph glyph-name="afii10098" unicode="&#x491;" horiz-adv-x="842" 
d="M322 0h-180v1082h473v402h163v-533h-456v-951z" />
    <glyph glyph-name="Wgrave" unicode="&#x1e80;" horiz-adv-x="1933" 
d="M1511 0h-228l-244 895q-11 38 -23.5 90t-22.5 99q-12 55 -24 112q-13 -58 -25 -113q-11 -48 -23 -99t-23 -89l-246 -895h-228l-415 1409h199l253 -895q17 -63 32.5 -125t26.5 -111q13 -58 24 -110q15 69 31 136q7 28 14 59t14.5 61t15 57.5t13.5 50.5l245 877h183
l245 -877q6 -23 13.5 -50.5t15 -57t14.5 -60.5t14 -59q16 -67 31 -137q1 0 9 34.5t20 86.5t26.5 112.5t29.5 112.5l249 895h199zM993 1530l-310 217v29h207l217 -226v-20h-114z" />
    <glyph glyph-name="wgrave" unicode="&#x1e81;" horiz-adv-x="1479" 
d="M1174 0h-209l-173 698q-8 27 -16.5 67t-16.5 78q-10 44 -19 91q-9 -45 -19 -89q-8 -38 -17.5 -79t-17.5 -72l-178 -694h-208l-303 1082h178l183 -735q7 -23 14 -56.5t14 -65.5q7 -37 15 -76q8 38 17 74q8 31 16 63t14 53l196 743h193l189 -743q7 -26 15 -59t15 -62
q8 -34 16 -69q8 38 16 74q7 31 14.5 64.5t14.5 59.5l191 735h176zM764 1201l-330 278v29h207l217 -287v-20h-94z" />
    <glyph glyph-name="Wacute" unicode="&#x1e82;" horiz-adv-x="1933" 
d="M1511 0h-228l-244 895q-11 38 -23.5 90t-22.5 99q-12 55 -24 112q-13 -58 -25 -113q-11 -48 -23 -99t-23 -89l-246 -895h-228l-415 1409h199l253 -895q17 -63 32.5 -125t26.5 -111q13 -58 24 -110q15 69 31 136q7 28 14 59t14.5 61t15 57.5t13.5 50.5l245 877h183
l245 -877q6 -23 13.5 -50.5t15 -57t14.5 -60.5t14 -59q16 -67 31 -137q1 0 9 34.5t20 86.5t26.5 112.5t29.5 112.5l249 895h199zM831 1530v20l217 226h207v-29l-310 -217h-114z" />
    <glyph glyph-name="wacute" unicode="&#x1e83;" horiz-adv-x="1479" 
d="M1174 0h-209l-173 698q-8 27 -16.5 67t-16.5 78q-10 44 -19 91q-9 -45 -19 -89q-8 -38 -17.5 -79t-17.5 -72l-178 -694h-208l-303 1082h178l183 -735q7 -23 14 -56.5t14 -65.5q7 -37 15 -76q8 38 17 74q8 31 16 63t14 53l196 743h193l189 -743q7 -26 15 -59t15 -62
q8 -34 16 -69q8 38 16 74q7 31 14.5 64.5t14.5 59.5l191 735h176zM622 1201v20l217 287h207v-29l-330 -278h-94z" />
    <glyph glyph-name="Wdieresis" unicode="&#x1e84;" horiz-adv-x="1933" 
d="M1511 0h-228l-244 895q-11 38 -23.5 90t-22.5 99q-12 55 -24 112q-13 -58 -25 -113q-11 -48 -23 -99t-23 -89l-246 -895h-228l-415 1409h199l253 -895q17 -63 32.5 -125t26.5 -111q13 -58 24 -110q15 69 31 136q7 28 14 59t14.5 61t15 57.5t13.5 50.5l245 877h183
l245 -877q6 -23 13.5 -50.5t15 -57t14.5 -60.5t14 -59q16 -67 31 -137q1 0 9 34.5t20 86.5t26.5 112.5t29.5 112.5l249 895h199zM1085 1530v184h163v-184h-163zM691 1530v184h165v-184h-165z" />
    <glyph glyph-name="wdieresis" unicode="&#x1e85;" horiz-adv-x="1479" 
d="M1174 0h-209l-173 698q-8 27 -16.5 67t-16.5 78q-10 44 -19 91q-9 -45 -19 -89q-8 -38 -17.5 -79t-17.5 -72l-178 -694h-208l-303 1082h178l183 -735q7 -23 14 -56.5t14 -65.5q7 -37 15 -76q8 38 17 74q8 31 16 63t14 53l196 743h193l189 -743q7 -26 15 -59t15 -62
q8 -34 16 -69q8 38 16 74q7 31 14.5 64.5t14.5 59.5l191 735h176zM856 1219v184h163v-184h-163zM462 1219v184h165v-184h-165z" />
    <glyph glyph-name="Ygrave" unicode="&#x1ef2;" horiz-adv-x="1366" 
d="M777 584v-584h-190v584l-542 825h210l429 -671l427 671h210zM706 1530l-310 217v29h207l217 -226v-20h-114z" />
    <glyph glyph-name="ygrave" unicode="&#x1ef3;" horiz-adv-x="1024" 
d="M604 0q-38 -98 -77.5 -176.5t-88.5 -134t-109 -85t-138 -29.5q-34 0 -63 2t-61 9v135q19 -3 43 -4.5t41 -1.5q79 0 147 59t119 188l17 43l-429 1077h192l228 -598q10 -27 25.5 -72l31 -90t27.5 -81t14 -45q3 11 14.5 43.5t26 72.5t29.5 81t25 71l212 618h190zM541 1201
l-330 278v29h207l217 -287v-20h-94z" />
    <glyph glyph-name="uni2010" unicode="&#x2010;" horiz-adv-x="682" 
d="M91 464v160h500v-160h-500z" />
    <glyph glyph-name="uni2011" unicode="&#x2011;" horiz-adv-x="682" 
d="M91 464v160h500v-160h-500z" />
    <glyph glyph-name="figuredash" unicode="&#x2012;" horiz-adv-x="682" 
d="M91 464v160h500v-160h-500z" />
    <glyph glyph-name="endash" unicode="&#x2013;" 
d="M0 451v137h1138v-137h-1138z" />
    <glyph glyph-name="emdash" unicode="&#x2014;" horiz-adv-x="2048" 
d="M0 451v137h2048v-137h-2048z" />
    <glyph glyph-name="afii00208" unicode="&#x2015;" horiz-adv-x="2048" 
d="M0 451v137h2048v-137h-2048z" />
    <glyph glyph-name="underscoredbl" unicode="&#x2017;" horiz-adv-x="1131" 
d="M-31 -434v130h1193v-130h-1193zM-31 -217v130h1193v-130h-1193z" />
    <glyph glyph-name="quoteleft" unicode="&#x2018;" horiz-adv-x="455" 
d="M127 952v146q0 52 5 95t15 80.5t25 70.5t35 65h121q-45 -65 -70 -131t-25 -131h89v-195h-195z" />
    <glyph glyph-name="quoteright" unicode="&#x2019;" horiz-adv-x="455" 
d="M328 1264q0 -53 -4.5 -96t-14.5 -80.5t-24.5 -70.5t-34.5 -65h-123q45 65 69.5 131t24.5 129h-88v197h195v-145z" />
    <glyph glyph-name="quotesinglbase" unicode="&#x201a;" horiz-adv-x="455" 
d="M328 51q0 -53 -4.5 -96.5t-14.5 -81t-24.5 -70.5t-34.5 -65h-123q45 65 69.5 131t24.5 131h-88v195h195v-144z" />
    <glyph glyph-name="quotereversed" unicode="&#x201b;" horiz-adv-x="455" 
d="M321 1409v-197h-88q0 -63 24.5 -129t69.5 -131h-123q-20 32 -34.5 65t-24.5 70.5t-14.5 80.5t-4.5 96v145h195z" />
    <glyph glyph-name="quotedblleft" unicode="&#x201c;" horiz-adv-x="682" 
d="M407 952v146q0 52 5 95t14.5 80.5t24 70.5t34.5 65h122q-45 -65 -69.5 -131t-24.5 -131h88v-195h-194zM75 952v146q0 52 5 95t15 80.5t25 70.5t35 65h121q-45 -65 -70 -131t-25 -131h89v-195h-195z" />
    <glyph glyph-name="quotedblright" unicode="&#x201d;" horiz-adv-x="682" 
d="M607 1264q0 -53 -5 -96t-14.5 -80.5t-24.5 -70.5t-35 -65h-121q45 65 69.5 131t24.5 131h-88v195h194v-145zM276 1264q0 -53 -4.5 -96t-14.5 -80.5t-24.5 -70.5t-34.5 -65h-123q45 65 69.5 131t24.5 131h-88v195h195v-145z" />
    <glyph glyph-name="quotedblbase" unicode="&#x201e;" horiz-adv-x="682" 
d="M607 51q0 -53 -5 -96.5t-14.5 -81t-24.5 -70.5t-35 -65h-121q45 65 69.5 131t24.5 131h-88v195h194v-144zM276 51q0 -53 -4.5 -96.5t-14.5 -81t-24.5 -70.5t-34.5 -65h-123q45 65 69.5 131t24.5 131h-88v195h195v-144z" />
    <glyph glyph-name="dagger" unicode="&#x2020;" 
d="M649 1000l-22 -1138h-115l-22 1138l-352 -27v164l352 -29l-28 376h215l-28 -376l353 29v-164z" />
    <glyph glyph-name="daggerdbl" unicode="&#x2021;" 
d="M497 1000l-360 -27v164l360 -29l-16 376h175l-16 -376l361 29v-164l-361 27l-26 -330l26 -327l360 27v-164l-360 29l16 -376h-175l16 376l-361 -29v164l361 -27l26 327z" />
    <glyph glyph-name="bullet" unicode="&#x2022;" horiz-adv-x="717" 
d="M636 682q0 -58 -22.5 -109t-60.5 -89.5t-89 -60.5t-109 -22q-57 0 -106.5 22t-87 60.5t-59 89.5t-21.5 109q0 57 21.5 107t59 87t87 58.5t106.5 21.5q58 0 109 -21.5t89 -58.5t60.5 -87t22.5 -107z" />
    <glyph glyph-name="ellipsis" unicode="&#x2026;" horiz-adv-x="2048" 
d="M1576 0v219h194v-219h-194zM929 0v219h192v-219h-192zM278 0v219h195v-219h-195z" />
    <glyph glyph-name="perthousand" unicode="&#x2030;" horiz-adv-x="2048" 
d="M304 0h-155l922 1409h157zM356 1421q60 0 113.5 -16.5t93.5 -58t63 -111t23 -175.5q0 -102 -23 -172t-63.5 -113t-94.5 -62t-116 -19q-63 0 -117 18.5t-94 61.5t-63 113t-23 173q0 106 23 175.5t63.5 111t95.5 58t119 16.5zM502 1060q0 73 -9.5 122t-28 78t-46 41
t-62.5 12q-38 0 -67 -12t-48.5 -41.5t-29 -78t-9.5 -121.5q0 -71 10 -119.5t29.5 -78t47.5 -42.5t65 -13q34 0 61 13t46.5 42.5t30 78t10.5 119.5zM1044 716q60 0 113.5 -16.5t93.5 -58t63 -111t23 -175.5q0 -102 -23 -172t-63.5 -113t-94.5 -62t-116 -19q-63 0 -117 18.5
t-94 61.5t-63 113t-23 173q0 106 23 175.5t63.5 111t95.5 58t119 16.5zM1190 355q0 73 -9.5 122t-28 78t-46 41t-62.5 12q-38 0 -67 -12t-48.5 -41.5t-29 -78t-9.5 -121.5q0 -71 10 -119.5t29.5 -78t47.5 -42.5t65 -13q34 0 61 13t46.5 42.5t30 78t10.5 119.5zM1699 716
q60 0 113.5 -16.5t93.5 -58t63 -111t23 -175.5q0 -102 -23 -172t-63.5 -113t-94.5 -62t-116 -19q-63 0 -117 18.5t-94 61.5t-63 113t-23 173q0 106 23 175.5t63.5 111t95.5 58t119 16.5zM1845 355q0 73 -9.5 122t-28 78t-46 41t-62.5 12q-38 0 -67 -12t-48.5 -41.5t-29 -78
t-9.5 -121.5q0 -71 10 -119.5t29.5 -78t47.5 -42.5t65 -13q34 0 61 13t46.5 42.5t30 78t10.5 119.5z" />
    <glyph glyph-name="minute" unicode="&#x2032;" horiz-adv-x="384" 
d="M85 890l64 519h196l-158 -519h-102z" />
    <glyph glyph-name="second" unicode="&#x2033;" horiz-adv-x="725" 
d="M85 890l64 519h196l-158 -519h-102zM427 890l64 519h196l-158 -519h-102z" />
    <glyph glyph-name="guilsinglleft" unicode="&#x2039;" horiz-adv-x="682" 
d="M424 141l-336 365v63l336 371h167v-31l-335 -372l337 -367v-29h-169z" />
    <glyph glyph-name="guilsinglright" unicode="&#x203a;" horiz-adv-x="682" 
d="M257 141h-168v29l338 367l-336 372v31h166l337 -371v-63z" />
    <glyph glyph-name="exclamdbl" unicode="&#x203c;" horiz-adv-x="1024" 
d="M359 397h-148l-24 1012h196zM185 0v201h194v-201h-194zM815 397h-148l-24 1012h196zM641 0v201h194v-201h-194z" />
    <glyph glyph-name="uni203E" unicode="&#x203e;" horiz-adv-x="682" 
d="M747 1503h-811v117h811v-117z" />
    <glyph glyph-name="fraction" unicode="&#x2044;" horiz-adv-x="342" 
d="M-268 0h-148l881 1409h145z" />
    <glyph glyph-name="fraction" unicode="&#x2215;" horiz-adv-x="342" 
d="M-268 0h-148l881 1409h145z" />
    <glyph glyph-name="uni207F" unicode="&#x207f;" horiz-adv-x="747" 
d="M514 519v398q0 46 -6.5 76.5t-21 49t-38 26.5t-58.5 8q-72 0 -114.5 -50t-42.5 -144v-364h-128v511q0 20 -0.5 43t-1 43t-1.5 34.5t-1 18.5h119q0 -3 1 -16.5t2 -30.5t2 -34.5t1 -29.5h2q15 28 34 51t43.5 39t56.5 24.5t74 8.5q110 0 158.5 -54t48.5 -175v-433h-129z" />
    <glyph glyph-name="franc" unicode="&#x20a3;" 
d="M359 1254v-476h687v-157h-687v-213h402v-129h-402v-279h-180v279h-175v129h175v1001h891v-155h-711z" />
    <glyph glyph-name="lira" unicode="&#x20a4;" 
d="M1104 311q-9 -80 -37.5 -138.5t-73 -97t-102 -57t-124.5 -18.5h-698v154q89 46 132 126t43 201v25h-186v129h186v140h-186v129h186v130q0 92 24 165.5t73.5 124.5t125.5 78.5t179 27.5q70 0 131.5 -14.5t111 -43.5t85 -72t53.5 -100l-174 -57q-10 31 -29.5 57t-46 44
t-59 28t-68.5 10q-114 0 -170 -57.5t-56 -182.5v-138h408v-129h-408v-140h408v-129h-408v-7q0 -56 -11 -109t-33 -99t-53.5 -81.5t-71.5 -56.5h483q38 0 71.5 9.5t60 30.5t45 54.5t26.5 81.5z" />
    <glyph glyph-name="peseta" unicode="&#x20a7;" horiz-adv-x="2240" 
d="M954 985q0 -92 -30.5 -171.5t-91 -138t-151.5 -92.5t-212 -34h-130v-549h-181v1409h299q125 0 218 -30.5t155 -86t93 -134t31 -173.5zM772 983q0 134 -82 203.5t-246 69.5h-105v-556h113q165 0 242.5 73t77.5 210zM1407 8q-35 -11 -72 -17.5t-85 -6.5q-105 0 -151.5 61.5
t-46.5 183.5v453h-104v131h111l53 242h110v-242h157v-131h-157v-414q0 -78 20.5 -114.5t75.5 -36.5q23 0 43 4t46 10v-123zM2151 229q0 -120 -91.5 -184.5t-261.5 -64.5q-75 0 -135.5 12t-106.5 39t-76.5 71t-45.5 108l159 26q17 -61 66.5 -90t137.5 -29q40 0 74 5
t58.5 17.5t38 32.5t13.5 50t-17 50.5t-48 35t-74.5 26t-95.5 24.5q-49 12 -97 28t-86.5 42.5t-62 66t-23.5 98.5q0 112 84 171.5t245 59.5q141 0 223.5 -52.5t104.5 -168.5l-161 -17q-6 28 -21.5 47t-38 31t-49.5 17t-57 5q-155 0 -155 -85q0 -25 16 -43t44.5 -32t68.5 -25
t88 -22t98 -26.5t91 -42.5t67 -70.5t26 -110.5z" />
    <glyph glyph-name="Euro" unicode="&#x20ac;" 
d="M691 126q100 0 160 50t74 141l185 -14q-13 -68 -44.5 -127t-83 -102.5t-125 -68.5t-170.5 -25q-120 0 -208.5 38.5t-149 108t-95 165.5t-47.5 210h-171l40 129h120q-1 8 -2 31t-1 47q0 27 1 53.5t2 32.5h-160l40 127h129q15 122 51.5 216.5t98 159.5t148 98.5t201.5 33.5
q97 0 170.5 -25t125 -68.5t83 -102.5t44.5 -127l-185 -14q-14 91 -74.5 141t-166.5 50q-68 0 -121 -19.5t-92.5 -63t-64.5 -112t-36 -167.5h446l-40 -127h-413q-2 -16 -2.5 -39.5t-0.5 -46.5q0 -22 1 -40.5t3 -37.5h452l-40 -129h-404q9 -81 30 -150t59.5 -119t95.5 -78.5
t137 -28.5z" />
    <glyph glyph-name="afii61248" unicode="&#x2105;" horiz-adv-x="1813" 
d="M1744 434q0 -125 -25.5 -210.5t-69 -138t-101.5 -75t-124 -22.5t-123.5 22.5t-100 74.5t-67 137.5t-24.5 211.5q0 133 24 220t67 138.5t101.5 72t126.5 20.5q66 0 123.5 -20.5t100 -72t67.5 -138.5t25 -220zM523 0h-155l922 1409h157zM1596 434q0 99 -11 164.5
t-32.5 104.5t-53 55t-71.5 16q-42 0 -74 -16.5t-54 -55.5t-33 -104.5t-11 -163.5q0 -95 11.5 -159t33 -103.5t53 -56.5t72.5 -17q39 0 70.5 17t53.5 56.5t34 103.5t12 159zM215 975q0 -75 10 -137t33.5 -107t61 -70t91.5 -25q69 0 116 41t58 128l141 -9q-6 -54 -28.5 -103.5
t-61 -87.5t-94 -60.5t-127.5 -22.5q-94 0 -160 34.5t-107 95t-60 142.5t-19 178q0 130 29.5 216.5t78 138t110.5 72.5t127 21q68 0 121 -20t91 -55t62 -82t33 -102l-143 -11q-10 72 -51.5 114.5t-116.5 42.5q-108 0 -151.5 -82t-43.5 -250z" />
    <glyph glyph-name="afii61289" unicode="&#x2113;" horiz-adv-x="662" 
d="M433 78q51 0 85 52t51 161h69q-20 -154 -80 -232.5t-169 -78.5q-111 0 -174.5 79.5t-63.5 234.5v175q-32 -17 -65 -31t-67 -27v73q35 14 68 28.5t64 30.5v587q0 59 12.5 113t42 95.5t78.5 66t121 24.5q52 0 91.5 -21t66 -60t40 -94.5t13.5 -124.5q0 -99 -22 -189
t-61.5 -166t-94.5 -135t-121 -97v-244q0 -57 9.5 -98.5t25.5 -68.5t37 -40t44 -13zM525 1122q0 52 -7 94.5t-20.5 73t-33.5 47t-46 16.5q-32 0 -51.5 -18t-30.5 -48.5t-15 -71t-4 -86.5v-507q49 33 87.5 85t65.5 117.5t41 141t14 156.5z" />
    <glyph glyph-name="afii61352" unicode="&#x2116;" horiz-adv-x="2197" 
d="M1062 0l-720 1190q1 -44 3 -88q1 -38 2 -82.5t1 -83.5v-936h-160v1409h202l728 -1198q-2 40 -4 86q-2 39 -3 88t-1 100v924h162v-1409h-210zM2094 690q0 -188 -88 -289.5t-263 -101.5q-168 0 -256.5 100.5t-88.5 290.5q0 91 21.5 163.5t65 123t109 77t153.5 26.5
q93 0 158.5 -26.5t107.5 -76.5t61.5 -122.5t19.5 -164.5zM1935 690q0 81 -12 134.5t-35.5 85.5t-58 45t-79.5 13q-46 0 -81.5 -13.5t-59.5 -45.5t-36.5 -85.5t-12.5 -133.5q0 -82 13 -136t37 -85.5t57.5 -44.5t74.5 -13q46 0 82 13t61 44.5t37.5 85.5t12.5 136zM1439 0v146
h635v-146h-635z" />
    <glyph glyph-name="trademark" unicode="&#x2122;" horiz-adv-x="2048" 
d="M1691 634v425v194q-5 -11 -9 -22q-4 -9 -6.5 -18t-4.5 -14l-230 -565h-108l-163 413q-2 5 -14 37t-26 70q-17 44 -37 99q-1 -10 -1 -20q-1 -8 -1 -17v-15v-567h-128v775h190l223 -563q2 -4 4.5 -10.5t4.5 -13.5l6 -18q20 51 36 92q7 18 13.5 35t12 31t9 23t3.5 11
l168 413h184v-775h-126zM577 1298v-664h-134v664h-255v111h650v-111h-261z" />
    <glyph glyph-name="u2126" unicode="&#x2126;" horiz-adv-x="1573" 
d="M786 1430q151 0 271.5 -43t204.5 -124t129 -198t45 -264q0 -106 -29.5 -201.5t-84 -179t-133 -152.5t-177.5 -123q42 2 81 5q33 2 68.5 4t58.5 2h244v-156h-589v224q96 51 165.5 114t114 134.5t65.5 151t21 164.5q0 116 -30.5 206.5t-88.5 152.5t-142.5 94.5t-192.5 32.5
q-109 0 -194 -32.5t-143 -94.5t-88.5 -152.5t-30.5 -206.5q0 -85 21 -164.5t65.5 -151t114 -134.5t165.5 -114v-224h-589v156h244q23 0 58.5 -2t68.5 -4q39 -3 81 -5q-99 54 -177.5 123t-133 152.5t-84 179t-29.5 201.5q0 147 45 264t129 198t204.5 124t271.5 43z" />
    <glyph glyph-name="estimated" unicode="&#x212e;" horiz-adv-x="1229" 
d="M619 -34q-130 0 -229 46.5t-166 125t-101.5 180.5t-34.5 213q0 147 47.5 253.5t123.5 176t170.5 102.5t189.5 33q112 0 209 -39.5t168 -112.5t111.5 -178t40.5 -235h-827v-356q22 -24 54 -46.5t71 -40t83 -27.5t90 -10q75 0 133 15.5t104.5 45.5t84.5 73.5t73 99.5
l72 -42q-36 -57 -78 -107t-96.5 -88t-126 -60t-166.5 -22zM917 616v277q-19 20 -48.5 41t-68 38t-84.5 28t-99 11q-51 0 -94.5 -9.5t-80.5 -25.5t-67 -37t-54 -45v-278h596z" />
    </font>
</defs>
</svg>
