<?xml version="1.0" standalone="no"?>
<!DOCTYPE svg PUBLIC "-//W3C//DTD SVG 1.1//EN" "http://www.w3.org/Graphics/SVG/1.1/DTD/svg11.dtd" >
<svg xmlns="http://www.w3.org/2000/svg" xmlns:xlink="http://www.w3.org/1999/xlink" version="1.1">
<metadata>
Created by FontForge 20170731 at Wed Feb 10 17:54:38 2021
 By Aleksey,,,
Copyright 2020 The Open Sans Project Authors (https://github.com/googlefonts/opensans)
</metadata>
<defs>
<font id="OpenSansCondensed-ExtraBold" horiz-adv-x="0" >
  <font-face 
    font-family="Open Sans Condensed ExtraBold"
    font-weight="800"
    font-stretch="condensed"
    units-per-em="2048"
    panose-1="0 0 0 0 0 0 0 0 0 0"
    ascent="1638"
    descent="-410"
    x-height="1133"
    cap-height="1462"
    bbox="-1157 -718 2410 2286"
    underline-thickness="50"
    underline-position="-175"
    unicode-range="U+000D-FFFD"
  />
<missing-glyph horiz-adv-x="1229" 
 />
    <glyph glyph-name="f_f" unicode="ff" horiz-adv-x="1339" 
d="M655 860h-184v-860h-332v860h-125v176l125 92v19q0 151 34.5 243t105 134.5t178.5 42.5q68 0 122 -12.5t130 -41.5l-66 -243q-28 9 -54 14.5t-52 5.5q-34 0 -50 -27.5t-16 -88.5v-41h184v-273zM1325 860h-184v-860h-332v860h-125v176l125 92v19q0 151 34.5 243t105 134.5
t178.5 42.5q68 0 122 -12.5t130 -41.5l-66 -243q-28 9 -54 14.5t-52 5.5q-34 0 -50 -27.5t-16 -88.5v-41h184v-273z" />
    <glyph glyph-name="fi" unicode="fi" horiz-adv-x="1212" 
d="M655 860h-184v-860h-332v860h-125v176l125 92v19q0 151 34.5 243t105 134.5t178.5 42.5q68 0 122 -12.5t130 -41.5l-66 -243q-28 9 -54 14.5t-52 5.5q-34 0 -50 -27.5t-16 -88.5v-41h184v-273zM1106 1133v-1133h-332v1133h332zM940 1589q92 0 134 -44t42 -130t-44 -129
t-132 -43q-87 0 -131.5 43t-44.5 129q0 88 42 131t134 43z" />
    <glyph glyph-name="fl" unicode="fl" horiz-adv-x="1208" 
d="M655 860h-184v-860h-332v860h-125v176l125 92v19q0 151 34.5 243t105 134.5t178.5 42.5q68 0 122 -12.5t130 -41.5l-66 -243q-28 9 -54 14.5t-52 5.5q-34 0 -50 -27.5t-16 -88.5v-41h184v-273zM1104 0h-332v1556h332v-1556z" />
    <glyph glyph-name="f_f_i" unicode="ffi" horiz-adv-x="1882" 
d="M655 860h-184v-860h-332v860h-125v176l125 92v19q0 151 34.5 243t105 134.5t178.5 42.5q68 0 122 -12.5t130 -41.5l-66 -243q-28 9 -54 14.5t-52 5.5q-34 0 -50 -27.5t-16 -88.5v-41h184v-273zM1325 860h-184v-860h-332v860h-125v176l125 92v19q0 151 34.5 243t105 134.5
t178.5 42.5q68 0 122 -12.5t130 -41.5l-66 -243q-28 9 -54 14.5t-52 5.5q-34 0 -50 -27.5t-16 -88.5v-41h184v-273zM1775 1133v-1133h-332v1133h332zM1609 1589q92 0 134 -44t42 -130t-44 -129t-132 -43q-87 0 -131.5 43t-44.5 129q0 88 42 131t134 43z" />
    <glyph glyph-name="f_f_l" unicode="ffl" horiz-adv-x="1878" 
d="M655 860h-184v-860h-332v860h-125v176l125 92v19q0 151 34.5 243t105 134.5t178.5 42.5q68 0 122 -12.5t130 -41.5l-66 -243q-28 9 -54 14.5t-52 5.5q-34 0 -50 -27.5t-16 -88.5v-41h184v-273zM1325 860h-184v-860h-332v860h-125v176l125 92v19q0 151 34.5 243t105 134.5
t178.5 42.5q68 0 122 -12.5t130 -41.5l-66 -243q-28 9 -54 14.5t-52 5.5q-34 0 -50 -27.5t-16 -88.5v-41h184v-273zM1773 0h-332v1556h332v-1556z" />
    <glyph glyph-name=".notdef" horiz-adv-x="1229" 
 />
    <glyph glyph-name=".null" 
 />
    <glyph glyph-name="nonmarkingreturn" horiz-adv-x="682" 
 />
    <glyph glyph-name="NULL" 
 />
    <glyph glyph-name="NULL" 
 />
    <glyph glyph-name="CR" unicode="&#xd;" horiz-adv-x="360" 
 />
    <glyph glyph-name="space" unicode=" " horiz-adv-x="360" 
 />
    <glyph glyph-name="exclam" unicode="!" horiz-adv-x="555" 
d="M422 516h-287l-49 946h383zM88 166q0 92 48.5 142t142.5 50q89 0 136.5 -50t47.5 -142q0 -91 -49 -141t-135 -50q-88 0 -139.5 50t-51.5 141z" />
    <glyph glyph-name="quotedbl" unicode="&#x22;" horiz-adv-x="991" 
d="M436 1462l-41 -528h-274l-41 528h356zM911 1462l-41 -528h-274l-41 528h356z" />
    <glyph glyph-name="numbersign" unicode="#" horiz-adv-x="1116" 
d="M883 834l-31 -209h188v-234h-219l-57 -391h-240l58 391h-129l-56 -391h-237l55 391h-172v234h205l31 209h-187v239h219l58 389h237l-57 -389h127l55 389h240l-58 -389h177v-239h-207zM485 625h127l31 209h-127z" />
    <glyph glyph-name="dollar" unicode="$" horiz-adv-x="1014" 
d="M444 -119v187q-81 6 -171 28.5t-169 59.5v295q75 -51 167 -91t173 -42v316q-115 47 -193.5 103.5t-118.5 131.5t-40 175q0 112 45 189.5t124.5 122.5t182.5 59v139h146v-137q74 -6 153 -30.5t154 -65.5l-70 -248q-56 35 -119 55.5t-118 27.5v-291q116 -44 189.5 -95.5
t109 -121.5t35.5 -171q0 -152 -87 -260.5t-247 -140.5v-195h-146zM590 337q42 17 59 48t17 72q0 25 -9 45t-26 37t-41 31v-233zM444 926v228q-34 -8 -52.5 -24.5t-26 -39.5t-7.5 -52q0 -22 9 -41.5t28 -36.5t49 -34z" />
    <glyph glyph-name="percent" unicode="%" horiz-adv-x="1720" 
d="M371 1483q149 0 238 -124t89 -333q0 -220 -85 -340.5t-242 -120.5q-149 0 -235.5 125t-86.5 336q0 220 85 338.5t237 118.5zM375 1253q-35 0 -53.5 -57t-18.5 -174q0 -120 18.5 -175.5t53.5 -55.5t52 55t17 176q0 120 -17 175.5t-52 55.5zM1280 1462l-600 -1462h-246
l600 1462h246zM1343 901q149 0 237.5 -124t88.5 -333q0 -219 -85.5 -339.5t-240.5 -120.5q-150 0 -235.5 125t-85.5 335q0 220 84 338.5t237 118.5zM1346 672q-36 0 -53 -57.5t-17 -174.5q0 -119 17 -175t53 -56q40 0 54.5 63.5t14.5 167.5q0 105 -14.5 168.5t-54.5 63.5z
" />
    <glyph glyph-name="ampersand" unicode="&#x26;" horiz-adv-x="1317" 
d="M563 1481q123 0 207.5 -42t128 -120t43.5 -186q0 -111 -60 -200.5t-161 -164.5l137 -172q19 40 33 96.5t27 128.5h350q-22 -132 -67 -263.5t-118 -250.5l244 -307h-426l-61 86q-52 -35 -109 -58.5t-122.5 -35.5t-145.5 -12q-138 0 -231 52t-140 148t-47 226
q0 88 27.5 162t82.5 133.5t138 105.5q-40 48 -67 98t-40.5 106t-13.5 122q0 102 48.5 180.5t136.5 123t206 44.5zM453 602q-22 -20 -37 -46.5t-22 -58.5t-7 -71q0 -57 34 -105.5t97 -48.5q45 0 77 14.5t64 39.5zM561 1239q-32 0 -55 -25.5t-23 -78.5q0 -39 17.5 -80
t52.5 -84q41 32 63.5 80t22.5 96q0 46 -22 69t-56 23z" />
    <glyph glyph-name="quotesingle" unicode="'" horiz-adv-x="516" 
d="M436 1462l-41 -528h-274l-41 528h356z" />
    <glyph glyph-name="parenleft" unicode="(" horiz-adv-x="668" 
d="M88 582q0 194 36 360.5t98 307t138 253.5h304q-133 -199 -197 -425.5t-64 -493.5q0 -172 30.5 -324.5t89 -295.5t141.5 -288h-304q-80 118 -141.5 255t-96 298.5t-34.5 352.5z" />
    <glyph glyph-name="parenright" unicode=")" horiz-adv-x="668" 
d="M580 582q0 -191 -34.5 -352.5t-96.5 -298.5t-144 -255h-301q83 145 140.5 288t87.5 295.5t30 324.5q0 178 -28 337.5t-85.5 304t-144.5 277.5h301q78 -113 140.5 -253.5t98.5 -307t36 -360.5z" />
    <glyph glyph-name="asterisk" unicode="*" horiz-adv-x="973" 
d="M637 1563l-39 -308l279 113l71 -287l-282 -37l213 -225l-244 -176l-150 272l-147 -272l-244 176l213 225l-282 37l71 287l279 -113l-39 308h301z" />
    <glyph glyph-name="plus" unicode="+" horiz-adv-x="1024" 
d="M649 856h305v-268h-305v-361h-274v361h-305v268h305v367h274v-367z" />
    <glyph glyph-name="comma" unicode="," horiz-adv-x="559" 
d="M461 299l10 -23q-15 -112 -35 -212t-44 -187t-54 -162h-275q15 79 30.5 186.5t27.5 214t16 183.5h324z" />
    <glyph glyph-name="hyphen" unicode="-" horiz-adv-x="666" 
d="M59 393v312h547v-312h-547z" />
    <glyph glyph-name="period" unicode="." horiz-adv-x="559" 
d="M92 166q0 92 49.5 142t141.5 50q89 0 136.5 -50t47.5 -142q0 -91 -48.5 -141t-135.5 -50q-88 0 -139.5 50t-51.5 141z" />
    <glyph glyph-name="slash" unicode="/" horiz-adv-x="870" 
d="M866 1483l-571 -1503h-289l572 1503h288z" />
    <glyph glyph-name="zero" unicode="0" horiz-adv-x="1014" 
d="M942 729q0 -158 -19.5 -294.5t-68 -238.5t-133 -159t-215.5 -57q-144 0 -240.5 84t-145 250.5t-48.5 414.5q0 260 47 427t143.5 247t243.5 80q145 0 241.5 -84.5t145.5 -252t49 -417.5zM414 729q0 -156 7 -255t26.5 -146t58.5 -47q40 0 60 47t27 146t7 255
q0 152 -7 252.5t-27 150.5t-60 50q-37 0 -57 -50t-27.5 -150.5t-7.5 -252.5z" />
    <glyph glyph-name="one" unicode="1" horiz-adv-x="1014" 
d="M819 0h-342v770q0 47 0.5 91.5t1.5 86t2 80.5q-13 -22 -30.5 -44.5t-38.5 -47.5l-127 -137l-207 198l434 465h307v-1462z" />
    <glyph glyph-name="two" unicode="2" horiz-adv-x="1014" 
d="M905 0h-852v244l277 370q92 124 137.5 202.5t60.5 132t15 102.5q0 62 -28 97.5t-87 35.5q-52 0 -102.5 -33.5t-118.5 -124.5l-166 223q66 86 132 137.5t138.5 74t157.5 22.5q120 0 214 -51t148 -143t54 -216q0 -85 -20.5 -166.5t-75 -176t-158.5 -218.5l-168 -203v-10
h442v-299z" />
    <glyph glyph-name="three" unicode="3" horiz-adv-x="1014" 
d="M895 1102q0 -74 -29.5 -138.5t-85.5 -114t-137 -79.5v-6q143 -31 214 -117t71 -229q0 -136 -61.5 -234.5t-174.5 -151t-270 -52.5q-100 0 -180 15.5t-181 59.5v316q79 -49 158.5 -73t147.5 -24q103 0 150.5 38.5t47.5 119.5q0 64 -25.5 102t-81.5 55t-149 17h-73v285h75
q83 0 138 19t82.5 58t27.5 97q0 63 -35.5 93t-107.5 30q-35 0 -72 -10.5t-76 -30.5t-80 -51l-125 250q98 75 197 106t229 31q188 0 297 -94.5t109 -286.5z" />
    <glyph glyph-name="four" unicode="4" horiz-adv-x="1014" 
d="M987 283h-143v-283h-336v283h-475v274l483 905h328v-899h143v-280zM508 563v199q0 9 0.5 42t1.5 72.5t2 69t2 31.5h-8q-13 -43 -28 -79t-32 -67l-141 -268h203z" />
    <glyph glyph-name="five" unicode="5" horiz-adv-x="1014" 
d="M571 958q103 0 183 -59.5t126 -165.5t46 -246q0 -163 -54.5 -276.5t-166 -172t-281.5 -58.5q-94 0 -174 18.5t-148 56.5v312q70 -40 149.5 -66.5t149.5 -26.5q57 0 96.5 22.5t60 67.5t20.5 111q0 92 -48 143.5t-143 51.5q-37 0 -75.5 -9t-82.5 -26l-108 72l43 755h688
v-301h-399l-15 -221q44 12 77.5 15t55.5 3z" />
    <glyph glyph-name="six" unicode="6" horiz-adv-x="1014" 
d="M66 618q0 132 16 258.5t55.5 236t108.5 193t173.5 130.5t252.5 47q52 0 104.5 -4.5t104.5 -12.5v-288q-42 9 -86 13.5t-90 4.5q-105 0 -175.5 -40.5t-106.5 -126.5t-40 -224h8q24 57 57 94.5t77 56.5t98 19q102 0 175.5 -56.5t112.5 -162.5t39 -256q0 -159 -50.5 -275.5
t-146 -180.5t-231.5 -64q-106 0 -190.5 43t-144 125.5t-90.5 201t-31 268.5zM514 274q43 0 70.5 53t27.5 167q0 97 -23 145.5t-73 48.5q-30 0 -53.5 -23t-37 -62t-13.5 -87q0 -52 7 -96t20.5 -77t32 -51t42.5 -18z" />
    <glyph glyph-name="seven" unicode="7" horiz-adv-x="1014" 
d="M174 0l418 1161h-516v301h864v-233l-403 -1229h-363z" />
    <glyph glyph-name="eight" unicode="8" horiz-adv-x="1014" 
d="M508 1483q130 0 220.5 -41.5t137.5 -121.5t47 -194q0 -77 -20.5 -142t-64 -118t-113.5 -96q87 -61 138.5 -122t74 -124.5t22.5 -134.5q0 -130 -53 -221.5t-153 -139.5t-240 -48q-142 0 -241 47t-150.5 137.5t-51.5 220.5q0 78 22.5 146t71.5 126t128 107q-64 52 -105 109
t-60.5 120.5t-19.5 134.5q0 113 49.5 192.5t141.5 121t219 41.5zM385 391q0 -66 29.5 -103.5t87.5 -37.5q63 0 94 33.5t31 99.5q0 32 -8 62.5t-30.5 63.5t-66.5 71l-20 16q-43 -33 -68.5 -65.5t-37 -67t-11.5 -72.5zM508 1212q-40 0 -64 -30.5t-24 -79.5q0 -31 9 -59
t27.5 -53.5t47.5 -49.5q36 30 55.5 55t27 50.5t7.5 56.5q0 50 -25.5 80t-60.5 30z" />
    <glyph glyph-name="nine" unicode="9" horiz-adv-x="1014" 
d="M948 846q0 -139 -18.5 -268t-61 -237.5t-112.5 -189.5t-172 -126t-242 -45q-54 0 -106 4.5t-103 13.5v289q41 -11 85.5 -16t90.5 -5q106 0 176 40.5t106 127t40 223.5h-10q-24 -56 -57 -94t-76 -57t-97 -19q-104 0 -178 57.5t-113 164.5t-39 254q0 160 51.5 276.5
t148 180t231.5 63.5q106 0 190 -43t143.5 -125.5t91 -200.5t31.5 -268zM498 1188q-43 0 -71 -53t-28 -166q0 -97 24.5 -146t72.5 -49q40 0 63 29.5t33 70t10 72.5q0 25 -3 65t-13.5 80.5t-31.5 68.5t-56 28z" />
    <glyph glyph-name="colon" unicode=":" horiz-adv-x="573" 
d="M100 166q0 92 48.5 142t142.5 50q89 0 135.5 -50t46.5 -142q0 -91 -48 -141t-134 -50q-89 0 -140 50t-51 141zM100 956q0 92 48.5 142.5t142.5 50.5q89 0 135.5 -50.5t46.5 -142.5q0 -90 -48 -140t-134 -50q-89 0 -140 50t-51 140z" />
    <glyph glyph-name="semicolon" unicode=";" horiz-adv-x="573" 
d="M461 299l10 -23q-15 -112 -35.5 -212t-44.5 -187t-53 -162h-277q17 81 32 187.5t26.5 212t17.5 184.5h324zM100 956q0 92 48.5 142.5t142.5 50.5q89 0 135.5 -50.5t46.5 -142.5q0 -90 -48 -140t-134 -50q-89 0 -140 50t-51 140z" />
    <glyph glyph-name="less" unicode="&#x3c;" horiz-adv-x="1024" 
d="M954 229l-895 424v172l895 422v-297l-503 -211l503 -215v-295z" />
    <glyph glyph-name="equal" unicode="=" horiz-adv-x="1024" 
d="M70 815v268h884v-268h-884zM70 358v271h884v-271h-884z" />
    <glyph glyph-name="greater" unicode="&#x3e;" horiz-adv-x="1024" 
d="M70 524l503 215l-503 211v297l895 -422v-172l-895 -424v295z" />
    <glyph glyph-name="question" unicode="?" horiz-adv-x="823" 
d="M219 516v86q0 67 14 117t44.5 93.5t80.5 88.5q41 37 66 65t36 56.5t11 67.5q0 47 -28.5 72.5t-88.5 25.5q-53 0 -115 -27t-133 -80l-106 260q97 71 193.5 106.5t193.5 35.5q200 0 304 -99t104 -266q0 -88 -22.5 -152.5t-65 -117.5t-103.5 -107q-51 -46 -73.5 -73
t-27.5 -49t-5 -52v-51h-279zM170 166q0 92 49.5 142t140.5 50q89 0 137 -50t48 -142q0 -91 -48.5 -141t-136.5 -50q-87 0 -138.5 50t-51.5 141z" />
    <glyph glyph-name="at" unicode="@" horiz-adv-x="1571" 
d="M1501 756q0 -114 -24.5 -209.5t-69 -165.5t-104 -109t-129.5 -39q-80 0 -135.5 36.5t-80.5 103.5h-14q-41 -70 -93 -105t-114 -35q-145 0 -224 107t-79 299q0 140 49.5 247t139.5 167.5t213 60.5q68 0 145 -16t143 -45l-16 -422q-1 -29 -2.5 -59.5t-1.5 -59.5
q0 -41 14.5 -63.5t40.5 -22.5q32 0 57 31.5t39.5 104t14.5 196.5q0 155 -51 274t-153 186.5t-255 67.5q-121 0 -215.5 -47t-159 -135.5t-98 -211t-33.5 -274.5q0 -181 56.5 -309.5t168 -197t277.5 -68.5q97 0 208.5 26t215.5 70v-209q-94 -43 -198.5 -63.5t-221.5 -20.5
q-236 0 -402 91.5t-252.5 263t-86.5 409.5q0 200 54 360.5t152.5 274.5t234.5 175t300 61q206 0 361.5 -90t242 -253t86.5 -382zM680 637q0 -111 24 -161t64 -50q50 0 72.5 67.5t31.5 245.5l9 172q-14 5 -25 7t-22 2q-46 0 -81 -34t-54 -97.5t-19 -151.5z" />
    <glyph glyph-name="A" unicode="A" horiz-adv-x="1176" 
d="M803 0l-55 285h-316l-55 -285h-377l356 1462h459l361 -1462h-373zM694 584l-59 327q-10 55 -18.5 107t-15 99.5t-11.5 88.5q-4 -39 -10.5 -86t-15.5 -98.5t-19 -106.5l-62 -331h211z" />
    <glyph glyph-name="B" unicode="B" horiz-adv-x="1143" 
d="M121 1462h424q247 0 367 -88t120 -276q0 -81 -24 -147.5t-66.5 -111.5t-99.5 -63v-10q76 -23 123 -68.5t69.5 -113t22.5 -156.5q0 -132 -57 -228t-162.5 -148t-251.5 -52h-465v1462zM469 893h76q65 0 100 38t35 113q0 68 -35 102t-106 34h-70v-287zM469 621v-332h90
q71 0 106 41.5t35 126.5q0 52 -16.5 88.5t-49 56t-79.5 19.5h-86z" />
    <glyph glyph-name="C" unicode="C" horiz-adv-x="1038" 
d="M655 1184q-51 0 -91 -31.5t-67 -91t-41 -144.5t-14 -192q0 -148 25.5 -247t76.5 -148t128 -49q71 0 136.5 27t131.5 65v-312q-70 -41 -151.5 -61t-172.5 -20q-174 0 -293.5 86t-181 253t-61.5 408q0 169 37.5 308t108.5 239t171.5 154.5t227.5 54.5q97 0 186.5 -25
t177.5 -78l-92 -286q-58 41 -117 65.5t-125 24.5z" />
    <glyph glyph-name="D" unicode="D" horiz-adv-x="1202" 
d="M1122 762q0 -243 -73.5 -413t-212.5 -259.5t-338 -89.5h-377v1462h401q192 0 326 -81t204 -237t70 -382zM762 748q0 148 -27.5 239t-82 132.5t-136.5 41.5h-47v-858h27q138 0 202 108t64 337z" />
    <glyph glyph-name="E" unicode="E" horiz-adv-x="907" 
d="M825 0h-704v1462h704v-295h-356v-264h330v-295h-330v-309h356v-299z" />
    <glyph glyph-name="F" unicode="F" horiz-adv-x="893" 
d="M469 0h-348v1462h700v-295h-352v-313h326v-295h-326v-559z" />
    <glyph glyph-name="G" unicode="G" horiz-adv-x="1214" 
d="M604 856h510v-788q-113 -45 -230.5 -66.5t-240.5 -21.5q-180 0 -305.5 88t-191.5 257t-66 410q0 235 75 402t216 256.5t340 89.5q113 0 210.5 -26t170.5 -66l-97 -285q-60 38 -128.5 58t-143.5 20q-93 0 -155.5 -53.5t-94 -155.5t-31.5 -250q0 -144 25 -243t74.5 -150
t122.5 -51q27 0 54.5 4.5t53.5 11.5v268h-168v291z" />
    <glyph glyph-name="H" unicode="H" horiz-adv-x="1247" 
d="M1126 0h-348v610h-309v-610h-348v1462h348v-553h309v553h348v-1462z" />
    <glyph glyph-name="I" unicode="I" horiz-adv-x="590" 
d="M121 0v1462h348v-1462h-348z" />
    <glyph glyph-name="J" unicode="J" horiz-adv-x="594" 
d="M45 -459q-44 0 -87 5t-83 16v295q25 -10 53 -15.5t60 -5.5q53 0 83.5 23.5t43 80t12.5 156.5v1366h346v-1349q0 -221 -50.5 -346t-146 -175.5t-231.5 -50.5z" />
    <glyph glyph-name="K" unicode="K" horiz-adv-x="1130" 
d="M1149 0h-385l-213 545l-82 -56v-489h-348v1462h348v-635q9 44 29.5 90t46.5 97l235 448h375l-352 -655z" />
    <glyph glyph-name="L" unicode="L" horiz-adv-x="877" 
d="M121 0v1462h348v-1163h381v-299h-729z" />
    <glyph glyph-name="M" unicode="M" horiz-adv-x="1653" 
d="M690 0l-252 983h-8q5 -66 8.5 -127.5t5.5 -116.5t2 -104v-635h-325v1462h477l227 -878h6l228 878h473v-1462h-334v641q0 55 2 109.5t5 112.5t7 120h-8l-256 -983h-258z" />
    <glyph glyph-name="N" unicode="N" horiz-adv-x="1343" 
d="M1223 0h-406l-381 909h-8q6 -80 9.5 -148.5t5 -124t1.5 -97.5v-539h-323v1462h403l379 -884h8q-4 74 -7 138t-5 118t-2 98v530h326v-1462z" />
    <glyph glyph-name="O" unicode="O" horiz-adv-x="1272" 
d="M1192 733q0 -184 -35.5 -324.5t-106 -236t-174 -144t-239.5 -48.5q-135 0 -239 49t-175 144.5t-107 236.5t-36 325q0 244 63.5 411t188 253t305.5 86q182 0 305.5 -85t186.5 -252.5t63 -414.5zM442 733q0 -149 22 -249t65.5 -149.5t107.5 -49.5q66 0 108.5 48t63 147.5
t20.5 252.5q0 232 -47.5 342.5t-144.5 110.5q-64 0 -107.5 -50.5t-65.5 -151t-22 -251.5z" />
    <glyph glyph-name="P" unicode="P" horiz-adv-x="1065" 
d="M555 1462q226 0 339.5 -121t113.5 -344q0 -109 -28 -202.5t-86 -163t-147 -108t-210 -38.5h-68v-485h-348v1462h434zM522 1167h-53v-387h31q48 0 84 21.5t55.5 69t19.5 124.5q0 86 -34 129t-103 43z" />
    <glyph glyph-name="Q" unicode="Q" horiz-adv-x="1272" 
d="M1192 733q0 -166 -29 -296.5t-86 -224.5t-141 -151l250 -409h-391l-177 330h-7h-7q-127 0 -225 53t-164.5 152.5t-100.5 238t-34 309.5q0 244 63.5 411t188 253t305.5 86q182 0 305.5 -85t186.5 -252.5t63 -414.5zM442 733q0 -149 22 -249t65.5 -149.5t107.5 -49.5
q66 0 108.5 48t63 147.5t20.5 252.5q0 232 -47.5 342.5t-144.5 110.5q-64 0 -107.5 -50.5t-65.5 -151t-22 -251.5z" />
    <glyph glyph-name="R" unicode="R" horiz-adv-x="1116" 
d="M512 1462q170 0 283 -48t169 -143.5t56 -240.5q0 -85 -22 -157t-66 -131t-111 -105l305 -637h-383l-229 549h-45v-549h-348v1462h391zM508 1171h-39v-352h37q78 0 117 48t39 145q0 80 -38.5 119.5t-115.5 39.5z" />
    <glyph glyph-name="S" unicode="S" horiz-adv-x="930" 
d="M879 444q0 -136 -56.5 -240.5t-159.5 -164t-243 -59.5q-63 0 -122.5 8.5t-118.5 28.5t-122 55v352q86 -58 176.5 -90.5t165.5 -32.5q43 0 70.5 14t41 38.5t13.5 56.5t-11 59.5t-49 61t-118 83.5q-64 41 -116 82.5t-88.5 91t-56 114.5t-19.5 153q0 130 51 226t150 149
t243 53q91 0 183 -26t186 -79l-93 -305q-76 48 -141 71t-121 23q-37 0 -60.5 -12.5t-34.5 -33.5t-11 -48q0 -39 13 -67t53.5 -59.5t123.5 -82.5q88 -54 148.5 -114t91.5 -134t31 -172z" />
    <glyph glyph-name="T" unicode="T" horiz-adv-x="942" 
d="M645 0h-346v1161h-264v301h872v-301h-262v-1161z" />
    <glyph glyph-name="U" unicode="U" horiz-adv-x="1204" 
d="M1092 1462v-966q0 -169 -57 -284t-167 -173.5t-270 -58.5q-233 0 -358 126t-125 381v975h348v-958q0 -120 35 -169.5t104 -49.5q49 0 80 21t46 69.5t15 130.5v956h349z" />
    <glyph glyph-name="V" unicode="V" horiz-adv-x="1147" 
d="M1147 1462l-373 -1462h-405l-369 1462h365l147 -721q10 -48 22.5 -118t22.5 -139t14 -113q6 44 16.5 112.5t23 138t22.5 117.5l149 723h365z" />
    <glyph glyph-name="W" unicode="W" horiz-adv-x="1659" 
d="M1659 1462l-277 -1462h-399l-100 547q-9 47 -17 96t-14.5 99.5t-12.5 101.5t-10 102q-3 -41 -8 -91t-12 -103.5t-14.5 -105.5t-16.5 -97l-102 -549h-395l-281 1462h340l104 -637q6 -37 13.5 -87t14.5 -106.5t13.5 -114t12.5 -109.5q6 55 14 113.5t17 114t17 103.5t15 82
l129 641h281l116 -641q9 -40 17.5 -90.5t17 -106.5t15.5 -111.5t12 -104.5q4 56 12.5 126t19.5 145t23 144l107 639h348z" />
    <glyph glyph-name="X" unicode="X" horiz-adv-x="1065" 
d="M1069 0h-375l-164 422l-168 -422h-366l334 731l-314 731h361l143 -405l133 405h369l-303 -719z" />
    <glyph glyph-name="Y" unicode="Y" horiz-adv-x="1077" 
d="M541 930l178 532h358l-364 -901v-561h-348v549l-365 913h362z" />
    <glyph glyph-name="Z" unicode="Z" horiz-adv-x="965" 
d="M922 0h-879v244l489 923h-479v295h856v-243l-487 -920h500v-299z" />
    <glyph glyph-name="bracketleft" unicode="[" horiz-adv-x="621" 
d="M586 -344h-502v1847h502v-254h-195v-1339h195v-254z" />
    <glyph glyph-name="backslash" unicode="\" horiz-adv-x="870" 
d="M295 1483l569 -1503h-289l-571 1503h291z" />
    <glyph glyph-name="bracketright" unicode="]" horiz-adv-x="621" 
d="M37 -90h192v1339h-192v254h500v-1847h-500v254z" />
    <glyph glyph-name="asciicircum" unicode="^" horiz-adv-x="1108" 
d="M12 496l457 966h170l457 -966h-299l-242 518l-244 -518h-299z" />
    <glyph glyph-name="underscore" unicode="_" horiz-adv-x="1024" 
d="M1028 -379h-1032v246h1032v-246z" />
    <glyph glyph-name="grave" unicode="`" horiz-adv-x="696" 
d="M455 1569q17 -40 48 -99.5t62 -115t49 -84.5v-29h-243q-25 23 -65 64.5t-84.5 88t-82 88.5t-57.5 66v21h373z" />
    <glyph glyph-name="a" unicode="a" horiz-adv-x="1012" 
d="M545 1153q169 0 267.5 -101t98.5 -309v-743h-239l-56 150h-6q-36 -57 -76.5 -95t-92 -56.5t-122.5 -18.5q-97 0 -156 53t-85.5 137t-26.5 176q0 182 97.5 272t283.5 97l148 6v29q0 69 -26.5 104t-82.5 35q-49 0 -108.5 -20.5t-135.5 -63.5l-86 246q83 49 185 75.5
t219 26.5zM580 506l-62 -4q-67 -3 -101 -38.5t-34 -103.5q0 -58 20 -87t60 -29q49 0 83 44.5t34 117.5v100z" />
    <glyph glyph-name="b" unicode="b" horiz-adv-x="1073" 
d="M434 1556v-352q0 -32 -2.5 -86t-7.5 -131h10q47 88 108.5 127t137.5 39q151 0 239.5 -156t88.5 -428q0 -181 -39.5 -313t-114.5 -204t-182 -72q-76 0 -127 26t-111 105h-16l-49 -111h-267v1556h332zM559 868q-44 0 -71.5 -27.5t-40.5 -85t-13 -147.5v-65
q0 -152 30 -219.5t97 -67.5q54 0 82.5 78t28.5 239q0 148 -28 221.5t-85 73.5z" />
    <glyph glyph-name="c" unicode="c" horiz-adv-x="887" 
d="M520 -20q-152 0 -253 61.5t-151 190.5t-50 329q0 165 47.5 299t149.5 213.5t263 79.5q94 0 170.5 -21.5t143.5 -64.5l-88 -264q-51 34 -101 50.5t-102 16.5q-45 0 -78 -36t-51.5 -104.5t-18.5 -168.5q0 -99 18 -165.5t52.5 -100t85.5 -33.5q65 0 129 25.5t125 74.5v-282
q-61 -51 -133.5 -75.5t-157.5 -24.5z" />
    <glyph glyph-name="d" unicode="d" horiz-adv-x="1073" 
d="M403 -20q-161 0 -249 159t-88 430q0 272 87.5 428t239.5 156q53 0 97 -17t81.5 -53.5t67.5 -95.5h10q-4 77 -7 131t-3 86v352h332v-1556h-266l-48 111h-18q-36 -48 -69.5 -76.5t-72.5 -41.5t-94 -13zM512 256q68 0 97.5 67.5t29.5 219.5v65q0 135 -29.5 197.5t-95.5 62.5
q-55 0 -84 -73.5t-29 -221.5q0 -161 29.5 -239t81.5 -78z" />
    <glyph glyph-name="e" unicode="e" horiz-adv-x="987" 
d="M504 1151q135 0 231 -60t146.5 -175t50.5 -281v-174h-541q0 -114 47.5 -165.5t145.5 -51.5q78 0 145 20t145 68v-271q-73 -43 -157 -62t-182 -19q-164 0 -267.5 66.5t-152.5 196.5t-49 318q0 190 49.5 321.5t147 200t241.5 68.5zM512 895q-52 0 -86.5 -45t-34.5 -156h234
q0 72 -14 116.5t-39.5 64.5t-59.5 20z" />
    <glyph glyph-name="f" unicode="f" horiz-adv-x="670" 
d="M655 860h-184v-860h-332v860h-125v176l125 92v19q0 151 34.5 243t105 134.5t178.5 42.5q68 0 122 -12.5t130 -41.5l-66 -243q-28 9 -54 14.5t-52 5.5q-34 0 -50 -27.5t-16 -88.5v-41h184v-273z" />
    <glyph glyph-name="g" unicode="g" horiz-adv-x="1020" 
d="M430 -492q-202 0 -311 83t-109 236q0 89 59 158.5t156 97.5q-51 19 -84.5 62.5t-33.5 101.5q0 68 30 107.5t80 84.5q-63 44 -102 132t-39 190q0 125 47 211t139 131t226 45q40 0 70 -4t52 -10t37 -11h354v-194l-125 -35q14 -34 19.5 -65t5.5 -75q0 -186 -106.5 -286.5
t-302.5 -100.5q-58 0 -85 10q-10 -10 -21.5 -25t-11.5 -39q0 -21 12 -34t38 -19t66 -6h202q140 0 215 -77.5t75 -235.5q0 -210 -139.5 -321.5t-412.5 -111.5zM453 -250q77 0 125.5 16t71.5 46t23 72q0 32 -9 48t-37 22t-84 6h-154q-23 0 -39.5 -13t-25 -37t-8.5 -58
q0 -50 36.5 -76t100.5 -26zM490 592q40 0 60 41.5t20 123.5q0 88 -19.5 128.5t-60.5 40.5q-42 0 -62 -40.5t-20 -126.5q0 -84 19 -125.5t63 -41.5z" />
    <glyph glyph-name="h" unicode="h" horiz-adv-x="1083" 
d="M434 1556v-284q0 -70 -6 -140.5t-20 -138.5h18q23 54 57 89.5t81.5 53t107.5 17.5q98 0 167.5 -49t106.5 -142t37 -225v-737h-332v631q0 113 -21.5 170t-66.5 57q-54 0 -81.5 -36t-37.5 -111.5t-10 -192.5v-518h-332v1556h332z" />
    <glyph glyph-name="i" unicode="i" horiz-adv-x="543" 
d="M436 1133v-1133h-332v1133h332zM270 1589q92 0 134 -44t42 -130t-44 -129t-132 -43q-87 0 -131.5 43t-44.5 129q0 88 42 131t134 43z" />
    <glyph glyph-name="j" unicode="j" horiz-adv-x="543" 
d="M94 -492q-41 0 -86 6t-86 19v281q25 -10 48 -14.5t44 -4.5q47 0 68.5 35t21.5 104v1199h332v-1225q0 -137 -41 -225t-117.5 -130.5t-183.5 -44.5zM94 1415q0 88 42 131t134 43t134 -44t42 -130t-44 -129t-132 -43q-87 0 -131.5 43t-44.5 129z" />
    <glyph glyph-name="k" unicode="k" horiz-adv-x="1067" 
d="M434 1556v-618q0 -78 -3 -154.5t-11 -150.5h6q22 47 44.5 90.5t41.5 75.5l197 334h356l-305 -482l317 -651h-364l-183 412l-96 -82v-330h-332v1556h332z" />
    <glyph glyph-name="l" unicode="l" horiz-adv-x="539" 
d="M434 0h-332v1556h332v-1556z" />
    <glyph glyph-name="m" unicode="m" horiz-adv-x="1616" 
d="M1212 1153q152 0 228 -102.5t76 -313.5v-737h-332v629q0 113 -22 171t-68 58q-70 0 -94.5 -76.5t-24.5 -240.5v-541h-332v629q0 76 -9.5 126.5t-28.5 76.5t-50 26q-46 0 -72.5 -36t-37.5 -113t-11 -201v-508h-332v1133h260l37 -140h19q22 53 61 88.5t93.5 53.5t119.5 18
q100 0 159 -42t85 -107h22q39 71 101.5 110t152.5 39z" />
    <glyph glyph-name="n" unicode="n" horiz-adv-x="1083" 
d="M672 1153q147 0 229 -109t82 -307v-737h-332v631q0 112 -18 169.5t-80 57.5q-70 0 -94.5 -74t-24.5 -266v-518h-332v1133h260l37 -140h19q26 54 62 89.5t84 53t108 17.5z" />
    <glyph glyph-name="o" unicode="o" horiz-adv-x="1057" 
d="M989 569q0 -109 -23.5 -213.5t-77.5 -189.5t-142.5 -135.5t-219.5 -50.5q-120 0 -207 49.5t-143 133t-83 189t-27 217.5q0 163 47 295.5t149.5 210.5t267.5 78q138 0 241 -68.5t160.5 -198.5t57.5 -317zM401 565q0 -101 13.5 -170t41.5 -104t72 -35q47 0 74 34.5
t39 104.5t12 174t-12 172t-39 102t-74 34q-66 0 -96.5 -76t-30.5 -236z" />
    <glyph glyph-name="p" unicode="p" horiz-adv-x="1073" 
d="M672 1153q158 0 247 -157.5t89 -432.5q0 -181 -40 -311.5t-113.5 -201t-174.5 -70.5q-51 0 -95.5 17t-82 53.5t-68.5 94.5h-10q5 -76 7.5 -130.5t2.5 -86.5v-420h-332v1625h267l49 -146h16q38 70 73.5 105.5t75 48t89.5 12.5zM561 877q-45 0 -73 -29t-41 -92t-13 -166
v-66q0 -90 13 -147.5t40.5 -85t71.5 -27.5q38 0 63 32.5t37.5 98.5t12.5 164q0 161 -28.5 239.5t-82.5 78.5z" />
    <glyph glyph-name="q" unicode="q" horiz-adv-x="1073" 
d="M639 -492v420q0 32 3 86.5t7 130.5h-10q-46 -87 -106.5 -126t-139.5 -39q-152 0 -239.5 156t-87.5 421q0 186 40 319.5t115.5 205t181.5 71.5q80 0 134 -35t102 -127h18l27 142h287v-1625h-332zM514 264q44 0 71.5 27.5t40.5 85t13 147.5v60q0 152 -29.5 218t-97.5 66
q-52 0 -81.5 -77t-29.5 -238q0 -145 29 -217t84 -72z" />
    <glyph glyph-name="r" unicode="r" horiz-adv-x="768" 
d="M659 1153q20 0 41 -2t52 -10l-27 -357q-20 7 -45 10t-57 3q-49 0 -84.5 -15t-58 -43.5t-33.5 -71t-11 -98.5v-569h-332v1133h254l48 -181h16q20 46 54 92.5t80.5 77.5t102.5 31z" />
    <glyph glyph-name="s" unicode="s" horiz-adv-x="811" 
d="M762 348q0 -122 -46 -204t-132.5 -123t-208.5 -41q-83 0 -163 14t-159 49v313q62 -37 136.5 -64.5t150.5 -27.5q46 0 69 15.5t23 50.5q0 19 -9.5 36.5t-45.5 42.5t-115 64q-69 35 -116 85.5t-71 115.5t-24 145q0 158 96 246t273 88q88 0 166 -24.5t159 -71.5l-81 -252
q-51 34 -108 59t-116 25q-35 0 -52 -13t-17 -40q0 -18 9.5 -33t43.5 -37.5t106 -65.5q69 -38 121 -87t81.5 -113.5t29.5 -151.5z" />
    <glyph glyph-name="t" unicode="t" horiz-adv-x="725" 
d="M543 266q31 0 67.5 10.5t77.5 28.5v-262q-55 -31 -115.5 -47t-130.5 -16q-111 0 -180 42.5t-101 130t-32 220.5v487h-115v176l144 86l78 238h225v-227h213v-273h-213v-483q0 -55 20 -83t62 -28z" />
    <glyph glyph-name="u" unicode="u" horiz-adv-x="1083" 
d="M981 1133v-1133h-258l-39 139h-16q-27 -53 -63 -88.5t-83 -53t-108 -17.5q-99 0 -169.5 49t-107.5 141.5t-37 224.5v738h332v-629q0 -114 19.5 -172t68.5 -58q60 0 87 37t34.5 104t7.5 158v560h332z" />
    <glyph glyph-name="v" unicode="v" horiz-adv-x="1006" 
d="M326 0l-322 1133h344l115 -551q12 -58 21 -114.5t12 -119.5h8q2 53 10.5 111t22.5 121l120 553h344l-319 -1133h-356z" />
    <glyph glyph-name="w" unicode="w" horiz-adv-x="1507" 
d="M879 0l-82 500q-6 38 -12 79.5t-11 83.5t-9.5 83t-8.5 77h-8q-6 -41 -11 -84.5t-10 -86.5t-10 -81t-10 -69l-86 -502h-375l-236 1133h332l57 -355q11 -56 19 -122.5t13.5 -135.5t8.5 -135h9q3 40 7 82.5t9.5 88.5t13.5 95.5t19 104.5l65 377h383l64 -383
q11 -74 20.5 -141.5t16.5 -124.5t10 -99h8q4 64 10 131t15 134t20 128l61 355h326l-237 -1133h-381z" />
    <glyph glyph-name="x" unicode="x" horiz-adv-x="973" 
d="M272 578l-256 555h361l110 -297l105 297h360l-252 -555l263 -578h-361l-123 319l-117 -319h-352z" />
    <glyph glyph-name="y" unicode="y" horiz-adv-x="1006" 
d="M4 1133h348l119 -492q8 -35 15 -70t12 -65.5t6 -54.5h8q3 34 11 78.5t24 107.5l110 496h344l-342 -1205q-44 -154 -100.5 -246.5t-132 -133t-178.5 -40.5q-40 0 -76 5t-68 12v291q20 -7 41.5 -10t40.5 -3q41 0 65.5 13.5t44 55t44.5 124.5l6 20z" />
    <glyph glyph-name="z" unicode="z" horiz-adv-x="813" 
d="M778 0h-745v201l358 655h-338v277h709v-220l-342 -637h358v-276z" />
    <glyph glyph-name="braceleft" unicode="{" horiz-adv-x="752" 
d="M711 -344q-178 0 -283 27t-150 101.5t-45 215.5v266q0 54 -22.5 92t-68 58t-115.5 20v264q72 0 117.5 20.5t67 58.5t21.5 91v273q0 126 38.5 200.5t142 107t297.5 32.5v-264q-51 -2 -88 -9t-56.5 -28.5t-19.5 -69.5v-285q0 -113 -43.5 -174t-141.5 -78v-12
q99 -19 142 -78.5t43 -167.5v-288q0 -39 14 -62t50 -34t100 -13v-264z" />
    <glyph glyph-name="bar" unicode="|" horiz-adv-x="858" 
d="M285 1579h288v-2048h-288v2048z" />
    <glyph glyph-name="braceright" unicode="}" horiz-adv-x="752" 
d="M41 -344v264q63 3 98.5 12.5t50.5 32t15 64.5v288q0 108 42 167.5t140 78.5v12q-97 17 -139.5 78t-42.5 174v285q0 49 -22.5 70.5t-60 28t-81.5 8.5v264q180 0 284 -28.5t147.5 -102t43.5 -209.5v-273q0 -53 22.5 -91t69 -58.5t117.5 -20.5v-264q-69 0 -115.5 -20
t-70 -58t-23.5 -92v-266q0 -128 -37.5 -203.5t-140 -108t-297.5 -32.5z" />
    <glyph glyph-name="asciitilde" unicode="~" horiz-adv-x="1024" 
d="M477 592q-58 28 -110.5 41.5t-100.5 13.5q-49 0 -101 -30.5t-108 -90.5v281q48 54 107 81t131 27q66 0 128.5 -17.5t123.5 -45.5q59 -28 111.5 -41.5t101.5 -13.5q44 0 100 32t107 89v-281q-48 -55 -107.5 -82t-130.5 -27q-63 0 -124.5 17.5t-127.5 46.5z" />
    <glyph glyph-name="uni00A0" unicode="&#xa0;" horiz-adv-x="360" 
 />
    <glyph glyph-name="exclamdown" unicode="&#xa1;" horiz-adv-x="555" 
d="M135 612h287l47 -981h-383zM469 963q0 -92 -49 -142.5t-141 -50.5q-89 0 -137 50.5t-48 142.5q0 89 48.5 139.5t136.5 50.5q87 0 138.5 -50t51.5 -140z" />
    <glyph glyph-name="cent" unicode="&#xa2;" horiz-adv-x="1014" 
d="M639 1483v-156q59 -6 124.5 -27t119.5 -55l-86 -264q-48 34 -101 51t-96 17q-49 0 -83.5 -29t-52.5 -97t-18 -184q0 -110 15 -176t48 -94.5t85 -28.5q62 0 132 26.5t128 74.5v-283q-43 -34 -101 -58.5t-114 -33.5v-186h-176v186q-123 12 -201 85.5t-114.5 198
t-36.5 289.5q0 161 38.5 287t116.5 203.5t197 91.5v162h176z" />
    <glyph glyph-name="sterling" unicode="&#xa3;" horiz-adv-x="1014" 
d="M606 1483q82 0 159 -20.5t153 -61.5l-84 -275q-57 28 -106 42t-89 14q-43 0 -63.5 -33.5t-20.5 -104.5v-165h262v-250h-262v-103q0 -50 -15 -92t-45 -75.5t-75 -59.5h524v-299h-854v287q46 31 74 60t40.5 70.5t12.5 106.5v105h-127v250h127v163q0 144 46.5 242
t133.5 148.5t209 50.5z" />
    <glyph glyph-name="currency" unicode="&#xa4;" horiz-adv-x="1112" 
d="M154 723q0 51 13.5 100.5t41.5 98.5l-131 129l149 149l127 -129q47 28 97 40.5t104 12.5t103.5 -13.5t95.5 -41.5l129 131l151 -145l-131 -131q26 -46 39.5 -95.5t13.5 -105.5q0 -57 -13.5 -107.5t-39.5 -95.5l127 -125l-147 -147l-129 127q-46 -25 -97 -38t-102 -13
q-58 0 -108.5 13t-94.5 38l-125 -125l-147 147l129 127q-28 45 -41.5 94.5t-13.5 104.5zM365 723q0 -52 26 -95.5t69 -69.5t95 -26q54 0 98 26t70.5 69.5t26.5 95.5t-26.5 95.5t-70.5 70t-98 26.5q-52 0 -95 -26t-69 -69.5t-26 -96.5z" />
    <glyph glyph-name="yen" unicode="&#xa5;" horiz-adv-x="1014" 
d="M508 961l145 501h361l-287 -710h201v-211h-252v-119h252v-211h-252v-211h-336v211h-254v211h254v119h-254v211h197l-283 710h358z" />
    <glyph glyph-name="brokenbar" unicode="&#xa6;" horiz-adv-x="858" 
d="M285 1552h288v-811h-288v811zM285 340h288v-811h-288v811z" />
    <glyph glyph-name="section" unicode="&#xa7;" horiz-adv-x="893" 
d="M78 782q0 73 38.5 134.5t108.5 107.5q-63 50 -95 110.5t-32 133.5q0 135 101 213t262 78q86 0 168 -21.5t162 -64.5l-82 -228q-63 41 -124.5 64.5t-109.5 23.5q-47 0 -70.5 -17t-23.5 -54q0 -27 17.5 -47.5t51 -39.5t80.5 -42q100 -47 161.5 -95.5t90.5 -106t29 -134.5
q0 -88 -31.5 -149.5t-99.5 -117.5q56 -46 83.5 -106.5t27.5 -134.5q0 -149 -104 -237.5t-286 -88.5q-90 0 -168.5 22.5t-144.5 65.5v250q43 -28 99.5 -53.5t111 -41.5t92.5 -16q59 0 89 21.5t30 64.5q0 28 -10 47t-40.5 39.5t-94.5 53.5q-105 54 -168 105t-91 112.5
t-28 148.5zM338 821q0 -29 11.5 -54.5t39 -50t74.5 -52.5l53 -31q19 22 28 47.5t9 56.5q0 39 -16.5 71.5t-52.5 61t-95 56.5q-26 -17 -38.5 -43.5t-12.5 -61.5z" />
    <glyph glyph-name="dieresis" unicode="&#xa8;" horiz-adv-x="942" 
d="M125 1413q0 75 39.5 116.5t105.5 41.5q69 0 109.5 -43t40.5 -115q0 -70 -40.5 -113t-109.5 -43q-66 0 -105.5 41.5t-39.5 114.5zM520 1413q0 75 40.5 116.5t107.5 41.5q71 0 110 -43t39 -115q0 -70 -39 -113t-110 -43q-70 0 -109 42t-39 114z" />
    <glyph glyph-name="copyright" unicode="&#xa9;" horiz-adv-x="1688" 
d="M846 -20q-174 0 -313.5 59t-238 162.5t-150.5 240.5t-52 293q0 165 56 302t157.5 237t238.5 154.5t298 54.5q164 0 301.5 -56t238.5 -157.5t157 -240t56 -304.5q0 -163 -54 -299t-153.5 -236t-237 -155t-304.5 -55zM850 262q-211 0 -327.5 123.5t-116.5 347.5
q0 147 50.5 251t147.5 159t236 55q83 0 163 -20t158 -58l-92 -184q-54 28 -106 41.5t-99 13.5q-97 0 -149.5 -64.5t-52.5 -205.5q0 -130 50 -191t160 -61q60 0 125 17t125 51v-211q-63 -32 -130.5 -48t-141.5 -16zM848 131q130 0 235.5 46t181.5 127.5t117 191.5t41 237
q0 134 -44 244t-123.5 189t-185.5 122t-230 43q-130 0 -236 -46t-182 -128t-117 -192t-41 -238q0 -135 44.5 -244.5t124 -188.5t185.5 -121t230 -42z" />
    <glyph glyph-name="ordfeminine" unicode="&#xaa;" horiz-adv-x="715" 
d="M381 1479q120 0 189 -75.5t69 -213.5v-449h-162l-39 117q-26 -58 -75 -93.5t-127 -35.5q-65 0 -108.5 34.5t-65 89t-21.5 114.5q0 91 40 140.5t108 70t153 24.5l68 4v6q0 42 -18 62t-62 20q-51 0 -95 -18t-92 -43l-65 166q71 38 143 59t160 21zM410 1069l-56 -6
q-41 -4 -62.5 -25t-21.5 -59q0 -32 16.5 -50t45.5 -18q35 0 56.5 39t21.5 97v22z" />
    <glyph glyph-name="guillemotleft" unicode="&#xab;" horiz-adv-x="1147" 
d="M45 588l317 475l240 -127l-207 -363l207 -360l-240 -127l-317 473v29zM535 588l317 475l240 -127l-205 -363l205 -360l-240 -127l-317 473v29z" />
    <glyph glyph-name="logicalnot" unicode="&#xac;" horiz-adv-x="1024" 
d="M944 856v-618h-274v350h-600v268h874z" />
    <glyph glyph-name="uni00AD" unicode="&#xad;" horiz-adv-x="666" 
d="M59 393v312h547v-312h-547z" />
    <glyph glyph-name="registered" unicode="&#xae;" horiz-adv-x="1688" 
d="M510 313v875h303q185 0 276 -67.5t91 -202.5q0 -86 -33 -145.5t-109 -96.5l174 -363h-270l-127 320h-53v-320h-252zM762 809h35q58 0 91.5 21.5t33.5 76.5q0 48 -27 67t-96 19h-37v-184zM846 -20q-174 0 -313.5 59t-238 162.5t-150.5 240.5t-52 293q0 165 56 302
t157.5 237t238.5 154.5t298 54.5q164 0 301.5 -56t238.5 -157.5t157 -240t56 -304.5q0 -163 -54 -299t-153.5 -236t-237 -155t-304.5 -55zM848 131q130 0 235.5 46t181.5 127.5t117 191.5t41 237q0 134 -44 244t-123.5 189t-185.5 122t-230 43q-130 0 -236 -46t-182 -128
t-117 -192t-41 -238q0 -135 44.5 -244.5t124 -188.5t185.5 -121t230 -42z" />
    <glyph glyph-name="overscore" unicode="&#xaf;" horiz-adv-x="1014" 
d="M1018 1556h-1022v246h1022v-246z" />
    <glyph glyph-name="degree" unicode="&#xb0;" horiz-adv-x="735" 
d="M367 852q-92 0 -166 40t-117 111t-43 164q0 94 43 165t117 111t166 40q93 0 167 -40t117 -111t43 -165q0 -93 -43 -164t-117 -111t-167 -40zM367 1044q58 0 90 32.5t32 90.5q0 57 -32 90t-90 33t-89.5 -33t-31.5 -90q0 -58 31.5 -90.5t89.5 -32.5z" />
    <glyph glyph-name="plusminus" unicode="&#xb1;" horiz-adv-x="1024" 
d="M70 0v268h884v-268h-884zM649 979h305v-268h-305v-361h-274v361h-305v268h305v367h274v-367z" />
    <glyph glyph-name="uni00B2" unicode="&#xb2;" horiz-adv-x="713" 
d="M639 852h-576v207l187 213q46 57 72.5 94t37.5 64.5t11 54.5q0 28 -17.5 45.5t-52.5 17.5q-37 0 -71.5 -21.5t-69.5 -66.5l-109 156q35 53 113.5 94t173.5 41q132 0 203 -68.5t71 -169.5q0 -74 -25 -135t-86.5 -133.5t-172.5 -183.5v-4h311v-205z" />
    <glyph glyph-name="uni00B3" unicode="&#xb3;" horiz-adv-x="713" 
d="M336 1747q122 0 200 -57t78 -158q0 -79 -33.5 -133t-99.5 -86v-8q74 -25 115 -77t41 -138q0 -120 -91 -187t-231 -67q-75 0 -136.5 17t-110.5 52v223q47 -40 108.5 -60.5t134.5 -20.5q48 0 71.5 16.5t23.5 50.5q0 47 -27.5 67.5t-87.5 20.5h-90v182h69q62 0 91.5 21.5
t29.5 62.5q0 36 -17 57t-61 21q-43 0 -79 -16.5t-80 -56.5l-99 153q63 60 133.5 90.5t147.5 30.5z" />
    <glyph glyph-name="acute" unicode="&#xb4;" horiz-adv-x="696" 
d="M614 1569v-21q-21 -26 -54.5 -63.5t-73 -80t-81 -85t-79.5 -78.5h-244v29q33 54 61 105.5t53 100t46 93.5h372z" />
    <glyph glyph-name="uni00B5" unicode="&#xb5;" horiz-adv-x="1083" 
d="M981 1133v-1133h-258l-39 141h-12q-15 -51 -37.5 -87t-49.5 -55t-57 -19q-38 0 -59.5 20t-40.5 63h-4q2 -29 4 -67t3 -80.5t1 -87.5v-320h-332v1625h332v-629q0 -114 19.5 -172t68.5 -58q60 0 87 47t34.5 124.5t7.5 168.5v519h332z" />
    <glyph glyph-name="paragraph" unicode="&#xb6;" horiz-adv-x="1044" 
d="M944 -260h-172v1657h-119v-1657h-172v819q-19 -9 -43.5 -13.5t-52.5 -4.5q-109 0 -180 55.5t-105 167t-34 278.5q0 170 36 284.5t112 172t196 57.5h534v-1816z" />
    <glyph glyph-name="periodcentered" unicode="&#xb7;" horiz-adv-x="559" 
d="M92 721q0 92 49.5 142t141.5 50q89 0 136.5 -50t47.5 -142q0 -91 -48.5 -141t-135.5 -50q-88 0 -139.5 50t-51.5 141z" />
    <glyph glyph-name="cedilla" unicode="&#xb8;" horiz-adv-x="293" 
d="M367 -258q0 -107 -67.5 -170.5t-195.5 -63.5q-50 0 -95 5t-83 14v184q34 -7 62 -11.5t51 -4.5q37 0 56.5 14t19.5 43q0 35 -36.5 55t-98.5 23l69 170h156l-29 -70q60 -8 102.5 -33t65.5 -64.5t23 -90.5z" />
    <glyph glyph-name="uni00B9" unicode="&#xb9;" horiz-adv-x="713" 
d="M553 1729v-877h-242v356q0 37 0.5 74t2 75t5.5 79q-13 -16 -25 -26.5t-22 -18.5l-92 -76l-114 155l294 259h193z" />
    <glyph glyph-name="ordmasculine" unicode="&#xba;" horiz-adv-x="700" 
d="M655 1104q0 -174 -81 -274.5t-226 -100.5q-141 0 -223 104t-82 271q0 176 83 275.5t224 99.5q91 0 159.5 -45t107 -128.5t38.5 -201.5zM274 1104q0 -92 19 -137t57 -45t57 45t19 137t-19 138t-57 46t-57 -46t-19 -138z" />
    <glyph glyph-name="guillemotright" unicode="&#xbb;" horiz-adv-x="1147" 
d="M1102 559l-318 -473l-239 127l207 360l-207 363l239 127l318 -475v-29zM612 559l-317 -473l-240 127l205 360l-205 363l240 127l317 -475v-29z" />
    <glyph glyph-name="onequarter" unicode="&#xbc;" horiz-adv-x="1741" 
d="M408 0l706 1462h260l-706 -1462h-260zM311 586v356q0 37 0.5 73.5t2 74.5t5.5 79q-13 -15 -25 -26t-22 -19l-92 -75l-114 155l294 258h193v-876h-242zM1374 0v139h-325v178l297 560h264v-547h108v-191h-108v-139h-236zM1237 330h137v170q0 35 1.5 69t4.5 66
q-16 -51 -30 -83.5t-23 -49.5z" />
    <glyph glyph-name="onehalf" unicode="&#xbd;" horiz-adv-x="1741" 
d="M373 0l706 1462h260l-706 -1462h-260zM311 586v356v55.5t1 55t2.5 56.5t4.5 60q-13 -15 -25 -26t-22 -19l-92 -75l-114 155l294 258h193v-876h-242zM1092 0v207l186 205q50 54 77 90.5t37.5 65t10.5 57.5q0 32 -19.5 51.5t-54.5 19.5q-37 0 -71.5 -21.5t-69.5 -66.5
l-109 156q35 53 113.5 94t173.5 41q132 0 203 -68.5t71 -168.5q0 -75 -20.5 -130t-53 -98t-69.5 -82l-141 -147h311v-205h-575z" />
    <glyph glyph-name="threequarters" unicode="&#xbe;" horiz-adv-x="1741" 
d="M397 0l707 1462h260l-707 -1462h-260zM315 569q-75 0 -136.5 17.5t-110.5 52.5v223q47 -40 108.5 -61t134.5 -21q48 0 71.5 17t23.5 51q0 46 -27.5 67t-87.5 21h-90v182h69q62 0 91.5 21.5t29.5 62.5q0 35 -17 56.5t-61 21.5q-43 0 -79 -16.5t-80 -57.5l-99 154
q63 60 133.5 90.5t147.5 30.5q122 0 200 -57t78 -158q0 -79 -33.5 -133t-99.5 -86v-9q74 -24 115 -76.5t41 -138.5q0 -119 -91 -186.5t-231 -67.5zM1374 0v139h-325v178l297 560h264v-547h108v-191h-108v-139h-236zM1237 330h137v170q0 35 1.5 69t4.5 66q-16 -51 -30 -83.5
t-23 -49.5z" />
    <glyph glyph-name="questiondown" unicode="&#xbf;" horiz-adv-x="823" 
d="M604 612v-86q0 -66 -14 -116.5t-44.5 -94t-80.5 -88.5q-41 -37 -66 -65t-36 -56.5t-11 -67.5q0 -47 28.5 -72.5t88.5 -25.5q53 0 115 27.5t133 79.5l106 -260q-97 -71 -193.5 -106.5t-193.5 -35.5q-199 0 -303.5 99t-104.5 266q0 88 22.5 152.5t65.5 118t103 106.5
q51 46 73 73t27.5 49t5.5 52v51h279zM653 962q0 -92 -49 -142t-141 -50q-89 0 -137 50t-48 142q0 91 48.5 141t136.5 50q87 0 138.5 -50t51.5 -141z" />
    <glyph glyph-name="Agrave" unicode="&#xc0;" horiz-adv-x="1176" 
d="M803 0l-55 285h-316l-55 -285h-377l356 1462h459l361 -1462h-373zM694 584l-59 327q-10 55 -18.5 107t-15 99.5t-11.5 88.5q-4 -39 -10.5 -86t-15.5 -98.5t-19 -106.5l-62 -331h211zM625 1899q17 -40 48 -99.5t62 -115t49 -84.5v-29h-243q-25 23 -65 64.5t-84.5 88
t-82 88.5t-57.5 66v21h373z" />
    <glyph glyph-name="Aacute" unicode="&#xc1;" horiz-adv-x="1176" 
d="M803 0l-55 285h-316l-55 -285h-377l356 1462h459l361 -1462h-373zM694 584l-59 327q-10 55 -18.5 107t-15 99.5t-11.5 88.5q-4 -39 -10.5 -86t-15.5 -98.5t-19 -106.5l-62 -331h211zM950 1899v-21q-21 -26 -54.5 -63.5t-73 -80t-81 -85t-79.5 -78.5h-244v29
q33 54 61 105.5t53 100t46 93.5h372z" />
    <glyph glyph-name="Acircumflex" unicode="&#xc2;" horiz-adv-x="1176" 
d="M803 0l-55 285h-316l-55 -285h-377l356 1462h459l361 -1462h-373zM694 584l-59 327q-10 55 -18.5 107t-15 99.5t-11.5 88.5q-4 -39 -10.5 -86t-15.5 -98.5t-19 -106.5l-62 -331h211zM742 1899q24 -45 53 -93.5t64.5 -100t76.5 -105.5v-29h-203q-31 25 -66.5 62t-76.5 88
q-43 -52 -78 -90t-61 -60h-207v29q28 35 67.5 91.5t76 114t53.5 93.5h301z" />
    <glyph glyph-name="Atilde" unicode="&#xc3;" horiz-adv-x="1176" 
d="M803 0l-55 285h-316l-55 -285h-377l356 1462h459l361 -1462h-373zM694 584l-59 327q-10 55 -18.5 107t-15 99.5t-11.5 88.5q-4 -39 -10.5 -86t-15.5 -98.5t-19 -106.5l-62 -331h211zM234 1567q0 48 5.5 106.5t24 112t55 88.5t97.5 35q43 0 82 -14.5t75 -33.5t71 -33.5
t69 -14.5q26 0 39 25.5t21 72.5h172q0 -167 -54 -254.5t-133 -87.5q-40 0 -81 14.5t-80 33.5t-72.5 33.5t-59.5 14.5q-16 0 -35 -21t-24 -77h-172z" />
    <glyph glyph-name="Adieresis" unicode="&#xc4;" horiz-adv-x="1176" 
d="M803 0l-55 285h-316l-55 -285h-377l356 1462h459l361 -1462h-373zM694 584l-59 327q-10 55 -18.5 107t-15 99.5t-11.5 88.5q-4 -39 -10.5 -86t-15.5 -98.5t-19 -106.5l-62 -331h211zM244 1743q0 75 39.5 116.5t105.5 41.5q69 0 109.5 -43t40.5 -115q0 -70 -40.5 -113
t-109.5 -43q-66 0 -105.5 41.5t-39.5 114.5zM639 1743q0 75 40.5 116.5t107.5 41.5q71 0 110 -43t39 -115q0 -70 -39 -113t-110 -43q-70 0 -109 42t-39 114z" />
    <glyph glyph-name="Aring" unicode="&#xc5;" horiz-adv-x="1176" 
d="M803 0l-55 285h-316l-55 -285h-377l356 1462h459l361 -1462h-373zM694 584l-59 327q-10 55 -18.5 107t-15 99.5t-11.5 88.5q-4 -39 -10.5 -86t-15.5 -98.5t-19 -106.5l-62 -331h211zM590 1296q-115 0 -184.5 71.5t-69.5 180.5q0 110 69.5 182t184.5 72q112 0 183 -73
t71 -179t-70.5 -180t-183.5 -74zM590 1466q35 0 59.5 23.5t24.5 60.5t-24.5 60.5t-59.5 23.5t-59.5 -23.5t-24.5 -60.5t21.5 -60.5t62.5 -23.5z" />
    <glyph glyph-name="AE" unicode="&#xc6;" horiz-adv-x="1518" 
d="M1436 0h-701v285h-284l-80 -285h-381l452 1462h994v-295h-359v-264h330v-295h-330v-309h359v-299zM530 584h205v583h-51z" />
    <glyph glyph-name="Ccedilla" unicode="&#xc7;" horiz-adv-x="1038" 
d="M655 1184q-51 0 -91 -31.5t-67 -91t-41 -144.5t-14 -192q0 -148 25.5 -247t76.5 -148t128 -49q71 0 136.5 27t131.5 65v-312q-70 -41 -151.5 -61t-172.5 -20q-174 0 -293.5 86t-181 253t-61.5 408q0 169 37.5 308t108.5 239t171.5 154.5t227.5 54.5q97 0 186.5 -25
t177.5 -78l-92 -286q-58 41 -117 65.5t-125 24.5zM799 -258q0 -107 -67.5 -170.5t-195.5 -63.5q-50 0 -95 5t-83 14v184q34 -7 62 -11.5t51 -4.5q37 0 56.5 14t19.5 43q0 35 -36.5 55t-98.5 23l69 170h156l-29 -70q60 -8 102.5 -33t65.5 -64.5t23 -90.5z" />
    <glyph glyph-name="Egrave" unicode="&#xc8;" horiz-adv-x="907" 
d="M825 0h-704v1462h704v-295h-356v-264h330v-295h-330v-309h356v-299zM504 1899q17 -40 48 -99.5t62 -115t49 -84.5v-29h-243q-25 23 -65 64.5t-84.5 88t-82 88.5t-57.5 66v21h373z" />
    <glyph glyph-name="Eacute" unicode="&#xc9;" horiz-adv-x="907" 
d="M825 0h-704v1462h704v-295h-356v-264h330v-295h-330v-309h356v-299zM829 1899v-21q-21 -26 -54.5 -63.5t-73 -80t-81 -85t-79.5 -78.5h-244v29q33 54 61 105.5t53 100t46 93.5h372z" />
    <glyph glyph-name="Ecircumflex" unicode="&#xca;" horiz-adv-x="907" 
d="M825 0h-704v1462h704v-295h-356v-264h330v-295h-330v-309h356v-299zM621 1899q24 -45 53 -93.5t64.5 -100t76.5 -105.5v-29h-203q-31 25 -66.5 62t-76.5 88q-43 -52 -78 -90t-61 -60h-207v29q28 35 67.5 91.5t76 114t53.5 93.5h301z" />
    <glyph glyph-name="Edieresis" unicode="&#xcb;" horiz-adv-x="907" 
d="M825 0h-704v1462h704v-295h-356v-264h330v-295h-330v-309h356v-299zM123 1743q0 75 39.5 116.5t105.5 41.5q69 0 109.5 -43t40.5 -115q0 -70 -40.5 -113t-109.5 -43q-66 0 -105.5 41.5t-39.5 114.5zM518 1743q0 75 40.5 116.5t107.5 41.5q71 0 110 -43t39 -115
q0 -70 -39 -113t-110 -43q-70 0 -109 42t-39 114z" />
    <glyph glyph-name="Igrave" unicode="&#xcc;" horiz-adv-x="590" 
d="M121 0v1462h348v-1462h-348zM320 1899q17 -40 48 -99.5t62 -115t49 -84.5v-29h-243q-25 23 -65 64.5t-84.5 88t-82 88.5t-57.5 66v21h373z" />
    <glyph glyph-name="Iacute" unicode="&#xcd;" horiz-adv-x="590" 
d="M121 0v1462h348v-1462h-348zM622 1899v-21q-21 -26 -54.5 -63.5t-73 -80t-81 -85t-79.5 -78.5h-244v29q33 54 61 105.5t53 100t46 93.5h372z" />
    <glyph glyph-name="Icircumflex" unicode="&#xce;" horiz-adv-x="590" 
d="M121 0v1462h348v-1462h-348zM447 1899q24 -45 53 -93.5t64.5 -100t76.5 -105.5v-29h-203q-31 25 -66.5 62t-76.5 88q-43 -52 -78 -90t-61 -60h-207v29q28 35 67.5 91.5t76 114t53.5 93.5h301z" />
    <glyph glyph-name="Idieresis" unicode="&#xcf;" horiz-adv-x="590" 
d="M121 0v1462h348v-1462h-348zM-51 1743q0 75 39.5 116.5t105.5 41.5q69 0 109.5 -43t40.5 -115q0 -70 -40.5 -113t-109.5 -43q-66 0 -105.5 41.5t-39.5 114.5zM344 1743q0 75 40.5 116.5t107.5 41.5q71 0 110 -43t39 -115q0 -70 -39 -113t-110 -43q-70 0 -109 42t-39 114z
" />
    <glyph glyph-name="Eth" unicode="&#xd0;" horiz-adv-x="1202" 
d="M522 1462q192 0 326 -81t204 -237t70 -382q0 -243 -73.5 -413t-212.5 -259.5t-338 -89.5h-377v631h-121v256h121v575h401zM516 1161h-47v-274h139v-256h-139v-328h27q138 0 202 108t64 337q0 148 -27.5 239t-82 132.5t-136.5 41.5z" />
    <glyph glyph-name="Ntilde" unicode="&#xd1;" horiz-adv-x="1343" 
d="M1223 0h-406l-381 909h-8q6 -80 9.5 -148.5t5 -124t1.5 -97.5v-539h-323v1462h403l379 -884h8q-4 74 -7 138t-5 118t-2 98v530h326v-1462zM315 1567q0 48 5.5 106.5t24 112t55 88.5t97.5 35q43 0 82 -14.5t75 -33.5t71 -33.5t69 -14.5q26 0 39 25.5t21 72.5h172
q0 -167 -54 -254.5t-133 -87.5q-40 0 -81 14.5t-80 33.5t-72.5 33.5t-59.5 14.5q-16 0 -35 -21t-24 -77h-172z" />
    <glyph glyph-name="Ograve" unicode="&#xd2;" horiz-adv-x="1272" 
d="M1192 733q0 -184 -35.5 -324.5t-106 -236t-174 -144t-239.5 -48.5q-135 0 -239 49t-175 144.5t-107 236.5t-36 325q0 244 63.5 411t188 253t305.5 86q182 0 305.5 -85t186.5 -252.5t63 -414.5zM442 733q0 -149 22 -249t65.5 -149.5t107.5 -49.5q66 0 108.5 48t63 147.5
t20.5 252.5q0 232 -47.5 342.5t-144.5 110.5q-64 0 -107.5 -50.5t-65.5 -151t-22 -251.5zM672 1899q17 -40 48 -99.5t62 -115t49 -84.5v-29h-243q-25 23 -65 64.5t-84.5 88t-82 88.5t-57.5 66v21h373z" />
    <glyph glyph-name="Oacute" unicode="&#xd3;" horiz-adv-x="1272" 
d="M1192 733q0 -184 -35.5 -324.5t-106 -236t-174 -144t-239.5 -48.5q-135 0 -239 49t-175 144.5t-107 236.5t-36 325q0 244 63.5 411t188 253t305.5 86q182 0 305.5 -85t186.5 -252.5t63 -414.5zM442 733q0 -149 22 -249t65.5 -149.5t107.5 -49.5q66 0 108.5 48t63 147.5
t20.5 252.5q0 232 -47.5 342.5t-144.5 110.5q-64 0 -107.5 -50.5t-65.5 -151t-22 -251.5zM997 1899v-21q-21 -26 -54.5 -63.5t-73 -80t-81 -85t-79.5 -78.5h-244v29q33 54 61 105.5t53 100t46 93.5h372z" />
    <glyph glyph-name="Ocircumflex" unicode="&#xd4;" horiz-adv-x="1272" 
d="M1192 733q0 -184 -35.5 -324.5t-106 -236t-174 -144t-239.5 -48.5q-135 0 -239 49t-175 144.5t-107 236.5t-36 325q0 244 63.5 411t188 253t305.5 86q182 0 305.5 -85t186.5 -252.5t63 -414.5zM442 733q0 -149 22 -249t65.5 -149.5t107.5 -49.5q66 0 108.5 48t63 147.5
t20.5 252.5q0 232 -47.5 342.5t-144.5 110.5q-64 0 -107.5 -50.5t-65.5 -151t-22 -251.5zM789 1899q24 -45 53 -93.5t64.5 -100t76.5 -105.5v-29h-203q-31 25 -66.5 62t-76.5 88q-43 -52 -78 -90t-61 -60h-207v29q28 35 67.5 91.5t76 114t53.5 93.5h301z" />
    <glyph glyph-name="Otilde" unicode="&#xd5;" horiz-adv-x="1272" 
d="M1192 733q0 -184 -35.5 -324.5t-106 -236t-174 -144t-239.5 -48.5q-135 0 -239 49t-175 144.5t-107 236.5t-36 325q0 244 63.5 411t188 253t305.5 86q182 0 305.5 -85t186.5 -252.5t63 -414.5zM442 733q0 -149 22 -249t65.5 -149.5t107.5 -49.5q66 0 108.5 48t63 147.5
t20.5 252.5q0 232 -47.5 342.5t-144.5 110.5q-64 0 -107.5 -50.5t-65.5 -151t-22 -251.5zM281 1567q0 48 5.5 106.5t24 112t55 88.5t97.5 35q43 0 82 -14.5t75 -33.5t71 -33.5t69 -14.5q26 0 39 25.5t21 72.5h172q0 -167 -54 -254.5t-133 -87.5q-40 0 -81 14.5t-80 33.5
t-72.5 33.5t-59.5 14.5q-16 0 -35 -21t-24 -77h-172z" />
    <glyph glyph-name="Odieresis" unicode="&#xd6;" horiz-adv-x="1272" 
d="M1192 733q0 -184 -35.5 -324.5t-106 -236t-174 -144t-239.5 -48.5q-135 0 -239 49t-175 144.5t-107 236.5t-36 325q0 244 63.5 411t188 253t305.5 86q182 0 305.5 -85t186.5 -252.5t63 -414.5zM442 733q0 -149 22 -249t65.5 -149.5t107.5 -49.5q66 0 108.5 48t63 147.5
t20.5 252.5q0 232 -47.5 342.5t-144.5 110.5q-64 0 -107.5 -50.5t-65.5 -151t-22 -251.5zM291 1743q0 75 39.5 116.5t105.5 41.5q69 0 109.5 -43t40.5 -115q0 -70 -40.5 -113t-109.5 -43q-66 0 -105.5 41.5t-39.5 114.5zM686 1743q0 75 40.5 116.5t107.5 41.5q71 0 110 -43
t39 -115q0 -70 -39 -113t-110 -43q-70 0 -109 42t-39 114z" />
    <glyph glyph-name="multiply" unicode="&#xd7;" horiz-adv-x="1024" 
d="M762 1159l188 -182l-254 -254l250 -252l-184 -184l-254 250l-252 -248l-178 186l244 248l-246 248l180 188l252 -246z" />
    <glyph glyph-name="Oslash" unicode="&#xd8;" horiz-adv-x="1272" 
d="M1192 733q0 -184 -35.5 -324.5t-106 -236t-174 -144t-239.5 -48.5q-69 0 -129 12t-113 37l-65 -138l-162 76l84 170q-97 122 -134.5 268t-37.5 330q0 244 63.5 411t188 253t305.5 86q71 0 133.5 -13.5t116.5 -39.5l57 116l162 -75l-76 -154q82 -94 122 -241.5t40 -344.5z
M840 733q0 56 -3 104t-10 91l-301 -613q22 -22 50.5 -33.5t60.5 -11.5q68 0 113 52t67.5 155t22.5 256zM432 733q0 -63 3.5 -116.5t10.5 -100.5l308 623q-23 28 -52.5 41.5t-64.5 13.5q-68 0 -114 -51.5t-68.5 -153.5t-22.5 -256z" />
    <glyph glyph-name="Ugrave" unicode="&#xd9;" horiz-adv-x="1204" 
d="M1092 1462v-966q0 -169 -57 -284t-167 -173.5t-270 -58.5q-233 0 -358 126t-125 381v975h348v-958q0 -120 35 -169.5t104 -49.5q49 0 80 21t46 69.5t15 130.5v956h349zM637 1899q17 -40 48 -99.5t62 -115t49 -84.5v-29h-243q-25 23 -65 64.5t-84.5 88t-82 88.5t-57.5 66
v21h373z" />
    <glyph glyph-name="Uacute" unicode="&#xda;" horiz-adv-x="1204" 
d="M1092 1462v-966q0 -169 -57 -284t-167 -173.5t-270 -58.5q-233 0 -358 126t-125 381v975h348v-958q0 -120 35 -169.5t104 -49.5q49 0 80 21t46 69.5t15 130.5v956h349zM962 1899v-21q-21 -26 -54.5 -63.5t-73 -80t-81 -85t-79.5 -78.5h-244v29q33 54 61 105.5t53 100
t46 93.5h372z" />
    <glyph glyph-name="Ucircumflex" unicode="&#xdb;" horiz-adv-x="1204" 
d="M1092 1462v-966q0 -169 -57 -284t-167 -173.5t-270 -58.5q-233 0 -358 126t-125 381v975h348v-958q0 -120 35 -169.5t104 -49.5q49 0 80 21t46 69.5t15 130.5v956h349zM754 1899q24 -45 53 -93.5t64.5 -100t76.5 -105.5v-29h-203q-31 25 -66.5 62t-76.5 88
q-43 -52 -78 -90t-61 -60h-207v29q28 35 67.5 91.5t76 114t53.5 93.5h301z" />
    <glyph glyph-name="Udieresis" unicode="&#xdc;" horiz-adv-x="1204" 
d="M1092 1462v-966q0 -169 -57 -284t-167 -173.5t-270 -58.5q-233 0 -358 126t-125 381v975h348v-958q0 -120 35 -169.5t104 -49.5q49 0 80 21t46 69.5t15 130.5v956h349zM256 1743q0 75 39.5 116.5t105.5 41.5q69 0 109.5 -43t40.5 -115q0 -70 -40.5 -113t-109.5 -43
q-66 0 -105.5 41.5t-39.5 114.5zM651 1743q0 75 40.5 116.5t107.5 41.5q71 0 110 -43t39 -115q0 -70 -39 -113t-110 -43q-70 0 -109 42t-39 114z" />
    <glyph glyph-name="Yacute" unicode="&#xdd;" horiz-adv-x="1077" 
d="M541 930l178 532h358l-364 -901v-561h-348v549l-365 913h362zM899 1899v-21q-21 -26 -54.5 -63.5t-73 -80t-81 -85t-79.5 -78.5h-244v29q33 54 61 105.5t53 100t46 93.5h372z" />
    <glyph glyph-name="Thorn" unicode="&#xde;" horiz-adv-x="1024" 
d="M987 784q0 -105 -25.5 -197.5t-79 -163.5t-138 -111t-203.5 -40h-72v-272h-348v1462h348v-213h82q218 0 327 -121t109 -344zM469 565h37q42 0 73 22t47.5 70t16.5 125q0 86 -29 129t-88 43h-57v-389z" />
    <glyph glyph-name="germandbls" unicode="&#xdf;" horiz-adv-x="1200" 
d="M1053 1196q0 -79 -20.5 -132.5t-50 -89t-59.5 -62t-50.5 -51t-20.5 -56.5q0 -15 11 -34t34.5 -41.5t60.5 -49.5q60 -42 103 -89t66.5 -106t23.5 -137q0 -122 -43 -204t-126.5 -123t-203.5 -41q-61 0 -128.5 12.5t-133.5 46.5v307q35 -25 72 -43.5t73.5 -28.5t67.5 -10
q47 0 66.5 16t19.5 42t-10 46.5t-38.5 46t-84.5 64.5q-72 52 -107.5 103t-47 101t-11.5 97q0 60 20.5 102t51.5 75t61.5 64t51 67t20.5 86q0 44 -33 80t-104 36q-49 0 -82.5 -26t-50.5 -77t-17 -128v-1059h-332v1100q0 143 58.5 248t167 162t256.5 57q137 0 243 -44.5
t166 -127.5t60 -199z" />
    <glyph glyph-name="agrave" unicode="&#xe0;" horiz-adv-x="1012" 
d="M545 1153q169 0 267.5 -101t98.5 -309v-743h-239l-56 150h-6q-36 -57 -76.5 -95t-92 -56.5t-122.5 -18.5q-97 0 -156 53t-85.5 137t-26.5 176q0 182 97.5 272t283.5 97l148 6v29q0 69 -26.5 104t-82.5 35q-49 0 -108.5 -20.5t-135.5 -63.5l-86 246q83 49 185 75.5
t219 26.5zM580 506l-62 -4q-67 -3 -101 -38.5t-34 -103.5q0 -58 20 -87t60 -29q49 0 83 44.5t34 117.5v100zM561 1569q17 -40 48 -99.5t62 -115t49 -84.5v-29h-243q-25 23 -65 64.5t-84.5 88t-82 88.5t-57.5 66v21h373z" />
    <glyph glyph-name="aacute" unicode="&#xe1;" horiz-adv-x="1012" 
d="M545 1153q169 0 267.5 -101t98.5 -309v-743h-239l-56 150h-6q-36 -57 -76.5 -95t-92 -56.5t-122.5 -18.5q-97 0 -156 53t-85.5 137t-26.5 176q0 182 97.5 272t283.5 97l148 6v29q0 69 -26.5 104t-82.5 35q-49 0 -108.5 -20.5t-135.5 -63.5l-86 246q83 49 185 75.5
t219 26.5zM580 506l-62 -4q-67 -3 -101 -38.5t-34 -103.5q0 -58 20 -87t60 -29q49 0 83 44.5t34 117.5v100zM886 1569v-21q-21 -26 -54.5 -63.5t-73 -80t-81 -85t-79.5 -78.5h-244v29q33 54 61 105.5t53 100t46 93.5h372z" />
    <glyph glyph-name="acircumflex" unicode="&#xe2;" horiz-adv-x="1012" 
d="M545 1153q169 0 267.5 -101t98.5 -309v-743h-239l-56 150h-6q-36 -57 -76.5 -95t-92 -56.5t-122.5 -18.5q-97 0 -156 53t-85.5 137t-26.5 176q0 182 97.5 272t283.5 97l148 6v29q0 69 -26.5 104t-82.5 35q-49 0 -108.5 -20.5t-135.5 -63.5l-86 246q83 49 185 75.5
t219 26.5zM580 506l-62 -4q-67 -3 -101 -38.5t-34 -103.5q0 -58 20 -87t60 -29q49 0 83 44.5t34 117.5v100zM678 1569q24 -45 53 -93.5t64.5 -100t76.5 -105.5v-29h-203q-31 25 -66.5 62t-76.5 88q-43 -52 -78 -90t-61 -60h-207v29q28 35 67.5 91.5t76 114t53.5 93.5h301z
" />
    <glyph glyph-name="atilde" unicode="&#xe3;" horiz-adv-x="1012" 
d="M545 1153q169 0 267.5 -101t98.5 -309v-743h-239l-56 150h-6q-36 -57 -76.5 -95t-92 -56.5t-122.5 -18.5q-97 0 -156 53t-85.5 137t-26.5 176q0 182 97.5 272t283.5 97l148 6v29q0 69 -26.5 104t-82.5 35q-49 0 -108.5 -20.5t-135.5 -63.5l-86 246q83 49 185 75.5
t219 26.5zM580 506l-62 -4q-67 -3 -101 -38.5t-34 -103.5q0 -58 20 -87t60 -29q49 0 83 44.5t34 117.5v100zM170 1237q0 48 5.5 106.5t24 112t55 88.5t97.5 35q43 0 82 -14.5t75 -33.5t71 -33.5t69 -14.5q26 0 39 25.5t21 72.5h172q0 -167 -54 -254.5t-133 -87.5
q-40 0 -81 14.5t-80 33.5t-72.5 33.5t-59.5 14.5q-16 0 -35 -21t-24 -77h-172z" />
    <glyph glyph-name="adieresis" unicode="&#xe4;" horiz-adv-x="1012" 
d="M545 1153q169 0 267.5 -101t98.5 -309v-743h-239l-56 150h-6q-36 -57 -76.5 -95t-92 -56.5t-122.5 -18.5q-97 0 -156 53t-85.5 137t-26.5 176q0 182 97.5 272t283.5 97l148 6v29q0 69 -26.5 104t-82.5 35q-49 0 -108.5 -20.5t-135.5 -63.5l-86 246q83 49 185 75.5
t219 26.5zM580 506l-62 -4q-67 -3 -101 -38.5t-34 -103.5q0 -58 20 -87t60 -29q49 0 83 44.5t34 117.5v100zM180 1413q0 75 39.5 116.5t105.5 41.5q69 0 109.5 -43t40.5 -115q0 -70 -40.5 -113t-109.5 -43q-66 0 -105.5 41.5t-39.5 114.5zM575 1413q0 75 40.5 116.5
t107.5 41.5q71 0 110 -43t39 -115q0 -70 -39 -113t-110 -43q-70 0 -109 42t-39 114z" />
    <glyph glyph-name="aring" unicode="&#xe5;" horiz-adv-x="1012" 
d="M545 1153q169 0 267.5 -101t98.5 -309v-743h-239l-56 150h-6q-36 -57 -76.5 -95t-92 -56.5t-122.5 -18.5q-97 0 -156 53t-85.5 137t-26.5 176q0 182 97.5 272t283.5 97l148 6v29q0 69 -26.5 104t-82.5 35q-49 0 -108.5 -20.5t-135.5 -63.5l-86 246q83 49 185 75.5
t219 26.5zM580 506l-62 -4q-67 -3 -101 -38.5t-34 -103.5q0 -58 20 -87t60 -29q49 0 83 44.5t34 117.5v100zM526 1237q-115 0 -184.5 71.5t-69.5 180.5q0 110 69.5 182t184.5 72q112 0 183 -73t71 -179t-70.5 -180t-183.5 -74zM526 1407q35 0 59.5 23.5t24.5 60.5
t-24.5 60.5t-59.5 23.5t-59.5 -23.5t-24.5 -60.5t21.5 -60.5t62.5 -23.5z" />
    <glyph glyph-name="ae" unicode="&#xe6;" horiz-adv-x="1485" 
d="M1008 1151q136 0 229.5 -60t141.5 -175t48 -281v-174h-538q0 -114 46 -165.5t144 -51.5q80 0 147.5 20t143.5 68v-271q-72 -43 -152 -62t-178 -19q-75 0 -145 18.5t-127 57.5t-94 100q-44 -58 -94 -97.5t-106.5 -59t-121.5 -19.5q-108 0 -174 53t-96.5 137t-30.5 176
q0 121 43.5 201t128.5 121.5t209 46.5l148 6v29q0 69 -26.5 104t-82.5 35q-49 0 -108.5 -20.5t-135.5 -63.5l-86 246q80 50 174.5 76t188.5 26q86 0 147 -24.5t101 -73.5q47 47 109 71.5t147 24.5zM580 506l-62 -4q-67 -3 -101 -38.5t-34 -103.5q0 -58 20 -87t60 -29
q33 0 59.5 20.5t42 57t15.5 84.5v100zM1008 895q-51 0 -85 -45t-34 -156h233q0 72 -14 116.5t-39.5 64.5t-60.5 20z" />
    <glyph glyph-name="ccedilla" unicode="&#xe7;" horiz-adv-x="887" 
d="M520 -20q-152 0 -253 61.5t-151 190.5t-50 329q0 165 47.5 299t149.5 213.5t263 79.5q94 0 170.5 -21.5t143.5 -64.5l-88 -264q-51 34 -101 50.5t-102 16.5q-45 0 -78 -36t-51.5 -104.5t-18.5 -168.5q0 -99 18 -165.5t52.5 -100t85.5 -33.5q65 0 129 25.5t125 74.5v-282
q-61 -51 -133.5 -75.5t-157.5 -24.5zM740 -258q0 -107 -67.5 -170.5t-195.5 -63.5q-50 0 -95 5t-83 14v184q34 -7 62 -11.5t51 -4.5q37 0 56.5 14t19.5 43q0 35 -36.5 55t-98.5 23l69 170h156l-29 -70q60 -8 102.5 -33t65.5 -64.5t23 -90.5z" />
    <glyph glyph-name="egrave" unicode="&#xe8;" horiz-adv-x="987" 
d="M504 1151q135 0 231 -60t146.5 -175t50.5 -281v-174h-541q0 -114 47.5 -165.5t145.5 -51.5q78 0 145 20t145 68v-271q-73 -43 -157 -62t-182 -19q-164 0 -267.5 66.5t-152.5 196.5t-49 318q0 190 49.5 321.5t147 200t241.5 68.5zM512 895q-52 0 -86.5 -45t-34.5 -156h234
q0 72 -14 116.5t-39.5 64.5t-59.5 20zM539 1569q17 -40 48 -99.5t62 -115t49 -84.5v-29h-243q-25 23 -65 64.5t-84.5 88t-82 88.5t-57.5 66v21h373z" />
    <glyph glyph-name="eacute" unicode="&#xe9;" horiz-adv-x="987" 
d="M504 1151q135 0 231 -60t146.5 -175t50.5 -281v-174h-541q0 -114 47.5 -165.5t145.5 -51.5q78 0 145 20t145 68v-271q-73 -43 -157 -62t-182 -19q-164 0 -267.5 66.5t-152.5 196.5t-49 318q0 190 49.5 321.5t147 200t241.5 68.5zM512 895q-52 0 -86.5 -45t-34.5 -156h234
q0 72 -14 116.5t-39.5 64.5t-59.5 20zM864 1569v-21q-21 -26 -54.5 -63.5t-73 -80t-81 -85t-79.5 -78.5h-244v29q33 54 61 105.5t53 100t46 93.5h372z" />
    <glyph glyph-name="ecircumflex" unicode="&#xea;" horiz-adv-x="987" 
d="M504 1151q135 0 231 -60t146.5 -175t50.5 -281v-174h-541q0 -114 47.5 -165.5t145.5 -51.5q78 0 145 20t145 68v-271q-73 -43 -157 -62t-182 -19q-164 0 -267.5 66.5t-152.5 196.5t-49 318q0 190 49.5 321.5t147 200t241.5 68.5zM512 895q-52 0 -86.5 -45t-34.5 -156h234
q0 72 -14 116.5t-39.5 64.5t-59.5 20zM656 1569q24 -45 53 -93.5t64.5 -100t76.5 -105.5v-29h-203q-31 25 -66.5 62t-76.5 88q-43 -52 -78 -90t-61 -60h-207v29q28 35 67.5 91.5t76 114t53.5 93.5h301z" />
    <glyph glyph-name="edieresis" unicode="&#xeb;" horiz-adv-x="987" 
d="M504 1151q135 0 231 -60t146.5 -175t50.5 -281v-174h-541q0 -114 47.5 -165.5t145.5 -51.5q78 0 145 20t145 68v-271q-73 -43 -157 -62t-182 -19q-164 0 -267.5 66.5t-152.5 196.5t-49 318q0 190 49.5 321.5t147 200t241.5 68.5zM512 895q-52 0 -86.5 -45t-34.5 -156h234
q0 72 -14 116.5t-39.5 64.5t-59.5 20zM158 1413q0 75 39.5 116.5t105.5 41.5q69 0 109.5 -43t40.5 -115q0 -70 -40.5 -113t-109.5 -43q-66 0 -105.5 41.5t-39.5 114.5zM553 1413q0 75 40.5 116.5t107.5 41.5q71 0 110 -43t39 -115q0 -70 -39 -113t-110 -43q-70 0 -109 42
t-39 114z" />
    <glyph glyph-name="igrave" unicode="&#xec;" horiz-adv-x="543" 
d="M436 0h-332v1133h332v-1133zM305 1569q17 -40 48 -99.5t62 -115t49 -84.5v-29h-243q-25 23 -65 64.5t-84.5 88t-82 88.5t-57.5 66v21h373z" />
    <glyph glyph-name="iacute" unicode="&#xed;" horiz-adv-x="543" 
d="M436 0h-332v1133h332v-1133zM630 1569v-21q-21 -26 -54.5 -63.5t-73 -80t-81 -85t-79.5 -78.5h-244v29q33 54 61 105.5t53 100t46 93.5h372z" />
    <glyph glyph-name="icircumflex" unicode="&#xee;" horiz-adv-x="543" 
d="M436 0h-332v1133h332v-1133zM422 1569q24 -45 53 -93.5t64.5 -100t76.5 -105.5v-29h-203q-31 25 -66.5 62t-76.5 88q-43 -52 -78 -90t-61 -60h-207v29q28 35 67.5 91.5t76 114t53.5 93.5h301z" />
    <glyph glyph-name="idieresis" unicode="&#xef;" horiz-adv-x="543" 
d="M436 0h-332v1133h332v-1133zM-76 1413q0 75 39.5 116.5t105.5 41.5q69 0 109.5 -43t40.5 -115q0 -70 -40.5 -113t-109.5 -43q-66 0 -105.5 41.5t-39.5 114.5zM319 1413q0 75 40.5 116.5t107.5 41.5q71 0 110 -43t39 -115q0 -70 -39 -113t-110 -43q-70 0 -109 42t-39 114z
" />
    <glyph glyph-name="eth" unicode="&#xf0;" horiz-adv-x="1057" 
d="M426 1573q38 -20 81 -47t87 -62l131 111l125 -154l-113 -94q77 -89 133.5 -194.5t87.5 -242.5t31 -321q0 -183 -54.5 -315t-157.5 -203t-251 -71q-141 0 -244.5 64t-159.5 180.5t-56 275.5q0 163 57 277.5t150.5 175.5t201.5 61q23 0 43.5 -2t39.5 -6.5t36 -12.5l4 4
q-10 34 -31 71t-49 77l-117 -101l-125 152l121 102q-28 25 -55.5 48t-58.5 45zM528 735q-44 0 -72 -26t-41.5 -78.5t-13.5 -134.5q0 -78 13.5 -131.5t41.5 -81t72 -27.5q70 0 97.5 61t27.5 181q0 60 -6.5 104.5t-21 74t-38.5 44t-59 14.5z" />
    <glyph glyph-name="ntilde" unicode="&#xf1;" horiz-adv-x="1083" 
d="M672 1153q147 0 229 -109t82 -307v-737h-332v631q0 112 -18 169.5t-80 57.5q-70 0 -94.5 -74t-24.5 -266v-518h-332v1133h260l37 -140h19q26 54 62 89.5t84 53t108 17.5zM207 1237q0 48 5.5 106.5t24 112t55 88.5t97.5 35q43 0 82 -14.5t75 -33.5t71 -33.5t69 -14.5
q26 0 39 25.5t21 72.5h172q0 -167 -54 -254.5t-133 -87.5q-40 0 -81 14.5t-80 33.5t-72.5 33.5t-59.5 14.5q-16 0 -35 -21t-24 -77h-172z" />
    <glyph glyph-name="ograve" unicode="&#xf2;" horiz-adv-x="1057" 
d="M989 569q0 -109 -23.5 -213.5t-77.5 -189.5t-142.5 -135.5t-219.5 -50.5q-120 0 -207 49.5t-143 133t-83 189t-27 217.5q0 163 47 295.5t149.5 210.5t267.5 78q138 0 241 -68.5t160.5 -198.5t57.5 -317zM401 565q0 -101 13.5 -170t41.5 -104t72 -35q47 0 74 34.5
t39 104.5t12 174t-12 172t-39 102t-74 34q-66 0 -96.5 -76t-30.5 -236zM564 1569q17 -40 48 -99.5t62 -115t49 -84.5v-29h-243q-25 23 -65 64.5t-84.5 88t-82 88.5t-57.5 66v21h373z" />
    <glyph glyph-name="oacute" unicode="&#xf3;" horiz-adv-x="1057" 
d="M989 569q0 -109 -23.5 -213.5t-77.5 -189.5t-142.5 -135.5t-219.5 -50.5q-120 0 -207 49.5t-143 133t-83 189t-27 217.5q0 163 47 295.5t149.5 210.5t267.5 78q138 0 241 -68.5t160.5 -198.5t57.5 -317zM401 565q0 -101 13.5 -170t41.5 -104t72 -35q47 0 74 34.5
t39 104.5t12 174t-12 172t-39 102t-74 34q-66 0 -96.5 -76t-30.5 -236zM888 1569v-21q-21 -26 -54.5 -63.5t-73 -80t-81 -85t-79.5 -78.5h-244v29q33 54 61 105.5t53 100t46 93.5h372z" />
    <glyph glyph-name="ocircumflex" unicode="&#xf4;" horiz-adv-x="1057" 
d="M989 569q0 -109 -23.5 -213.5t-77.5 -189.5t-142.5 -135.5t-219.5 -50.5q-120 0 -207 49.5t-143 133t-83 189t-27 217.5q0 163 47 295.5t149.5 210.5t267.5 78q138 0 241 -68.5t160.5 -198.5t57.5 -317zM401 565q0 -101 13.5 -170t41.5 -104t72 -35q47 0 74 34.5
t39 104.5t12 174t-12 172t-39 102t-74 34q-66 0 -96.5 -76t-30.5 -236zM680 1569q24 -45 53 -93.5t64.5 -100t76.5 -105.5v-29h-203q-31 25 -66.5 62t-76.5 88q-43 -52 -78 -90t-61 -60h-207v29q28 35 67.5 91.5t76 114t53.5 93.5h301z" />
    <glyph glyph-name="otilde" unicode="&#xf5;" horiz-adv-x="1057" 
d="M989 569q0 -109 -23.5 -213.5t-77.5 -189.5t-142.5 -135.5t-219.5 -50.5q-120 0 -207 49.5t-143 133t-83 189t-27 217.5q0 163 47 295.5t149.5 210.5t267.5 78q138 0 241 -68.5t160.5 -198.5t57.5 -317zM401 565q0 -101 13.5 -170t41.5 -104t72 -35q47 0 74 34.5
t39 104.5t12 174t-12 172t-39 102t-74 34q-66 0 -96.5 -76t-30.5 -236zM172 1237q0 48 5.5 106.5t24 112t55 88.5t97.5 35q43 0 82 -14.5t75 -33.5t71 -33.5t69 -14.5q26 0 39 25.5t21 72.5h172q0 -167 -54 -254.5t-133 -87.5q-40 0 -81 14.5t-80 33.5t-72.5 33.5
t-59.5 14.5q-16 0 -35 -21t-24 -77h-172z" />
    <glyph glyph-name="odieresis" unicode="&#xf6;" horiz-adv-x="1057" 
d="M989 569q0 -109 -23.5 -213.5t-77.5 -189.5t-142.5 -135.5t-219.5 -50.5q-120 0 -207 49.5t-143 133t-83 189t-27 217.5q0 163 47 295.5t149.5 210.5t267.5 78q138 0 241 -68.5t160.5 -198.5t57.5 -317zM401 565q0 -101 13.5 -170t41.5 -104t72 -35q47 0 74 34.5
t39 104.5t12 174t-12 172t-39 102t-74 34q-66 0 -96.5 -76t-30.5 -236zM182 1413q0 75 39.5 116.5t105.5 41.5q69 0 109.5 -43t40.5 -115q0 -70 -40.5 -113t-109.5 -43q-66 0 -105.5 41.5t-39.5 114.5zM577 1413q0 75 40.5 116.5t107.5 41.5q71 0 110 -43t39 -115
q0 -70 -39 -113t-110 -43q-70 0 -109 42t-39 114z" />
    <glyph glyph-name="divide" unicode="&#xf7;" horiz-adv-x="1024" 
d="M70 588v268h884v-268h-884zM514 141q-75 0 -119.5 46t-44.5 130q0 85 42.5 131t121.5 46q78 0 119 -46t41 -131q0 -82 -42.5 -129t-117.5 -47zM514 950q-75 0 -119.5 46t-44.5 130q0 85 42.5 131t121.5 46q78 0 119 -46t41 -131q0 -82 -42.5 -129t-117.5 -47z" />
    <glyph glyph-name="oslash" unicode="&#xf8;" horiz-adv-x="1057" 
d="M989 569q0 -183 -54.5 -315t-157.5 -203t-251 -71q-49 0 -93.5 9t-84.5 25l-63 -131l-158 72l82 162q-77 97 -110 206.5t-33 245.5q0 277 122.5 430.5t341.5 153.5q50 0 93.5 -9t83.5 -28l55 109l156 -72l-68 -139q68 -77 103.5 -191t35.5 -254zM383 565q0 -34 0.5 -64.5
t3.5 -56.5l213 426q-13 14 -31.5 19.5t-40.5 5.5q-76 0 -110.5 -81.5t-34.5 -248.5zM674 569q0 31 -1 60t-3 55l-211 -424q14 -12 32 -18t37 -6q55 0 86.5 37.5t45.5 112t14 183.5z" />
    <glyph glyph-name="ugrave" unicode="&#xf9;" horiz-adv-x="1083" 
d="M981 1133v-1133h-258l-39 139h-16q-27 -53 -63 -88.5t-83 -53t-108 -17.5q-99 0 -169.5 49t-107.5 141.5t-37 224.5v738h332v-629q0 -114 19.5 -172t68.5 -58q60 0 87 37t34.5 104t7.5 158v560h332zM578 1569q17 -40 48 -99.5t62 -115t49 -84.5v-29h-243q-25 23 -65 64.5
t-84.5 88t-82 88.5t-57.5 66v21h373z" />
    <glyph glyph-name="uacute" unicode="&#xfa;" horiz-adv-x="1083" 
d="M981 1133v-1133h-258l-39 139h-16q-27 -53 -63 -88.5t-83 -53t-108 -17.5q-99 0 -169.5 49t-107.5 141.5t-37 224.5v738h332v-629q0 -114 19.5 -172t68.5 -58q60 0 87 37t34.5 104t7.5 158v560h332zM903 1569v-21q-21 -26 -54.5 -63.5t-73 -80t-81 -85t-79.5 -78.5h-244
v29q33 54 61 105.5t53 100t46 93.5h372z" />
    <glyph glyph-name="ucircumflex" unicode="&#xfb;" horiz-adv-x="1083" 
d="M981 1133v-1133h-258l-39 139h-16q-27 -53 -63 -88.5t-83 -53t-108 -17.5q-99 0 -169.5 49t-107.5 141.5t-37 224.5v738h332v-629q0 -114 19.5 -172t68.5 -58q60 0 87 37t34.5 104t7.5 158v560h332zM695 1569q24 -45 53 -93.5t64.5 -100t76.5 -105.5v-29h-203
q-31 25 -66.5 62t-76.5 88q-43 -52 -78 -90t-61 -60h-207v29q28 35 67.5 91.5t76 114t53.5 93.5h301z" />
    <glyph glyph-name="udieresis" unicode="&#xfc;" horiz-adv-x="1083" 
d="M981 1133v-1133h-258l-39 139h-16q-27 -53 -63 -88.5t-83 -53t-108 -17.5q-99 0 -169.5 49t-107.5 141.5t-37 224.5v738h332v-629q0 -114 19.5 -172t68.5 -58q60 0 87 37t34.5 104t7.5 158v560h332zM197 1413q0 75 39.5 116.5t105.5 41.5q69 0 109.5 -43t40.5 -115
q0 -70 -40.5 -113t-109.5 -43q-66 0 -105.5 41.5t-39.5 114.5zM592 1413q0 75 40.5 116.5t107.5 41.5q71 0 110 -43t39 -115q0 -70 -39 -113t-110 -43q-70 0 -109 42t-39 114z" />
    <glyph glyph-name="yacute" unicode="&#xfd;" horiz-adv-x="1006" 
d="M4 1133h348l119 -492q8 -35 15 -70t12 -65.5t6 -54.5h8q3 34 11 78.5t24 107.5l110 496h344l-342 -1205q-44 -154 -100.5 -246.5t-132 -133t-178.5 -40.5q-40 0 -76 5t-68 12v291q20 -7 41.5 -10t40.5 -3q41 0 65.5 13.5t44 55t44.5 124.5l6 20zM864 1569v-21
q-21 -26 -54.5 -63.5t-73 -80t-81 -85t-79.5 -78.5h-244v29q33 54 61 105.5t53 100t46 93.5h372z" />
    <glyph glyph-name="thorn" unicode="&#xfe;" horiz-adv-x="1073" 
d="M1008 563q0 -181 -40 -311.5t-113.5 -201t-174.5 -70.5q-51 0 -95.5 17t-82 53.5t-68.5 94.5h-10q3 -51 5 -92t3.5 -72t1.5 -53v-420h-332v2048h332v-339q0 -58 -2 -115.5t-8 -114.5h10q38 70 73.5 105.5t75 48t89.5 12.5q158 0 247 -157.5t89 -432.5zM672 559
q0 161 -28.5 239.5t-82.5 78.5q-67 0 -97 -66.5t-30 -220.5v-66q0 -135 29.5 -197.5t95.5 -62.5q38 0 63 32.5t37.5 98.5t12.5 164z" />
    <glyph glyph-name="ydieresis" unicode="&#xff;" horiz-adv-x="1006" 
d="M4 1133h348l119 -492q8 -35 15 -70t12 -65.5t6 -54.5h8q3 34 11 78.5t24 107.5l110 496h344l-342 -1205q-44 -154 -100.5 -246.5t-132 -133t-178.5 -40.5q-40 0 -76 5t-68 12v291q20 -7 41.5 -10t40.5 -3q41 0 65.5 13.5t44 55t44.5 124.5l6 20zM158 1413
q0 75 39.5 116.5t105.5 41.5q69 0 109.5 -43t40.5 -115q0 -70 -40.5 -113t-109.5 -43q-66 0 -105.5 41.5t-39.5 114.5zM553 1413q0 75 40.5 116.5t107.5 41.5q71 0 110 -43t39 -115q0 -70 -39 -113t-110 -43q-70 0 -109 42t-39 114z" />
    <glyph glyph-name="Amacron" unicode="&#x100;" horiz-adv-x="1176" 
d="M803 0l-55 285h-316l-55 -285h-377l356 1462h459l361 -1462h-373zM694 584l-59 327q-10 55 -18.5 107t-15 99.5t-11.5 88.5q-4 -39 -10.5 -86t-15.5 -98.5t-19 -106.5l-62 -331h211zM893 1837v-235h-608v235h608z" />
    <glyph glyph-name="amacron" unicode="&#x101;" horiz-adv-x="1012" 
d="M545 1153q169 0 267.5 -101t98.5 -309v-743h-239l-56 150h-6q-36 -57 -76.5 -95t-92 -56.5t-122.5 -18.5q-97 0 -156 53t-85.5 137t-26.5 176q0 182 97.5 272t283.5 97l148 6v29q0 69 -26.5 104t-82.5 35q-49 0 -108.5 -20.5t-135.5 -63.5l-86 246q83 49 185 75.5
t219 26.5zM580 506l-62 -4q-67 -3 -101 -38.5t-34 -103.5q0 -58 20 -87t60 -29q49 0 83 44.5t34 117.5v100zM829 1507v-235h-608v235h608z" />
    <glyph glyph-name="Abreve" unicode="&#x102;" horiz-adv-x="1176" 
d="M803 0l-55 285h-316l-55 -285h-377l356 1462h459l361 -1462h-373zM694 584l-59 327q-10 55 -18.5 107t-15 99.5t-11.5 88.5q-4 -39 -10.5 -86t-15.5 -98.5t-19 -106.5l-62 -331h211zM915 1942q0 -114 -44 -197.5t-118 -128.5t-165 -45q-142 0 -233 94t-91 277h194
q4 -49 18.5 -80.5t42 -46.5t69.5 -15q41 0 70 13.5t45 45t18 83.5h194z" />
    <glyph glyph-name="abreve" unicode="&#x103;" horiz-adv-x="1012" 
d="M545 1153q169 0 267.5 -101t98.5 -309v-743h-239l-56 150h-6q-36 -57 -76.5 -95t-92 -56.5t-122.5 -18.5q-97 0 -156 53t-85.5 137t-26.5 176q0 182 97.5 272t283.5 97l148 6v29q0 69 -26.5 104t-82.5 35q-49 0 -108.5 -20.5t-135.5 -63.5l-86 246q83 49 185 75.5
t219 26.5zM580 506l-62 -4q-67 -3 -101 -38.5t-34 -103.5q0 -58 20 -87t60 -29q49 0 83 44.5t34 117.5v100zM852 1612q0 -114 -44 -197.5t-118 -128.5t-165 -45q-142 0 -233 94t-91 277h194q4 -49 18.5 -80.5t42 -46.5t69.5 -15q41 0 70 13.5t45 45t18 83.5h194z" />
    <glyph glyph-name="Aogonek" unicode="&#x104;" horiz-adv-x="1176" 
d="M803 0l-55 285h-316l-55 -285h-377l356 1462h459l361 -1462h-373zM694 584l-59 327q-10 55 -18.5 107t-15 99.5t-11.5 88.5q-4 -39 -10.5 -86t-15.5 -98.5t-19 -106.5l-62 -331h211zM920 -190q0 -34 22 -58t62 -24q28 0 46 6.5t34 15.5v-211q-25 -10 -64 -20.5t-90 -10.5
q-130 0 -195 61t-65 167q0 46 16.5 96.5t56.5 102t109 100.5l170 -35q-63 -67 -82.5 -107t-19.5 -83z" />
    <glyph glyph-name="aogonek" unicode="&#x105;" horiz-adv-x="1012" 
d="M545 1153q169 0 267.5 -101t98.5 -309v-743h-239l-56 150h-6q-36 -57 -76.5 -95t-92 -56.5t-122.5 -18.5q-97 0 -156 53t-85.5 137t-26.5 176q0 182 97.5 272t283.5 97l148 6v29q0 69 -26.5 104t-82.5 35q-49 0 -108.5 -20.5t-135.5 -63.5l-86 246q83 49 185 75.5
t219 26.5zM580 506l-62 -4q-67 -3 -101 -38.5t-34 -103.5q0 -58 20 -87t60 -29q49 0 83 44.5t34 117.5v100zM785 -190q0 -34 22 -58t62 -24q28 0 46 6.5t34 15.5v-211q-25 -10 -64 -20.5t-90 -10.5q-130 0 -195 61t-65 167q0 46 16.5 96.5t56.5 102t109 100.5l170 -35
q-63 -67 -82.5 -107t-19.5 -83z" />
    <glyph glyph-name="Cacute" unicode="&#x106;" horiz-adv-x="1038" 
d="M655 1184q-51 0 -91 -31.5t-67 -91t-41 -144.5t-14 -192q0 -148 25.5 -247t76.5 -148t128 -49q71 0 136.5 27t131.5 65v-312q-70 -41 -151.5 -61t-172.5 -20q-174 0 -293.5 86t-181 253t-61.5 408q0 169 37.5 308t108.5 239t171.5 154.5t227.5 54.5q97 0 186.5 -25
t177.5 -78l-92 -286q-58 41 -117 65.5t-125 24.5zM960 1899v-21q-21 -26 -54.5 -63.5t-73 -80t-81 -85t-79.5 -78.5h-244v29q33 54 61 105.5t53 100t46 93.5h372z" />
    <glyph glyph-name="cacute" unicode="&#x107;" horiz-adv-x="887" 
d="M520 -20q-152 0 -253 61.5t-151 190.5t-50 329q0 165 47.5 299t149.5 213.5t263 79.5q94 0 170.5 -21.5t143.5 -64.5l-88 -264q-51 34 -101 50.5t-102 16.5q-45 0 -78 -36t-51.5 -104.5t-18.5 -168.5q0 -99 18 -165.5t52.5 -100t85.5 -33.5q65 0 129 25.5t125 74.5v-282
q-61 -51 -133.5 -75.5t-157.5 -24.5zM866 1569v-21q-21 -26 -54.5 -63.5t-73 -80t-81 -85t-79.5 -78.5h-244v29q33 54 61 105.5t53 100t46 93.5h372z" />
    <glyph glyph-name="Ccircumflex" unicode="&#x108;" horiz-adv-x="1038" 
d="M655 1184q-51 0 -91 -31.5t-67 -91t-41 -144.5t-14 -192q0 -148 25.5 -247t76.5 -148t128 -49q71 0 136.5 27t131.5 65v-312q-70 -41 -151.5 -61t-172.5 -20q-174 0 -293.5 86t-181 253t-61.5 408q0 169 37.5 308t108.5 239t171.5 154.5t227.5 54.5q97 0 186.5 -25
t177.5 -78l-92 -286q-58 41 -117 65.5t-125 24.5zM752 1899q24 -45 53 -93.5t64.5 -100t76.5 -105.5v-29h-203q-31 25 -66.5 62t-76.5 88q-43 -52 -78 -90t-61 -60h-207v29q28 35 67.5 91.5t76 114t53.5 93.5h301z" />
    <glyph glyph-name="ccircumflex" unicode="&#x109;" horiz-adv-x="887" 
d="M520 -20q-152 0 -253 61.5t-151 190.5t-50 329q0 165 47.5 299t149.5 213.5t263 79.5q94 0 170.5 -21.5t143.5 -64.5l-88 -264q-51 34 -101 50.5t-102 16.5q-45 0 -78 -36t-51.5 -104.5t-18.5 -168.5q0 -99 18 -165.5t52.5 -100t85.5 -33.5q65 0 129 25.5t125 74.5v-282
q-61 -51 -133.5 -75.5t-157.5 -24.5zM658 1569q24 -45 53 -93.5t64.5 -100t76.5 -105.5v-29h-203q-31 25 -66.5 62t-76.5 88q-43 -52 -78 -90t-61 -60h-207v29q28 35 67.5 91.5t76 114t53.5 93.5h301z" />
    <glyph glyph-name="Cdot" unicode="&#x10a;" horiz-adv-x="1038" 
d="M655 1184q-51 0 -91 -31.5t-67 -91t-41 -144.5t-14 -192q0 -148 25.5 -247t76.5 -148t128 -49q71 0 136.5 27t131.5 65v-312q-70 -41 -151.5 -61t-172.5 -20q-174 0 -293.5 86t-181 253t-61.5 408q0 169 37.5 308t108.5 239t171.5 154.5t227.5 54.5q97 0 186.5 -25
t177.5 -78l-92 -286q-58 41 -117 65.5t-125 24.5zM616 1919q92 0 134 -44t42 -130t-44 -129t-132 -43t-132 43t-44 129q0 88 42 131t134 43z" />
    <glyph glyph-name="cdot" unicode="&#x10b;" horiz-adv-x="887" 
d="M520 -20q-152 0 -253 61.5t-151 190.5t-50 329q0 165 47.5 299t149.5 213.5t263 79.5q94 0 170.5 -21.5t143.5 -64.5l-88 -264q-51 34 -101 50.5t-102 16.5q-45 0 -78 -36t-51.5 -104.5t-18.5 -168.5q0 -99 18 -165.5t52.5 -100t85.5 -33.5q65 0 129 25.5t125 74.5v-282
q-61 -51 -133.5 -75.5t-157.5 -24.5zM522 1589q92 0 134 -44t42 -130t-44 -129t-132 -43t-132 43t-44 129q0 88 42 131t134 43z" />
    <glyph glyph-name="Ccaron" unicode="&#x10c;" horiz-adv-x="1038" 
d="M655 1184q-51 0 -91 -31.5t-67 -91t-41 -144.5t-14 -192q0 -148 25.5 -247t76.5 -148t128 -49q71 0 136.5 27t131.5 65v-312q-70 -41 -151.5 -61t-172.5 -20q-174 0 -293.5 86t-181 253t-61.5 408q0 169 37.5 308t108.5 239t171.5 154.5t227.5 54.5q97 0 186.5 -25
t177.5 -78l-92 -286q-58 41 -117 65.5t-125 24.5zM451 1571q-17 36 -54 94t-76.5 115t-66.5 90v29h207q31 -26 65 -63t74 -87q41 51 76.5 88t66.5 62h203v-29q-28 -39 -65.5 -94t-72 -110t-56.5 -95h-301z" />
    <glyph glyph-name="ccaron" unicode="&#x10d;" horiz-adv-x="887" 
d="M520 -20q-152 0 -253 61.5t-151 190.5t-50 329q0 165 47.5 299t149.5 213.5t263 79.5q94 0 170.5 -21.5t143.5 -64.5l-88 -264q-51 34 -101 50.5t-102 16.5q-45 0 -78 -36t-51.5 -104.5t-18.5 -168.5q0 -99 18 -165.5t52.5 -100t85.5 -33.5q65 0 129 25.5t125 74.5v-282
q-61 -51 -133.5 -75.5t-157.5 -24.5zM357 1241q-17 36 -54 94t-76.5 115t-66.5 90v29h207q31 -26 65 -63t74 -87q41 51 76.5 88t66.5 62h203v-29q-28 -39 -65.5 -94t-72 -110t-56.5 -95h-301z" />
    <glyph glyph-name="Dcaron" unicode="&#x10e;" horiz-adv-x="1202" 
d="M1122 762q0 -243 -73.5 -413t-212.5 -259.5t-338 -89.5h-377v1462h401q192 0 326 -81t204 -237t70 -382zM762 748q0 148 -27.5 239t-82 132.5t-136.5 41.5h-47v-858h27q138 0 202 108t64 337zM445 1571q-17 36 -54 94t-76.5 115t-66.5 90v29h207q31 -26 65 -63t74 -87
q41 51 76.5 88t66.5 62h203v-29q-28 -39 -65.5 -94t-72 -110t-56.5 -95h-301z" />
    <glyph glyph-name="dcaron" unicode="&#x10f;" horiz-adv-x="1073" 
d="M403 -20q-161 0 -249 159t-88 430q0 272 87.5 428t239.5 156q53 0 97 -17t81.5 -53.5t67.5 -95.5h10q-4 77 -7 131t-3 86v352h332v-1556h-266l-48 111h-18q-36 -48 -69.5 -76.5t-72.5 -41.5t-94 -13zM512 256q68 0 97.5 67.5t29.5 219.5v65q0 135 -29.5 197.5t-95.5 62.5
q-55 0 -84 -73.5t-29 -221.5q0 -161 29.5 -239t81.5 -78zM1382 1556v-22q-15 -55 -34.5 -107.5t-43 -101.5t-51.5 -96h-223v28q5 26 11 64.5t12 81t9.5 83t4.5 70.5h315z" />
    <glyph glyph-name="Dcroat" unicode="&#x110;" horiz-adv-x="1202" 
d="M522 1462q192 0 326 -81t204 -237t70 -382q0 -243 -73.5 -413t-212.5 -259.5t-338 -89.5h-377v631h-121v256h121v575h401zM516 1161h-47v-274h139v-256h-139v-328h27q138 0 202 108t64 337q0 148 -27.5 239t-82 132.5t-136.5 41.5z" />
    <glyph glyph-name="dcroat" unicode="&#x111;" horiz-adv-x="1073" 
d="M403 -20q-161 0 -249 155t-88 414q0 260 87.5 408.5t239.5 148.5q53 0 97 -17t81.5 -53.5t67.5 -95.5h10q-4 77 -7 131t-3 86v19h-160v233h160v147h332v-147h123v-233h-123v-1176h-266l-48 111h-18q-36 -48 -69.5 -76.5t-72.5 -41.5t-94 -13zM512 256q68 0 97.5 62.5
t29.5 201.5v62q0 125 -29.5 182t-95.5 57q-55 0 -84 -67.5t-29 -204.5q0 -149 29.5 -221t81.5 -72z" />
    <glyph glyph-name="Emacron" unicode="&#x112;" horiz-adv-x="907" 
d="M825 0h-704v1462h704v-295h-356v-264h330v-295h-330v-309h356v-299zM772 1837v-235h-608v235h608z" />
    <glyph glyph-name="emacron" unicode="&#x113;" horiz-adv-x="987" 
d="M504 1151q135 0 231 -60t146.5 -175t50.5 -281v-174h-541q0 -114 47.5 -165.5t145.5 -51.5q78 0 145 20t145 68v-271q-73 -43 -157 -62t-182 -19q-164 0 -267.5 66.5t-152.5 196.5t-49 318q0 190 49.5 321.5t147 200t241.5 68.5zM512 895q-52 0 -86.5 -45t-34.5 -156h234
q0 72 -14 116.5t-39.5 64.5t-59.5 20zM807 1507v-235h-608v235h608z" />
    <glyph glyph-name="Ebreve" unicode="&#x114;" horiz-adv-x="907" 
d="M825 0h-704v1462h704v-295h-356v-264h330v-295h-330v-309h356v-299zM794 1942q0 -114 -44 -197.5t-118 -128.5t-165 -45q-142 0 -233 94t-91 277h194q4 -49 18.5 -80.5t42 -46.5t69.5 -15q41 0 70 13.5t45 45t18 83.5h194z" />
    <glyph glyph-name="ebreve" unicode="&#x115;" horiz-adv-x="987" 
d="M504 1151q135 0 231 -60t146.5 -175t50.5 -281v-174h-541q0 -114 47.5 -165.5t145.5 -51.5q78 0 145 20t145 68v-271q-73 -43 -157 -62t-182 -19q-164 0 -267.5 66.5t-152.5 196.5t-49 318q0 190 49.5 321.5t147 200t241.5 68.5zM512 895q-52 0 -86.5 -45t-34.5 -156h234
q0 72 -14 116.5t-39.5 64.5t-59.5 20zM829 1612q0 -114 -44 -197.5t-118 -128.5t-165 -45q-142 0 -233 94t-91 277h194q4 -49 18.5 -80.5t42 -46.5t69.5 -15q41 0 70 13.5t45 45t18 83.5h194z" />
    <glyph glyph-name="Edotaccent" unicode="&#x116;" horiz-adv-x="907" 
d="M825 0h-704v1462h704v-295h-356v-264h330v-295h-330v-309h356v-299zM485 1919q92 0 134 -44t42 -130t-44 -129t-132 -43t-132 43t-44 129q0 88 42 131t134 43z" />
    <glyph glyph-name="edotaccent" unicode="&#x117;" horiz-adv-x="987" 
d="M504 1151q135 0 231 -60t146.5 -175t50.5 -281v-174h-541q0 -114 47.5 -165.5t145.5 -51.5q78 0 145 20t145 68v-271q-73 -43 -157 -62t-182 -19q-164 0 -267.5 66.5t-152.5 196.5t-49 318q0 190 49.5 321.5t147 200t241.5 68.5zM512 895q-52 0 -86.5 -45t-34.5 -156h234
q0 72 -14 116.5t-39.5 64.5t-59.5 20zM520 1589q92 0 134 -44t42 -130t-44 -129t-132 -43t-132 43t-44 129q0 88 42 131t134 43z" />
    <glyph glyph-name="Eogonek" unicode="&#x118;" horiz-adv-x="907" 
d="M825 0h-704v1462h704v-295h-356v-264h330v-295h-330v-309h356v-299zM676 -190q0 -34 22 -58t62 -24q28 0 46 6.5t34 15.5v-211q-25 -10 -64 -20.5t-90 -10.5q-130 0 -195 61t-65 167q0 46 16.5 96.5t56.5 102t109 100.5l170 -35q-63 -67 -82.5 -107t-19.5 -83z" />
    <glyph glyph-name="eogonek" unicode="&#x119;" horiz-adv-x="987" 
d="M721 -199q0 -34 20.5 -50.5t49.5 -16.5q20 0 52 6.5t48 15.5v-221q-37 -13 -85.5 -20t-88.5 -7q-130 0 -189 63t-59 169q0 46 15.5 89t50.5 85t92 86l247 61q-63 -65 -96 -112.5t-45 -83t-12 -64.5zM504 1151q135 0 231 -60t146.5 -175t50.5 -281v-174h-541
q0 -114 47.5 -165.5t145.5 -51.5q78 0 145 20t145 68v-271q-73 -43 -157 -62t-182 -19q-164 0 -267.5 66.5t-152.5 196.5t-49 318q0 190 49.5 321.5t147 200t241.5 68.5zM512 895q-52 0 -86.5 -45t-34.5 -156h234q0 72 -14 116.5t-39.5 64.5t-59.5 20z" />
    <glyph glyph-name="Ecaron" unicode="&#x11a;" horiz-adv-x="907" 
d="M825 0h-704v1462h704v-295h-356v-264h330v-295h-330v-309h356v-299zM320 1571q-17 36 -54 94t-76.5 115t-66.5 90v29h207q31 -26 65 -63t74 -87q41 51 76.5 88t66.5 62h203v-29q-28 -39 -65.5 -94t-72 -110t-56.5 -95h-301z" />
    <glyph glyph-name="ecaron" unicode="&#x11b;" horiz-adv-x="987" 
d="M504 1151q135 0 231 -60t146.5 -175t50.5 -281v-174h-541q0 -114 47.5 -165.5t145.5 -51.5q78 0 145 20t145 68v-271q-73 -43 -157 -62t-182 -19q-164 0 -267.5 66.5t-152.5 196.5t-49 318q0 190 49.5 321.5t147 200t241.5 68.5zM512 895q-52 0 -86.5 -45t-34.5 -156h234
q0 72 -14 116.5t-39.5 64.5t-59.5 20zM355 1241q-17 36 -54 94t-76.5 115t-66.5 90v29h207q31 -26 65 -63t74 -87q41 51 76.5 88t66.5 62h203v-29q-28 -39 -65.5 -94t-72 -110t-56.5 -95h-301z" />
    <glyph glyph-name="Gcircumflex" unicode="&#x11c;" horiz-adv-x="1214" 
d="M604 856h510v-788q-113 -45 -230.5 -66.5t-240.5 -21.5q-180 0 -305.5 88t-191.5 257t-66 410q0 235 75 402t216 256.5t340 89.5q113 0 210.5 -26t170.5 -66l-97 -285q-60 38 -128.5 58t-143.5 20q-93 0 -155.5 -53.5t-94 -155.5t-31.5 -250q0 -144 25 -243t74.5 -150
t122.5 -51q27 0 54.5 4.5t53.5 11.5v268h-168v291zM826 1899q24 -45 53 -93.5t64.5 -100t76.5 -105.5v-29h-203q-31 25 -66.5 62t-76.5 88q-43 -52 -78 -90t-61 -60h-207v29q28 35 67.5 91.5t76 114t53.5 93.5h301z" />
    <glyph glyph-name="gcircumflex" unicode="&#x11d;" horiz-adv-x="1020" 
d="M430 -492q-202 0 -311 83t-109 236q0 89 59 158.5t156 97.5q-51 19 -84.5 62.5t-33.5 101.5q0 68 30 107.5t80 84.5q-63 44 -102 132t-39 190q0 125 47 211t139 131t226 45q40 0 70 -4t52 -10t37 -11h354v-194l-125 -35q14 -34 19.5 -65t5.5 -75q0 -186 -106.5 -286.5
t-302.5 -100.5q-58 0 -85 10q-10 -10 -21.5 -25t-11.5 -39q0 -21 12 -34t38 -19t66 -6h202q140 0 215 -77.5t75 -235.5q0 -210 -139.5 -321.5t-412.5 -111.5zM453 -250q77 0 125.5 16t71.5 46t23 72q0 32 -9 48t-37 22t-84 6h-154q-23 0 -39.5 -13t-25 -37t-8.5 -58
q0 -50 36.5 -76t100.5 -26zM490 592q40 0 60 41.5t20 123.5q0 88 -19.5 128.5t-60.5 40.5q-42 0 -62 -40.5t-20 -126.5q0 -84 19 -125.5t63 -41.5zM677 1569q24 -45 53 -93.5t64.5 -100t76.5 -105.5v-29h-203q-31 25 -66.5 62t-76.5 88q-43 -52 -78 -90t-61 -60h-207v29
q28 35 67.5 91.5t76 114t53.5 93.5h301z" />
    <glyph glyph-name="Gbreve" unicode="&#x11e;" horiz-adv-x="1214" 
d="M604 856h510v-788q-113 -45 -230.5 -66.5t-240.5 -21.5q-180 0 -305.5 88t-191.5 257t-66 410q0 235 75 402t216 256.5t340 89.5q113 0 210.5 -26t170.5 -66l-97 -285q-60 38 -128.5 58t-143.5 20q-93 0 -155.5 -53.5t-94 -155.5t-31.5 -250q0 -144 25 -243t74.5 -150
t122.5 -51q27 0 54.5 4.5t53.5 11.5v268h-168v291zM999 1942q0 -114 -44 -197.5t-118 -128.5t-165 -45q-142 0 -233 94t-91 277h194q4 -49 18.5 -80.5t42 -46.5t69.5 -15q41 0 70 13.5t45 45t18 83.5h194z" />
    <glyph glyph-name="gbreve" unicode="&#x11f;" horiz-adv-x="1020" 
d="M430 -492q-202 0 -311 83t-109 236q0 89 59 158.5t156 97.5q-51 19 -84.5 62.5t-33.5 101.5q0 68 30 107.5t80 84.5q-63 44 -102 132t-39 190q0 125 47 211t139 131t226 45q40 0 70 -4t52 -10t37 -11h354v-194l-125 -35q14 -34 19.5 -65t5.5 -75q0 -186 -106.5 -286.5
t-302.5 -100.5q-58 0 -85 10q-10 -10 -21.5 -25t-11.5 -39q0 -21 12 -34t38 -19t66 -6h202q140 0 215 -77.5t75 -235.5q0 -210 -139.5 -321.5t-412.5 -111.5zM453 -250q77 0 125.5 16t71.5 46t23 72q0 32 -9 48t-37 22t-84 6h-154q-23 0 -39.5 -13t-25 -37t-8.5 -58
q0 -50 36.5 -76t100.5 -26zM490 592q40 0 60 41.5t20 123.5q0 88 -19.5 128.5t-60.5 40.5q-42 0 -62 -40.5t-20 -126.5q0 -84 19 -125.5t63 -41.5zM850 1612q0 -114 -44 -197.5t-118 -128.5t-165 -45q-142 0 -233 94t-91 277h194q4 -49 18.5 -80.5t42 -46.5t69.5 -15
q41 0 70 13.5t45 45t18 83.5h194z" />
    <glyph glyph-name="Gdot" unicode="&#x120;" horiz-adv-x="1214" 
d="M604 856h510v-788q-113 -45 -230.5 -66.5t-240.5 -21.5q-180 0 -305.5 88t-191.5 257t-66 410q0 235 75 402t216 256.5t340 89.5q113 0 210.5 -26t170.5 -66l-97 -285q-60 38 -128.5 58t-143.5 20q-93 0 -155.5 -53.5t-94 -155.5t-31.5 -250q0 -144 25 -243t74.5 -150
t122.5 -51q27 0 54.5 4.5t53.5 11.5v268h-168v291zM690 1919q92 0 134 -44t42 -130t-44 -129t-132 -43t-132 43t-44 129q0 88 42 131t134 43z" />
    <glyph glyph-name="gdot" unicode="&#x121;" horiz-adv-x="1020" 
d="M430 -492q-202 0 -311 83t-109 236q0 89 59 158.5t156 97.5q-51 19 -84.5 62.5t-33.5 101.5q0 68 30 107.5t80 84.5q-63 44 -102 132t-39 190q0 125 47 211t139 131t226 45q40 0 70 -4t52 -10t37 -11h354v-194l-125 -35q14 -34 19.5 -65t5.5 -75q0 -186 -106.5 -286.5
t-302.5 -100.5q-58 0 -85 10q-10 -10 -21.5 -25t-11.5 -39q0 -21 12 -34t38 -19t66 -6h202q140 0 215 -77.5t75 -235.5q0 -210 -139.5 -321.5t-412.5 -111.5zM453 -250q77 0 125.5 16t71.5 46t23 72q0 32 -9 48t-37 22t-84 6h-154q-23 0 -39.5 -13t-25 -37t-8.5 -58
q0 -50 36.5 -76t100.5 -26zM490 592q40 0 60 41.5t20 123.5q0 88 -19.5 128.5t-60.5 40.5q-42 0 -62 -40.5t-20 -126.5q0 -84 19 -125.5t63 -41.5zM525 1589q92 0 134 -44t42 -130t-44 -129t-132 -43t-132 43t-44 129q0 88 42 131t134 43z" />
    <glyph glyph-name="uni0122" unicode="&#x122;" horiz-adv-x="1214" 
d="M604 856h510v-788q-113 -45 -230.5 -66.5t-240.5 -21.5q-180 0 -305.5 88t-191.5 257t-66 410q0 235 75 402t216 256.5t340 89.5q113 0 210.5 -26t170.5 -66l-97 -285q-60 38 -128.5 58t-143.5 20q-93 0 -155.5 -53.5t-94 -155.5t-31.5 -250q0 -144 25 -243t74.5 -150
t122.5 -51q27 0 54.5 4.5t53.5 11.5v268h-168v291zM844 -125v-22q-15 -54 -34.5 -106.5t-43 -102t-51.5 -97.5h-223v29q7 35 15.5 90t14.5 111.5t7 97.5h315z" />
    <glyph glyph-name="uni0123" unicode="&#x123;" horiz-adv-x="1020" 
d="M695 1569v-29q-10 -61 -17.5 -114.5t-11.5 -99.5t-6 -85h-316v23q15 51 34 102t43 102t52 101h222zM430 -492q-202 0 -311 83t-109 236q0 89 59 158.5t156 97.5q-51 19 -84.5 62.5t-33.5 101.5q0 68 30 107.5t80 84.5q-63 44 -102 132t-39 190q0 125 47 211t139 131
t226 45q40 0 70 -4t52 -10t37 -11h354v-194l-125 -35q14 -34 19.5 -65t5.5 -75q0 -186 -106.5 -286.5t-302.5 -100.5q-58 0 -85 10q-10 -10 -21.5 -25t-11.5 -39q0 -21 12 -34t38 -19t66 -6h202q140 0 215 -77.5t75 -235.5q0 -210 -139.5 -321.5t-412.5 -111.5zM453 -250
q77 0 125.5 16t71.5 46t23 72q0 32 -9 48t-37 22t-84 6h-154q-23 0 -39.5 -13t-25 -37t-8.5 -58q0 -50 36.5 -76t100.5 -26zM490 592q40 0 60 41.5t20 123.5q0 88 -19.5 128.5t-60.5 40.5q-42 0 -62 -40.5t-20 -126.5q0 -84 19 -125.5t63 -41.5z" />
    <glyph glyph-name="Hcircumflex" unicode="&#x124;" horiz-adv-x="1247" 
d="M1126 0h-348v610h-309v-610h-348v1462h348v-553h309v553h348v-1462zM775 1899q24 -45 53 -93.5t64.5 -100t76.5 -105.5v-29h-203q-31 25 -66.5 62t-76.5 88q-43 -52 -78 -90t-61 -60h-207v29q28 35 67.5 91.5t76 114t53.5 93.5h301z" />
    <glyph glyph-name="hcircumflex" unicode="&#x125;" horiz-adv-x="1083" 
d="M434 1556v-284q0 -70 -6 -140.5t-20 -138.5h18q23 54 57 89.5t81.5 53t107.5 17.5q98 0 167.5 -49t106.5 -142t37 -225v-737h-332v631q0 113 -21.5 170t-66.5 57q-54 0 -81.5 -36t-37.5 -111.5t-10 -192.5v-518h-332v1556h332zM420 1993q24 -45 53 -93.5t64.5 -100
t76.5 -105.5v-29h-203q-31 25 -66.5 62t-76.5 88q-43 -52 -78 -90t-61 -60h-207v29q28 35 67.5 91.5t76 114t53.5 93.5h301z" />
    <glyph glyph-name="Hbar" unicode="&#x126;" horiz-adv-x="1247" 
d="M121 0v1067h-131v233h131v162h348v-162h309v162h348v-162h131v-233h-131v-1067h-348v610h-309v-610h-348zM469 909h309v158h-309v-158z" />
    <glyph glyph-name="hbar" unicode="&#x127;" horiz-adv-x="1083" 
d="M436 1556v-147h180v-233h-180v-15q0 -38 -7 -92.5t-21 -122.5h18q23 54 57 89.5t81.5 53t107.5 17.5q98 0 167.5 -49t106.5 -142t37 -225v-690h-332v584q0 113 -21.5 170t-66.5 57q-50 0 -78 -31t-39.5 -105t-11.5 -204v-471h-332v1176h-116v233h116v147h334z" />
    <glyph glyph-name="Itilde" unicode="&#x128;" horiz-adv-x="590" 
d="M121 0v1462h348v-1462h-348zM-60 1567q0 48 5.5 106.5t24 112t55 88.5t97.5 35q43 0 82 -14.5t75 -33.5t71 -33.5t69 -14.5q26 0 39 25.5t21 72.5h172q0 -167 -54 -254.5t-133 -87.5q-40 0 -81 14.5t-80 33.5t-72.5 33.5t-59.5 14.5q-16 0 -35 -21t-24 -77h-172z" />
    <glyph glyph-name="itilde" unicode="&#x129;" horiz-adv-x="543" 
d="M436 0h-332v1133h332v-1133zM-86 1237q0 48 5.5 106.5t24 112t55 88.5t97.5 35q43 0 82 -14.5t75 -33.5t71 -33.5t69 -14.5q26 0 39 25.5t21 72.5h172q0 -167 -54 -254.5t-133 -87.5q-40 0 -81 14.5t-80 33.5t-72.5 33.5t-59.5 14.5q-16 0 -35 -21t-24 -77h-172z" />
    <glyph glyph-name="Imacron" unicode="&#x12a;" horiz-adv-x="590" 
d="M121 0v1462h348v-1462h-348zM600 1837v-235h-608v235h608z" />
    <glyph glyph-name="imacron" unicode="&#x12b;" horiz-adv-x="543" 
d="M436 0h-332v1133h332v-1133zM573 1507v-235h-608v235h608z" />
    <glyph glyph-name="Ibreve" unicode="&#x12c;" horiz-adv-x="590" 
d="M121 0v1462h348v-1462h-348zM620 1942q0 -114 -44 -197.5t-118 -128.5t-165 -45q-142 0 -233 94t-91 277h194q4 -49 18.5 -80.5t42 -46.5t69.5 -15q41 0 70 13.5t45 45t18 83.5h194z" />
    <glyph glyph-name="ibreve" unicode="&#x12d;" horiz-adv-x="543" 
d="M436 0h-332v1133h332v-1133zM596 1612q0 -114 -44 -197.5t-118 -128.5t-165 -45q-142 0 -233 94t-91 277h194q4 -49 18.5 -80.5t42 -46.5t69.5 -15q41 0 70 13.5t45 45t18 83.5h194z" />
    <glyph glyph-name="Iogonek" unicode="&#x12e;" horiz-adv-x="590" 
d="M121 0v1462h348v-1462h-348zM338 -190q0 -34 22 -58t62 -24q28 0 46 6.5t34 15.5v-211q-25 -10 -64 -20.5t-90 -10.5q-130 0 -195 61t-65 167q0 46 16.5 96.5t56.5 102t109 100.5l170 -35q-63 -67 -82.5 -107t-19.5 -83z" />
    <glyph glyph-name="iogonek" unicode="&#x12f;" horiz-adv-x="543" 
d="M436 1133v-1133h-332v1133h332zM270 1589q92 0 134 -44t42 -130t-44 -129t-132 -43q-87 0 -131.5 43t-44.5 129q0 88 42 131t134 43zM287 -190q0 -34 22 -58t62 -24q28 0 46 6.5t34 15.5v-211q-25 -10 -64 -20.5t-90 -10.5q-130 0 -195 61t-65 167q0 46 16.5 96.5
t56.5 102t109 100.5l170 -35q-63 -67 -82.5 -107t-19.5 -83z" />
    <glyph glyph-name="Idotaccent" unicode="&#x130;" horiz-adv-x="590" 
d="M121 0v1462h348v-1462h-348zM295 1919q92 0 134 -44t42 -130t-44 -129t-132 -43t-132 43t-44 129q0 88 42 131t134 43z" />
    <glyph glyph-name="dotlessi" unicode="&#x131;" horiz-adv-x="543" 
d="M436 0h-332v1133h332v-1133z" />
    <glyph glyph-name="IJ" unicode="&#x132;" horiz-adv-x="1184" 
d="M121 0v1462h348v-1462h-348zM635 -459q-44 0 -87 5t-83 16v295q25 -10 53 -15.5t60 -5.5q53 0 83.5 23.5t43 80t12.5 156.5v1366h346v-1349q0 -221 -50.5 -346t-146 -175.5t-231.5 -50.5z" />
    <glyph glyph-name="ij" unicode="&#x133;" horiz-adv-x="1085" 
d="M436 1133v-1133h-332v1133h332zM270 1589q92 0 134 -44t42 -130t-44 -129t-132 -43q-87 0 -131.5 43t-44.5 129q0 88 42 131t134 43zM637 -492q-41 0 -86 6t-86 19v281q25 -10 48 -14.5t44 -4.5q47 0 68.5 35t21.5 104v1199h332v-1225q0 -137 -41 -225t-117.5 -130.5
t-183.5 -44.5zM637 1415q0 88 42 131t134 43t134 -44t42 -130t-44 -129t-132 -43q-87 0 -131.5 43t-44.5 129z" />
    <glyph glyph-name="Jcircumflex" unicode="&#x134;" horiz-adv-x="594" 
d="M45 -459q-44 0 -87 5t-83 16v295q25 -10 53 -15.5t60 -5.5q53 0 83.5 23.5t43 80t12.5 156.5v1366h346v-1349q0 -221 -50.5 -346t-146 -175.5t-231.5 -50.5zM453 1899q24 -45 53 -93.5t64.5 -100t76.5 -105.5v-29h-203q-31 25 -66.5 62t-76.5 88q-43 -52 -78 -90t-61 -60
h-207v29q28 35 67.5 91.5t76 114t53.5 93.5h301z" />
    <glyph glyph-name="jcircumflex" unicode="&#x135;" horiz-adv-x="543" 
d="M94 -492q-37 0 -90.5 8t-81.5 17v281q25 -10 48 -14.5t44 -4.5q47 0 68.5 32.5t21.5 96.5v1209h332v-1225q0 -124 -40 -213.5t-116 -138t-186 -48.5zM422 1569q24 -45 53 -93.5t64.5 -100t76.5 -105.5v-29h-203q-31 25 -66.5 62t-76.5 88q-43 -52 -78 -90t-61 -60h-207
v29q28 35 67.5 91.5t76 114t53.5 93.5h301z" />
    <glyph glyph-name="uni0136" unicode="&#x136;" horiz-adv-x="1130" 
d="M1149 0h-385l-213 545l-82 -56v-489h-348v1462h348v-635q9 44 29.5 90t46.5 97l235 448h375l-352 -655zM786 -125v-22q-15 -54 -34.5 -106.5t-43 -102t-51.5 -97.5h-223v29q7 35 15.5 90t14.5 111.5t7 97.5h315z" />
    <glyph glyph-name="uni0137" unicode="&#x137;" horiz-adv-x="1067" 
d="M434 1556v-618q0 -78 -3 -154.5t-11 -150.5h6q22 47 44.5 90.5t41.5 75.5l197 334h356l-305 -482l317 -651h-364l-183 412l-96 -82v-330h-332v1556h332zM737 -125v-22q-15 -54 -34.5 -106.5t-43 -102t-51.5 -97.5h-223v29q7 35 15.5 90t14.5 111.5t7 97.5h315z" />
    <glyph glyph-name="kgreenlandic" unicode="&#x138;" horiz-adv-x="1067" 
d="M1065 1133l-305 -482l317 -651h-364l-183 412l-96 -82v-330h-332v1133h332v-195q0 -78 -3 -154.5t-11 -150.5h6q22 47 44.5 90.5t41.5 75.5l197 334h356z" />
    <glyph glyph-name="Lacute" unicode="&#x139;" horiz-adv-x="876" 
d="M121 0v1462h348v-1163h381v-299h-729zM659 1899v-21q-21 -26 -54.5 -63.5t-73 -80t-81 -85t-79.5 -78.5h-244v29q33 54 61 105.5t53 100t46 93.5h372z" />
    <glyph glyph-name="lacute" unicode="&#x13a;" horiz-adv-x="539" 
d="M434 0h-332v1556h332v-1556zM630 1991v-21q-21 -26 -54.5 -63.5t-73 -80t-81 -85t-79.5 -78.5h-244v29q33 54 61 105.5t53 100t46 93.5h372z" />
    <glyph glyph-name="uni013B" unicode="&#x13b;" horiz-adv-x="876" 
d="M121 0v1462h348v-1163h381v-299h-729zM663 -125v-22q-15 -54 -34.5 -106.5t-43 -102t-51.5 -97.5h-223v29q7 35 15.5 90t14.5 111.5t7 97.5h315z" />
    <glyph glyph-name="uni013C" unicode="&#x13c;" horiz-adv-x="539" 
d="M434 0h-332v1556h332v-1556zM446 -125v-22q-15 -54 -34.5 -106.5t-43 -102t-51.5 -97.5h-223v29q7 35 15.5 90t14.5 111.5t7 97.5h315z" />
    <glyph glyph-name="Lcaron" unicode="&#x13d;" horiz-adv-x="876" 
d="M121 0v1462h348v-1163h381v-299h-729zM962 1462v-22q-15 -55 -34.5 -107.5t-43 -101.5t-51.5 -96h-223v28q5 26 11 64.5t12 81t9.5 83t4.5 70.5h315z" />
    <glyph glyph-name="lcaron" unicode="&#x13e;" horiz-adv-x="539" 
d="M434 0h-332v1556h332v-1556zM852 1556v-22q-15 -55 -34.5 -107.5t-43 -101.5t-51.5 -96h-223v28q5 26 11 64.5t12 81t9.5 83t4.5 70.5h315z" />
    <glyph glyph-name="Ldot" unicode="&#x13f;" horiz-adv-x="876" 
d="M121 0v1462h348v-1163h381v-299h-729zM735 975q92 0 134 -44t42 -130t-44 -129t-132 -43t-132 43t-44 129q0 88 42 131t134 43z" />
    <glyph glyph-name="ldot" unicode="&#x140;" horiz-adv-x="786" 
d="M434 0h-332v1556h332v-1556zM666 954q92 0 134 -44t42 -130t-44 -129t-132 -43t-132 43t-44 129q0 88 42 131t134 43z" />
    <glyph glyph-name="Lslash" unicode="&#x141;" horiz-adv-x="928" 
d="M170 0v487l-64 -47l-161 201l225 180v641h348v-381l131 107l162 -203l-293 -237v-449h381v-299h-729z" />
    <glyph glyph-name="lslash" unicode="&#x142;" horiz-adv-x="657" 
d="M164 0v483l-60 -49l-161 203l221 180v739h332v-491l59 47l162 -201l-221 -180v-731h-332z" />
    <glyph glyph-name="Nacute" unicode="&#x143;" horiz-adv-x="1343" 
d="M1223 0h-406l-381 909h-8q6 -80 9.5 -148.5t5 -124t1.5 -97.5v-539h-323v1462h403l379 -884h8q-4 74 -7 138t-5 118t-2 98v530h326v-1462zM1032 1899v-21q-21 -26 -54.5 -63.5t-73 -80t-81 -85t-79.5 -78.5h-244v29q33 54 61 105.5t53 100t46 93.5h372z" />
    <glyph glyph-name="nacute" unicode="&#x144;" horiz-adv-x="1083" 
d="M672 1153q147 0 229 -109t82 -307v-737h-332v631q0 112 -18 169.5t-80 57.5q-70 0 -94.5 -74t-24.5 -266v-518h-332v1133h260l37 -140h19q26 54 62 89.5t84 53t108 17.5zM923 1569v-21q-21 -26 -54.5 -63.5t-73 -80t-81 -85t-79.5 -78.5h-244v29q33 54 61 105.5t53 100
t46 93.5h372z" />
    <glyph glyph-name="uni0145" unicode="&#x145;" horiz-adv-x="1343" 
d="M1223 0h-406l-381 909h-8q6 -80 9.5 -148.5t5 -124t1.5 -97.5v-539h-323v1462h403l379 -884h8q-4 74 -7 138t-5 118t-2 98v530h326v-1462zM848 -125v-22q-15 -54 -34.5 -106.5t-43 -102t-51.5 -97.5h-223v29q7 35 15.5 90t14.5 111.5t7 97.5h315z" />
    <glyph glyph-name="uni0146" unicode="&#x146;" horiz-adv-x="1083" 
d="M672 1153q147 0 229 -109t82 -307v-737h-332v631q0 112 -18 169.5t-80 57.5q-70 0 -94.5 -74t-24.5 -266v-518h-332v1133h260l37 -140h19q26 54 62 89.5t84 53t108 17.5zM719 -125v-22q-15 -54 -34.5 -106.5t-43 -102t-51.5 -97.5h-223v29q7 35 15.5 90t14.5 111.5
t7 97.5h315z" />
    <glyph glyph-name="Ncaron" unicode="&#x147;" horiz-adv-x="1343" 
d="M1223 0h-406l-381 909h-8q6 -80 9.5 -148.5t5 -124t1.5 -97.5v-539h-323v1462h403l379 -884h8q-4 74 -7 138t-5 118t-2 98v530h326v-1462zM523 1571q-17 36 -54 94t-76.5 115t-66.5 90v29h207q31 -26 65 -63t74 -87q41 51 76.5 88t66.5 62h203v-29q-28 -39 -65.5 -94
t-72 -110t-56.5 -95h-301z" />
    <glyph glyph-name="ncaron" unicode="&#x148;" horiz-adv-x="1083" 
d="M672 1153q147 0 229 -109t82 -307v-737h-332v631q0 112 -18 169.5t-80 57.5q-70 0 -94.5 -74t-24.5 -266v-518h-332v1133h260l37 -140h19q26 54 62 89.5t84 53t108 17.5zM414 1241q-17 36 -54 94t-76.5 115t-66.5 90v29h207q31 -26 65 -63t74 -87q41 51 76.5 88t66.5 62
h203v-29q-28 -39 -65.5 -94t-72 -110t-56.5 -95h-301z" />
    <glyph glyph-name="napostrophe" unicode="&#x149;" horiz-adv-x="1389" 
d="M977 1153q147 0 229 -109t82 -307v-737h-332v631q0 112 -18 169.5t-80 57.5q-70 0 -94.5 -74t-24.5 -266v-518h-332v1133h260l37 -140h19q26 54 62 89.5t84 53t108 17.5zM401 1462l10 -22q-15 -113 -34.5 -213t-44 -186.5t-54.5 -161.5h-274q11 54 22.5 131.5t22 162.5
t18.5 161.5t10 127.5h324z" />
    <glyph glyph-name="Eng" unicode="&#x14a;" horiz-adv-x="1343" 
d="M817 -459q-44 0 -87 5t-83 18v295q25 -11 53 -17t60 -6q49 0 78.5 20t43 59t13.5 95l-461 948h-6q5 -80 8 -148t4.5 -123.5t1.5 -98.5v-588h-321v1462h403l379 -776h6q-4 74 -6.5 138t-4 118.5t-1.5 99.5v420h326v-1382q0 -182 -42 -302t-131.5 -178.5t-232.5 -58.5z" />
    <glyph glyph-name="eng" unicode="&#x14b;" horiz-adv-x="1083" 
d="M641 -492q-41 0 -86 6t-86 19v281q25 -10 47.5 -14.5t44.5 -4.5q47 0 68.5 35t21.5 104v697q0 112 -18.5 169.5t-69.5 57.5q-43 0 -71.5 -25t-43 -97.5t-14.5 -217.5v-518h-332v1133h260l37 -140h19q26 54 62 89.5t84 53t108 17.5q98 0 167.5 -49t106.5 -142t37 -225
v-829q0 -105 -35 -196.5t-110.5 -147.5t-196.5 -56z" />
    <glyph glyph-name="Omacron" unicode="&#x14c;" horiz-adv-x="1272" 
d="M1192 733q0 -184 -35.5 -324.5t-106 -236t-174 -144t-239.5 -48.5q-135 0 -239 49t-175 144.5t-107 236.5t-36 325q0 244 63.5 411t188 253t305.5 86q182 0 305.5 -85t186.5 -252.5t63 -414.5zM442 733q0 -149 22 -249t65.5 -149.5t107.5 -49.5q66 0 108.5 48t63 147.5
t20.5 252.5q0 232 -47.5 342.5t-144.5 110.5q-64 0 -107.5 -50.5t-65.5 -151t-22 -251.5zM940 1837v-235h-608v235h608z" />
    <glyph glyph-name="omacron" unicode="&#x14d;" horiz-adv-x="1057" 
d="M989 569q0 -109 -23.5 -213.5t-77.5 -189.5t-142.5 -135.5t-219.5 -50.5q-120 0 -207 49.5t-143 133t-83 189t-27 217.5q0 163 47 295.5t149.5 210.5t267.5 78q138 0 241 -68.5t160.5 -198.5t57.5 -317zM401 565q0 -101 13.5 -170t41.5 -104t72 -35q47 0 74 34.5
t39 104.5t12 174t-12 172t-39 102t-74 34q-66 0 -96.5 -76t-30.5 -236zM831 1507v-235h-608v235h608z" />
    <glyph glyph-name="Obreve" unicode="&#x14e;" horiz-adv-x="1272" 
d="M1192 733q0 -184 -35.5 -324.5t-106 -236t-174 -144t-239.5 -48.5q-135 0 -239 49t-175 144.5t-107 236.5t-36 325q0 244 63.5 411t188 253t305.5 86q182 0 305.5 -85t186.5 -252.5t63 -414.5zM442 733q0 -149 22 -249t65.5 -149.5t107.5 -49.5q66 0 108.5 48t63 147.5
t20.5 252.5q0 232 -47.5 342.5t-144.5 110.5q-64 0 -107.5 -50.5t-65.5 -151t-22 -251.5zM962 1942q0 -114 -44 -197.5t-118 -128.5t-165 -45q-142 0 -233 94t-91 277h194q4 -49 18.5 -80.5t42 -46.5t69.5 -15q41 0 70 13.5t45 45t18 83.5h194z" />
    <glyph glyph-name="obreve" unicode="&#x14f;" horiz-adv-x="1057" 
d="M989 569q0 -109 -23.5 -213.5t-77.5 -189.5t-142.5 -135.5t-219.5 -50.5q-120 0 -207 49.5t-143 133t-83 189t-27 217.5q0 163 47 295.5t149.5 210.5t267.5 78q138 0 241 -68.5t160.5 -198.5t57.5 -317zM401 565q0 -101 13.5 -170t41.5 -104t72 -35q47 0 74 34.5
t39 104.5t12 174t-12 172t-39 102t-74 34q-66 0 -96.5 -76t-30.5 -236zM854 1612q0 -114 -44 -197.5t-118 -128.5t-165 -45q-142 0 -233 94t-91 277h194q4 -49 18.5 -80.5t42 -46.5t69.5 -15q41 0 70 13.5t45 45t18 83.5h194z" />
    <glyph glyph-name="Ohungarumlaut" unicode="&#x150;" horiz-adv-x="1272" 
d="M1192 733q0 -184 -35.5 -324.5t-106 -236t-174 -144t-239.5 -48.5q-135 0 -239 49t-175 144.5t-107 236.5t-36 325q0 244 63.5 411t188 253t305.5 86q182 0 305.5 -85t186.5 -252.5t63 -414.5zM442 733q0 -149 22 -249t65.5 -149.5t107.5 -49.5q66 0 108.5 48t63 147.5
t20.5 252.5q0 232 -47.5 342.5t-144.5 110.5q-64 0 -107.5 -50.5t-65.5 -151t-22 -251.5zM1135 1899v-21q-12 -29 -42.5 -68.5t-70.5 -82.5t-82 -83.5t-78 -72.5h-170v29q37 74 65.5 131.5t48.5 100t30 67.5h299zM770 1899v-21q-14 -31 -43.5 -69.5t-69 -80t-83.5 -82
t-88 -75.5h-156v29q37 75 65 133t47.5 100t30.5 66h297z" />
    <glyph glyph-name="ohungarumlaut" unicode="&#x151;" horiz-adv-x="1057" 
d="M989 569q0 -109 -23.5 -213.5t-77.5 -189.5t-142.5 -135.5t-219.5 -50.5q-120 0 -207 49.5t-143 133t-83 189t-27 217.5q0 163 47 295.5t149.5 210.5t267.5 78q138 0 241 -68.5t160.5 -198.5t57.5 -317zM401 565q0 -101 13.5 -170t41.5 -104t72 -35q47 0 74 34.5
t39 104.5t12 174t-12 172t-39 102t-74 34q-66 0 -96.5 -76t-30.5 -236zM1026 1569v-21q-12 -29 -42.5 -68.5t-70.5 -82.5t-82 -83.5t-78 -72.5h-170v29q37 74 65.5 131.5t48.5 100t30 67.5h299zM661 1569v-21q-14 -31 -43.5 -69.5t-69 -80t-83.5 -82t-88 -75.5h-156v29
q37 75 65 133t47.5 100t30.5 66h297z" />
    <glyph glyph-name="OE" unicode="&#x152;" horiz-adv-x="1536" 
d="M612 1485q45 0 82 -6t66 -17h694v-295h-356v-264h329v-295h-329v-309h356v-299h-694q-28 -9 -63.5 -14.5t-80.5 -5.5q-188 0 -306.5 99t-174 270t-55.5 386q0 218 56.5 387.5t174 266t301.5 96.5zM637 1186q-48 0 -84.5 -28.5t-61 -85t-37 -141.5t-12.5 -198
q0 -149 22 -249t65.5 -149.5t107.5 -49.5q38 0 69 4t54 10v858q-23 14 -54 21.5t-69 7.5z" />
    <glyph glyph-name="oe" unicode="&#x153;" horiz-adv-x="1567" 
d="M1090 1151q136 0 229.5 -60t141.5 -175t48 -281v-174h-538q0 -114 46 -165.5t144 -51.5q80 0 147.5 20t143.5 68v-271q-72 -43 -152 -62t-178 -19q-103 0 -177 30.5t-130 93.5q-50 -63 -122.5 -93.5t-166.5 -30.5q-151 0 -253.5 77.5t-154.5 210.5t-52 301q0 170 50 302
t153 207t261 75q89 0 159.5 -29.5t121.5 -89.5q34 39 75 65t91.5 39t112.5 13zM528 877q-66 0 -96.5 -76t-30.5 -236q0 -101 13.5 -170t41.5 -104t72 -35q47 0 74 34.5t39 104.5t12 174t-12 172t-39 102t-74 34zM1090 895q-51 0 -85 -45t-34 -156h233q0 72 -14 116.5
t-39.5 64.5t-60.5 20z" />
    <glyph glyph-name="Racute" unicode="&#x154;" horiz-adv-x="1116" 
d="M512 1462q170 0 283 -48t169 -143.5t56 -240.5q0 -85 -22 -157t-66 -131t-111 -105l305 -637h-383l-229 549h-45v-549h-348v1462h391zM508 1171h-39v-352h37q78 0 117 48t39 145q0 80 -38.5 119.5t-115.5 39.5zM933 1899v-21q-21 -26 -54.5 -63.5t-73 -80t-81 -85
t-79.5 -78.5h-244v29q33 54 61 105.5t53 100t46 93.5h372z" />
    <glyph glyph-name="racute" unicode="&#x155;" horiz-adv-x="768" 
d="M659 1153q20 0 41 -2t52 -10l-27 -357q-20 7 -45 10t-57 3q-49 0 -84.5 -15t-58 -43.5t-33.5 -71t-11 -98.5v-569h-332v1133h254l48 -181h16q20 46 54 92.5t80.5 77.5t102.5 31zM780 1569v-21q-21 -26 -54.5 -63.5t-73 -80t-81 -85t-79.5 -78.5h-244v29q33 54 61 105.5
t53 100t46 93.5h372z" />
    <glyph glyph-name="uni0156" unicode="&#x156;" horiz-adv-x="1116" 
d="M512 1462q170 0 283 -48t169 -143.5t56 -240.5q0 -85 -22 -157t-66 -131t-111 -105l305 -637h-383l-229 549h-45v-549h-348v1462h391zM508 1171h-39v-352h37q78 0 117 48t39 145q0 80 -38.5 119.5t-115.5 39.5zM756 -125v-22q-15 -54 -34.5 -106.5t-43 -102t-51.5 -97.5
h-223v29q7 35 15.5 90t14.5 111.5t7 97.5h315z" />
    <glyph glyph-name="uni0157" unicode="&#x157;" horiz-adv-x="768" 
d="M659 1153q20 0 41 -2t52 -10l-27 -357q-20 7 -45 10t-57 3q-49 0 -84.5 -15t-58 -43.5t-33.5 -71t-11 -98.5v-569h-332v1133h254l48 -181h16q20 46 54 92.5t80.5 77.5t102.5 31zM461 -125v-22q-15 -54 -34.5 -106.5t-43 -102t-51.5 -97.5h-223v29q7 35 15.5 90
t14.5 111.5t7 97.5h315z" />
    <glyph glyph-name="Rcaron" unicode="&#x158;" horiz-adv-x="1116" 
d="M512 1462q170 0 283 -48t169 -143.5t56 -240.5q0 -85 -22 -157t-66 -131t-111 -105l305 -637h-383l-229 549h-45v-549h-348v1462h391zM508 1171h-39v-352h37q78 0 117 48t39 145q0 80 -38.5 119.5t-115.5 39.5zM424 1571q-17 36 -54 94t-76.5 115t-66.5 90v29h207
q31 -26 65 -63t74 -87q41 51 76.5 88t66.5 62h203v-29q-28 -39 -65.5 -94t-72 -110t-56.5 -95h-301z" />
    <glyph glyph-name="rcaron" unicode="&#x159;" horiz-adv-x="768" 
d="M659 1153q20 0 41 -2t52 -10l-27 -357q-20 7 -45 10t-57 3q-49 0 -84.5 -15t-58 -43.5t-33.5 -71t-11 -98.5v-569h-332v1133h254l48 -181h16q20 46 54 92.5t80.5 77.5t102.5 31zM271 1241q-17 36 -54 94t-76.5 115t-66.5 90v29h207q31 -26 65 -63t74 -87q41 51 76.5 88
t66.5 62h203v-29q-28 -39 -65.5 -94t-72 -110t-56.5 -95h-301z" />
    <glyph glyph-name="Sacute" unicode="&#x15a;" horiz-adv-x="930" 
d="M879 444q0 -136 -56.5 -240.5t-159.5 -164t-243 -59.5q-63 0 -122.5 8.5t-118.5 28.5t-122 55v352q86 -58 176.5 -90.5t165.5 -32.5q43 0 70.5 14t41 38.5t13.5 56.5t-11 59.5t-49 61t-118 83.5q-64 41 -116 82.5t-88.5 91t-56 114.5t-19.5 153q0 130 51 226t150 149
t243 53q91 0 183 -26t186 -79l-93 -305q-76 48 -141 71t-121 23q-37 0 -60.5 -12.5t-34.5 -33.5t-11 -48q0 -39 13 -67t53.5 -59.5t123.5 -82.5q88 -54 148.5 -114t91.5 -134t31 -172zM856 1899v-21q-21 -26 -54.5 -63.5t-73 -80t-81 -85t-79.5 -78.5h-244v29
q33 54 61 105.5t53 100t46 93.5h372z" />
    <glyph glyph-name="sacute" unicode="&#x15b;" horiz-adv-x="811" 
d="M762 348q0 -122 -46 -204t-132.5 -123t-208.5 -41q-83 0 -163 14t-159 49v313q62 -37 136.5 -64.5t150.5 -27.5q46 0 69 15.5t23 50.5q0 19 -9.5 36.5t-45.5 42.5t-115 64q-69 35 -116 85.5t-71 115.5t-24 145q0 158 96 246t273 88q88 0 166 -24.5t159 -71.5l-81 -252
q-51 34 -108 59t-116 25q-35 0 -52 -13t-17 -40q0 -18 9.5 -33t43.5 -37.5t106 -65.5q69 -38 121 -87t81.5 -113.5t29.5 -151.5zM778 1569v-21q-21 -26 -54.5 -63.5t-73 -80t-81 -85t-79.5 -78.5h-244v29q33 54 61 105.5t53 100t46 93.5h372z" />
    <glyph glyph-name="Scircumflex" unicode="&#x15c;" horiz-adv-x="930" 
d="M879 444q0 -136 -56.5 -240.5t-159.5 -164t-243 -59.5q-63 0 -122.5 8.5t-118.5 28.5t-122 55v352q86 -58 176.5 -90.5t165.5 -32.5q43 0 70.5 14t41 38.5t13.5 56.5t-11 59.5t-49 61t-118 83.5q-64 41 -116 82.5t-88.5 91t-56 114.5t-19.5 153q0 130 51 226t150 149
t243 53q91 0 183 -26t186 -79l-93 -305q-76 48 -141 71t-121 23q-37 0 -60.5 -12.5t-34.5 -33.5t-11 -48q0 -39 13 -67t53.5 -59.5t123.5 -82.5q88 -54 148.5 -114t91.5 -134t31 -172zM648 1899q24 -45 53 -93.5t64.5 -100t76.5 -105.5v-29h-203q-31 25 -66.5 62t-76.5 88
q-43 -52 -78 -90t-61 -60h-207v29q28 35 67.5 91.5t76 114t53.5 93.5h301z" />
    <glyph glyph-name="scircumflex" unicode="&#x15d;" horiz-adv-x="811" 
d="M762 348q0 -122 -46 -204t-132.5 -123t-208.5 -41q-83 0 -163 14t-159 49v313q62 -37 136.5 -64.5t150.5 -27.5q46 0 69 15.5t23 50.5q0 19 -9.5 36.5t-45.5 42.5t-115 64q-69 35 -116 85.5t-71 115.5t-24 145q0 158 96 246t273 88q88 0 166 -24.5t159 -71.5l-81 -252
q-51 34 -108 59t-116 25q-35 0 -52 -13t-17 -40q0 -18 9.5 -33t43.5 -37.5t106 -65.5q69 -38 121 -87t81.5 -113.5t29.5 -151.5zM570 1569q24 -45 53 -93.5t64.5 -100t76.5 -105.5v-29h-203q-31 25 -66.5 62t-76.5 88q-43 -52 -78 -90t-61 -60h-207v29q28 35 67.5 91.5
t76 114t53.5 93.5h301z" />
    <glyph glyph-name="Scedilla" unicode="&#x15e;" horiz-adv-x="930" 
d="M879 444q0 -136 -56.5 -240.5t-159.5 -164t-243 -59.5q-63 0 -122.5 8.5t-118.5 28.5t-122 55v352q86 -58 176.5 -90.5t165.5 -32.5q43 0 70.5 14t41 38.5t13.5 56.5t-11 59.5t-49 61t-118 83.5q-64 41 -116 82.5t-88.5 91t-56 114.5t-19.5 153q0 130 51 226t150 149
t243 53q91 0 183 -26t186 -79l-93 -305q-76 48 -141 71t-121 23q-37 0 -60.5 -12.5t-34.5 -33.5t-11 -48q0 -39 13 -67t53.5 -59.5t123.5 -82.5q88 -54 148.5 -114t91.5 -134t31 -172zM656 -258q0 -107 -67.5 -170.5t-195.5 -63.5q-50 0 -95 5t-83 14v184q34 -7 62 -11.5
t51 -4.5q37 0 56.5 14t19.5 43q0 35 -36.5 55t-98.5 23l69 170h156l-29 -70q60 -8 102.5 -33t65.5 -64.5t23 -90.5z" />
    <glyph glyph-name="scedilla" unicode="&#x15f;" horiz-adv-x="811" 
d="M762 348q0 -122 -46 -204t-132.5 -123t-208.5 -41q-83 0 -163 14t-159 49v313q62 -37 136.5 -64.5t150.5 -27.5q46 0 69 15.5t23 50.5q0 19 -9.5 36.5t-45.5 42.5t-115 64q-69 35 -116 85.5t-71 115.5t-24 145q0 158 96 246t273 88q88 0 166 -24.5t159 -71.5l-81 -252
q-51 34 -108 59t-116 25q-35 0 -52 -13t-17 -40q0 -18 9.5 -33t43.5 -37.5t106 -65.5q69 -38 121 -87t81.5 -113.5t29.5 -151.5zM596 -258q0 -107 -67.5 -170.5t-195.5 -63.5q-50 0 -95 5t-83 14v184q34 -7 62 -11.5t51 -4.5q37 0 56.5 14t19.5 43q0 35 -36.5 55t-98.5 23
l69 170h156l-29 -70q60 -8 102.5 -33t65.5 -64.5t23 -90.5z" />
    <glyph glyph-name="Scaron" unicode="&#x160;" horiz-adv-x="930" 
d="M879 444q0 -136 -56.5 -240.5t-159.5 -164t-243 -59.5q-63 0 -122.5 8.5t-118.5 28.5t-122 55v352q86 -58 176.5 -90.5t165.5 -32.5q43 0 70.5 14t41 38.5t13.5 56.5t-11 59.5t-49 61t-118 83.5q-64 41 -116 82.5t-88.5 91t-56 114.5t-19.5 153q0 130 51 226t150 149
t243 53q91 0 183 -26t186 -79l-93 -305q-76 48 -141 71t-121 23q-37 0 -60.5 -12.5t-34.5 -33.5t-11 -48q0 -39 13 -67t53.5 -59.5t123.5 -82.5q88 -54 148.5 -114t91.5 -134t31 -172zM347 1571q-17 36 -54 94t-76.5 115t-66.5 90v29h207q31 -26 65 -63t74 -87
q41 51 76.5 88t66.5 62h203v-29q-28 -39 -65.5 -94t-72 -110t-56.5 -95h-301z" />
    <glyph glyph-name="scaron" unicode="&#x161;" horiz-adv-x="811" 
d="M762 348q0 -122 -46 -204t-132.5 -123t-208.5 -41q-83 0 -163 14t-159 49v313q62 -37 136.5 -64.5t150.5 -27.5q46 0 69 15.5t23 50.5q0 19 -9.5 36.5t-45.5 42.5t-115 64q-69 35 -116 85.5t-71 115.5t-24 145q0 158 96 246t273 88q88 0 166 -24.5t159 -71.5l-81 -252
q-51 34 -108 59t-116 25q-35 0 -52 -13t-17 -40q0 -18 9.5 -33t43.5 -37.5t106 -65.5q69 -38 121 -87t81.5 -113.5t29.5 -151.5zM269 1241q-17 36 -54 94t-76.5 115t-66.5 90v29h207q31 -26 65 -63t74 -87q41 51 76.5 88t66.5 62h203v-29q-28 -39 -65.5 -94t-72 -110
t-56.5 -95h-301z" />
    <glyph glyph-name="uni0162" unicode="&#x162;" horiz-adv-x="942" 
d="M645 0h-346v1161h-264v301h872v-301h-262v-1161zM691 -258q0 -107 -67.5 -170.5t-195.5 -63.5q-50 0 -95 5t-83 14v184q34 -7 62 -11.5t51 -4.5q37 0 56.5 14t19.5 43q0 35 -36.5 55t-98.5 23l69 170h156l-29 -70q60 -8 102.5 -33t65.5 -64.5t23 -90.5z" />
    <glyph glyph-name="uni0163" unicode="&#x163;" horiz-adv-x="725" 
d="M543 266q31 0 67.5 10.5t77.5 28.5v-262q-55 -31 -115.5 -47t-130.5 -16q-111 0 -180 42.5t-101 130t-32 220.5v487h-115v176l144 86l78 238h225v-227h213v-273h-213v-483q0 -55 20 -83t62 -28zM646 -258q0 -107 -67.5 -170.5t-195.5 -63.5q-50 0 -95 5t-83 14v184
q34 -7 62 -11.5t51 -4.5q37 0 56.5 14t19.5 43q0 35 -36.5 55t-98.5 23l69 170h156l-29 -70q60 -8 102.5 -33t65.5 -64.5t23 -90.5z" />
    <glyph glyph-name="Tcaron" unicode="&#x164;" horiz-adv-x="942" 
d="M645 0h-346v1161h-264v301h872v-301h-262v-1161zM322 1571q-17 36 -54 94t-76.5 115t-66.5 90v29h207q31 -26 65 -63t74 -87q41 51 76.5 88t66.5 62h203v-29q-28 -39 -65.5 -94t-72 -110t-56.5 -95h-301z" />
    <glyph glyph-name="tcaron" unicode="&#x165;" horiz-adv-x="725" 
d="M543 266q31 0 67.5 10.5t77.5 28.5v-262q-55 -31 -115.5 -47t-130.5 -16q-111 0 -180 42.5t-101 130t-32 220.5v487h-115v176l144 86l78 238h225v-227h213v-273h-213v-483q0 -55 20 -83t62 -28zM1046 1556v-22q-15 -55 -34.5 -107.5t-43 -101.5t-51.5 -96h-223v28
q5 26 11 64.5t12 81t9.5 83t4.5 70.5h315z" />
    <glyph glyph-name="Tbar" unicode="&#x166;" horiz-adv-x="942" 
d="M299 0v582h-166v256h166v323h-264v301h872v-301h-262v-323h166v-256h-166v-582h-346z" />
    <glyph glyph-name="tbar" unicode="&#x167;" horiz-adv-x="725" 
d="M25 451v231h626v-231h-626zM543 266q31 0 67.5 10.5t77.5 28.5v-262q-55 -31 -115.5 -47t-130.5 -16q-111 0 -180 42.5t-101 130t-32 220.5v487h-115v176l144 86l78 238h225v-227h213v-273h-213v-483q0 -55 20 -83t62 -28z" />
    <glyph glyph-name="Utilde" unicode="&#x168;" horiz-adv-x="1204" 
d="M1092 1462v-966q0 -169 -57 -284t-167 -173.5t-270 -58.5q-233 0 -358 126t-125 381v975h348v-958q0 -120 35 -169.5t104 -49.5q49 0 80 21t46 69.5t15 130.5v956h349zM246 1567q0 48 5.5 106.5t24 112t55 88.5t97.5 35q43 0 82 -14.5t75 -33.5t71 -33.5t69 -14.5
q26 0 39 25.5t21 72.5h172q0 -167 -54 -254.5t-133 -87.5q-40 0 -81 14.5t-80 33.5t-72.5 33.5t-59.5 14.5q-16 0 -35 -21t-24 -77h-172z" />
    <glyph glyph-name="utilde" unicode="&#x169;" horiz-adv-x="1083" 
d="M981 1133v-1133h-258l-39 139h-16q-27 -53 -63 -88.5t-83 -53t-108 -17.5q-99 0 -169.5 49t-107.5 141.5t-37 224.5v738h332v-629q0 -114 19.5 -172t68.5 -58q60 0 87 37t34.5 104t7.5 158v560h332zM186 1237q0 48 5.5 106.5t24 112t55 88.5t97.5 35q43 0 82 -14.5
t75 -33.5t71 -33.5t69 -14.5q26 0 39 25.5t21 72.5h172q0 -167 -54 -254.5t-133 -87.5q-40 0 -81 14.5t-80 33.5t-72.5 33.5t-59.5 14.5q-16 0 -35 -21t-24 -77h-172z" />
    <glyph glyph-name="Umacron" unicode="&#x16a;" horiz-adv-x="1204" 
d="M1092 1462v-966q0 -169 -57 -284t-167 -173.5t-270 -58.5q-233 0 -358 126t-125 381v975h348v-958q0 -120 35 -169.5t104 -49.5q49 0 80 21t46 69.5t15 130.5v956h349zM905 1837v-235h-608v235h608z" />
    <glyph glyph-name="umacron" unicode="&#x16b;" horiz-adv-x="1083" 
d="M981 1133v-1133h-258l-39 139h-16q-27 -53 -63 -88.5t-83 -53t-108 -17.5q-99 0 -169.5 49t-107.5 141.5t-37 224.5v738h332v-629q0 -114 19.5 -172t68.5 -58q60 0 87 37t34.5 104t7.5 158v560h332zM846 1507v-235h-608v235h608z" />
    <glyph glyph-name="Ubreve" unicode="&#x16c;" horiz-adv-x="1204" 
d="M1092 1462v-966q0 -169 -57 -284t-167 -173.5t-270 -58.5q-233 0 -358 126t-125 381v975h348v-958q0 -120 35 -169.5t104 -49.5q49 0 80 21t46 69.5t15 130.5v956h349zM928 1942q0 -114 -44 -197.5t-118 -128.5t-165 -45q-142 0 -233 94t-91 277h194q4 -49 18.5 -80.5
t42 -46.5t69.5 -15q41 0 70 13.5t45 45t18 83.5h194z" />
    <glyph glyph-name="ubreve" unicode="&#x16d;" horiz-adv-x="1083" 
d="M981 1133v-1133h-258l-39 139h-16q-27 -53 -63 -88.5t-83 -53t-108 -17.5q-99 0 -169.5 49t-107.5 141.5t-37 224.5v738h332v-629q0 -114 19.5 -172t68.5 -58q60 0 87 37t34.5 104t7.5 158v560h332zM868 1612q0 -114 -44 -197.5t-118 -128.5t-165 -45q-142 0 -233 94
t-91 277h194q4 -49 18.5 -80.5t42 -46.5t69.5 -15q41 0 70 13.5t45 45t18 83.5h194z" />
    <glyph glyph-name="Uring" unicode="&#x16e;" horiz-adv-x="1204" 
d="M1092 1462v-966q0 -169 -57 -284t-167 -173.5t-270 -58.5q-233 0 -358 126t-125 381v975h348v-958q0 -120 35 -169.5t104 -49.5q49 0 80 21t46 69.5t15 130.5v956h349zM602 1567q-115 0 -184.5 71.5t-69.5 180.5q0 110 69.5 182t184.5 72q112 0 183 -73t71 -179
t-70.5 -180t-183.5 -74zM602 1737q35 0 59.5 23.5t24.5 60.5t-24.5 60.5t-59.5 23.5t-59.5 -23.5t-24.5 -60.5t21.5 -60.5t62.5 -23.5z" />
    <glyph glyph-name="uring" unicode="&#x16f;" horiz-adv-x="1083" 
d="M981 1133v-1133h-258l-39 139h-16q-27 -53 -63 -88.5t-83 -53t-108 -17.5q-99 0 -169.5 49t-107.5 141.5t-37 224.5v738h332v-629q0 -114 19.5 -172t68.5 -58q60 0 87 37t34.5 104t7.5 158v560h332zM543 1237q-115 0 -184.5 71.5t-69.5 180.5q0 110 69.5 182t184.5 72
q112 0 183 -73t71 -179t-70.5 -180t-183.5 -74zM543 1407q35 0 59.5 23.5t24.5 60.5t-24.5 60.5t-59.5 23.5t-59.5 -23.5t-24.5 -60.5t21.5 -60.5t62.5 -23.5z" />
    <glyph glyph-name="Uhungarumlaut" unicode="&#x170;" horiz-adv-x="1204" 
d="M1092 1462v-966q0 -169 -57 -284t-167 -173.5t-270 -58.5q-233 0 -358 126t-125 381v975h348v-958q0 -120 35 -169.5t104 -49.5q49 0 80 21t46 69.5t15 130.5v956h349zM1100 1899v-21q-12 -29 -42.5 -68.5t-70.5 -82.5t-82 -83.5t-78 -72.5h-170v29q37 74 65.5 131.5
t48.5 100t30 67.5h299zM735 1899v-21q-14 -31 -43.5 -69.5t-69 -80t-83.5 -82t-88 -75.5h-156v29q37 75 65 133t47.5 100t30.5 66h297z" />
    <glyph glyph-name="uhungarumlaut" unicode="&#x171;" horiz-adv-x="1083" 
d="M981 1133v-1133h-258l-39 139h-16q-27 -53 -63 -88.5t-83 -53t-108 -17.5q-99 0 -169.5 49t-107.5 141.5t-37 224.5v738h332v-629q0 -114 19.5 -172t68.5 -58q60 0 87 37t34.5 104t7.5 158v560h332zM1041 1569v-21q-12 -29 -42.5 -68.5t-70.5 -82.5t-82 -83.5t-78 -72.5
h-170v29q37 74 65.5 131.5t48.5 100t30 67.5h299zM676 1569v-21q-14 -31 -43.5 -69.5t-69 -80t-83.5 -82t-88 -75.5h-156v29q37 75 65 133t47.5 100t30.5 66h297z" />
    <glyph glyph-name="Uogonek" unicode="&#x172;" horiz-adv-x="1204" 
d="M748 -199q0 -34 20 -50.5t49 -16.5q20 0 52.5 6.5t48.5 15.5v-221q-37 -13 -85.5 -20t-89.5 -7q-130 0 -188.5 63t-58.5 169q0 46 15.5 89t50 85t91.5 86l293 96q-72 -71 -115.5 -124.5t-63 -94.5t-19.5 -76zM1092 1462v-966q0 -169 -57 -284t-167 -173.5t-270 -58.5
q-233 0 -358 126t-125 381v975h348v-958q0 -120 35 -169.5t104 -49.5q49 0 80 21t46 69.5t15 130.5v956h349z" />
    <glyph glyph-name="uogonek" unicode="&#x173;" horiz-adv-x="1083" 
d="M981 1133v-1133h-258l-39 139h-16q-27 -53 -63 -88.5t-83 -53t-108 -17.5q-99 0 -169.5 49t-107.5 141.5t-37 224.5v738h332v-629q0 -114 19.5 -172t68.5 -58q60 0 87 37t34.5 104t7.5 158v560h332zM826 -190q0 -34 22 -58t62 -24q28 0 46 6.5t34 15.5v-211
q-25 -10 -64 -20.5t-90 -10.5q-130 0 -195 61t-65 167q0 46 16.5 96.5t56.5 102t109 100.5l170 -35q-63 -67 -82.5 -107t-19.5 -83z" />
    <glyph glyph-name="Wcircumflex" unicode="&#x174;" horiz-adv-x="1659" 
d="M1659 1462l-277 -1462h-399l-100 547q-9 47 -17 96t-14.5 99.5t-12.5 101.5t-10 102q-3 -41 -8 -91t-12 -103.5t-14.5 -105.5t-16.5 -97l-102 -549h-395l-281 1462h340l104 -637q6 -37 13.5 -87t14.5 -106.5t13.5 -114t12.5 -109.5q6 55 14 113.5t17 114t17 103.5t15 82
l129 641h281l116 -641q9 -40 17.5 -90.5t17 -106.5t15.5 -111.5t12 -104.5q4 56 12.5 126t19.5 145t23 144l107 639h348zM981 1899q24 -45 53 -93.5t64.5 -100t76.5 -105.5v-29h-203q-31 25 -66.5 62t-76.5 88q-43 -52 -78 -90t-61 -60h-207v29q28 35 67.5 91.5t76 114
t53.5 93.5h301z" />
    <glyph glyph-name="wcircumflex" unicode="&#x175;" horiz-adv-x="1507" 
d="M879 0l-82 500q-6 38 -12 79.5t-11 83.5t-9.5 83t-8.5 77h-8q-6 -41 -11 -84.5t-10 -86.5t-10 -81t-10 -69l-86 -502h-375l-236 1133h332l57 -355q11 -56 19 -122.5t13.5 -135.5t8.5 -135h9q3 40 7 82.5t9.5 88.5t13.5 95.5t19 104.5l65 377h383l64 -383
q11 -74 20.5 -141.5t16.5 -124.5t10 -99h8q4 64 10 131t15 134t20 128l61 355h326l-237 -1133h-381zM906 1569q24 -45 53 -93.5t64.5 -100t76.5 -105.5v-29h-203q-31 25 -66.5 62t-76.5 88q-43 -52 -78 -90t-61 -60h-207v29q28 35 67.5 91.5t76 114t53.5 93.5h301z" />
    <glyph glyph-name="Ycircumflex" unicode="&#x176;" horiz-adv-x="1077" 
d="M541 930l178 532h358l-364 -901v-561h-348v549l-365 913h362zM691 1899q24 -45 53 -93.5t64.5 -100t76.5 -105.5v-29h-203q-31 25 -66.5 62t-76.5 88q-43 -52 -78 -90t-61 -60h-207v29q28 35 67.5 91.5t76 114t53.5 93.5h301z" />
    <glyph glyph-name="ycircumflex" unicode="&#x177;" horiz-adv-x="1006" 
d="M4 1133h348l119 -492q8 -35 15 -70t12 -65.5t6 -54.5h8q3 34 11 78.5t24 107.5l110 496h344l-342 -1205q-44 -154 -100.5 -246.5t-132 -133t-178.5 -40.5q-40 0 -76 5t-68 12v291q20 -7 41.5 -10t40.5 -3q41 0 65.5 13.5t44 55t44.5 124.5l6 20zM656 1569
q24 -45 53 -93.5t64.5 -100t76.5 -105.5v-29h-203q-31 25 -66.5 62t-76.5 88q-43 -52 -78 -90t-61 -60h-207v29q28 35 67.5 91.5t76 114t53.5 93.5h301z" />
    <glyph glyph-name="Ydieresis" unicode="&#x178;" horiz-adv-x="1077" 
d="M541 930l178 532h358l-364 -901v-561h-348v549l-365 913h362zM193 1743q0 75 39.5 116.5t105.5 41.5q69 0 109.5 -43t40.5 -115q0 -70 -40.5 -113t-109.5 -43q-66 0 -105.5 41.5t-39.5 114.5zM588 1743q0 75 40.5 116.5t107.5 41.5q71 0 110 -43t39 -115q0 -70 -39 -113
t-110 -43q-70 0 -109 42t-39 114z" />
    <glyph glyph-name="Zacute" unicode="&#x179;" horiz-adv-x="965" 
d="M922 0h-879v244l489 923h-479v295h856v-243l-487 -920h500v-299zM843 1899v-21q-21 -26 -54.5 -63.5t-73 -80t-81 -85t-79.5 -78.5h-244v29q33 54 61 105.5t53 100t46 93.5h372z" />
    <glyph glyph-name="zacute" unicode="&#x17a;" horiz-adv-x="813" 
d="M778 0h-745v201l358 655h-338v277h709v-220l-342 -637h358v-276zM778 1569v-21q-21 -26 -54.5 -63.5t-73 -80t-81 -85t-79.5 -78.5h-244v29q33 54 61 105.5t53 100t46 93.5h372z" />
    <glyph glyph-name="Zdotaccent" unicode="&#x17b;" horiz-adv-x="965" 
d="M922 0h-879v244l489 923h-479v295h856v-243l-487 -920h500v-299zM500 1919q92 0 134 -44t42 -130t-44 -129t-132 -43t-132 43t-44 129q0 88 42 131t134 43z" />
    <glyph glyph-name="zdotaccent" unicode="&#x17c;" horiz-adv-x="813" 
d="M778 0h-745v201l358 655h-338v277h709v-220l-342 -637h358v-276zM434 1589q92 0 134 -44t42 -130t-44 -129t-132 -43t-132 43t-44 129q0 88 42 131t134 43z" />
    <glyph glyph-name="Zcaron" unicode="&#x17d;" horiz-adv-x="965" 
d="M922 0h-879v244l489 923h-479v295h856v-243l-487 -920h500v-299zM334 1571q-17 36 -54 94t-76.5 115t-66.5 90v29h207q31 -26 65 -63t74 -87q41 51 76.5 88t66.5 62h203v-29q-28 -39 -65.5 -94t-72 -110t-56.5 -95h-301z" />
    <glyph glyph-name="zcaron" unicode="&#x17e;" horiz-adv-x="813" 
d="M778 0h-745v201l358 655h-338v277h709v-220l-342 -637h358v-276zM269 1241q-17 36 -54 94t-76.5 115t-66.5 90v29h207q31 -26 65 -63t74 -87q41 51 76.5 88t66.5 62h203v-29q-28 -39 -65.5 -94t-72 -110t-56.5 -95h-301z" />
    <glyph glyph-name="longs" unicode="&#x17f;" horiz-adv-x="645" 
d="M532 1290q-34 0 -48.5 -27.5t-14.5 -88.5v-1174h-334v1147q0 151 35 243t106 134.5t179 42.5q66 0 121 -12.5t129 -41.5l-64 -243q-28 9 -55.5 14.5t-53.5 5.5z" />
    <glyph glyph-name="florin" unicode="&#x192;" horiz-adv-x="868" 
d="M567 1483q66 0 121.5 -12t128.5 -41l-63 -244q-28 9 -54.5 14.5t-54.5 5.5q-34 0 -48.5 -27.5t-14.5 -88.5v-48h184v-272h-184v-842q0 -149 -33 -242t-102 -135.5t-179 -42.5q-63 0 -107 9.5t-79 19.5v268q28 -10 55.5 -15t52.5 -5q35 0 47.5 28t12.5 89v868h-125v176
l125 92v25q0 151 34 243t104.5 134.5t178.5 42.5z" />
    <glyph glyph-name="Ohorn" unicode="&#x1a0;" horiz-adv-x="1323" 
d="M1192 733q0 -184 -35.5 -324.5t-106 -236t-174 -144t-239.5 -48.5q-135 0 -239 49t-175 144.5t-107 236.5t-36 325q0 244 63.5 411t188 253t305.5 86q132 0 233.5 -45t171.5 -135q17 46 26 86t13 79.5t4 85.5h308l10 -22q-20 -199 -81.5 -302.5t-170.5 -162.5
q20 -70 30.5 -154.5t10.5 -181.5zM442 733q0 -149 22 -249t65.5 -149.5t107.5 -49.5q66 0 108.5 48t63 147.5t20.5 252.5q0 232 -47.5 342.5t-144.5 110.5q-64 0 -107.5 -50.5t-65.5 -151t-22 -251.5z" />
    <glyph glyph-name="ohorn" unicode="&#x1a1;" horiz-adv-x="1198" 
d="M989 569q0 -183 -54.5 -315t-157.5 -203t-251 -71q-141 0 -244.5 72.5t-159.5 204.5t-56 312q0 277 122.5 430.5t341.5 153.5q101 0 184.5 -37.5t143.5 -111.5q41 11 63.5 57t31 110.5t8.5 128.5h307l10 -22q-16 -162 -57.5 -261t-106 -151t-151.5 -73q14 -51 20 -106.5
t6 -117.5zM401 565q0 -101 13.5 -170t41.5 -104t72 -35q47 0 74 34.5t39 104.5t12 174t-12 172t-39 102t-74 34q-66 0 -96.5 -76t-30.5 -236z" />
    <glyph glyph-name="Uhorn" unicode="&#x1af;" horiz-adv-x="1456" 
d="M1092 1462v-207q52 3 79.5 48.5t37.5 114t10 138.5h307l10 -22q-14 -141 -48 -236.5t-89 -153t-131.5 -83t-175.5 -25.5v-475q0 -191 -57 -320.5t-167 -195t-270 -65.5q-233 0 -358 143t-125 430v909h348v-893q0 -155 35 -219.5t104 -64.5q49 0 80 27.5t46 90.5t15 168
v891h349z" />
    <glyph glyph-name="uhorn" unicode="&#x1b0;" horiz-adv-x="1329" 
d="M1401 1298l8 -22q-14 -142 -48 -237t-88 -151.5t-127 -82t-165 -27.5v-778h-258l-39 139h-16q-27 -53 -63 -88.5t-83 -53t-108 -17.5q-99 0 -169.5 49t-107.5 141.5t-37 224.5v738h332v-629q0 -114 19.5 -172t68.5 -58q71 0 100 72.5t29 267.5v519h332v-134
q43 9 67.5 52.5t35 109t10.5 137.5h307z" />
    <glyph glyph-name="uni01EA" unicode="&#x1ea;" horiz-adv-x="1272" 
d="M1192 733q0 -184 -35.5 -324.5t-106 -236t-174 -144t-239.5 -48.5q-135 0 -239 49t-175 144.5t-107 236.5t-36 325q0 244 63.5 411t188 253t305.5 86q182 0 305.5 -85t186.5 -252.5t63 -414.5zM442 733q0 -149 22 -249t65.5 -149.5t107.5 -49.5q66 0 108.5 48t63 147.5
t20.5 252.5q0 232 -47.5 342.5t-144.5 110.5q-64 0 -107.5 -50.5t-65.5 -151t-22 -251.5zM684 -190q0 -34 22 -58t62 -24q28 0 46 6.5t34 15.5v-211q-25 -10 -64 -20.5t-90 -10.5q-130 0 -195 61t-65 167q0 46 16.5 96.5t56.5 102t109 100.5l170 -35q-63 -67 -82.5 -107
t-19.5 -83z" />
    <glyph glyph-name="uni01EB" unicode="&#x1eb;" horiz-adv-x="1057" 
d="M989 569q0 -109 -23.5 -213.5t-77.5 -189.5t-142.5 -135.5t-219.5 -50.5q-120 0 -207 49.5t-143 133t-83 189t-27 217.5q0 163 47 295.5t149.5 210.5t267.5 78q138 0 241 -68.5t160.5 -198.5t57.5 -317zM401 565q0 -101 13.5 -170t41.5 -104t72 -35q47 0 74 34.5
t39 104.5t12 174t-12 172t-39 102t-74 34q-66 0 -96.5 -76t-30.5 -236zM578 -190q0 -34 22 -58t62 -24q28 0 46 6.5t34 15.5v-211q-25 -10 -64 -20.5t-90 -10.5q-130 0 -195 61t-65 167q0 46 16.5 96.5t56.5 102t109 100.5l170 -35q-63 -67 -82.5 -107t-19.5 -83z" />
    <glyph glyph-name="uni01EC" unicode="&#x1ec;" horiz-adv-x="1272" 
d="M1192 733q0 -184 -35.5 -324.5t-106 -236t-174 -144t-239.5 -48.5q-135 0 -239 49t-175 144.5t-107 236.5t-36 325q0 244 63.5 411t188 253t305.5 86q182 0 305.5 -85t186.5 -252.5t63 -414.5zM442 733q0 -149 22 -249t65.5 -149.5t107.5 -49.5q66 0 108.5 48t63 147.5
t20.5 252.5q0 232 -47.5 342.5t-144.5 110.5q-64 0 -107.5 -50.5t-65.5 -151t-22 -251.5zM952 1845v-235h-608v235h608zM684 -190q0 -34 22 -58t62 -24q28 0 46 6.5t34 15.5v-211q-25 -10 -64 -20.5t-90 -10.5q-130 0 -195 61t-65 167q0 46 16.5 96.5t56.5 102t109 100.5
l170 -35q-63 -67 -82.5 -107t-19.5 -83z" />
    <glyph glyph-name="uni01ED" unicode="&#x1ed;" horiz-adv-x="1057" 
d="M989 569q0 -109 -23.5 -213.5t-77.5 -189.5t-142.5 -135.5t-219.5 -50.5q-120 0 -207 49.5t-143 133t-83 189t-27 217.5q0 163 47 295.5t149.5 210.5t267.5 78q138 0 241 -68.5t160.5 -198.5t57.5 -317zM401 565q0 -101 13.5 -170t41.5 -104t72 -35q47 0 74 34.5
t39 104.5t12 174t-12 172t-39 102t-74 34q-66 0 -96.5 -76t-30.5 -236zM829 1507v-235h-608v235h608zM578 -190q0 -34 22 -58t62 -24q28 0 46 6.5t34 15.5v-211q-25 -10 -64 -20.5t-90 -10.5q-130 0 -195 61t-65 167q0 46 16.5 96.5t56.5 102t109 100.5l170 -35
q-63 -67 -82.5 -107t-19.5 -83z" />
    <glyph glyph-name="uni01F0" unicode="&#x1f0;" horiz-adv-x="543" 
d="M94 -492q-37 0 -90.5 8t-81.5 17v281q25 -10 48 -14.5t44 -4.5q47 0 68.5 32.5t21.5 96.5v1209h332v-1225q0 -124 -40 -213.5t-116 -138t-186 -48.5zM121 1241q-17 36 -54 94t-76.5 115t-66.5 90v29h207q31 -26 65 -63t74 -87q41 51 76.5 88t66.5 62h203v-29
q-28 -39 -65.5 -94t-72 -110t-56.5 -95h-301z" />
    <glyph glyph-name="Aringacute" unicode="&#x1fa;" horiz-adv-x="1176" 
d="M0 0l350 1368q-7 23 -11.5 47t-4.5 49q0 111 69.5 182.5t184.5 71.5q112 0 183 -72.5t71 -179.5q0 -25 -4.5 -50t-14.5 -48l353 -1368h-373l-55 285h-316l-55 -285h-377zM483 584h211l-59 307q-9 48 -18.5 107.5t-17 114t-11.5 85.5q-2 -25 -7 -61t-11 -77.5t-12.5 -84
t-12.5 -80.5zM588 1382q35 0 59.5 23.5t24.5 60.5q0 38 -24.5 61t-59.5 23t-59.5 -23t-24.5 -61q0 -37 21 -60.5t63 -23.5zM422 1790v16q55 65 79 93.5t33.5 42t20.5 32.5h397v-12q-20 -16 -54.5 -40.5t-73.5 -50.5t-72.5 -48t-51.5 -33h-278z" />
    <glyph glyph-name="aringacute" unicode="&#x1fb;" horiz-adv-x="1012" 
d="M545 1153q169 0 267.5 -101t98.5 -309v-743h-239l-56 150h-6q-36 -57 -76.5 -95t-92 -56.5t-122.5 -18.5q-97 0 -156 53t-85.5 137t-26.5 176q0 182 97.5 272t283.5 97l148 6v29q0 69 -26.5 104t-82.5 35q-49 0 -108.5 -20.5t-135.5 -63.5l-86 246q83 49 185 75.5
t219 26.5zM580 506l-62 -4q-67 -3 -101 -38.5t-34 -103.5q0 -58 20 -87t60 -29q49 0 83 44.5t34 117.5v100zM514 1542q-34 0 -59 -23t-25 -61q0 -37 21.5 -60.5t62.5 -23.5q35 0 59.5 23.5t24.5 60.5q0 38 -24.5 61t-59.5 23zM514 1710q73 0 132 -33t94.5 -89.5t35.5 -127.5
q0 -106 -73 -180t-189 -74q-115 0 -184.5 71.5t-69.5 180.5q0 111 70 181.5t184 70.5zM895 1974v-12q-26 -25 -77 -66t-101 -78.5t-74 -54.5h-281v19q57 74 81.5 106.5t34 48.5t20.5 37h397z" />
    <glyph glyph-name="AEacute" unicode="&#x1fc;" horiz-adv-x="1518" 
d="M1436 0h-701v285h-284l-80 -285h-381l452 1462h994v-295h-359v-264h330v-295h-330v-309h359v-299zM530 584h205v583h-51zM1116 1899v-21q-21 -26 -54.5 -63.5t-73 -80t-81 -85t-79.5 -78.5h-244v29q33 54 61 105.5t53 100t46 93.5h372z" />
    <glyph glyph-name="aeacute" unicode="&#x1fd;" horiz-adv-x="1485" 
d="M1008 1151q136 0 229.5 -60t141.5 -175t48 -281v-174h-538q0 -114 46 -165.5t144 -51.5q80 0 147.5 20t143.5 68v-271q-72 -43 -152 -62t-178 -19q-75 0 -145 18.5t-127 57.5t-94 100q-44 -58 -94 -97.5t-106.5 -59t-121.5 -19.5q-108 0 -174 53t-96.5 137t-30.5 176
q0 121 43.5 201t128.5 121.5t209 46.5l148 6v29q0 69 -26.5 104t-82.5 35q-49 0 -108.5 -20.5t-135.5 -63.5l-86 246q80 50 174.5 76t188.5 26q86 0 147 -24.5t101 -73.5q47 47 109 71.5t147 24.5zM580 506l-62 -4q-67 -3 -101 -38.5t-34 -103.5q0 -58 20 -87t60 -29
q33 0 59.5 20.5t42 57t15.5 84.5v100zM1008 895q-51 0 -85 -45t-34 -156h233q0 72 -14 116.5t-39.5 64.5t-60.5 20zM1116 1569v-21q-21 -26 -54.5 -63.5t-73 -80t-81 -85t-79.5 -78.5h-244v29q33 54 61 105.5t53 100t46 93.5h372z" />
    <glyph glyph-name="Oslashacute" unicode="&#x1fe;" horiz-adv-x="1272" 
d="M1192 733q0 -184 -35.5 -324.5t-106 -236t-174 -144t-239.5 -48.5q-69 0 -129 12t-113 37l-65 -138l-162 76l84 170q-97 122 -134.5 268t-37.5 330q0 244 63.5 411t188 253t305.5 86q71 0 133.5 -13.5t116.5 -39.5l57 116l162 -75l-76 -154q82 -94 122 -241.5t40 -344.5z
M840 733q0 56 -3 104t-10 91l-301 -613q22 -22 50.5 -33.5t60.5 -11.5q68 0 113 52t67.5 155t22.5 256zM432 733q0 -63 3.5 -116.5t10.5 -100.5l308 623q-23 28 -52.5 41.5t-64.5 13.5q-68 0 -114 -51.5t-68.5 -153.5t-22.5 -256zM999 1899v-21q-21 -26 -54.5 -63.5t-73 -80
t-81 -85t-79.5 -78.5h-244v29q33 54 61 105.5t53 100t46 93.5h372z" />
    <glyph glyph-name="oslashacute" unicode="&#x1ff;" horiz-adv-x="1057" 
d="M989 569q0 -183 -54.5 -315t-157.5 -203t-251 -71q-49 0 -93.5 9t-84.5 25l-63 -131l-158 72l82 162q-77 97 -110 206.5t-33 245.5q0 277 122.5 430.5t341.5 153.5q50 0 93.5 -9t83.5 -28l55 109l156 -72l-68 -139q68 -77 103.5 -191t35.5 -254zM383 565q0 -34 0.5 -64.5
t3.5 -56.5l213 426q-13 14 -31.5 19.5t-40.5 5.5q-76 0 -110.5 -81.5t-34.5 -248.5zM674 569q0 31 -1 60t-3 55l-211 -424q14 -12 32 -18t37 -6q55 0 86.5 37.5t45.5 112t14 183.5zM890 1569v-21q-21 -26 -54.5 -63.5t-73 -80t-81 -85t-79.5 -78.5h-244v29q33 54 61 105.5
t53 100t46 93.5h372z" />
    <glyph glyph-name="uni0218" unicode="&#x218;" horiz-adv-x="930" 
d="M879 444q0 -136 -56.5 -240.5t-159.5 -164t-243 -59.5q-63 0 -122.5 8.5t-118.5 28.5t-122 55v352q86 -58 176.5 -90.5t165.5 -32.5q43 0 70.5 14t41 38.5t13.5 56.5t-11 59.5t-49 61t-118 83.5q-64 41 -116 82.5t-88.5 91t-56 114.5t-19.5 153q0 130 51 226t150 149
t243 53q91 0 183 -26t186 -79l-93 -305q-76 48 -141 71t-121 23q-37 0 -60.5 -12.5t-34.5 -33.5t-11 -48q0 -39 13 -67t53.5 -59.5t123.5 -82.5q88 -54 148.5 -114t91.5 -134t31 -172zM612 -125v-22q-15 -54 -34.5 -106.5t-43 -102t-51.5 -97.5h-223v29q7 35 15.5 90
t14.5 111.5t7 97.5h315z" />
    <glyph glyph-name="uni0219" unicode="&#x219;" horiz-adv-x="811" 
d="M762 348q0 -122 -46 -204t-132.5 -123t-208.5 -41q-83 0 -163 14t-159 49v313q62 -37 136.5 -64.5t150.5 -27.5q46 0 69 15.5t23 50.5q0 19 -9.5 36.5t-45.5 42.5t-115 64q-69 35 -116 85.5t-71 115.5t-24 145q0 158 96 246t273 88q88 0 166 -24.5t159 -71.5l-81 -252
q-51 34 -108 59t-116 25q-35 0 -52 -13t-17 -40q0 -18 9.5 -33t43.5 -37.5t106 -65.5q69 -38 121 -87t81.5 -113.5t29.5 -151.5zM553 -125v-22q-15 -54 -34.5 -106.5t-43 -102t-51.5 -97.5h-223v29q7 35 15.5 90t14.5 111.5t7 97.5h315z" />
    <glyph glyph-name="uni021A" unicode="&#x21a;" horiz-adv-x="942" 
d="M645 0h-346v1161h-264v301h872v-301h-262v-1161zM647 -125v-22q-15 -54 -34.5 -106.5t-43 -102t-51.5 -97.5h-223v29q7 35 15.5 90t14.5 111.5t7 97.5h315z" />
    <glyph glyph-name="uni021B" unicode="&#x21b;" horiz-adv-x="725" 
d="M543 266q31 0 67.5 10.5t77.5 28.5v-262q-55 -31 -115.5 -47t-130.5 -16q-111 0 -180 42.5t-101 130t-32 220.5v487h-115v176l144 86l78 238h225v-227h213v-273h-213v-483q0 -55 20 -83t62 -28zM602 -125v-22q-15 -54 -34.5 -106.5t-43 -102t-51.5 -97.5h-223v29
q7 35 15.5 90t14.5 111.5t7 97.5h315z" />
    <glyph glyph-name="uni0237" unicode="&#x237;" horiz-adv-x="543" 
d="M94 -492q-37 0 -90.5 8t-81.5 17v281q25 -10 48 -14.5t44 -4.5q47 0 68.5 32.5t21.5 96.5v1209h332v-1225q0 -124 -40 -213.5t-116 -138t-186 -48.5z" />
    <glyph glyph-name="uni0259" unicode="&#x259;" horiz-adv-x="987" 
d="M453 1151q164 0 267.5 -67t152.5 -196.5t49 -318.5t-49.5 -320.5t-147 -200t-242.5 -68.5q-135 0 -230.5 60t-146.5 175t-51 281v174h541q0 113 -47 165t-146 52q-78 0 -145 -20.5t-145 -67.5v270q74 43 158 62.5t182 19.5zM596 436h-234q0 -71 14.5 -115.5t40 -64.5
t58.5 -20q53 0 87 45t34 155z" />
    <glyph glyph-name="uni02BC" unicode="&#x2bc;" horiz-adv-x="559" 
d="M461 1462l10 -22q-15 -113 -34.5 -213t-44 -186.5t-54.5 -161.5h-274q11 54 22.5 131.5t22 162.5t18.5 161.5t10 127.5h324z" />
    <glyph glyph-name="circumflex" unicode="&#x2c6;" horiz-adv-x="856" 
d="M580 1569q24 -45 53 -93.5t64.5 -100t76.5 -105.5v-29h-203q-31 25 -66.5 62t-76.5 88q-43 -52 -78 -90t-61 -60h-207v29q28 35 67.5 91.5t76 114t53.5 93.5h301z" />
    <glyph glyph-name="caron" unicode="&#x2c7;" horiz-adv-x="856" 
d="M279 1241q-17 36 -54 94t-76.5 115t-66.5 90v29h207q31 -26 65 -63t74 -87q41 51 76.5 88t66.5 62h203v-29q-28 -39 -65.5 -94t-72 -110t-56.5 -95h-301z" />
    <glyph glyph-name="macron" unicode="&#x2c9;" horiz-adv-x="772" 
d="M690 1507v-235h-608v235h608z" />
    <glyph glyph-name="breve" unicode="&#x2d8;" horiz-adv-x="815" 
d="M733 1612q0 -114 -44 -197.5t-118 -128.5t-165 -45q-142 0 -233 94t-91 277h194q4 -49 18.5 -80.5t42 -46.5t69.5 -15q41 0 70 13.5t45 45t18 83.5h194z" />
    <glyph glyph-name="dotaccent" unicode="&#x2d9;" horiz-adv-x="516" 
d="M258 1589q92 0 134 -44t42 -130t-44 -129t-132 -43t-132 43t-44 129q0 88 42 131t134 43z" />
    <glyph glyph-name="ring" unicode="&#x2da;" horiz-adv-x="672" 
d="M336 1237q-115 0 -184.5 71.5t-69.5 180.5q0 110 69.5 182t184.5 72q112 0 183 -73t71 -179t-70.5 -180t-183.5 -74zM336 1407q35 0 59.5 23.5t24.5 60.5t-24.5 60.5t-59.5 23.5t-59.5 -23.5t-24.5 -60.5t21.5 -60.5t62.5 -23.5z" />
    <glyph glyph-name="ogonek" unicode="&#x2db;" horiz-adv-x="578" 
d="M332 -190q0 -34 22 -58t62 -24q28 0 46 6.5t34 15.5v-211q-25 -10 -64 -20.5t-90 -10.5q-130 0 -195 61t-65 167q0 46 16.5 96.5t56.5 102t109 100.5l170 -35q-63 -67 -82.5 -107t-19.5 -83z" />
    <glyph glyph-name="tilde" unicode="&#x2dc;" horiz-adv-x="874" 
d="M82 1237q0 48 5.5 106.5t24 112t55 88.5t97.5 35q43 0 82 -14.5t75 -33.5t71 -33.5t69 -14.5q26 0 39 25.5t21 72.5h172q0 -167 -54 -254.5t-133 -87.5q-40 0 -81 14.5t-80 33.5t-72.5 33.5t-59.5 14.5q-16 0 -35 -21t-24 -77h-172z" />
    <glyph glyph-name="hungarumlaut" unicode="&#x2dd;" horiz-adv-x="969" 
d="M887 1569v-21q-12 -29 -42.5 -68.5t-70.5 -82.5t-82 -83.5t-78 -72.5h-170v29q37 74 65.5 131.5t48.5 100t30 67.5h299zM522 1569v-21q-14 -31 -43.5 -69.5t-69 -80t-83.5 -82t-88 -75.5h-156v29q37 75 65 133t47.5 100t30.5 66h297z" />
    <glyph glyph-name="uni02F3" unicode="&#x2f3;" horiz-adv-x="856" 
d="M428 -602q-115 0 -184.5 70.5t-69.5 181.5q0 109 68.5 181.5t185.5 72.5q114 0 184 -74.5t70 -177.5q0 -108 -70 -181t-184 -73zM428 -434q35 0 59.5 23.5t24.5 60.5q0 38 -24.5 61t-59.5 23t-59.5 -23t-24.5 -61q0 -37 21.5 -60.5t62.5 -23.5z" />
    <glyph glyph-name="gravecomb" unicode="&#x300;" 
d="M-471 1569q17 -40 48 -99.5t62 -115t49 -84.5v-29h-243q-25 23 -65 64.5t-84.5 88t-82 88.5t-57.5 66v21h373z" />
    <glyph glyph-name="acutecomb" unicode="&#x301;" 
d="M-208 1569v-21q-21 -26 -54.5 -63.5t-73 -80t-81 -85t-79.5 -78.5h-244v29q33 54 61 105.5t53 100t46 93.5h372z" />
    <glyph glyph-name="uni0302" unicode="&#x302;" 
d="M152 1569q24 -45 53 -93.5t64.5 -100t76.5 -105.5v-29h-203q-31 25 -66.5 62t-76.5 88q-43 -52 -78 -90t-61 -60h-207v29q28 35 67.5 91.5t76 114t53.5 93.5h301z" />
    <glyph glyph-name="tildecomb" unicode="&#x303;" 
d="M-922 1237q0 48 5.5 106.5t24 112t55 88.5t97.5 35q43 0 82 -14.5t75 -33.5t71 -33.5t69 -14.5q26 0 39 25.5t21 72.5h172q0 -167 -54 -254.5t-133 -87.5q-40 0 -81 14.5t-80 33.5t-72.5 33.5t-59.5 14.5q-16 0 -35 -21t-24 -77h-172z" />
    <glyph glyph-name="uni0304" unicode="&#x304;" 
d="M303 1507v-235h-608v235h608z" />
    <glyph glyph-name="uni0306" unicode="&#x306;" 
d="M325 1612q0 -114 -44 -197.5t-118 -128.5t-165 -45q-142 0 -233 94t-91 277h194q4 -49 18.5 -80.5t42 -46.5t69.5 -15q41 0 70 13.5t45 45t18 83.5h194z" />
    <glyph glyph-name="uni0307" unicode="&#x307;" 
d="M0 1589q92 0 134 -44t42 -130t-44 -129t-132 -43t-132 43t-44 129q0 88 42 131t134 43z" />
    <glyph glyph-name="uni0308" unicode="&#x308;" 
d="M-346 1413q0 75 39.5 116.5t105.5 41.5q69 0 109.5 -43t40.5 -115q0 -70 -40.5 -113t-109.5 -43q-66 0 -105.5 41.5t-39.5 114.5zM49 1413q0 75 40.5 116.5t107.5 41.5q71 0 110 -43t39 -115q0 -70 -39 -113t-110 -43q-70 0 -109 42t-39 114z" />
    <glyph glyph-name="hookabovecomb" unicode="&#x309;" 
d="M-299 1483q0 -79 -37 -133.5t-113 -77.5l-14 -47h-153l-21 129q51 9 67.5 30t16.5 58q0 29 -14.5 46t-48.5 17q-22 0 -45.5 -5.5t-49.5 -16.5v198q35 16 77 23.5t91 7.5q119 0 181.5 -60t62.5 -169z" />
    <glyph glyph-name="uni030A" unicode="&#x30a;" 
d="M0 1237q-115 0 -184.5 71.5t-69.5 180.5q0 110 69.5 182t184.5 72q112 0 183 -73t71 -179t-70.5 -180t-183.5 -74zM0 1407q35 0 59.5 23.5t24.5 60.5t-24.5 60.5t-59.5 23.5t-59.5 -23.5t-24.5 -60.5t21.5 -60.5t62.5 -23.5z" />
    <glyph glyph-name="uni030B" unicode="&#x30b;" 
d="M518 1569v-21q-12 -29 -42.5 -68.5t-70.5 -82.5t-82 -83.5t-78 -72.5h-170v29q37 74 65.5 131.5t48.5 100t30 67.5h299zM153 1569v-21q-14 -31 -43.5 -69.5t-69 -80t-83.5 -82t-88 -75.5h-156v29q37 75 65 133t47.5 100t30.5 66h297z" />
    <glyph glyph-name="uni030C" unicode="&#x30c;" 
d="M-149 1241q-17 36 -54 94t-76.5 115t-66.5 90v29h207q31 -26 65 -63t74 -87q41 51 76.5 88t66.5 62h203v-29q-28 -39 -65.5 -94t-72 -110t-56.5 -95h-301z" />
    <glyph glyph-name="uni030F" unicode="&#x30f;" 
d="M-401 1569q10 -24 29 -66t47.5 -100t66.5 -133v-29h-156q-46 36 -91 77.5t-84 83t-67.5 79.5t-41.5 67v21h297zM-766 1569q12 -25 31.5 -67.5t47.5 -100t64 -131.5v-29h-170q-32 29 -74 70.5t-83 86.5t-72 84.5t-43 65.5v21h299z" />
    <glyph glyph-name="uni0312" unicode="&#x312;" 
d="M-156 879l-10 22q16 112 36 211.5t45 187.5t54 162h274q-17 -85 -32 -192t-26 -211t-17 -180h-324z" />
    <glyph glyph-name="dotbelowcomb" unicode="&#x323;" 
d="M-569 -479q-88 0 -132 43t-44 129q0 88 42 131t134 43t134 -44t42 -130t-44.5 -129t-131.5 -43z" />
    <glyph glyph-name="uni0326" unicode="&#x326;" 
d="M169 -125v-22q-15 -54 -34.5 -106.5t-43 -102t-51.5 -97.5h-223v29q7 35 15.5 90t14.5 111.5t7 97.5h315z" />
    <glyph glyph-name="uni0327" unicode="&#x327;" 
d="M222 -258q0 -107 -67.5 -170.5t-195.5 -63.5q-50 0 -95 5t-83 14v184q34 -7 62 -11.5t51 -4.5q37 0 56.5 14t19.5 43q0 35 -36.5 55t-98.5 23l69 170h156l-29 -70q60 -8 102.5 -33t65.5 -64.5t23 -90.5z" />
    <glyph glyph-name="uni0328" unicode="&#x328;" 
d="M21 -190q0 -34 22 -58t62 -24q28 0 46 6.5t34 15.5v-211q-25 -10 -64 -20.5t-90 -10.5q-130 0 -195 61t-65 167q0 46 16.5 96.5t56.5 102t109 100.5l170 -35q-63 -67 -82.5 -107t-19.5 -83z" />
    <glyph glyph-name="tonos" unicode="&#x384;" horiz-adv-x="848" 
d="M295 1241v33q5 19 13.5 59.5t18 87t16.5 87t9 59.5h293v-27q-20 -49 -43.5 -99t-49 -100t-54.5 -100h-203z" />
    <glyph glyph-name="dieresistonos" unicode="&#x385;" horiz-adv-x="885" 
d="M629 1716v-20q-13 -36 -32 -78.5t-44 -92t-57 -106.5h-156v29q9 60 15.5 109.5t10 89.5t3.5 69h260zM170 1571q65 0 102 -43t37 -115q0 -70 -37 -113t-102 -43q-63 0 -100 41.5t-37 114.5q0 75 37 116.5t100 41.5zM711 1577q66 0 103.5 -43.5t37.5 -120.5
q0 -66 -37.5 -108.5t-103.5 -42.5q-63 0 -100.5 41.5t-37.5 113.5q0 76 37.5 118t100.5 42z" />
    <glyph glyph-name="Alphatonos" unicode="&#x386;" horiz-adv-x="1227" 
d="M854 0l-55 285h-316l-55 -285h-377l356 1462h459l361 -1462h-373zM745 584l-59 327q-10 55 -18.5 107t-15 99.5t-11.5 88.5q-4 -39 -10.5 -86t-15.5 -98.5t-19 -106.5l-62 -331h211zM-14 1223v33q5 19 13.5 59.5t18 87t16.5 87t9 59.5h293v-27q-20 -49 -43.5 -99
t-49 -100t-54.5 -100h-203z" />
    <glyph glyph-name="anoteleia" unicode="&#x387;" horiz-adv-x="559" 
d="M92 957q0 92 49.5 142t141.5 50q89 0 136.5 -50t47.5 -142q0 -91 -48.5 -141t-135.5 -50q-88 0 -139.5 50t-51.5 141z" />
    <glyph glyph-name="Epsilontonos" unicode="&#x388;" horiz-adv-x="1165" 
d="M1083 0h-704v1462h704v-295h-356v-264h330v-295h-330v-309h356v-299zM-18 1198v33q5 19 13.5 59.5t18 87t16.5 87t9 59.5h293v-27q-20 -49 -43.5 -99t-49 -100t-54.5 -100h-203z" />
    <glyph glyph-name="Etatonos" unicode="&#x389;" horiz-adv-x="1511" 
d="M1390 0h-348v610h-309v-610h-348v1462h348v-553h309v553h348v-1462zM-18 1198v33q5 19 13.5 59.5t18 87t16.5 87t9 59.5h293v-27q-20 -49 -43.5 -99t-49 -100t-54.5 -100h-203z" />
    <glyph glyph-name="Iotatonos" unicode="&#x38a;" horiz-adv-x="868" 
d="M400 0v1462h348v-1462h-348zM-18 1198v33q5 19 13.5 59.5t18 87t16.5 87t9 59.5h293v-27q-20 -49 -43.5 -99t-49 -100t-54.5 -100h-203z" />
    <glyph glyph-name="Omicrontonos" unicode="&#x38c;" horiz-adv-x="1397" 
d="M1317 733q0 -184 -35.5 -324.5t-106 -236t-174 -144t-239.5 -48.5q-135 0 -239 49t-175 144.5t-107 236.5t-36 325q0 244 63.5 411t188 253t305.5 86q182 0 305.5 -85t186.5 -252.5t63 -414.5zM567 733q0 -149 22 -249t65.5 -149.5t107.5 -49.5q66 0 108.5 48t63 147.5
t20.5 252.5q0 232 -47.5 342.5t-144.5 110.5q-64 0 -107.5 -50.5t-65.5 -151t-22 -251.5zM-18 1198v33q5 19 13.5 59.5t18 87t16.5 87t9 59.5h293v-27q-20 -49 -43.5 -99t-49 -100t-54.5 -100h-203z" />
    <glyph glyph-name="Upsilontonos" unicode="&#x38e;" horiz-adv-x="1434" 
d="M897 930l178 532h358l-364 -901v-561h-348v549l-365 913h362zM-18 1198v33q5 19 13.5 59.5t18 87t16.5 87t9 59.5h293v-27q-20 -49 -43.5 -99t-49 -100t-54.5 -100h-203z" />
    <glyph glyph-name="Omegatonos" unicode="&#x38f;" horiz-adv-x="1419" 
d="M782 1186q-71 0 -117 -41.5t-68 -125t-22 -208.5q0 -119 14.5 -209t45.5 -154.5t81 -105.5v-342h-534v299h285q-76 48 -130.5 130t-84 192t-29.5 243q0 201 66.5 339.5t191.5 210t301 71.5q163 0 288 -69.5t196 -207.5t71 -342q0 -134 -28.5 -242.5t-84.5 -189.5
t-137 -135h293v-299h-539v342q54 43 86 108.5t46 156.5t14 208q0 125 -22.5 207.5t-68 123t-114.5 40.5zM-18 1198v33q5 19 13.5 59.5t18 87t16.5 87t9 59.5h293v-27q-20 -49 -43.5 -99t-49 -100t-54.5 -100h-203z" />
    <glyph glyph-name="iotadieresistonos" unicode="&#x390;" horiz-adv-x="682" 
d="M434 1133v-768q0 -49 20 -74t58 -25q37 0 68 11t69 32v-266q-49 -32 -108 -47.5t-127 -15.5q-106 0 -175.5 38t-103 121.5t-33.5 220.5v773h332zM488 1716v-20q-13 -36 -32 -78.5t-44 -92t-57 -106.5h-156v29q9 60 15.5 109.5t10 89.5t3.5 69h260zM29 1571q65 0 102 -43
t37 -115q0 -70 -37 -113t-102 -43q-63 0 -100 41.5t-37 114.5q0 75 37 116.5t100 41.5zM570 1577q66 0 103.5 -43.5t37.5 -120.5q0 -66 -37.5 -108.5t-103.5 -42.5q-63 0 -100.5 41.5t-37.5 113.5q0 76 37.5 118t100.5 42z" />
    <glyph glyph-name="Alpha" unicode="&#x391;" horiz-adv-x="1176" 
d="M803 0l-55 285h-316l-55 -285h-377l356 1462h459l361 -1462h-373zM694 584l-59 327q-10 55 -18.5 107t-15 99.5t-11.5 88.5q-4 -39 -10.5 -86t-15.5 -98.5t-19 -106.5l-62 -331h211z" />
    <glyph glyph-name="Beta" unicode="&#x392;" horiz-adv-x="1143" 
d="M121 1462h424q247 0 367 -88t120 -276q0 -81 -24 -147.5t-66.5 -111.5t-99.5 -63v-10q76 -23 123 -68.5t69.5 -113t22.5 -156.5q0 -132 -57 -228t-162.5 -148t-251.5 -52h-465v1462zM469 893h76q65 0 100 38t35 113q0 68 -35 102t-106 34h-70v-287zM469 621v-332h90
q71 0 106 41.5t35 126.5q0 52 -16.5 88.5t-49 56t-79.5 19.5h-86z" />
    <glyph glyph-name="Gamma" unicode="&#x393;" horiz-adv-x="903" 
d="M877 1462v-301h-408v-1161h-348v1462h756z" />
    <glyph glyph-name="uni0394" unicode="&#x394;" horiz-adv-x="1171" 
d="M817 1462l330 -1265v-197h-1122v199l331 1263h461zM758 299l-150 719q-4 19 -8 40.5t-7 47.5t-5 55q-2 -27 -5.5 -52t-7.5 -47.5t-8 -43.5l-153 -719h344z" />
    <glyph glyph-name="Epsilon" unicode="&#x395;" horiz-adv-x="907" 
d="M825 0h-704v1462h704v-295h-356v-264h330v-295h-330v-309h356v-299z" />
    <glyph glyph-name="Zeta" unicode="&#x396;" horiz-adv-x="965" 
d="M922 0h-879v244l489 923h-479v295h856v-243l-487 -920h500v-299z" />
    <glyph glyph-name="Eta" unicode="&#x397;" horiz-adv-x="1247" 
d="M1126 0h-348v610h-309v-610h-348v1462h348v-553h309v553h348v-1462z" />
    <glyph glyph-name="Theta" unicode="&#x398;" horiz-adv-x="1272" 
d="M770 881v-277h-270v277h270zM1192 733q0 -184 -35.5 -324.5t-106 -236t-174 -144t-239.5 -48.5q-135 0 -239 49t-175 144.5t-107 236.5t-36 325q0 244 63.5 411t188 253t305.5 86q182 0 305.5 -85t186.5 -252.5t63 -414.5zM442 733q0 -149 22 -249t65.5 -149.5
t107.5 -49.5q66 0 108.5 48t63 147.5t20.5 252.5q0 232 -47.5 342.5t-144.5 110.5q-64 0 -107.5 -50.5t-65.5 -151t-22 -251.5z" />
    <glyph glyph-name="Iota" unicode="&#x399;" horiz-adv-x="590" 
d="M121 0v1462h348v-1462h-348z" />
    <glyph glyph-name="Kappa" unicode="&#x39a;" horiz-adv-x="1130" 
d="M1149 0h-385l-213 545l-82 -56v-489h-348v1462h348v-635q9 44 29.5 90t46.5 97l235 448h375l-352 -655z" />
    <glyph glyph-name="Lambda" unicode="&#x39b;" horiz-adv-x="1147" 
d="M776 1462l371 -1462h-371l-151 721q-16 81 -27.5 145.5t-17.5 113t-7 81.5q-5 -56 -12 -112t-16.5 -111.5t-22.5 -112.5l-153 -725h-369l371 1462h405z" />
    <glyph glyph-name="Mu" unicode="&#x39c;" horiz-adv-x="1653" 
d="M690 0l-252 983h-8q5 -66 8.5 -127.5t5.5 -116.5t2 -104v-635h-325v1462h477l227 -878h6l228 878h473v-1462h-334v641q0 55 2 109.5t5 112.5t7 120h-8l-256 -983h-258z" />
    <glyph glyph-name="Nu" unicode="&#x39d;" horiz-adv-x="1343" 
d="M1223 0h-406l-381 909h-8q6 -80 9.5 -148.5t5 -124t1.5 -97.5v-539h-323v1462h403l379 -884h8q-4 74 -7 138t-5 118t-2 98v530h326v-1462z" />
    <glyph glyph-name="Xi" unicode="&#x39e;" horiz-adv-x="942" 
d="M57 0v299h828v-299h-828zM152 618v295h639v-295h-639zM88 1167v295h766v-295h-766z" />
    <glyph glyph-name="Omicron" unicode="&#x39f;" horiz-adv-x="1272" 
d="M1192 733q0 -184 -35.5 -324.5t-106 -236t-174 -144t-239.5 -48.5q-135 0 -239 49t-175 144.5t-107 236.5t-36 325q0 244 63.5 411t188 253t305.5 86q182 0 305.5 -85t186.5 -252.5t63 -414.5zM442 733q0 -149 22 -249t65.5 -149.5t107.5 -49.5q66 0 108.5 48t63 147.5
t20.5 252.5q0 232 -47.5 342.5t-144.5 110.5q-64 0 -107.5 -50.5t-65.5 -151t-22 -251.5z" />
    <glyph glyph-name="Pi" unicode="&#x3a0;" horiz-adv-x="1217" 
d="M121 0v1462h977v-1462h-348v1161h-281v-1161h-348z" />
    <glyph glyph-name="Rho" unicode="&#x3a1;" horiz-adv-x="1065" 
d="M555 1462q226 0 339.5 -121t113.5 -344q0 -109 -28 -202.5t-86 -163t-147 -108t-210 -38.5h-68v-485h-348v1462h434zM522 1167h-53v-387h31q48 0 84 21.5t55.5 69t19.5 124.5q0 86 -34 129t-103 43z" />
    <glyph glyph-name="Sigma" unicode="&#x3a3;" horiz-adv-x="987" 
d="M59 0v285l316 483l-295 420v274h797v-295h-222q-41 0 -74.5 1t-59.5 3.5t-46 6.5l283 -408l-316 -483q56 8 104 10t91 2h281v-299h-859z" />
    <glyph glyph-name="Tau" unicode="&#x3a4;" horiz-adv-x="942" 
d="M645 0h-346v1161h-264v301h872v-301h-262v-1161z" />
    <glyph glyph-name="Upsilon" unicode="&#x3a5;" horiz-adv-x="1077" 
d="M541 930l178 532h358l-364 -901v-561h-348v549l-365 913h362z" />
    <glyph glyph-name="Phi" unicode="&#x3a6;" horiz-adv-x="1532" 
d="M934 1483v-180q173 0 291 -71.5t178.5 -195t60.5 -280.5q0 -125 -34 -226.5t-101 -174t-166 -111.5t-229 -39v-225h-336v225q-134 0 -234 38.5t-165.5 110.5t-98 174.5t-32.5 229.5q0 111 28.5 209.5t91 174t164 118.5t246.5 43v180h336zM598 1016q-65 0 -107 -28
t-61.5 -84.5t-19.5 -143.5q0 -100 20.5 -159t62.5 -84t105 -25v524zM934 1016v-524q66 0 107.5 28t61 87.5t19.5 152.5q0 81 -21 138.5t-62.5 87.5t-104.5 30z" />
    <glyph glyph-name="Chi" unicode="&#x3a7;" horiz-adv-x="1065" 
d="M1069 0h-375l-164 422l-168 -422h-366l334 731l-314 731h361l143 -405l133 405h369l-303 -719z" />
    <glyph glyph-name="Psi" unicode="&#x3a8;" horiz-adv-x="1587" 
d="M1489 1462v-497q0 -148 -31.5 -255.5t-96.5 -177t-164 -102.5t-234 -33v-397h-336v397q-139 0 -239 31t-163.5 96.5t-94 168t-30.5 245.5v524h349v-534q0 -89 17 -139.5t56.5 -71.5t104.5 -21v766h336v-766q61 0 100.5 24.5t58.5 74.5t19 127v540h348z" />
    <glyph glyph-name="uni03A9" unicode="&#x3a9;" horiz-adv-x="1276" 
d="M639 1186q-71 0 -117 -41.5t-68 -125t-22 -208.5q0 -119 14.5 -209t45.5 -154.5t81 -105.5v-342h-534v299h285q-76 48 -130.5 130t-84 192t-29.5 243q0 201 66.5 339.5t191.5 210t301 71.5q163 0 288 -69.5t196 -207.5t71 -342q0 -134 -28.5 -242.5t-84.5 -189.5
t-137 -135h293v-299h-539v342q54 43 86 108.5t46 156.5t14 208q0 125 -22.5 207.5t-68 123t-114.5 40.5z" />
    <glyph glyph-name="Iotadieresis" unicode="&#x3aa;" horiz-adv-x="590" 
d="M121 0v1462h348v-1462h-348zM-51 1743q0 75 39.5 116.5t105.5 41.5q69 0 109.5 -43t40.5 -115q0 -70 -40.5 -113t-109.5 -43q-66 0 -105.5 41.5t-39.5 114.5zM344 1743q0 75 40.5 116.5t107.5 41.5q71 0 110 -43t39 -115q0 -70 -39 -113t-110 -43q-70 0 -109 42t-39 114z
" />
    <glyph glyph-name="Upsilondieresis" unicode="&#x3ab;" horiz-adv-x="1077" 
d="M541 930l178 532h358l-364 -901v-561h-348v549l-365 913h362zM193 1743q0 75 39.5 116.5t105.5 41.5q69 0 109.5 -43t40.5 -115q0 -70 -40.5 -113t-109.5 -43q-66 0 -105.5 41.5t-39.5 114.5zM588 1743q0 75 40.5 116.5t107.5 41.5q71 0 110 -43t39 -115q0 -70 -39 -113
t-110 -43q-70 0 -109 42t-39 114z" />
    <glyph glyph-name="alphatonos" unicode="&#x3ac;" horiz-adv-x="1139" 
d="M524 256q44 0 72.5 30.5t42.5 96.5t14 170v10q0 158 -31.5 231.5t-99.5 73.5q-60 0 -90.5 -80t-30.5 -229q0 -151 31 -227t92 -76zM408 -20q-161 0 -251.5 156.5t-90.5 424.5q0 278 96 435t268 157q92 0 151.5 -43t96.5 -129h12q14 53 30 91t36 61h295q-19 -69 -34 -150
t-23.5 -163t-8.5 -156v-277q0 -60 18 -90.5t52 -30.5q15 0 28 3t23 7v-270q-7 -6 -33 -12t-55 -10t-45 -4q-121 0 -187 39.5t-104 127.5h-20q-30 -55 -68 -92t-84.5 -56t-101.5 -19zM485 1241v33q5 19 13.5 59.5t18 87t16.5 87t9 59.5h293v-27q-20 -49 -43.5 -99t-49 -100
t-54.5 -100h-203z" />
    <glyph glyph-name="epsilontonos" unicode="&#x3ad;" horiz-adv-x="903" 
d="M682 702v-241h-102q-70 0 -110 -13t-56.5 -37.5t-16.5 -58.5q0 -31 17 -52.5t51 -32.5t84 -11q71 0 148 22.5t147 65.5v-285q-85 -46 -167.5 -62.5t-187.5 -16.5q-230 0 -329 94t-99 248q0 103 59.5 176t162.5 90v10q-82 25 -126 91t-44 157q0 93 48 162t135 107t204 38
q87 0 172 -20t182 -72l-106 -250q-55 35 -108 53.5t-99 18.5q-54 0 -81.5 -18.5t-27.5 -55.5q0 -63 38.5 -85t127.5 -22h84zM395 1241v33q5 19 13.5 59.5t18 87t16.5 87t9 59.5h293v-27q-20 -49 -43.5 -99t-49 -100t-54.5 -100h-203z" />
    <glyph glyph-name="etatonos" unicode="&#x3ae;" horiz-adv-x="1083" 
d="M672 1153q98 0 167.5 -49t106.5 -142t37 -225v-1229h-332v1123q0 112 -18.5 169.5t-69.5 57.5q-49 0 -77 -31.5t-40 -106t-12 -202.5v-518h-332v1133h260l37 -140h19q26 54 62 89.5t84 53t108 17.5zM463 1241v33q5 19 13.5 59.5t18 87t16.5 87t9 59.5h293v-27
q-20 -49 -43.5 -99t-49 -100t-54.5 -100h-203z" />
    <glyph glyph-name="iotatonos" unicode="&#x3af;" horiz-adv-x="682" 
d="M434 1133v-768q0 -49 20 -74t58 -25q37 0 68 11t69 32v-266q-49 -32 -108 -47.5t-127 -15.5q-106 0 -175.5 38t-103 121.5t-33.5 220.5v773h332zM180 1241v33q5 19 13.5 59.5t18 87t16.5 87t9 59.5h293v-27q-20 -49 -43.5 -99t-49 -100t-54.5 -100h-203z" />
    <glyph glyph-name="upsilondieresistonos" unicode="&#x3b0;" horiz-adv-x="1094" 
d="M535 -16q-152 0 -248 57.5t-141.5 175.5t-45.5 301v615h332v-652q0 -113 26.5 -160t86.5 -47q68 0 97.5 76t29.5 258q0 117 -15.5 248t-44.5 277h330q24 -107 37.5 -193t19 -164.5t5.5 -165.5q0 -315 -121 -470.5t-348 -155.5zM721 1716v-20q-13 -36 -32 -78.5t-44 -92
t-57 -106.5h-156v29q9 60 15.5 109.5t10 89.5t3.5 69h260zM262 1571q65 0 102 -43t37 -115q0 -70 -37 -113t-102 -43q-63 0 -100 41.5t-37 114.5q0 75 37 116.5t100 41.5zM803 1577q66 0 103.5 -43.5t37.5 -120.5q0 -66 -37.5 -108.5t-103.5 -42.5q-63 0 -100.5 41.5
t-37.5 113.5q0 76 37.5 118t100.5 42z" />
    <glyph glyph-name="alpha" unicode="&#x3b1;" horiz-adv-x="1139" 
d="M524 256q44 0 72.5 30.5t42.5 96.5t14 170v10q0 158 -31.5 231.5t-99.5 73.5q-60 0 -90.5 -80t-30.5 -229q0 -151 31 -227t92 -76zM408 -20q-161 0 -251.5 156.5t-90.5 424.5q0 278 96 435t268 157q92 0 151.5 -43t96.5 -129h12q14 53 30 91t36 61h295q-19 -69 -34 -150
t-23.5 -163t-8.5 -156v-277q0 -60 18 -90.5t52 -30.5q15 0 28 3t23 7v-270q-7 -6 -33 -12t-55 -10t-45 -4q-121 0 -187 39.5t-104 127.5h-20q-30 -55 -68 -92t-84.5 -56t-101.5 -19z" />
    <glyph glyph-name="beta" unicode="&#x3b2;" horiz-adv-x="1110" 
d="M557 1567q133 0 228 -47.5t145.5 -136t50.5 -212.5q0 -147 -55 -232.5t-158 -107.5v-8q148 -24 214.5 -119t66.5 -260q0 -140 -46 -244.5t-130.5 -162t-200.5 -57.5q-77 0 -137 16.5t-101 42.5v-531h-332v1588q0 150 54.5 255t156.5 160.5t244 55.5zM547 1290
q-39 0 -64 -24.5t-37 -74t-12 -124.5v-745q22 -22 63 -39t72 -17q66 0 105 52.5t39 156.5q0 57 -17.5 98t-50 63.5t-78.5 22.5h-41v279h27q47 0 71.5 49t24.5 131q0 83 -28 127.5t-74 44.5z" />
    <glyph glyph-name="gamma" unicode="&#x3b3;" horiz-adv-x="1014" 
d="M1008 1133l-320 -1119q-20 -73 -37 -162t-27 -178.5t-10 -165.5h-356q0 59 11.5 151.5t29.5 188.5t35 164l-330 1121h356l80 -330q16 -60 29.5 -121.5t23.5 -123t15 -124.5h6q5 48 15.5 102.5t25 116.5t29.5 131l82 349h342z" />
    <glyph glyph-name="delta" unicode="&#x3b4;" horiz-adv-x="1038" 
d="M571 1575q108 0 208 -29t194 -86l-113 -268q-82 54 -150.5 80t-121.5 26q-49 0 -74 -16.5t-25 -50.5q0 -24 10 -45t46.5 -52t113.5 -87q106 -76 175.5 -159.5t104 -188t34.5 -242.5q0 -143 -54 -250.5t-157 -167t-250 -59.5q-149 0 -249.5 53.5t-151 156t-50.5 248.5
q0 114 32.5 203t96.5 153.5t160 104.5q-61 43 -102 93.5t-61.5 107.5t-20.5 119q0 169 106 262.5t299 93.5zM518 750q-33 -16 -60.5 -58.5t-44 -102t-16.5 -128.5t14 -114.5t40.5 -68t62.5 -22.5q38 0 65.5 24t42.5 71t15 114q0 97 -29.5 168t-89.5 117z" />
    <glyph glyph-name="epsilon" unicode="&#x3b5;" horiz-adv-x="903" 
d="M682 702v-241h-102q-70 0 -110 -13t-56.5 -37.5t-16.5 -58.5q0 -31 17 -52.5t51 -32.5t84 -11q71 0 148 22.5t147 65.5v-285q-85 -46 -167.5 -62.5t-187.5 -16.5q-230 0 -329 94t-99 248q0 103 59.5 176t162.5 90v10q-82 25 -126 91t-44 157q0 93 48 162t135 107t204 38
q87 0 172 -20t182 -72l-106 -250q-55 35 -108 53.5t-99 18.5q-54 0 -81.5 -18.5t-27.5 -55.5q0 -63 38.5 -85t127.5 -22h84z" />
    <glyph glyph-name="zeta" unicode="&#x3b6;" horiz-adv-x="881" 
d="M844 -18q0 -82 -26.5 -168.5t-80.5 -178.5h-334q31 46 57 99t42 98t16 66q0 25 -8 43t-45.5 37.5t-124.5 46.5q-99 31 -159 81t-87.5 137.5t-27.5 227.5q0 107 24.5 210t76 204.5t130 204.5t186.5 210q-20 -7 -41.5 -11.5t-44 -6.5t-47.5 -2h-244v276h719v-219
q-111 -119 -191 -227.5t-131.5 -211.5t-76.5 -204t-25 -205q0 -57 17 -93t63 -61t133 -50q77 -20 128 -59.5t76.5 -99.5t25.5 -144z" />
    <glyph glyph-name="eta" unicode="&#x3b7;" horiz-adv-x="1083" 
d="M672 1153q98 0 167.5 -49t106.5 -142t37 -225v-1229h-332v1123q0 112 -18.5 169.5t-69.5 57.5q-49 0 -77 -31.5t-40 -106t-12 -202.5v-518h-332v1133h260l37 -140h19q26 54 62 89.5t84 53t108 17.5z" />
    <glyph glyph-name="theta" unicode="&#x3b8;" horiz-adv-x="1071" 
d="M1006 780q0 -270 -52.5 -447.5t-157.5 -265t-264 -87.5q-236 0 -351 194t-115 606q0 272 51 449t154.5 263.5t260.5 86.5q237 0 355.5 -196t118.5 -603zM532 244q70 0 102.5 99.5t35.5 301.5h-269q4 -199 34.5 -300t96.5 -101zM537 1315q-66 0 -97 -98.5t-34 -307.5h266
q-6 209 -38 307.5t-97 98.5z" />
    <glyph glyph-name="iota" unicode="&#x3b9;" horiz-adv-x="682" 
d="M434 1133v-768q0 -49 20 -74t58 -25q37 0 68 11t69 32v-266q-49 -32 -108 -47.5t-127 -15.5q-106 0 -175.5 38t-103 121.5t-33.5 220.5v773h332z" />
    <glyph glyph-name="kappa" unicode="&#x3ba;" horiz-adv-x="1067" 
d="M1065 1133l-305 -482l317 -651h-364l-183 412l-96 -82v-330h-332v1133h332v-195q0 -78 -3 -154.5t-11 -150.5h6q22 47 44.5 90.5t41.5 75.5l197 334h356z" />
    <glyph glyph-name="lambda" unicode="&#x3bb;" horiz-adv-x="1085" 
d="M4 0l346 1065l-26 100q-13 44 -39 87.5t-92 43.5q-22 0 -42 -3t-40 -9v272q21 6 43.5 9.5t47 5.5t50.5 2q104 0 179 -37.5t131 -129t102 -253.5l221 -778q11 -40 26 -62t35.5 -30.5t46.5 -8.5q20 0 38.5 3.5t35.5 9.5v-289q-19 -6 -41.5 -10t-46 -6t-49.5 -2
q-97 0 -162.5 33t-110.5 110.5t-82 212.5l-45 160q-4 13 -6.5 26.5t-4.5 28.5t-3.5 31t-3.5 34h-6q-1 -37 -6 -67.5t-13 -54.5l-135 -494h-348z" />
    <glyph glyph-name="uni03BC" unicode="&#x3bc;" horiz-adv-x="1083" 
d="M981 1133v-1133h-258l-39 141h-12q-15 -51 -37.5 -87t-49.5 -55t-57 -19q-38 0 -59.5 20t-40.5 63h-4q2 -29 4 -67t3 -80.5t1 -87.5v-320h-332v1625h332v-629q0 -114 19.5 -172t68.5 -58q60 0 87 47t34.5 124.5t7.5 168.5v519h332z" />
    <glyph glyph-name="nu" unicode="&#x3bd;" horiz-adv-x="1034" 
d="M4 1133h346l127 -639q5 -24 9.5 -47.5t8 -47t5.5 -47.5h6q53 121 82.5 245t41 256.5t11.5 279.5h334q0 -222 -38.5 -414.5t-121 -368.5t-215.5 -350h-311z" />
    <glyph glyph-name="xi" unicode="&#x3be;" horiz-adv-x="877" 
d="M66 426q0 94 23 166t73.5 125.5t132.5 91.5v8q-60 16 -100 47.5t-60 79.5t-20 111q0 56 24.5 104.5t66 83t91.5 47.5q-30 -4 -54 -6t-45 -3t-44 -1h-64v276h703v-276h-113q-59 0 -103.5 -12.5t-74 -37t-44 -61.5t-14.5 -86q0 -73 44.5 -107t136.5 -34h110v-276h-108
q-74 0 -124.5 -20t-76 -62.5t-25.5 -110.5q0 -56 16.5 -90t61 -56.5t127.5 -45.5q75 -21 125 -62.5t75 -102.5t25 -141q0 -81 -26.5 -166.5t-79.5 -173.5h-336q32 46 58.5 99t42.5 98t16 66q0 30 -10 49.5t-40.5 35.5t-90.5 33q-105 31 -171 87t-97 137t-31 186z" />
    <glyph glyph-name="omicron" unicode="&#x3bf;" horiz-adv-x="1057" 
d="M989 569q0 -109 -23.5 -213.5t-77.5 -189.5t-142.5 -135.5t-219.5 -50.5q-120 0 -207 49.5t-143 133t-83 189t-27 217.5q0 163 47 295.5t149.5 210.5t267.5 78q138 0 241 -68.5t160.5 -198.5t57.5 -317zM401 565q0 -101 13.5 -170t41.5 -104t72 -35q47 0 74 34.5
t39 104.5t12 174t-12 172t-39 102t-74 34q-66 0 -96.5 -76t-30.5 -236z" />
    <glyph glyph-name="pi" unicode="&#x3c0;" horiz-adv-x="1257" 
d="M1096 268q26 0 59.5 10t58.5 25v-254q-46 -35 -108.5 -52t-122.5 -17q-141 0 -208.5 91.5t-67.5 280.5v504h-191v-856h-332v856h-174v152l152 125h1052v-277h-176v-496q0 -47 16 -69.5t42 -22.5z" />
    <glyph glyph-name="rho" unicode="&#x3c1;" horiz-adv-x="1067" 
d="M1001 565q0 -158 -34.5 -291.5t-116.5 -213.5t-223 -80q-61 0 -109 22t-86 53h-16q8 -78 10 -149t2 -125v-273h-332v1051q0 171 43 305.5t143 211.5t271 77q145 0 244.5 -66t151.5 -196.5t52 -325.5zM549 877q-60 0 -90.5 -54.5t-30.5 -183.5v-336q22 -22 52 -34.5
t61 -12.5q62 0 93.5 65.5t31.5 243.5q0 180 -28.5 246t-88.5 66z" />
    <glyph glyph-name="uni03C2" unicode="&#x3c2;" horiz-adv-x="899" 
d="M541 1153q77 0 153.5 -21.5t155.5 -64.5l-88 -264q-48 34 -95.5 50.5t-113.5 16.5q-75 0 -113.5 -80t-38.5 -247q0 -95 18 -142t62.5 -70t124.5 -48q79 -23 131.5 -65.5t78.5 -103t26 -139.5q0 -81 -27.5 -166.5t-81.5 -173.5h-334q32 46 58 99t41.5 98t15.5 66
q0 30 -6 51.5t-37 41t-106 40.5q-79 23 -136 56.5t-93 88t-53 139.5t-17 211q0 211 53.5 350t159.5 208t262 69z" />
    <glyph glyph-name="sigma" unicode="&#x3c3;" horiz-adv-x="1135" 
d="M1016 477q0 -149 -58.5 -261t-165.5 -174t-253 -62q-156 0 -261 66t-158.5 188t-53.5 290q0 208 64.5 343t195.5 200.5t333 65.5h431v-277h-213q69 -69 104 -164t35 -215zM401 526q0 -95 17 -154.5t49 -87.5t76 -28q68 0 102.5 70.5t34.5 210.5q0 57 -8.5 110.5t-26 105
t-45.5 103.5h-16q-97 0 -140 -80t-43 -250z" />
    <glyph glyph-name="tau" unicode="&#x3c4;" horiz-adv-x="850" 
d="M807 1133v-277h-258v-479q0 -55 20 -83t62 -28q31 0 64.5 9.5t70.5 25.5v-262q-51 -29 -110.5 -44t-135.5 -15q-104 0 -171.5 40t-99.5 124.5t-32 217.5v494h-207v152l152 125h645z" />
    <glyph glyph-name="upsilon" unicode="&#x3c5;" horiz-adv-x="1094" 
d="M535 -16q-152 0 -248 57.5t-141.5 175.5t-45.5 301v615h332v-652q0 -113 26.5 -160t86.5 -47q68 0 97.5 76t29.5 258q0 117 -15.5 248t-44.5 277h330q24 -107 37.5 -193t19 -164.5t5.5 -165.5q0 -315 -121 -470.5t-348 -155.5z" />
    <glyph glyph-name="phi" unicode="&#x3c6;" horiz-adv-x="1421" 
d="M258 1157l252 -145q-49 -95 -79 -220.5t-30 -242.5q0 -80 16.5 -136.5t47.5 -91.5t76 -53v420q0 233 93.5 346t291.5 113q132 0 228.5 -65t149 -186.5t52.5 -291.5q0 -176 -58.5 -307t-168.5 -209t-265 -96v-484h-323v484q-151 13 -257.5 84t-162 192.5t-55.5 286.5
q0 167 47 315.5t145 286.5zM926 870q-35 0 -48.5 -37.5t-13.5 -121.5v-443q49 7 83.5 47t53.5 112t19 175q0 90 -11 149.5t-32 89t-51 29.5z" />
    <glyph glyph-name="chi" unicode="&#x3c7;" horiz-adv-x="1034" 
d="M195 1153q96 0 160 -31t107 -100t75 -184l18 -76l133 371h336l-344 -787l96 -330q31 -104 52 -153.5t45 -63.5t65 -14q22 0 42 3t42 9v-272q-32 -7 -72.5 -12t-99.5 -5q-97 0 -162.5 32t-112 110.5t-86.5 216.5l-24 90l-156 -449h-350l387 867l-113 362q-25 88 -53.5 114
t-66.5 26q-20 0 -42.5 -4.5t-39.5 -10.5v273q29 8 72.5 13t91.5 5z" />
    <glyph glyph-name="psi" unicode="&#x3c8;" horiz-adv-x="1516" 
d="M918 1554v-1280q68 10 106 41t54 95t16 170q0 131 -17.5 269t-52.5 284h324q44 -174 60.5 -301.5t16.5 -258.5q0 -182 -57 -310t-169.5 -198.5t-280.5 -80.5v-476h-324v476q-163 6 -273 60.5t-165.5 169.5t-55.5 302v617h332v-603q0 -85 14.5 -139t50 -82t97.5 -35v1280
h324z" />
    <glyph glyph-name="omega" unicode="&#x3c9;" horiz-adv-x="1552" 
d="M1372 1133q34 -106 53.5 -199.5t28 -186t8.5 -196.5q0 -178 -48 -306t-138 -196.5t-215 -68.5q-109 0 -180.5 51.5t-100.5 163.5h-8q-32 -112 -99.5 -163.5t-183.5 -51.5q-125 0 -214.5 70t-137 198t-47.5 303q0 108 8.5 197t28.5 180.5t53 204.5h336q-46 -124 -70 -266
t-24 -300q0 -150 23 -217t79 -67q36 0 55.5 21.5t27 74.5t7.5 147v275h324v-275q1 -100 7.5 -151t25.5 -70t57 -22q35 0 57.5 30t33.5 91.5t11 156.5q0 145 -23 294t-73 278h338z" />
    <glyph glyph-name="iotadieresis" unicode="&#x3ca;" horiz-adv-x="682" 
d="M434 1133v-768q0 -49 20 -74t58 -25q37 0 68 11t69 32v-266q-49 -32 -108 -47.5t-127 -15.5q-106 0 -175.5 38t-103 121.5t-33.5 220.5v773h332zM-45 1413q0 75 39.5 116.5t105.5 41.5q69 0 109.5 -43t40.5 -115q0 -70 -40.5 -113t-109.5 -43q-66 0 -105.5 41.5
t-39.5 114.5zM350 1413q0 75 40.5 116.5t107.5 41.5q71 0 110 -43t39 -115q0 -70 -39 -113t-110 -43q-70 0 -109 42t-39 114z" />
    <glyph glyph-name="upsilondieresis" unicode="&#x3cb;" horiz-adv-x="1094" 
d="M535 -16q-152 0 -248 57.5t-141.5 175.5t-45.5 301v615h332v-652q0 -113 26.5 -160t86.5 -47q68 0 97.5 76t29.5 258q0 117 -15.5 248t-44.5 277h330q24 -107 37.5 -193t19 -164.5t5.5 -165.5q0 -315 -121 -470.5t-348 -155.5zM188 1413q0 75 39.5 116.5t105.5 41.5
q69 0 109.5 -43t40.5 -115q0 -70 -40.5 -113t-109.5 -43q-66 0 -105.5 41.5t-39.5 114.5zM583 1413q0 75 40.5 116.5t107.5 41.5q71 0 110 -43t39 -115q0 -70 -39 -113t-110 -43q-70 0 -109 42t-39 114z" />
    <glyph glyph-name="omicrontonos" unicode="&#x3cc;" horiz-adv-x="1057" 
d="M989 569q0 -109 -23.5 -213.5t-77.5 -189.5t-142.5 -135.5t-219.5 -50.5q-120 0 -207 49.5t-143 133t-83 189t-27 217.5q0 163 47 295.5t149.5 210.5t267.5 78q138 0 241 -68.5t160.5 -198.5t57.5 -317zM401 565q0 -101 13.5 -170t41.5 -104t72 -35q47 0 74 34.5
t39 104.5t12 174t-12 172t-39 102t-74 34q-66 0 -96.5 -76t-30.5 -236zM408 1241v33q5 19 13.5 59.5t18 87t16.5 87t9 59.5h293v-27q-20 -49 -43.5 -99t-49 -100t-54.5 -100h-203z" />
    <glyph glyph-name="upsilontonos" unicode="&#x3cd;" horiz-adv-x="1094" 
d="M535 -16q-152 0 -248 57.5t-141.5 175.5t-45.5 301v615h332v-652q0 -113 26.5 -160t86.5 -47q68 0 97.5 76t29.5 258q0 117 -15.5 248t-44.5 277h330q24 -107 37.5 -193t19 -164.5t5.5 -165.5q0 -315 -121 -470.5t-348 -155.5zM414 1241v33q5 19 13.5 59.5t18 87t16.5 87
t9 59.5h293v-27q-20 -49 -43.5 -99t-49 -100t-54.5 -100h-203z" />
    <glyph glyph-name="omegatonos" unicode="&#x3ce;" horiz-adv-x="1552" 
d="M1372 1133q34 -106 53.5 -199.5t28 -186t8.5 -196.5q0 -178 -48 -306t-138 -196.5t-215 -68.5q-109 0 -180.5 51.5t-100.5 163.5h-8q-32 -112 -99.5 -163.5t-183.5 -51.5q-125 0 -214.5 70t-137 198t-47.5 303q0 108 8.5 197t28.5 180.5t53 204.5h336q-46 -124 -70 -266
t-24 -300q0 -150 23 -217t79 -67q36 0 55.5 21.5t27 74.5t7.5 147v275h324v-275q1 -100 7.5 -151t25.5 -70t57 -22q35 0 57.5 30t33.5 91.5t11 156.5q0 145 -23 294t-73 278h338zM651 1241v33q5 19 13.5 59.5t18 87t16.5 87t9 59.5h293v-27q-20 -49 -43.5 -99t-49 -100
t-54.5 -100h-203z" />
    <glyph glyph-name="uni03D1" unicode="&#x3d1;" horiz-adv-x="1206" 
d="M604 1579q104 0 188 -38.5t146 -114t98.5 -186.5t44.5 -255h105v-276h-103v-9.5v-9.5q-7 -170 -37.5 -302t-91 -223t-157 -138t-234.5 -47q-108 0 -189 21.5t-134.5 62.5t-80 99.5t-26.5 131.5q0 20 2.5 42t5 42.5t2.5 32.5q0 34 -14 49.5t-43 15.5q-9 0 -19.5 -1.5
t-21.5 -4.5l-35 268q28 11 75 19t116 8q110 0 189 -69t79 -197q0 -32 -2.5 -54l-5 -44t-2.5 -54q0 -52 24.5 -78t73.5 -26q60 0 101 38t64.5 134.5t29.5 271.5v11v12q-157 2 -286.5 57.5t-206.5 163t-77 264.5q0 111 43 197.5t136.5 136t242.5 49.5zM592 1315
q-43 0 -64.5 -30.5t-21.5 -92.5q0 -61 28.5 -108t83 -73t132.5 -26q-6 84 -18.5 146.5t-32.5 103t-46.5 60.5t-60.5 20z" />
    <glyph glyph-name="uni03D2" unicode="&#x3d2;" horiz-adv-x="1085" 
d="M539 952q9 31 19.5 63t23.5 67.5t29 77t36 91.5q31 75 65 125t83 74.5t125 24.5q49 0 90 -9t75 -26v-279q-15 6 -30 10.5t-29 4.5q-38 0 -74 -47.5t-86 -153.5q-20 -43 -40 -92.5t-40 -102.5t-38.5 -108t-34.5 -109v-563h-348v549l-365 913h373z" />
    <glyph glyph-name="uni03D6" unicode="&#x3d6;" horiz-adv-x="1692" 
d="M1667 1133v-277h-176q15 -58 24 -116.5t13 -119t4 -126.5q0 -160 -48.5 -275t-138.5 -177t-215 -62q-109 0 -179 51.5t-99 163.5h-10q-32 -112 -99.5 -163.5t-183.5 -51.5q-187 0 -293 138t-106 376q0 69 4.5 128.5t14.5 116.5t24 117h-178v152l149 125h1493zM1159 856
h-629q-12 -50 -20.5 -103.5t-13 -109.5t-4.5 -115q0 -130 22.5 -187.5t79.5 -57.5q54 0 72 51t18 192v136h324v-136q0 -100 7 -152.5t26.5 -71.5t56.5 -19q52 0 77 58t25 181q0 55 -4 111t-13 112.5t-24 110.5z" />
    <glyph glyph-name="uni0400" unicode="&#x400;" horiz-adv-x="907" 
d="M825 0h-704v1462h704v-295h-356v-264h330v-295h-330v-309h356v-299zM504 1899q17 -40 48 -99.5t62 -115t49 -84.5v-29h-243q-25 23 -65 64.5t-84.5 88t-82 88.5t-57.5 66v21h373z" />
    <glyph glyph-name="uni0401" unicode="&#x401;" horiz-adv-x="907" 
d="M825 0h-704v1462h704v-295h-356v-264h330v-295h-330v-309h356v-299zM123 1743q0 75 39.5 116.5t105.5 41.5q69 0 109.5 -43t40.5 -115q0 -70 -40.5 -113t-109.5 -43q-66 0 -105.5 41.5t-39.5 114.5zM518 1743q0 75 40.5 116.5t107.5 41.5q71 0 110 -43t39 -115
q0 -70 -39 -113t-110 -43q-70 0 -109 42t-39 114z" />
    <glyph glyph-name="uni0402" unicode="&#x402;" horiz-adv-x="1282" 
d="M858 -20q-35 0 -68.5 5.5t-64.5 14.5v291q11 -6 25.5 -11.5t29.5 -5.5q25 0 40 10t22 33t8 62v168q0 56 -23 82t-69 26h-119v-655h-348v1161h-256v301h858v-301h-254v-205h172q188 0 286.5 -109.5t98.5 -301.5v-133q-1 -211 -85 -321.5t-253 -110.5z" />
    <glyph glyph-name="uni0403" unicode="&#x403;" horiz-adv-x="903" 
d="M877 1462v-301h-408v-1161h-348v1462h756zM868 1899v-21q-21 -26 -54.5 -63.5t-73 -80t-81 -85t-79.5 -78.5h-244v29q33 54 61 105.5t53 100t46 93.5h372z" />
    <glyph glyph-name="uni0404" unicode="&#x404;" horiz-adv-x="1083" 
d="M676 1184q-57 0 -96.5 -22t-66 -61t-42.5 -91.5t-25 -114.5h392v-297h-396q5 -81 24 -140.5t51.5 -98.5t76.5 -58.5t98 -19.5q77 0 149 27t144 65v-312q-73 -41 -159 -61t-183 -20q-182 0 -307.5 86t-190.5 253t-65 408q0 169 39.5 308t114.5 239t181.5 154.5t239.5 54.5
q102 0 196 -25t183 -78l-92 -286q-64 41 -128 65.5t-138 24.5z" />
    <glyph glyph-name="uni0405" unicode="&#x405;" horiz-adv-x="930" 
d="M879 444q0 -136 -56.5 -240.5t-159.5 -164t-243 -59.5q-63 0 -122.5 8.5t-118.5 28.5t-122 55v352q86 -58 176.5 -90.5t165.5 -32.5q43 0 70.5 14t41 38.5t13.5 56.5t-11 59.5t-49 61t-118 83.5q-64 41 -116 82.5t-88.5 91t-56 114.5t-19.5 153q0 130 51 226t150 149
t243 53q91 0 183 -26t186 -79l-93 -305q-76 48 -141 71t-121 23q-37 0 -60.5 -12.5t-34.5 -33.5t-11 -48q0 -39 13 -67t53.5 -59.5t123.5 -82.5q88 -54 148.5 -114t91.5 -134t31 -172z" />
    <glyph glyph-name="uni0406" unicode="&#x406;" horiz-adv-x="590" 
d="M121 0v1462h348v-1462h-348z" />
    <glyph glyph-name="uni0407" unicode="&#x407;" horiz-adv-x="590" 
d="M121 0v1462h348v-1462h-348zM-51 1743q0 75 39.5 116.5t105.5 41.5q69 0 109.5 -43t40.5 -115q0 -70 -40.5 -113t-109.5 -43q-66 0 -105.5 41.5t-39.5 114.5zM344 1743q0 75 40.5 116.5t107.5 41.5q71 0 110 -43t39 -115q0 -70 -39 -113t-110 -43q-70 0 -109 42t-39 114z
" />
    <glyph glyph-name="uni0408" unicode="&#x408;" horiz-adv-x="594" 
d="M45 -459q-44 0 -87 5t-83 16v295q25 -10 53 -15.5t60 -5.5q53 0 83.5 23.5t43 80t12.5 156.5v1366h346v-1349q0 -221 -50.5 -346t-146 -175.5t-231.5 -50.5z" />
    <glyph glyph-name="uni0409" unicode="&#x409;" horiz-adv-x="1677" 
d="M174 -20q-51 0 -89.5 6t-64.5 16v291q20 -9 39 -14t35 -5q28 0 46.5 18.5t32.5 62t26 116.5q7 49 19.5 153t27.5 242.5t29.5 292.5t25.5 303h786v-520h11q168 0 285 -51.5t178 -153t61 -252.5q0 -235 -133 -360t-373 -125h-366v1139h-144q-6 -94 -15 -198.5t-20 -208
t-23 -195t-23.5 -161.5t-22.5 -106q-30 -103 -69.5 -166.5t-101 -92.5t-157.5 -31zM1087 295h11q87 0 131.5 44.5t44.5 135.5q0 58 -17.5 96t-56 57t-102.5 19h-11v-352z" />
    <glyph glyph-name="uni040A" unicode="&#x40a;" horiz-adv-x="1649" 
d="M121 0v1462h348v-536h252v536h338v-536h8q169 0 286 -50.5t177.5 -148.5t60.5 -242q0 -235 -133 -360t-373 -125h-364v631h-252v-631h-348zM1059 295h8q89 0 132.5 44.5t43.5 135.5q0 53 -19 87.5t-58 51.5t-99 17h-8v-336z" />
    <glyph glyph-name="uni040B" unicode="&#x40b;" horiz-adv-x="1288" 
d="M893 1462v-301h-254v-205h172q186 0 286.5 -110t100.5 -301v-545h-348v547q0 56 -23 82t-69 26h-119v-655h-348v1161h-256v301h858z" />
    <glyph glyph-name="uni040C" unicode="&#x40c;" horiz-adv-x="1130" 
d="M1149 0h-385l-295 760v-760h-348v1462h348v-686l311 686h375l-352 -694zM974 1899v-21q-21 -26 -54.5 -63.5t-73 -80t-81 -85t-79.5 -78.5h-244v29q33 54 61 105.5t53 100t46 93.5h372z" />
    <glyph glyph-name="uni040D" unicode="&#x40d;" horiz-adv-x="1370" 
d="M121 1462h338v-524q0 -34 -1 -73t-2.5 -83.5t-4.5 -94.5t-7 -105h9l378 880h420v-1462h-338v528q0 32 1 71t3 85.5t5.5 100t7.5 114.5h-8l-383 -899h-418v1462zM721 1899q17 -40 48 -99.5t62 -115t49 -84.5v-29h-243q-25 23 -65 64.5t-84.5 88t-82 88.5t-57.5 66v21h373z
" />
    <glyph glyph-name="uni040E" unicode="&#x40e;" horiz-adv-x="1100" 
d="M1100 1462l-338 -1026q-46 -139 -106 -241.5t-155.5 -158.5t-250.5 -56q-54 0 -102 7.5t-93 22.5v301q35 -18 72 -27.5t72 -9.5q54 0 86.5 15.5t52 47t33.5 79.5l-367 1046h367l112 -379q16 -52 29 -101.5t24 -99.5t19 -104h12q10 55 19 98.5t19.5 86.5t23.5 94l106 405
h365zM933 1932q-10 -123 -55.5 -205.5t-126 -124t-196.5 -41.5q-122 0 -202.5 41.5t-123 124t-49.5 205.5h256q0 -97 27 -146t92 -49q56 0 86.5 49t33.5 146h258z" />
    <glyph glyph-name="uni040F" unicode="&#x40f;" horiz-adv-x="1217" 
d="M1098 0h-322v-455h-338v455h-317v1462h348v-1163h281v1163h348v-1462z" />
    <glyph glyph-name="uni0410" unicode="&#x410;" horiz-adv-x="1176" 
d="M803 0l-55 285h-316l-55 -285h-377l356 1462h459l361 -1462h-373zM694 584l-59 327q-10 55 -18.5 107t-15 99.5t-11.5 88.5q-4 -39 -10.5 -86t-15.5 -98.5t-19 -106.5l-62 -331h211z" />
    <glyph glyph-name="uni0411" unicode="&#x411;" horiz-adv-x="1059" 
d="M121 0v1462h776v-301h-428v-219h8q168 0 285 -51.5t178 -153t61 -252.5q0 -235 -132.5 -360t-370.5 -125h-377zM469 295h8q89 0 132.5 44.5t43.5 135.5q0 58 -19.5 96t-58.5 57t-100 19h-6v-352z" />
    <glyph glyph-name="uni0412" unicode="&#x412;" horiz-adv-x="1143" 
d="M121 1462h424q247 0 367 -88t120 -276q0 -81 -24 -147.5t-66.5 -111.5t-99.5 -63v-10q76 -23 123 -68.5t69.5 -113t22.5 -156.5q0 -132 -57 -228t-162.5 -148t-251.5 -52h-465v1462zM469 893h76q65 0 100 38t35 113q0 68 -35 102t-106 34h-70v-287zM469 621v-332h90
q71 0 106 41.5t35 126.5q0 52 -16.5 88.5t-49 56t-79.5 19.5h-86z" />
    <glyph glyph-name="uni0413" unicode="&#x413;" horiz-adv-x="903" 
d="M877 1462v-301h-408v-1161h-348v1462h756z" />
    <glyph glyph-name="uni0414" unicode="&#x414;" horiz-adv-x="1335" 
d="M1153 1462v-1163h152v-754h-338v455h-619v-455h-338v754h92q50 124 90.5 258.5t70 280t48.5 302t27 322.5h815zM805 1171h-158q-7 -115 -22 -227t-37 -221t-50 -215t-63 -209h330v872z" />
    <glyph glyph-name="uni0415" unicode="&#x415;" horiz-adv-x="907" 
d="M825 0h-704v1462h704v-295h-356v-264h330v-295h-330v-309h356v-299z" />
    <glyph glyph-name="uni0416" unicode="&#x416;" horiz-adv-x="1649" 
d="M311 764l-336 698h371l309 -698v698h336v-698l312 698h368l-338 -698l334 -764h-377l-299 752v-752h-336v752l-301 -752h-377z" />
    <glyph glyph-name="uni0417" unicode="&#x417;" horiz-adv-x="1059" 
d="M932 1120q0 -144 -66 -231.5t-198 -116.5v-8q150 -17 228.5 -106.5t78.5 -239.5q0 -122 -53 -221.5t-170 -158t-310 -58.5q-116 0 -213 18t-176 55v324q42 -29 100.5 -50.5t119.5 -33.5t112 -12q126 0 179.5 38t53.5 130q0 83 -62 124t-187 41h-127v295h112q86 0 136 12
t71 44.5t21 91.5q0 63 -39 95t-117 32q-75 0 -137 -26t-115 -77l-127 258q69 55 135 86t144 44.5t180 13.5q128 0 224 -45.5t149 -127t53 -190.5z" />
    <glyph glyph-name="uni0418" unicode="&#x418;" horiz-adv-x="1370" 
d="M121 1462h338v-524q0 -34 -1 -73t-2.5 -83.5t-4.5 -94.5t-7 -105h9l378 880h420v-1462h-338v528q0 32 1 71t3 85.5t5.5 100t7.5 114.5h-8l-383 -899h-418v1462z" />
    <glyph glyph-name="uni0419" unicode="&#x419;" horiz-adv-x="1370" 
d="M121 1462h338v-524q0 -34 -1 -73t-2.5 -83.5t-4.5 -94.5t-7 -105h9l378 880h420v-1462h-338v528q0 32 1 71t3 85.5t5.5 100t7.5 114.5h-8l-383 -899h-418v1462zM1065 1932q-10 -123 -55.5 -205.5t-126 -124t-196.5 -41.5q-122 0 -202.5 41.5t-123 124t-49.5 205.5h256
q0 -97 27 -146t92 -49q56 0 86.5 49t33.5 146h258z" />
    <glyph glyph-name="uni041A" unicode="&#x41a;" horiz-adv-x="1130" 
d="M1149 0h-385l-295 760v-760h-348v1462h348v-686l311 686h375l-352 -694z" />
    <glyph glyph-name="uni041B" unicode="&#x41b;" horiz-adv-x="1247" 
d="M1128 0h-348v1139h-174q-7 -118 -19.5 -250t-27 -256.5t-29.5 -221t-28 -141.5q-30 -103 -69.5 -167t-101 -93.5t-157.5 -29.5q-51 0 -89.5 6t-64.5 16v291q20 -9 39 -14t35 -5q28 0 46.5 18.5t32.5 62t26 116.5q7 49 19.5 153t27.5 242.5t29.5 292.5t25.5 303h827v-1462
z" />
    <glyph glyph-name="uni041C" unicode="&#x41c;" horiz-adv-x="1653" 
d="M690 0l-252 983h-8q5 -66 8.5 -127.5t5.5 -116.5t2 -104v-635h-325v1462h477l227 -878h6l228 878h473v-1462h-334v641q0 55 2 109.5t5 112.5t7 120h-8l-256 -983h-258z" />
    <glyph glyph-name="uni041D" unicode="&#x41d;" horiz-adv-x="1247" 
d="M1126 0h-348v610h-309v-610h-348v1462h348v-553h309v553h348v-1462z" />
    <glyph glyph-name="uni041E" unicode="&#x41e;" horiz-adv-x="1272" 
d="M1192 733q0 -184 -35.5 -324.5t-106 -236t-174 -144t-239.5 -48.5q-135 0 -239 49t-175 144.5t-107 236.5t-36 325q0 244 63.5 411t188 253t305.5 86q182 0 305.5 -85t186.5 -252.5t63 -414.5zM442 733q0 -149 22 -249t65.5 -149.5t107.5 -49.5q66 0 108.5 48t63 147.5
t20.5 252.5q0 232 -47.5 342.5t-144.5 110.5q-64 0 -107.5 -50.5t-65.5 -151t-22 -251.5z" />
    <glyph glyph-name="uni041F" unicode="&#x41f;" horiz-adv-x="1217" 
d="M121 0v1462h977v-1462h-348v1161h-281v-1161h-348z" />
    <glyph glyph-name="uni0420" unicode="&#x420;" horiz-adv-x="1065" 
d="M555 1462q226 0 339.5 -121t113.5 -344q0 -109 -28 -202.5t-86 -163t-147 -108t-210 -38.5h-68v-485h-348v1462h434zM522 1167h-53v-387h31q48 0 84 21.5t55.5 69t19.5 124.5q0 86 -34 129t-103 43z" />
    <glyph glyph-name="uni0421" unicode="&#x421;" horiz-adv-x="1038" 
d="M655 1184q-51 0 -91 -31.5t-67 -91t-41 -144.5t-14 -192q0 -148 25.5 -247t76.5 -148t128 -49q71 0 136.5 27t131.5 65v-312q-70 -41 -151.5 -61t-172.5 -20q-174 0 -293.5 86t-181 253t-61.5 408q0 169 37.5 308t108.5 239t171.5 154.5t227.5 54.5q97 0 186.5 -25
t177.5 -78l-92 -286q-58 41 -117 65.5t-125 24.5z" />
    <glyph glyph-name="uni0422" unicode="&#x422;" horiz-adv-x="942" 
d="M645 0h-346v1161h-264v301h872v-301h-262v-1161z" />
    <glyph glyph-name="uni0423" unicode="&#x423;" horiz-adv-x="1100" 
d="M1100 1462l-338 -1026q-46 -139 -106 -241.5t-155.5 -158.5t-250.5 -56q-54 0 -102 7.5t-93 22.5v301q35 -18 72 -27.5t72 -9.5q54 0 86.5 15.5t52 47t33.5 79.5l-367 1046h367l112 -379q16 -52 29 -101.5t24 -99.5t19 -104h12q10 55 19 98.5t19.5 86.5t23.5 94l106 405
h365z" />
    <glyph glyph-name="uni0424" unicode="&#x424;" horiz-adv-x="1532" 
d="M934 1483v-180q173 0 291 -71.5t178.5 -195t60.5 -280.5q0 -125 -34 -226.5t-101 -174t-166 -111.5t-229 -39v-225h-336v225q-134 0 -234 38.5t-165.5 110.5t-98 174.5t-32.5 229.5q0 111 28.5 209.5t91 174t164 118.5t246.5 43v180h336zM598 1016q-65 0 -107 -28
t-61.5 -84.5t-19.5 -143.5q0 -100 20.5 -159t62.5 -84t105 -25v524zM934 1016v-524q66 0 107.5 28t61 87.5t19.5 152.5q0 81 -21 138.5t-62.5 87.5t-104.5 30z" />
    <glyph glyph-name="uni0425" unicode="&#x425;" horiz-adv-x="1065" 
d="M1069 0h-375l-164 422l-168 -422h-366l334 731l-314 731h361l143 -405l133 405h369l-303 -719z" />
    <glyph glyph-name="uni0426" unicode="&#x426;" horiz-adv-x="1348" 
d="M1317 299v-754h-338v455h-858v1462h348v-1163h309v1163h348v-1163h191z" />
    <glyph glyph-name="uni0427" unicode="&#x427;" horiz-adv-x="1163" 
d="M1042 0h-348v530q-85 -38 -162 -57.5t-145 -19.5q-139 0 -218 103.5t-79 287.5v618h348v-510q0 -107 22 -152.5t72 -45.5q32 0 73.5 14t88.5 43v651h348v-1462z" />
    <glyph glyph-name="uni0428" unicode="&#x428;" horiz-adv-x="1821" 
d="M1700 0h-1579v1462h348v-1163h266v1163h348v-1163h269v1163h348v-1462z" />
    <glyph glyph-name="uni0429" unicode="&#x429;" horiz-adv-x="1919" 
d="M1890 299v-754h-338v455h-1431v1462h348v-1163h266v1163h348v-1163h269v1163h348v-1163h190z" />
    <glyph glyph-name="uni042A" unicode="&#x42a;" horiz-adv-x="1237" 
d="M299 0v1161h-264v301h610v-520h10q168 0 285.5 -51.5t178.5 -153t61 -252.5q0 -235 -133 -360t-371 -125h-377zM645 295h10q88 0 132 44.5t44 135.5q0 58 -19.5 96t-59 57t-99.5 19h-8v-352z" />
    <glyph glyph-name="uni042B" unicode="&#x42b;" horiz-adv-x="1599" 
d="M121 0v1462h348v-520h8q168 0 285 -51.5t178 -153t61 -252.5q0 -235 -133 -360t-372 -125h-375zM469 295h8q89 0 132.5 44.5t43.5 135.5q0 58 -19.5 96t-58.5 57t-100 19h-6v-352zM1133 0v1462h348v-1462h-348z" />
    <glyph glyph-name="uni042C" unicode="&#x42c;" horiz-adv-x="1059" 
d="M121 0v1462h348v-520h8q168 0 285 -51.5t178 -153t61 -252.5q0 -235 -133 -360t-372 -125h-375zM469 297h8q89 0 132.5 44.5t43.5 133.5q0 59 -19.5 97t-58.5 56.5t-100 18.5h-6v-350z" />
    <glyph glyph-name="uni042D" unicode="&#x42d;" horiz-adv-x="1083" 
d="M408 1184q-76 0 -139.5 -24.5t-129.5 -65.5l-92 286q88 53 183.5 78t213.5 25q122 0 224.5 -46t177.5 -139.5t116.5 -235.5t41.5 -335q0 -241 -65 -408t-191 -253t-310 -86q-95 0 -186 20t-166 61v312q74 -38 151 -65t152 -27q55 0 99 18.5t76 56.5t51.5 98t25.5 144
h-395v297h389q-7 51 -22 102.5t-41 93.5t-66.5 67.5t-97.5 25.5z" />
    <glyph glyph-name="uni042E" unicode="&#x42e;" horiz-adv-x="1749" 
d="M1667 733q0 -184 -34 -324.5t-100.5 -236t-165.5 -144t-230 -48.5q-155 0 -268.5 71.5t-179.5 211.5t-81 345h-139v-608h-348v1462h348v-555h143q20 189 86.5 317.5t177.5 194.5t261 66q175 0 293 -85t177.5 -252.5t59.5 -414.5zM954 733q0 -149 20 -249t59 -149.5
t97 -49.5q60 0 99 48t58.5 147.5t19.5 252.5q0 155 -20 255t-59 149t-98 49q-58 0 -97 -50.5t-59 -151t-20 -251.5z" />
    <glyph glyph-name="uni042F" unicode="&#x42f;" horiz-adv-x="1116" 
d="M600 549l-227 -549h-383l305 637q-66 46 -110.5 105t-66.5 131t-22 157q0 217 126.5 324.5t379.5 107.5h393v-1462h-348v549h-47zM647 1171h-39q-51 0 -85 -17.5t-51 -53t-17 -88.5q0 -97 38.5 -145t116.5 -48h37v352z" />
    <glyph glyph-name="uni0430" unicode="&#x430;" horiz-adv-x="1012" 
d="M545 1153q169 0 267.5 -101t98.5 -309v-743h-239l-56 150h-6q-36 -57 -76.5 -95t-92 -56.5t-122.5 -18.5q-97 0 -156 53t-85.5 137t-26.5 176q0 182 97.5 272t283.5 97l148 6v29q0 69 -26.5 104t-82.5 35q-49 0 -108.5 -20.5t-135.5 -63.5l-86 246q83 49 185 75.5
t219 26.5zM580 506l-62 -4q-67 -3 -101 -38.5t-34 -103.5q0 -58 20 -87t60 -29q49 0 83 44.5t34 117.5v100z" />
    <glyph glyph-name="uni0431" unicode="&#x431;" horiz-adv-x="1057" 
d="M66 678q0 225 43 390.5t147 274t285 162.5q60 19 163 36.5t250 33.5l29 -299q-30 -3 -92.5 -10.5t-134 -18.5t-131.5 -24t-86 -27q-48 -24 -79 -63t-47 -97.5t-20 -142.5h15q18 46 53.5 83t82.5 59t101 22q110 0 186.5 -56t117 -165t40.5 -267q0 -183 -54.5 -315
t-158 -203t-250.5 -71q-103 0 -188 36.5t-145.5 118t-93.5 215.5t-33 328zM535 256q40 0 66 30t39 90t13 150q0 132 -26.5 198.5t-81.5 66.5q-29 0 -58 -22.5t-52 -55.5t-34 -64q0 -87 8 -159t24.5 -124.5t42 -81t59.5 -28.5z" />
    <glyph glyph-name="uni0432" unicode="&#x432;" horiz-adv-x="1061" 
d="M973 840q0 -98 -50.5 -163.5t-138.5 -82.5v-8q95 -14 154 -84.5t59 -177.5t-45.5 -179.5t-137 -108.5t-228.5 -36h-484v1133h486q128 0 213.5 -32t128.5 -97t43 -164zM662 362q0 54 -27.5 79.5t-81.5 25.5h-119v-221h119q54 0 81.5 29t27.5 87zM641 788q0 50 -23.5 74.5
t-70.5 24.5h-113v-185h113q47 0 70.5 24.5t23.5 61.5z" />
    <glyph glyph-name="uni0433" unicode="&#x433;" horiz-adv-x="799" 
d="M768 1133v-277h-334v-856h-332v1133h666z" />
    <glyph glyph-name="uni0434" unicode="&#x434;" horiz-adv-x="1202" 
d="M1049 1133v-857h129v-692h-324v416h-508v-416h-321v692h98q43 108 78 245t60 292.5t36 319.5h752zM717 856h-142q-9 -103 -21.5 -189.5t-32.5 -178.5t-52 -212h248v580z" />
    <glyph glyph-name="uni0435" unicode="&#x435;" horiz-adv-x="987" 
d="M504 1151q135 0 231 -60t146.5 -175t50.5 -281v-174h-541q0 -114 47.5 -165.5t145.5 -51.5q78 0 145 20t145 68v-271q-73 -43 -157 -62t-182 -19q-164 0 -267.5 66.5t-152.5 196.5t-49 318q0 190 49.5 321.5t147 200t241.5 68.5zM512 895q-52 0 -86.5 -45t-34.5 -156h234
q0 72 -14 116.5t-39.5 64.5t-59.5 20z" />
    <glyph glyph-name="uni0436" unicode="&#x436;" horiz-adv-x="1628" 
d="M1604 1133l-301 -543l325 -590h-364l-287 575v-575h-326v575l-286 -575h-365l326 590l-301 543h354l272 -549v549h326v-549l272 549h355z" />
    <glyph glyph-name="uni0437" unicode="&#x437;" horiz-adv-x="903" 
d="M403 1153q117 0 204.5 -38t135.5 -107t48 -162q0 -91 -45 -157t-125 -91v-10q69 -11 118.5 -48.5t76 -93t26.5 -124.5q0 -100 -49.5 -177.5t-145 -121t-233.5 -43.5q-70 0 -129.5 7t-114 24t-111.5 48v285q71 -43 147 -65.5t148 -22.5q51 0 84.5 11t50.5 32.5t17 52.5
q0 34 -16.5 58.5t-56 37.5t-109.5 13h-105v241h84q91 0 129.5 22t38.5 85q0 37 -27.5 55.5t-81.5 18.5q-47 0 -99 -18.5t-107 -53.5l-107 250q100 56 183.5 74t170.5 18z" />
    <glyph glyph-name="uni0438" unicode="&#x438;" horiz-adv-x="1178" 
d="M420 1133v-334q0 -42 -1 -81.5t-3.5 -80t-6 -86t-8.5 -100.5l322 682h350v-1133h-315v356q0 54 2.5 107t6.5 107t9 110l-321 -680h-353v1133h318z" />
    <glyph glyph-name="uni0439" unicode="&#x439;" horiz-adv-x="1178" 
d="M420 1133v-334q0 -42 -1 -81.5t-3.5 -80t-6 -86t-8.5 -100.5l322 682h350v-1133h-315v356q0 54 2.5 107t6.5 107t9 110l-321 -680h-353v1133h318zM966 1602q-10 -123 -55.5 -205.5t-126 -124t-196.5 -41.5q-122 0 -202.5 41.5t-123 124t-49.5 205.5h256q0 -97 27 -146
t92 -49q56 0 86.5 49t33.5 146h258z" />
    <glyph glyph-name="uni043A" unicode="&#x43a;" horiz-adv-x="1087" 
d="M709 1133h354l-301 -543l325 -590h-364l-289 575v-575h-332v1133h332v-549z" />
    <glyph glyph-name="uni043B" unicode="&#x43b;" horiz-adv-x="1116" 
d="M1014 0h-332v842h-143q-18 -246 -41.5 -412t-62 -265t-100.5 -142t-157 -43q-44 0 -83.5 7.5t-74.5 22.5v275q13 -10 29.5 -14.5t36.5 -4.5q26 0 46 31.5t35 97t27.5 168t22.5 244.5t19 326h778v-1133z" />
    <glyph glyph-name="uni043C" unicode="&#x43c;" horiz-adv-x="1427" 
d="M1325 1133v-1133h-313v465q0 72 5.5 151.5t12.5 149.5h-8l-197 -766h-227l-197 766h-8q8 -75 12.5 -149t4.5 -154v-463h-308v1133h465l146 -594l149 594h463z" />
    <glyph glyph-name="uni043D" unicode="&#x43d;" horiz-adv-x="1087" 
d="M434 1133v-414h217v414h332v-1133h-332v440h-217v-440h-332v1133h332z" />
    <glyph glyph-name="uni043E" unicode="&#x43e;" horiz-adv-x="1057" 
d="M989 569q0 -109 -23.5 -213.5t-77.5 -189.5t-142.5 -135.5t-219.5 -50.5q-120 0 -207 49.5t-143 133t-83 189t-27 217.5q0 163 47 295.5t149.5 210.5t267.5 78q138 0 241 -68.5t160.5 -198.5t57.5 -317zM401 565q0 -101 13.5 -170t41.5 -104t72 -35q47 0 74 34.5
t39 104.5t12 174t-12 172t-39 102t-74 34q-66 0 -96.5 -76t-30.5 -236z" />
    <glyph glyph-name="uni043F" unicode="&#x43f;" horiz-adv-x="1087" 
d="M983 1133v-1133h-332v856h-217v-856h-332v1133h881z" />
    <glyph glyph-name="uni0440" unicode="&#x440;" horiz-adv-x="1073" 
d="M672 1153q158 0 247 -157.5t89 -432.5q0 -181 -40 -311.5t-113.5 -201t-174.5 -70.5q-51 0 -95.5 17t-82 53.5t-68.5 94.5h-10q5 -76 7.5 -130.5t2.5 -86.5v-420h-332v1625h267l49 -146h16q38 70 73.5 105.5t75 48t89.5 12.5zM561 877q-45 0 -73 -29t-41 -92t-13 -166
v-66q0 -90 13 -147.5t40.5 -85t71.5 -27.5q38 0 63 32.5t37.5 98.5t12.5 164q0 161 -28.5 239.5t-82.5 78.5z" />
    <glyph glyph-name="uni0441" unicode="&#x441;" horiz-adv-x="887" 
d="M520 -20q-152 0 -253 61.5t-151 190.5t-50 329q0 165 47.5 299t149.5 213.5t263 79.5q94 0 170.5 -21.5t143.5 -64.5l-88 -264q-51 34 -101 50.5t-102 16.5q-45 0 -78 -36t-51.5 -104.5t-18.5 -168.5q0 -99 18 -165.5t52.5 -100t85.5 -33.5q65 0 129 25.5t125 74.5v-282
q-61 -51 -133.5 -75.5t-157.5 -24.5z" />
    <glyph glyph-name="uni0442" unicode="&#x442;" horiz-adv-x="928" 
d="M897 856h-266v-856h-332v856h-268v277h866v-277z" />
    <glyph glyph-name="uni0443" unicode="&#x443;" horiz-adv-x="1006" 
d="M4 1133h348l119 -492q8 -35 15 -70t12 -65.5t6 -54.5h8q3 34 11 78.5t24 107.5l110 496h344l-342 -1205q-44 -154 -100.5 -246.5t-132 -133t-178.5 -40.5q-40 0 -76 5t-68 12v291q20 -7 41.5 -10t40.5 -3q41 0 65.5 13.5t44 55t44.5 124.5l6 20z" />
    <glyph glyph-name="uni0444" unicode="&#x444;" horiz-adv-x="1460" 
d="M895 1556v-423q159 -12 270.5 -86.5t170.5 -198t59 -283.5q0 -169 -59.5 -290.5t-171 -191t-269.5 -83.5v-492h-322v492q-158 14 -272 88.5t-174.5 197.5t-60.5 279q0 172 56.5 294t168.5 191.5t278 82.5v423h326zM569 856q-46 -3 -84 -41.5t-61 -103t-23 -146.5
q0 -85 21.5 -149.5t59.5 -101t87 -38.5v580zM895 856v-580q49 2 87 39t59.5 101.5t21.5 148.5q0 125 -48 206t-120 85z" />
    <glyph glyph-name="uni0445" unicode="&#x445;" horiz-adv-x="973" 
d="M272 578l-256 555h361l110 -297l105 297h360l-252 -555l263 -578h-361l-123 319l-117 -319h-352z" />
    <glyph glyph-name="uni0446" unicode="&#x446;" horiz-adv-x="1169" 
d="M1145 -416h-322v416h-721v1133h332v-857h238v857h332v-857h141v-692z" />
    <glyph glyph-name="uni0447" unicode="&#x447;" horiz-adv-x="1079" 
d="M403 1133v-410q0 -60 18.5 -89.5t55.5 -29.5q32 0 74.5 13.5t91.5 37.5v478h334v-1133h-334v412q-73 -42 -139 -63t-123 -21q-158 0 -233.5 94.5t-75.5 292.5v418h331z" />
    <glyph glyph-name="uni0448" unicode="&#x448;" horiz-adv-x="1636" 
d="M1534 1133v-1133h-1432v1133h332v-857h217v857h332v-857h217v857h334z" />
    <glyph glyph-name="uni0449" unicode="&#x449;" horiz-adv-x="1700" 
d="M1534 1133v-857h139v-692h-321v416h-1250v1133h332v-857h217v857h332v-857h217v857h334z" />
    <glyph glyph-name="uni044A" unicode="&#x44a;" horiz-adv-x="1139" 
d="M598 1133v-408h43q151 0 251 -36t150 -113t50 -201q0 -130 -49 -213t-141.5 -122.5t-223.5 -39.5h-412v842h-235v291h567zM649 479h-51v-233h55q51 0 79 29.5t28 82.5q0 59 -25.5 90t-85.5 31z" />
    <glyph glyph-name="uni044B" unicode="&#x44b;" horiz-adv-x="1473" 
d="M102 0v1133h332v-408h43q151 0 251 -36t150 -113t50 -201q0 -130 -49 -213t-142 -122.5t-225 -39.5h-410zM434 246h55q50 0 78.5 29.5t28.5 82.5q0 59 -25.5 90t-85.5 31h-51v-233zM1036 0v1133h332v-1133h-332z" />
    <glyph glyph-name="uni044C" unicode="&#x44c;" horiz-adv-x="975" 
d="M434 725h43q151 0 251 -36t150 -113t50 -201q0 -130 -49 -213t-142 -122.5t-225 -39.5h-410v1133h332v-408zM596 358q0 59 -25.5 90t-85.5 31h-51v-233h55q50 0 78.5 29.5t28.5 82.5z" />
    <glyph glyph-name="uni044D" unicode="&#x44d;" horiz-adv-x="909" 
d="M377 -20q-88 0 -162.5 24.5t-136.5 75.5v272q65 -49 131 -73.5t135 -24.5q42 0 73.5 20.5t52.5 62t30 103.5h-285v246h285q-14 100 -51 149.5t-97 49.5q-57 0 -110 -17t-107 -51l-88 250q72 43 149 64.5t156 21.5q157 0 267 -70t167.5 -202t57.5 -320q0 -187 -53 -317
t-157 -197t-257 -67z" />
    <glyph glyph-name="uni044E" unicode="&#x44e;" horiz-adv-x="1503" 
d="M1438 569q0 -184 -53 -316t-153 -202.5t-243 -70.5q-117 0 -207.5 43t-148.5 143.5t-80 273.5h-119v-440h-332v1133h332v-414h121q21 139 79 236t150 147.5t211 50.5q133 0 232.5 -72t155 -203t55.5 -309zM879 565q0 -101 11.5 -170t36 -104t64.5 -35t64.5 34.5
t35.5 104.5t11 174t-11 172t-36 102t-66 34q-39 0 -63 -33.5t-35.5 -102.5t-11.5 -176z" />
    <glyph glyph-name="uni044F" unicode="&#x44f;" horiz-adv-x="993" 
d="M340 0h-350l227 440q-49 25 -82.5 72.5t-51 113.5t-17.5 144q0 173 99.5 268t278.5 95h447v-1133h-332v393h-53zM397 758q0 -52 28.5 -85.5t82.5 -33.5h51v248h-53q-51 0 -80 -36t-29 -93z" />
    <glyph glyph-name="uni0450" unicode="&#x450;" horiz-adv-x="987" 
d="M504 1151q135 0 231 -60t146.5 -175t50.5 -281v-174h-541q0 -114 47.5 -165.5t145.5 -51.5q78 0 145 20t145 68v-271q-73 -43 -157 -62t-182 -19q-164 0 -267.5 66.5t-152.5 196.5t-49 318q0 190 49.5 321.5t147 200t241.5 68.5zM512 895q-52 0 -86.5 -45t-34.5 -156h234
q0 72 -14 116.5t-39.5 64.5t-59.5 20zM539 1569q17 -40 48 -99.5t62 -115t49 -84.5v-29h-243q-25 23 -65 64.5t-84.5 88t-82 88.5t-57.5 66v21h373z" />
    <glyph glyph-name="uni0451" unicode="&#x451;" horiz-adv-x="987" 
d="M504 1151q135 0 231 -60t146.5 -175t50.5 -281v-174h-541q0 -114 47.5 -165.5t145.5 -51.5q78 0 145 20t145 68v-271q-73 -43 -157 -62t-182 -19q-164 0 -267.5 66.5t-152.5 196.5t-49 318q0 190 49.5 321.5t147 200t241.5 68.5zM512 895q-52 0 -86.5 -45t-34.5 -156h234
q0 72 -14 116.5t-39.5 64.5t-59.5 20zM158 1413q0 75 39.5 116.5t105.5 41.5q69 0 109.5 -43t40.5 -115q0 -70 -40.5 -113t-109.5 -43q-66 0 -105.5 41.5t-39.5 114.5zM553 1413q0 75 40.5 116.5t107.5 41.5q71 0 110 -43t39 -115q0 -70 -39 -113t-110 -43q-70 0 -109 42
t-39 114z" />
    <glyph glyph-name="uni0452" unicode="&#x452;" horiz-adv-x="1083" 
d="M641 -492q-35 0 -89.5 8t-82.5 17v281q25 -10 47.5 -14.5t44.5 -4.5q47 0 68.5 35t21.5 104v650q0 113 -21.5 170t-66.5 57q-47 0 -75.5 -31t-41 -105t-12.5 -204v-471h-332v1176h-116v233h116v147h334v-147h180v-233h-180v-15q0 -38 -7 -92.5t-21 -122.5h18
q23 54 57 89.5t81.5 53t107.5 17.5q98 0 167.5 -49t106.5 -142t37 -225v-782q0 -124 -40 -213.5t-116 -138t-186 -48.5z" />
    <glyph glyph-name="uni0453" unicode="&#x453;" horiz-adv-x="799" 
d="M768 1133v-277h-334v-856h-332v1133h666zM800 1569v-21q-21 -26 -54.5 -63.5t-73 -80t-81 -85t-79.5 -78.5h-244v29q33 54 61 105.5t53 100t46 93.5h372z" />
    <glyph glyph-name="uni0454" unicode="&#x454;" horiz-adv-x="909" 
d="M532 -20q-153 0 -257 67t-156.5 197t-52.5 317q0 177 53 310.5t162 207.5t276 74q80 0 156.5 -21.5t146.5 -64.5l-86 -250q-54 34 -107 51t-112 17q-39 0 -68 -22t-48.5 -66t-28.5 -111h284v-246h-284q9 -62 29 -103.5t51.5 -62t74.5 -20.5q69 0 135.5 24.5t130.5 73.5
v-272q-61 -51 -136 -75.5t-163 -24.5z" />
    <glyph glyph-name="uni0455" unicode="&#x455;" horiz-adv-x="811" 
d="M762 348q0 -122 -46 -204t-132.5 -123t-208.5 -41q-83 0 -163 14t-159 49v313q62 -37 136.5 -64.5t150.5 -27.5q46 0 69 15.5t23 50.5q0 19 -9.5 36.5t-45.5 42.5t-115 64q-69 35 -116 85.5t-71 115.5t-24 145q0 158 96 246t273 88q88 0 166 -24.5t159 -71.5l-81 -252
q-51 34 -108 59t-116 25q-35 0 -52 -13t-17 -40q0 -18 9.5 -33t43.5 -37.5t106 -65.5q69 -38 121 -87t81.5 -113.5t29.5 -151.5z" />
    <glyph glyph-name="uni0456" unicode="&#x456;" horiz-adv-x="543" 
d="M436 1133v-1133h-332v1133h332zM270 1589q92 0 134 -44t42 -130t-44 -129t-132 -43q-87 0 -131.5 43t-44.5 129q0 88 42 131t134 43z" />
    <glyph glyph-name="uni0457" unicode="&#x457;" horiz-adv-x="543" 
d="M436 0h-332v1133h332v-1133zM-76 1413q0 75 39.5 116.5t105.5 41.5q69 0 109.5 -43t40.5 -115q0 -70 -40.5 -113t-109.5 -43q-66 0 -105.5 41.5t-39.5 114.5zM319 1413q0 75 40.5 116.5t107.5 41.5q71 0 110 -43t39 -115q0 -70 -39 -113t-110 -43q-70 0 -109 42t-39 114z
" />
    <glyph glyph-name="uni0458" unicode="&#x458;" horiz-adv-x="543" 
d="M94 -492q-41 0 -86 6t-86 19v281q25 -10 48 -14.5t44 -4.5q47 0 68.5 35t21.5 104v1199h332v-1225q0 -137 -41 -225t-117.5 -130.5t-183.5 -44.5zM94 1415q0 88 42 131t134 43t134 -44t42 -130t-44 -129t-132 -43q-87 0 -131.5 43t-44.5 129z" />
    <glyph glyph-name="uni0459" unicode="&#x459;" horiz-adv-x="1536" 
d="M995 1133v-408h41q151 0 251 -36t150 -113t50 -201q0 -130 -49 -213t-141.5 -122.5t-223.5 -39.5h-401v842h-133q-18 -246 -41.5 -412t-62 -265t-100.5 -142t-157 -43q-44 0 -83.5 7.5t-74.5 22.5v275q13 -10 29.5 -14.5t36.5 -4.5q26 0 46 31.5t35 97t27.5 168
t22.5 244.5t19 326h759zM1047 479h-52v-233h54q50 0 78 29.5t28 82.5q0 59 -25 90t-83 31z" />
    <glyph glyph-name="uni045A" unicode="&#x45a;" horiz-adv-x="1516" 
d="M977 1133v-408h41q151 0 250.5 -36t149.5 -113t50 -201q0 -130 -48.5 -213t-141 -122.5t-223.5 -39.5h-404v449h-217v-449h-332v1133h332v-408h217v408h326zM1026 479h-49v-233h53q51 0 79 29.5t28 82.5q0 59 -25.5 90t-85.5 31z" />
    <glyph glyph-name="uni045B" unicode="&#x45b;" horiz-adv-x="1083" 
d="M436 1556v-147h180v-233h-180v-15q0 -38 -7 -92.5t-21 -122.5h18q23 54 57 89.5t81.5 53t107.5 17.5q98 0 167.5 -49t106.5 -142t37 -225v-690h-332v584q0 113 -21.5 170t-66.5 57q-50 0 -78 -31t-39.5 -105t-11.5 -204v-471h-332v1176h-116v233h116v147h334z" />
    <glyph glyph-name="uni045C" unicode="&#x45c;" horiz-adv-x="1087" 
d="M709 1133h354l-301 -543l325 -590h-364l-289 575v-575h-332v1133h332v-549zM923 1569v-21q-21 -26 -54.5 -63.5t-73 -80t-81 -85t-79.5 -78.5h-244v29q33 54 61 105.5t53 100t46 93.5h372z" />
    <glyph glyph-name="uni045D" unicode="&#x45d;" horiz-adv-x="1178" 
d="M420 1133v-334q0 -42 -1 -81.5t-3.5 -80t-6 -86t-8.5 -100.5l322 682h350v-1133h-315v356q0 54 2.5 107t6.5 107t9 110l-321 -680h-353v1133h318zM623 1569q17 -40 48 -99.5t62 -115t49 -84.5v-29h-243q-25 23 -65 64.5t-84.5 88t-82 88.5t-57.5 66v21h373z" />
    <glyph glyph-name="uni045E" unicode="&#x45e;" horiz-adv-x="1006" 
d="M4 1133h348l119 -492q8 -35 15 -70t12 -65.5t6 -54.5h8q3 34 11 78.5t24 107.5l110 496h344l-342 -1205q-44 -154 -100.5 -246.5t-132 -133t-178.5 -40.5q-40 0 -76 5t-68 12v291q20 -7 41.5 -10t40.5 -3q41 0 65.5 13.5t44 55t44.5 124.5l6 20zM882 1602
q-10 -123 -55.5 -205.5t-126 -124t-196.5 -41.5q-122 0 -202.5 41.5t-123 124t-49.5 205.5h256q0 -97 27 -146t92 -49q56 0 86.5 49t33.5 146h258z" />
    <glyph glyph-name="uni045F" unicode="&#x45f;" horiz-adv-x="1087" 
d="M383 0h-281v1133h332v-857h217v857h332v-1133h-278v-416h-322v416z" />
    <glyph glyph-name="uni0460" unicode="&#x460;" horiz-adv-x="1782" 
d="M348 0q-77 180 -137.5 362t-103 366t-65.5 367.5t-26 366.5h365q-3 -127 6.5 -264t30 -273.5t50.5 -264t67 -236.5h6q14 78 36.5 158.5t45.5 156.5l84 287q-10 75 -18 146t-12.5 142.5t-4.5 147.5h356q0 -128 9 -259t29 -262.5t54 -261t84 -255.5h6q61 148 103.5 323.5
t66 359.5t25.5 355h356q-15 -223 -62 -469.5t-131.5 -499t-211.5 -493.5h-293q-31 65 -61.5 135.5t-59 141.5t-53.5 139t-45 129l-152 -545h-344z" />
    <glyph glyph-name="uni0461" unicode="&#x461;" horiz-adv-x="1540" 
d="M1491 1133q-8 -195 -52.5 -400.5t-108 -395t-130.5 -337.5h-293q-27 60 -60.5 147.5t-62 177.5t-43.5 154l-145 -479h-299q-67 141 -115 283t-80.5 283.5t-52.5 283.5t-29 283h322q5 -119 20.5 -256t41.5 -269.5t63 -240.5h6q7 24 17.5 59.5t20.5 70.5t17 54l99 283
q-11 83 -17 166.5t-6 132.5h314q5 -125 21 -264.5t43.5 -271.5t66.5 -237h6q32 90 57.5 219t41 274t15.5 280h322z" />
    <glyph glyph-name="uni0462" unicode="&#x462;" horiz-adv-x="1059" 
d="M121 0v1128h-121v256h121v172h348v-172h270v-256h-270v-206h8q168 0 285 -49t178 -148t61 -250q0 -224 -133 -349.5t-372 -125.5h-375zM469 297h8q89 0 132.5 42t43.5 128q0 53 -17.5 89t-56 54.5t-102.5 18.5h-8v-332z" />
    <glyph glyph-name="uni0463" unicode="&#x463;" horiz-adv-x="1085" 
d="M547 1354v-221h231v-234h-231v-174h43q226 0 337 -82t111 -268q0 -130 -48 -213t-140.5 -122.5t-224.5 -39.5h-410v899h-195v234h195v221h332zM598 479h-51v-233h53q51 0 79 29.5t28 82.5q0 59 -24.5 90t-84.5 31z" />
    <glyph glyph-name="uni0464" unicode="&#x464;" horiz-adv-x="1571" 
d="M1133 -20q-160 0 -275 71t-182 209t-84 338h-123v-598h-348v1462h348v-567h129q19 147 64 257t115 183.5t164.5 110.5t211.5 37q98 0 190.5 -25t180.5 -78l-92 -286q-67 41 -130 65.5t-139 24.5q-43 0 -79 -19.5t-64.5 -57t-48.5 -91t-31 -121.5h385v-297h-389
q8 -80 27 -139.5t49.5 -99t73 -59t96.5 -19.5q75 0 147 27t146 65v-312q-76 -41 -161.5 -61t-180.5 -20z" />
    <glyph glyph-name="uni0465" unicode="&#x465;" horiz-adv-x="1378" 
d="M1004 -20q-147 0 -240.5 53.5t-143 156.5t-67.5 250h-119v-440h-332v1133h332v-447h121q17 133 71.5 238.5t153 167t246.5 61.5q82 0 158.5 -21.5t146.5 -64.5l-88 -250q-52 34 -106 51t-111 17q-40 0 -69.5 -22t-49 -66t-28.5 -111h284v-246h-284q9 -62 29.5 -103.5
t52 -62t73.5 -20.5q69 0 137 24.5t132 73.5v-272q-63 -51 -138 -75.5t-161 -24.5z" />
    <glyph glyph-name="uni0466" unicode="&#x466;" horiz-adv-x="1442" 
d="M963 1462l489 -1462h-373l-166 555h-30v-555h-324v555h-31l-166 -555h-372l489 1462h484zM721 1217q-3 -15 -6.5 -29.5t-7 -28.5t-7 -26t-6.5 -23l-86 -279h226l-89 285q-3 10 -6 21.5t-6 24.5t-6 26.5t-6 28.5z" />
    <glyph glyph-name="uni0467" unicode="&#x467;" horiz-adv-x="1194" 
d="M811 1133l389 -1133h-330l-104 373h-25v-373h-286v373h-23l-106 -373h-330l391 1133h424zM604 928h-8q-5 -28 -10 -50t-10.5 -40.5t-10.5 -36.5l-51 -170h168l-49 172q-5 18 -9.5 36t-9.5 39.5t-10 49.5z" />
    <glyph glyph-name="uni0468" unicode="&#x468;" horiz-adv-x="1972" 
d="M1493 1462l489 -1462h-372l-166 555h-31v-555h-323v555h-31l-166 -555h-367l203 608h-260v-608h-348v1462h348v-555h360l187 555h477zM1251 1217q-3 -15 -6.5 -29.5t-6.5 -28.5t-6.5 -26t-6.5 -23l-86 -279h225l-88 285q-3 10 -6 21.5t-6 24.5t-6.5 26.5t-6.5 28.5z" />
    <glyph glyph-name="uni0469" unicode="&#x469;" horiz-adv-x="1675" 
d="M1292 1133l387 -1133h-329l-105 373h-22v-373h-287v373h-25l-106 -373h-320l154 449h-205v-449h-332v1133h332v-408h299l139 408h420zM1083 928h-8q-5 -28 -10 -50t-10 -40.5t-11 -36.5l-49 -170h168l-49 172l-10 36t-10 39.5t-11 49.5z" />
    <glyph glyph-name="uni046A" unicode="&#x46a;" horiz-adv-x="1458" 
d="M1305 1462v-174l-263 -432q73 -24 121 -67t84.5 -122.5t75.5 -213.5l131 -453h-373l-82 340q-23 102 -39 155.5t-31 76t-38 30.5v-602h-324v602q-21 -7 -35 -25t-29.5 -71t-43.5 -166l-82 -340h-373l133 453q29 99 53 168t52.5 114.5t68.5 74t99 46.5l-250 432v174h1145z
M877 1186h-297l145 -299z" />
    <glyph glyph-name="uni046B" unicode="&#x46b;" horiz-adv-x="1223" 
d="M1098 1133v-150l-217 -334q65 -18 111 -56t78.5 -97.5t53.5 -143.5l88 -352h-321l-74 360q-5 27 -14 45t-21 26.5t-26 8.5v-440h-287v438q-15 0 -27 -8t-20.5 -25.5t-13.5 -44.5l-76 -360h-322l82 352q21 85 55 147t81.5 100t107.5 52l-217 332v150h979zM733 901h-250
l125 -215z" />
    <glyph glyph-name="uni046C" unicode="&#x46c;" horiz-adv-x="1978" 
d="M1825 1462v-174l-262 -432q73 -24 120.5 -67t84 -122.5t75.5 -213.5l131 -453h-372l-82 340q-23 102 -39.5 155.5t-32 76t-37.5 30.5v-602h-324v602q-21 -7 -35 -25t-29.5 -71t-43.5 -166l-82 -340h-362l114 389q17 56 37 110t49 109h-266v-608h-348v1462h348v-555h430
l-219 381v174h1145zM1397 1186h-297l145 -299z" />
    <glyph glyph-name="uni046D" unicode="&#x46d;" horiz-adv-x="1718" 
d="M1593 1133v-150l-217 -334q65 -18 111 -56t78.5 -97.5t54.5 -143.5l88 -352h-322l-73 360q-6 27 -15 45t-21 26.5t-28 8.5v-440h-286v438q-14 0 -26 -8t-21 -25.5t-15 -44.5l-74 -360h-313l90 373q5 18 11.5 37.5t17.5 38.5h-199v-449h-332v1133h332v-408h348l-168 258
v150h979zM1229 901h-250l125 -215z" />
    <glyph glyph-name="uni046E" unicode="&#x46e;" horiz-adv-x="1042" 
d="M754 1794q31 0 57 -3.5t49 -12.5v-187q-10 6 -25.5 9.5t-35.5 3.5q-37 0 -69 -34.5t-71 -105.5q129 -37 201 -128t72 -216q0 -144 -66 -231.5t-198 -116.5v-8q150 -17 228.5 -106.5t78.5 -239.5q0 -104 -36 -185t-97.5 -137.5t-137.5 -86t-157 -29.5q-62 0 -103.5 -8.5
t-61.5 -26.5t-20 -49q0 -48 29 -62t80 -14q48 0 88 2.5t73 5t58 2.5q50 0 84.5 -12t44.5 -31v-270q-13 17 -48 25.5t-91 8.5q-55 0 -98.5 -2t-87.5 -4t-103 -2q-124 0 -207 45t-124.5 126t-41.5 188q0 135 48.5 218.5t135.5 122t204 38.5q106 0 159 38t53 130q0 83 -62 124
t-187 41h-127v295h112q86 2 135.5 14t70.5 43.5t22 90.5q0 63 -39 95t-117 32q-75 0 -137 -26t-115 -77l-127 258q71 56 139.5 87t147.5 44q-20 36 -50.5 84t-65 97.5t-68.5 91.5v29h206q31 -26 65.5 -64t74.5 -86q31 56 68.5 94t84.5 58t105 20z" />
    <glyph glyph-name="uni046F" unicode="&#x46f;" horiz-adv-x="920" 
d="M676 1374q29 0 56.5 -3t49.5 -11v-178q-10 8 -26.5 10t-36.5 2q-34 0 -61 -19t-50 -57q98 -38 149.5 -109t51.5 -163q0 -91 -45 -157t-125 -91v-10q68 -11 117 -48.5t75.5 -93t26.5 -124.5q0 -102 -44 -179t-134 -120t-229 -43q-50 0 -79.5 -9.5t-42 -28t-12.5 -46.5
q0 -48 26.5 -63t68.5 -15q38 0 72 2.5t67 5t67 2.5q41 0 70.5 -10.5t48.5 -32.5v-279q-12 19 -46 31t-73 12q-32 0 -78.5 -2.5t-92.5 -5t-78 -2.5q-117 0 -199 41t-125 121t-43 197q0 113 43.5 193t124.5 122.5t195 42.5q52 0 87 11t52.5 32.5t17.5 52.5q0 34 -16.5 58.5
t-56 37.5t-109.5 13h-102v241h84q89 0 127 22t38 85q0 37 -27.5 55.5t-84.5 18.5q-51 0 -106.5 -18.5t-114.5 -53.5l-107 250q47 23 87 39.5t75 25.5q-20 35 -43 69t-46.5 66.5t-47.5 61.5v29h207q29 -26 64 -63t75 -87q30 57 67 95t84.5 57.5t106.5 19.5z" />
    <glyph glyph-name="uni0470" unicode="&#x470;" horiz-adv-x="1587" 
d="M1489 1462v-497q0 -148 -31.5 -255.5t-96.5 -177t-164 -102.5t-234 -33v-397h-336v397q-139 0 -239 31t-163.5 96.5t-94 168t-30.5 245.5v524h349v-534q0 -89 17 -139.5t56.5 -71.5t104.5 -21v766h336v-766q61 0 100.5 24.5t58.5 74.5t19 127v540h348z" />
    <glyph glyph-name="uni0471" unicode="&#x471;" horiz-adv-x="1516" 
d="M918 1554v-1280q68 10 106 41t54 95t16 170q0 131 -17.5 269t-52.5 284h324q44 -174 60.5 -301.5t16.5 -258.5q0 -182 -57 -310t-169.5 -198.5t-280.5 -80.5v-476h-324v476q-163 6 -273 60.5t-165.5 169.5t-55.5 302v617h332v-603q0 -85 14.5 -139t50 -82t97.5 -35v1280
h324z" />
    <glyph glyph-name="uni0472" unicode="&#x472;" horiz-adv-x="1313" 
d="M1233 733q0 -184 -37 -324.5t-110 -236t-180.5 -144t-248.5 -48.5q-139 0 -246.5 49t-181.5 144.5t-111.5 236.5t-37.5 325q0 244 66.5 411t195 253t315.5 86q189 0 317 -85t193.5 -252.5t65.5 -414.5zM657 281q63 0 109 35.5t74.5 107t36.5 180.5h-441q9 -109 37 -180.5
t74.5 -107t109.5 -35.5zM657 1190q-61 0 -106.5 -34.5t-74 -103t-38.5 -171.5h436q-13 155 -68 232t-149 77z" />
    <glyph glyph-name="uni0473" unicode="&#x473;" horiz-adv-x="1108" 
d="M1042 569q0 -184 -58 -316t-167.5 -202.5t-265.5 -70.5q-147 0 -256 72.5t-169 204.5t-60 312q0 277 129.5 430.5t361.5 153.5q147 0 256 -71.5t169 -202.5t60 -310zM555 256q44 0 75 22.5t50.5 66t28.5 106.5h-310q7 -42 23 -87.5t48 -76.5t85 -31zM553 877
q-64 0 -103 -50t-53 -153h314q-5 44 -20.5 91t-48 79.5t-89.5 32.5z" />
    <glyph glyph-name="uni0474" unicode="&#x474;" horiz-adv-x="1210" 
d="M1143 1176q-22 0 -41 -13t-35.5 -48t-34.5 -103l-258 -1012h-405l-369 1462h365l153 -721q12 -53 24 -122t21 -137t12 -120q5 39 13 95t16.5 113.5t15.5 103t11 63.5l78 381q27 125 70 204t106 116t149 37q51 0 91.5 -9t74.5 -26v-279q-15 6 -30 10.5t-27 4.5z" />
    <glyph glyph-name="uni0475" unicode="&#x475;" horiz-adv-x="1047" 
d="M864 1153q62 0 101.5 -10t62.5 -23v-258q-13 6 -27 10.5t-26 4.5q-17 0 -30.5 -9.5t-23.5 -31t-20 -56.5l-219 -780h-356l-322 1133h344l115 -551q12 -58 21 -114.5t12 -119.5h8q2 53 10.5 111t22.5 121l51 231q30 135 67 209t88 103.5t121 29.5z" />
    <glyph glyph-name="uni0476" unicode="&#x476;" horiz-adv-x="1210" 
d="M1143 1176q-22 0 -41 -13t-35.5 -48t-34.5 -103l-258 -1012h-405l-369 1462h365l153 -721q12 -53 24 -122t21 -137t12 -120q5 39 13 95t16.5 113.5t15.5 103t11 63.5l78 381q27 125 70 204t106 116t149 37q51 0 91.5 -9t74.5 -26v-279q-15 6 -30 10.5t-27 4.5zM713 1899
q10 -24 29 -66t47.5 -100t66.5 -133v-29h-156q-46 36 -91 77.5t-84 83t-67.5 79.5t-41.5 67v21h297zM348 1899q12 -25 31.5 -67.5t47.5 -100t64 -131.5v-29h-170q-32 29 -74 70.5t-83 86.5t-72 84.5t-43 65.5v21h299z" />
    <glyph glyph-name="uni0477" unicode="&#x477;" horiz-adv-x="1047" 
d="M864 1153q62 0 101.5 -10t62.5 -23v-258q-13 6 -27 10.5t-26 4.5q-17 0 -30.5 -9.5t-23.5 -31t-20 -56.5l-219 -780h-356l-322 1133h344l115 -551q12 -58 21 -114.5t12 -119.5h8q2 53 10.5 111t22.5 121l51 231q30 135 67 209t88 103.5t121 29.5zM637 1569q10 -24 29 -66
t47.5 -100t66.5 -133v-29h-156q-46 36 -91 77.5t-84 83t-67.5 79.5t-41.5 67v21h297zM272 1569q12 -25 31.5 -67.5t47.5 -100t64 -131.5v-29h-170q-32 29 -74 70.5t-83 86.5t-72 84.5t-43 65.5v21h299z" />
    <glyph glyph-name="uni0478" unicode="&#x478;" horiz-adv-x="2277" 
d="M1192 733q0 -184 -35.5 -324.5t-106 -236t-174 -144t-239.5 -48.5q-135 0 -239 49t-175 144.5t-107 236.5t-36 325q0 244 63.5 411t188 253t305.5 86q182 0 305.5 -85t186.5 -252.5t63 -414.5zM442 733q0 -149 22 -249t65.5 -149.5t107.5 -49.5q66 0 108.5 48t63 147.5
t20.5 252.5q0 155 -21 255t-63.5 149t-107.5 49q-64 0 -107.5 -50.5t-65.5 -151t-22 -251.5zM1276 1133h348l119 -492q8 -35 15 -70t12 -65.5t6 -54.5h8q3 34 11 78.5t24 107.5l110 496h344l-342 -1205q-44 -154 -100.5 -246.5t-132.5 -133t-178 -40.5q-40 0 -76 5t-68 12
v291q20 -7 41.5 -10t40.5 -3q41 0 65.5 13.5t44 55t44.5 124.5l6 20z" />
    <glyph glyph-name="uni0479" unicode="&#x479;" horiz-adv-x="2038" 
d="M989 569q0 -109 -23.5 -213.5t-77.5 -189.5t-142.5 -135.5t-219.5 -50.5q-120 0 -207 49.5t-143 133t-83 189t-27 217.5q0 163 47 295.5t149.5 210.5t267.5 78q138 0 241 -68.5t160.5 -198.5t57.5 -317zM401 565q0 -101 13.5 -170t41.5 -104t72 -35q47 0 74 34.5
t39 104.5t12 174t-12 172t-39 102t-74 34q-66 0 -96.5 -76t-30.5 -236zM1036 1133h348l119 -492q8 -35 15 -70t12 -65.5t6 -54.5h8q3 34 11 78.5t24 107.5l110 496h344l-342 -1205q-44 -154 -100.5 -246.5t-132 -133t-178.5 -40.5q-40 0 -76 5t-68 12v291q20 -7 41.5 -10
t40.5 -3q41 0 65.5 13.5t44 55t44.5 124.5l6 20z" />
    <glyph glyph-name="uni047A" unicode="&#x47a;" horiz-adv-x="1313" 
d="M659 -147q-55 0 -99.5 32t-61.5 115q-102 25 -180.5 84.5t-131 152.5t-79.5 218t-27 280q0 204 47 356t140 247.5t229 127.5q15 80 59.5 112t103.5 32q54 0 97.5 -32t58.5 -112q138 -30 231 -124t140 -247t47 -362q0 -156 -26.5 -281t-79.5 -218t-131.5 -152.5
t-182.5 -83.5q-15 -82 -58 -113.5t-96 -31.5zM512 334q26 66 63.5 90.5t83.5 24.5q42 0 82 -27.5t62 -93.5q26 34 43 93t26 138.5t9 173.5q0 140 -19.5 247t-56.5 159q-17 -67 -58 -96t-88 -29q-46 0 -90 27.5t-59 91.5q-25 -37 -42.5 -97t-26.5 -137t-9 -166q0 -90 9 -167
t27 -136.5t44 -95.5z" />
    <glyph glyph-name="uni047B" unicode="&#x47b;" horiz-adv-x="1124" 
d="M1059 569q0 -155 -42.5 -275t-124.5 -196t-200 -102q-15 -69 -48.5 -99t-78.5 -30q-44 0 -81.5 30t-53.5 99q-114 26 -195.5 104.5t-125 198.5t-43.5 270q0 233 95.5 382t268.5 188q14 68 52.5 94.5t82.5 26.5q42 0 79 -27.5t50 -95.5q116 -27 197.5 -105.5t124.5 -197
t43 -265.5zM739 569q0 65 -6 110.5t-17 79t-28 60.5q-13 -55 -48 -81.5t-75 -26.5q-41 0 -75.5 24.5t-53.5 81.5q-26 -44 -38.5 -107t-14.5 -145q-1 -79 13.5 -144t39.5 -104q14 51 51.5 75t77.5 24q38 0 72.5 -24t50.5 -77q28 45 39.5 105.5t11.5 148.5z" />
    </font>
</defs>
</svg>
