<?xml version="1.0" standalone="no"?>
<!DOCTYPE svg PUBLIC "-//W3C//DTD SVG 1.1//EN" "http://www.w3.org/Graphics/SVG/1.1/DTD/svg11.dtd" >
<svg xmlns="http://www.w3.org/2000/svg" xmlns:xlink="http://www.w3.org/1999/xlink" version="1.1">
<metadata>
Created by FontForge 20170731 at Wed Feb 10 17:54:37 2021
 By Aleksey,,,
Copyright 2020 The Open Sans Project Authors (https://github.com/googlefonts/opensans)
</metadata>
<defs>
<font id="OpenSansCondensed-ExtraBoldItalic" horiz-adv-x="0" >
  <font-face 
    font-family="Open Sans Condensed ExtraBold"
    font-weight="800"
    font-style="italic"
    font-stretch="condensed"
    units-per-em="2048"
    panose-1="0 0 0 0 0 0 0 0 0 0"
    ascent="1638"
    descent="-410"
    x-height="1133"
    cap-height="1462"
    bbox="-864 -718 2279 2286"
    underline-thickness="50"
    underline-position="-175"
    slope="-12"
    unicode-range="U+000D-FFFD"
  />
<missing-glyph horiz-adv-x="1229" 
 />
    <glyph glyph-name="f_f" unicode="ff" horiz-adv-x="1227" 
d="M-74 -492q-37 0 -73.5 4t-77.5 19v285q18 -10 51 -15.5t51 -5.5q66 0 86.5 43t30.5 96l194 926h-110l35 170l131 92l16 70q12 55 33 119.5t60.5 123t104 95.5t163.5 37q59 0 120.5 -13t124.5 -45l-110 -245q-22 12 -45.5 19t-40.5 7q-37 0 -54.5 -27t-25.5 -61l-17 -69
h267l14 59q12 55 33 119.5t60.5 123t104 95.5t162.5 37q60 0 121.5 -13t124.5 -45l-110 -245q-22 12 -45.5 19t-40.5 7q-37 0 -54.5 -27t-25.5 -61l-17 -69h166l-55 -273h-166l-205 -952q-26 -128 -69.5 -217.5t-119 -136t-198.5 -46.5q-37 0 -73.5 4t-77.5 19v285
q18 -10 50.5 -15.5t51.5 -5.5q66 0 86 43t31 96l194 926h-264l-205 -952q-26 -128 -69.5 -217.5t-119 -136t-198.5 -46.5z" />
    <glyph glyph-name="fi" unicode="fi" horiz-adv-x="1139" 
d="M-74 -492q-37 0 -73.5 4t-77.5 19v285q18 -10 51 -15.5t51 -5.5q66 0 86.5 43t30.5 96l194 926h-110l35 170l131 92l16 70q12 55 33 119.5t60.5 123t104 95.5t163.5 37q59 0 120.5 -13t124.5 -45l-110 -245q-22 12 -45.5 19t-40.5 7q-37 0 -54.5 -27t-25.5 -61l-17 -69
h166l-55 -273h-166l-205 -952q-26 -128 -69.5 -217.5t-119 -136t-198.5 -46.5zM598 0l242 1133h326l-240 -1133h-328zM1035 1243q-76 0 -114 31t-38 94q0 50 21.5 101t68 85.5t119.5 34.5q72 0 112 -31t40 -94q0 -94 -57.5 -157.5t-151.5 -63.5z" />
    <glyph glyph-name="fl" unicode="fl" horiz-adv-x="1135" 
d="M-74 -492q-37 0 -73.5 4t-77.5 19v285q18 -10 51 -15.5t51 -5.5q66 0 86.5 43t30.5 96l194 926h-110l35 170l131 92l16 70q12 55 33 119.5t60.5 123t104 95.5t163.5 37q59 0 120.5 -13t124.5 -45l-110 -245q-22 12 -45.5 19t-40.5 7q-37 0 -54.5 -27t-25.5 -61l-17 -69
h166l-55 -273h-166l-205 -952q-26 -128 -69.5 -217.5t-119 -136t-198.5 -46.5zM596 0l332 1556h328l-330 -1556h-330z" />
    <glyph glyph-name="f_f_i" unicode="ffi" horiz-adv-x="1731" 
d="M-74 -492q-37 0 -73.5 4t-77.5 19v285q18 -10 51 -15.5t51 -5.5q66 0 86.5 43t30.5 96l194 926h-110l35 170l131 92l16 70q12 55 33 119.5t60.5 123t104 95.5t163.5 37q59 0 120.5 -13t124.5 -45l-110 -245q-22 12 -45.5 19t-40.5 7q-37 0 -54.5 -27t-25.5 -61l-17 -69
h267l14 59q12 55 33 119.5t60.5 123t104 95.5t162.5 37q60 0 121.5 -13t124.5 -45l-110 -245q-22 12 -45.5 19t-40.5 7q-37 0 -54.5 -27t-25.5 -61l-17 -69h166l-55 -273h-166l-205 -952q-26 -128 -69.5 -217.5t-119 -136t-198.5 -46.5q-37 0 -73.5 4t-77.5 19v285
q18 -10 50.5 -15.5t51.5 -5.5q66 0 86 43t31 96l194 926h-264l-205 -952q-26 -128 -69.5 -217.5t-119 -136t-198.5 -46.5zM1190 0l242 1133h325l-239 -1133h-328zM1626 1243q-75 0 -113 31t-38 94q0 50 21.5 101t67.5 85.5t119 34.5t112.5 -31t39.5 -94q0 -94 -57.5 -157.5
t-151.5 -63.5z" />
    <glyph glyph-name="f_f_l" unicode="ffl" horiz-adv-x="1726" 
d="M-74 -492q-37 0 -73.5 4t-77.5 19v285q18 -10 51 -15.5t51 -5.5q66 0 86.5 43t30.5 96l194 926h-110l35 170l131 92l16 70q12 55 33 119.5t60.5 123t104 95.5t163.5 37q59 0 120.5 -13t124.5 -45l-110 -245q-22 12 -45.5 19t-40.5 7q-37 0 -54.5 -27t-25.5 -61l-17 -69
h267l14 59q12 55 33 119.5t60.5 123t104 95.5t162.5 37q60 0 121.5 -13t124.5 -45l-110 -245q-22 12 -45.5 19t-40.5 7q-37 0 -54.5 -27t-25.5 -61l-17 -69h166l-55 -273h-166l-205 -952q-26 -128 -69.5 -217.5t-119 -136t-198.5 -46.5q-37 0 -73.5 4t-77.5 19v285
q18 -10 50.5 -15.5t51.5 -5.5q66 0 86 43t31 96l194 926h-264l-205 -952q-26 -128 -69.5 -217.5t-119 -136t-198.5 -46.5zM1188 0l332 1556h327l-329 -1556h-330z" />
    <glyph glyph-name=".notdef" horiz-adv-x="1229" 
 />
    <glyph glyph-name=".null" 
 />
    <glyph glyph-name="nonmarkingreturn" horiz-adv-x="682" 
 />
    <glyph glyph-name="NULL" 
 />
    <glyph glyph-name="NULL" 
 />
    <glyph glyph-name="CR" unicode="&#xd;" horiz-adv-x="352" 
 />
    <glyph glyph-name="space" unicode=" " horiz-adv-x="352" 
 />
    <glyph glyph-name="exclam" unicode="!" horiz-adv-x="530" 
d="M113 516l155 946h375l-246 -946h-284zM147 -25q-78 0 -118.5 35.5t-40.5 104.5q0 95 60 169t175 74q68 0 107 -36t39 -101q0 -112 -67 -179t-155 -67z" />
    <glyph glyph-name="quotedbl" unicode="&#x22;" horiz-adv-x="922" 
d="M616 934l76 528h348l-149 -528h-275zM188 934l76 528h346l-147 -528h-275z" />
    <glyph glyph-name="numbersign" unicode="#" horiz-adv-x="1081" 
d="M43 0l123 391h-158l43 234h187l69 209h-170l43 239h199l123 389h241l-125 -389h127l123 389h244l-125 -389h162l-45 -239h-189l-67 -209h172l-43 -234h-201l-125 -391h-239l123 391h-129l-123 -391h-240zM479 625h127l68 209h-127z" />
    <glyph glyph-name="dollar" unicode="$" horiz-adv-x="971" 
d="M291 -121l41 193q-111 5 -181.5 32.5t-123.5 65.5l69 334q65 -58 142.5 -101.5t152.5 -52.5l55 268q-55 31 -113 75.5t-98 110.5t-40 161q0 157 62.5 253.5t159.5 143.5t199 53l29 139h105l-29 -139q107 -7 172 -34t117 -62l-146 -283q-52 44 -102 69.5t-100 33.5
l-54 -250q56 -33 113.5 -75.5t97 -107.5t39.5 -165q0 -151 -61 -251.5t-157.5 -154t-203.5 -63.5l-41 -191zM498 360q23 10 40 25.5t27 37.5t10 50q0 18 -4.5 32.5t-12.5 27.5t-19 24zM518 950l39 187q-28 -8 -46.5 -25t-27 -39t-8.5 -49q0 -14 5.5 -27t15 -24.5t22.5 -22.5
z" />
    <glyph glyph-name="percent" unicode="%" horiz-adv-x="1620" 
d="M305 0l823 1462h254l-823 -1462h-254zM360 565q-121 0 -184 75t-63 228q0 68 15 150t46 164t79 150t114.5 109.5t152.5 41.5q113 0 180.5 -73t67.5 -236q0 -62 -14 -142t-44.5 -161.5t-78.5 -151t-115 -112t-156 -42.5zM391 791q23 0 43 29t36.5 75.5t28.5 99.5t18.5 103
t6.5 84q0 37 -8 54t-27 17q-22 0 -42.5 -29t-37.5 -75t-29 -99t-19 -102t-7 -84q0 -38 10.5 -55.5t26.5 -17.5zM1174 -16q-123 0 -185.5 74.5t-62.5 228.5q0 89 18 177.5t52 167t83.5 139t112.5 95.5t139 35q113 0 180.5 -72.5t67.5 -236.5q0 -65 -14.5 -145.5t-45 -162
t-78.5 -149.5t-114.5 -109.5t-152.5 -41.5zM1204 211q23 0 43 28t36.5 73.5t28.5 98t18.5 102.5t6.5 87t-9 54.5t-28 17.5q-26 0 -47.5 -32.5t-37.5 -83t-26.5 -105.5t-16 -100.5t-5.5 -67.5q0 -37 9.5 -54.5t27.5 -17.5z" />
    <glyph glyph-name="ampersand" unicode="&#x26;" horiz-adv-x="1225" 
d="M340 -20q-154 0 -245 87t-91 244q0 102 40 194t112.5 169t171.5 133q-26 53 -41 112t-15 138q0 117 55 213t152.5 153.5t225.5 57.5q80 0 152.5 -28.5t118.5 -88.5t46 -156q0 -84 -36.5 -160.5t-102.5 -146t-154 -133.5l78 -152q20 39 42 90t44 115h342q-32 -87 -77 -180
t-96.5 -179t-103.5 -153l158 -309h-411l-33 76q-89 -52 -161.5 -74t-170.5 -22zM430 272q22 0 42 5.5t41 17t44 27.5l-123 266q-25 -24 -43.5 -58t-28.5 -75t-10 -86q0 -31 9.5 -52.5t27 -33t41.5 -11.5zM614 981q20 17 38 38.5t31.5 45.5t21.5 49t8 49q0 25 -8.5 50.5
t-42.5 25.5q-26 0 -42 -22.5t-23 -52.5t-7 -54q0 -38 6 -69t18 -60z" />
    <glyph glyph-name="quotesingle" unicode="'" horiz-adv-x="494" 
d="M188 934l76 528h346l-147 -528h-275z" />
    <glyph glyph-name="parenleft" unicode="(" horiz-adv-x="578" 
d="M86 -324q-22 53 -36 133t-20.5 168t-6.5 162q0 163 33 353t94 380t144 355t183 276h277q-85 -119 -163 -278.5t-139.5 -341.5t-97 -369.5t-35.5 -361.5q0 -88 4 -168.5t14 -156.5t28 -151h-279z" />
    <glyph glyph-name="parenright" unicode=")" horiz-adv-x="578" 
d="M-166 -324q84 119 161.5 278.5t138.5 341t96.5 369t35.5 361.5q0 83 -3 167t-12.5 163t-29.5 147h281q27 -71 40 -145.5t17 -154t4 -165.5q0 -176 -34.5 -369t-95.5 -380t-143.5 -346t-178.5 -267h-277z" />
    <glyph glyph-name="asterisk" unicode="*" horiz-adv-x="905" 
d="M639 618l-96 273l-156 -244l-213 217l223 199l-260 72l101 280l233 -139v301l299 -35l-70 -293l261 82l30 -297l-268 -8l174 -246z" />
    <glyph glyph-name="plus" unicode="+" horiz-adv-x="1024" 
d="M670 856h305v-268h-305v-361h-275v361h-305v268h305v367h275v-367z" />
    <glyph glyph-name="comma" unicode="," horiz-adv-x="532" 
d="M-121 -285q32 90 67.5 191.5t68 203t55.5 189.5h319l4 -20q-37 -111 -76.5 -210.5t-80.5 -188t-84 -165.5h-273z" />
    <glyph glyph-name="hyphen" unicode="-" horiz-adv-x="629" 
d="M18 393l66 312h522l-67 -312h-521z" />
    <glyph glyph-name="period" unicode="." horiz-adv-x="532" 
d="M152 -25q-79 0 -119.5 35.5t-40.5 104.5q0 95 60 169t173 74q69 0 108.5 -36t39.5 -101q0 -112 -67.5 -179t-153.5 -67z" />
    <glyph glyph-name="slash" unicode="/" horiz-adv-x="813" 
d="M-117 -20l817 1503h304l-818 -1503h-303z" />
    <glyph glyph-name="zero" unicode="0" horiz-adv-x="971" 
d="M385 -20q-164 0 -241.5 100t-77.5 313q0 82 13 193t41.5 234t74 240.5t110 213t151 152.5t195.5 57q83 0 144 -25t101 -77t59.5 -133t19.5 -193q0 -102 -16 -221t-48 -239.5t-80.5 -230.5t-114 -196.5t-148.5 -137t-183 -50.5zM426 281q27 0 54 45t53.5 119t49 163.5
t39.5 179.5t27 167t10 124q0 53 -9 78t-34 25q-28 0 -56 -48t-54.5 -126t-49 -170.5t-39.5 -183.5t-26.5 -164t-9.5 -111q0 -49 10 -73.5t35 -24.5z" />
    <glyph glyph-name="one" unicode="1" horiz-adv-x="971" 
d="M326 0l161 770q11 47 19 84t17 71t20 72q-17 -21 -35.5 -42t-38.5 -40l-135 -129l-154 211l492 465h301l-311 -1462h-336z" />
    <glyph glyph-name="two" unicode="2" horiz-adv-x="971" 
d="M-57 0l51 238l360 407q48 56 94 113.5t83 116t59 115.5t22 110q0 38 -13.5 61t-45.5 23q-38 0 -81.5 -28.5t-86.5 -68.5t-78 -75l-108 235q103 125 210.5 180.5t227.5 55.5q95 0 168.5 -39.5t115.5 -109.5t42 -163q0 -116 -42 -220.5t-115.5 -201.5t-166.5 -194
l-242 -250v-6h406l-64 -299h-796z" />
    <glyph glyph-name="three" unicode="3" horiz-adv-x="971" 
d="M295 -20q-94 0 -157 16.5t-144 60.5v320q71 -58 159.5 -80.5t145.5 -22.5q47 0 84.5 12.5t64.5 37.5t41.5 62.5t14.5 86.5q0 41 -18.5 71t-59.5 46t-109 16h-79l59 285h82q56 0 102 12.5t79.5 38.5t52 66.5t18.5 95.5q0 43 -21 63.5t-65 20.5q-43 0 -106.5 -22
t-137.5 -74l-61 260q104 77 196.5 104t196.5 27q90 0 170 -27.5t130 -90.5t50 -171q0 -99 -41.5 -182t-115 -144.5t-171.5 -97.5v-6q102 -26 153.5 -95t51.5 -180q0 -110 -41 -203t-117 -161.5t-179 -106.5t-228 -38z" />
    <glyph glyph-name="four" unicode="4" horiz-adv-x="971" 
d="M352 0l60 283h-428l57 270l633 909h319l-190 -899h131l-60 -280h-131l-59 -283h-332zM297 563h174l66 303q3 15 9 35.5t12.5 42t10.5 37.5h-6q-25 -47 -34 -64.5t-15 -25.5z" />
    <glyph glyph-name="five" unicode="5" horiz-adv-x="971" 
d="M330 -20q-64 0 -117 7t-96 20.5t-78 31.5v342q57 -49 134 -78t157 -29q46 0 82 23t61 61t38 84.5t13 94.5q0 65 -31 99t-94 34q-37 0 -74 -11t-77 -28l-92 78l196 753h649l-63 -301h-360l-58 -215q32 8 57 10t44 2q78 0 136.5 -41.5t91 -120.5t32.5 -192q0 -100 -27 -209
t-89.5 -203.5t-169 -153t-265.5 -58.5z" />
    <glyph glyph-name="six" unicode="6" horiz-adv-x="971" 
d="M428 -20q-131 0 -210.5 54.5t-115.5 154.5t-36 237q0 106 20.5 224.5t61 237t101.5 225t142 187.5q56 56 120.5 97t138.5 63.5t157 22.5q74 0 128 -4.5t103 -14.5l-61 -293q-44 13 -86 19t-82 6q-84 0 -150 -41t-114.5 -118t-81.5 -187h4q28 39 62.5 67t74.5 43t84 15
q128 0 180 -99t52 -249q0 -100 -28.5 -212.5t-88 -211t-152.5 -161t-223 -62.5zM442 274q38 0 63.5 37.5t41 92t22 108.5t6.5 86q0 44 -11 67t-34 23q-11 0 -22 -4.5t-21 -12.5t-18 -20q-23 -27 -39.5 -74.5t-24.5 -98.5t-8 -89q0 -28 3 -50t9 -36t14.5 -21.5t18.5 -7.5z
" />
    <glyph glyph-name="seven" unicode="7" horiz-adv-x="971" 
d="M55 0l621 1159h-467l63 301h809l-49 -225l-626 -1235h-351z" />
    <glyph glyph-name="eight" unicode="8" horiz-adv-x="971" 
d="M406 -20q-122 0 -209 39t-133 113t-46 179q0 94 34.5 173.5t101 149t163.5 130.5q-36 40 -59.5 86t-35 94t-11.5 94q0 127 54 227.5t155.5 159t241.5 58.5q101 0 176.5 -33.5t117 -100t41.5 -165.5q0 -86 -32.5 -161t-93.5 -138.5t-146 -114.5q55 -49 87 -99.5t46 -105
t14 -114.5q0 -122 -60 -229.5t-165.5 -174.5t-240.5 -67zM416 250q45 0 75.5 27t46 68.5t15.5 86.5q0 28 -7.5 56t-22.5 56t-38 54q-37 -28 -69.5 -68.5t-52 -89t-19.5 -102.5q0 -41 19 -64.5t53 -23.5zM565 938q38 29 62 60.5t35.5 66.5t11.5 72q0 41 -16 58t-44 17
q-27 0 -47.5 -20t-31.5 -54.5t-11 -78.5q0 -32 12.5 -65t28.5 -56z" />
    <glyph glyph-name="nine" unicode="9" horiz-adv-x="971" 
d="M250 -20q-70 0 -123 7t-102 17v293q44 -16 99.5 -23.5t108.5 -7.5q63 0 115.5 23t95.5 67.5t77 109t59 146.5h-5q-29 -37 -64 -65.5t-74.5 -44t-82.5 -15.5q-85 0 -135.5 43t-73 116.5t-22.5 164.5q0 79 18 170.5t55.5 180t97.5 161.5t143 116.5t192 43.5q115 0 192 -53
t116.5 -152.5t39.5 -241.5q0 -40 -5.5 -96.5t-17 -123t-30 -139.5t-45.5 -147q-39 -104 -95 -202.5t-133 -177t-176.5 -124.5t-224.5 -46zM512 774q17 0 31 8.5t26.5 23.5t22.5 34q26 49 39.5 116.5t13.5 116.5q0 39 -5 64.5t-15 38t-25 12.5q-34 0 -59.5 -38t-41.5 -92.5
t-24 -108t-8 -85.5q0 -44 11 -67t34 -23z" />
    <glyph glyph-name="colon" unicode=":" horiz-adv-x="547" 
d="M328 766q-79 0 -119.5 34.5t-40.5 104.5q0 63 26.5 118.5t78.5 90.5t128 35q68 0 107 -36t39 -101q0 -112 -66.5 -179t-152.5 -67zM158 -25q-79 0 -119.5 35.5t-40.5 104.5q0 95 60 169t173 74q70 0 109 -36t39 -101q0 -112 -67.5 -179t-153.5 -67z" />
    <glyph glyph-name="semicolon" unicode=";" horiz-adv-x="547" 
d="M-121 -285q35 94 67.5 189t63 193.5t58.5 201.5h319l6 -20q-38 -111 -77 -210.5t-80.5 -188t-85.5 -165.5h-271zM328 766q-79 0 -119.5 34.5t-40.5 104.5q0 63 26.5 118.5t78.5 90.5t128 35q68 0 107 -36t39 -101q0 -112 -66.5 -179t-152.5 -67z" />
    <glyph glyph-name="less" unicode="&#x3c;" horiz-adv-x="1024" 
d="M975 229l-895 424v172l895 422v-297l-504 -211l504 -215v-295z" />
    <glyph glyph-name="equal" unicode="=" horiz-adv-x="1024" 
d="M90 815v268h885v-268h-885zM90 358v271h885v-271h-885z" />
    <glyph glyph-name="greater" unicode="&#x3e;" horiz-adv-x="1024" 
d="M90 524l504 215l-504 211v297l895 -422v-172l-895 -424v295z" />
    <glyph glyph-name="question" unicode="?" horiz-adv-x="770" 
d="M186 516q15 91 35.5 151t53 105t81.5 90q78 72 118 112t53.5 68.5t13.5 65.5q0 35 -22.5 57.5t-59.5 22.5q-64 0 -128.5 -33t-123.5 -74l-39 256q97 74 194 110t189 36q155 0 235 -75.5t80 -207.5q0 -100 -37 -183t-96 -151t-125 -125q-44 -37 -69 -64.5t-39.5 -63
t-28.5 -97.5h-285zM223 -25q-79 0 -120.5 35.5t-41.5 104.5q0 95 60.5 169t175.5 74q68 0 106.5 -36t38.5 -101q0 -112 -66.5 -179t-152.5 -67z" />
    <glyph glyph-name="at" unicode="@" horiz-adv-x="1446" 
d="M616 -154q-138 0 -244.5 36t-179 104t-110 165.5t-37.5 221.5q0 175 42 338.5t120.5 303t188.5 244.5t247 163.5t295 58.5q150 0 265.5 -63.5t181 -181t65.5 -278.5q0 -96 -19.5 -198t-56.5 -196t-89.5 -168.5t-119 -118.5t-145.5 -44q-97 0 -137.5 32.5t-57.5 90.5h-6
q-47 -60 -98.5 -91.5t-97.5 -31.5q-120 0 -176 65.5t-56 190.5q0 71 18 155t54 167t91 151.5t129 110t167 41.5q95 0 168 -17t127 -46l-129 -539q-3 -10 -4.5 -22.5t-1.5 -20.5q0 -23 6 -33t16 -10q44 0 77.5 38.5t57 100t38 131.5t21.5 134.5t7 107.5q0 116 -38 193
t-108 116t-167 39q-119 0 -220 -49.5t-181.5 -136.5t-137.5 -200.5t-87 -243t-30 -263.5q0 -105 37 -184t114 -122.5t195 -43.5q100 0 199.5 22t216.5 74v-194q-98 -46 -208.5 -72.5t-201.5 -26.5zM678 426q41 0 76 57t63 166l66 262q-13 5 -24 7t-30 2q-45 0 -82 -41
t-63 -105t-40.5 -134t-14.5 -128q0 -44 13 -65t36 -21z" />
    <glyph glyph-name="A" unicode="A" horiz-adv-x="1090" 
d="M-119 0l631 1468h436l23 -1468h-365l8 285h-249l-109 -285h-375zM477 582h156l16 379q2 49 4 97t9 105h-7q-9 -53 -21.5 -99.5t-29.5 -96.5z" />
    <glyph glyph-name="B" unicode="B" horiz-adv-x="1059" 
d="M-10 0l309 1462h397q100 0 188.5 -29t144.5 -97.5t56 -188.5q0 -85 -28.5 -160.5t-86.5 -132.5t-147 -88v-8q66 -29 106 -98.5t40 -167.5q0 -125 -57.5 -237.5t-171.5 -183.5t-283 -71h-467zM393 289h62q54 0 90 31.5t53.5 82.5t17.5 109q0 54 -22.5 81.5t-67.5 27.5h-63
zM520 893h55q46 0 79 29t51 74.5t18 93.5q0 44 -23 67t-69 23h-49z" />
    <glyph glyph-name="C" unicode="C" horiz-adv-x="965" 
d="M446 -20q-123 0 -207 58t-126.5 163.5t-42.5 247.5q0 145 29.5 292t86 280t138 237.5t186 164.5t229.5 60q92 0 184 -23t169 -82l-160 -270q-49 38 -92 57t-86 19q-67 0 -119.5 -56t-90.5 -144.5t-63 -188t-37 -188t-12 -142.5q0 -100 28.5 -142t80.5 -42
q68 0 133.5 22.5t128.5 54.5v-303q-79 -40 -175 -57.5t-182 -17.5z" />
    <glyph glyph-name="D" unicode="D" horiz-adv-x="1112" 
d="M-10 0l309 1462h336q235 0 357 -124t122 -341q0 -137 -27.5 -278t-85 -269.5t-146.5 -230t-211 -160.5t-279 -59h-375zM395 303h21q74 0 130.5 48t96 125t64 166t36 173.5t11.5 145.5q0 103 -37 151.5t-111 48.5h-28z" />
    <glyph glyph-name="E" unicode="E" horiz-adv-x="858" 
d="M-10 0l309 1462h664l-62 -295h-321l-58 -264h299l-63 -295h-297l-68 -309h324l-64 -299h-663z" />
    <glyph glyph-name="F" unicode="F" horiz-adv-x="834" 
d="M-10 0l309 1462h662l-62 -295h-319l-68 -313h295l-64 -295h-294l-117 -559h-342z" />
    <glyph glyph-name="G" unicode="G" horiz-adv-x="1122" 
d="M524 -20q-232 0 -341 125.5t-109 351.5q0 138 28.5 282.5t87 277.5t148.5 238t213 166.5t280 61.5q107 0 202 -26.5t153 -67.5l-146 -289q-55 40 -116.5 62t-126.5 22q-83 0 -150.5 -66.5t-115.5 -172t-73.5 -226t-25.5 -227.5q0 -70 13.5 -117t40.5 -70.5t67 -23.5
q20 0 42.5 3t45.5 9l57 272h-141l59 291h480l-166 -784q-117 -46 -225 -69t-181 -23z" />
    <glyph glyph-name="H" unicode="H" horiz-adv-x="1153" 
d="M-10 0l309 1462h342l-117 -553h252l119 553h342l-311 -1462h-342l129 610h-252l-129 -610h-342z" />
    <glyph glyph-name="I" unicode="I" horiz-adv-x="557" 
d="M-12 0l311 1462h342l-311 -1462h-342z" />
    <glyph glyph-name="J" unicode="J" horiz-adv-x="563" 
d="M-131 -459q-64 0 -109 6t-84 19l64 299q29 -14 56 -21.5t52 -7.5q56 0 88.5 44t50 105t27.5 111l291 1366h342l-299 -1415q-39 -182 -107.5 -293.5t-162 -162t-209.5 -50.5z" />
    <glyph glyph-name="K" unicode="K" horiz-adv-x="1049" 
d="M-10 0l309 1462h342l-123 -588l72 140l293 448h377l-463 -690l149 -772h-377l-73 532l-60 -36l-104 -496h-342z" />
    <glyph glyph-name="L" unicode="L" horiz-adv-x="819" 
d="M-10 0l309 1462h342l-248 -1163h344l-61 -299h-686z" />
    <glyph glyph-name="M" unicode="M" horiz-adv-x="1520" 
d="M-10 0l309 1462h444l21 -844h6l358 844h474l-312 -1462h-332l142 662q5 27 11.5 53t14.5 52t15 52h-6l-361 -819h-278l-17 807h-6q-6 -41 -11.5 -79.5t-11.5 -73.5t-14 -68l-125 -586h-321z" />
    <glyph glyph-name="N" unicode="N" horiz-adv-x="1239" 
d="M-10 0l309 1462h379l151 -835h7q8 54 16.5 106.5t17 99.5t15.5 82l116 547h322l-309 -1462h-381l-152 862h-4q-7 -48 -13.5 -92t-12.5 -83t-12 -72.5t-11 -59.5l-119 -555h-319z" />
    <glyph glyph-name="O" unicode="O" horiz-adv-x="1176" 
d="M498 -20q-145 0 -239.5 52.5t-140.5 162t-46 280.5q0 115 20 234t59.5 232.5t97.5 211.5t134 173t169.5 117t203.5 42q221 0 320.5 -125.5t99.5 -368.5q0 -98 -16.5 -210.5t-51.5 -226t-89 -216.5t-129.5 -183.5t-173 -127.5t-218.5 -47zM522 285q47 0 87.5 36t73.5 96.5
t58.5 136.5t42.5 156.5t26 156t9 134.5q0 94 -24 139.5t-68 45.5q-47 0 -87 -35.5t-73.5 -96t-58.5 -135.5t-42.5 -155.5t-26.5 -155.5t-9 -135q0 -77 10.5 -117.5t31.5 -55.5t50 -15z" />
    <glyph glyph-name="P" unicode="P" horiz-adv-x="987" 
d="M-10 0l309 1462h358q140 0 226 -44t126 -122.5t40 -183.5t-30 -215.5t-94.5 -203.5t-166 -150.5t-244.5 -57.5h-80l-102 -485h-342zM496 780h24q55 0 94 37t60.5 101.5t21.5 148.5q0 60 -24 80t-74 20h-18z" />
    <glyph glyph-name="Q" unicode="Q" horiz-adv-x="1176" 
d="M512 -348l-88 332q-7 0 -15 1.5t-16 2.5q-109 18 -180.5 76t-106 160t-34.5 251q0 115 20 234t59.5 232.5t97.5 211.5t134 173t169.5 117t203.5 42q221 0 320.5 -125.5t99.5 -368.5q0 -93 -15 -199.5t-46 -214.5t-79.5 -207.5t-115.5 -181.5t-154 -135l139 -401h-393z
M522 285q47 0 87.5 36t73.5 96.5t58.5 136.5t42.5 156.5t26 156t9 134.5q0 94 -24 139.5t-68 45.5q-47 0 -87 -35.5t-73.5 -96t-58.5 -135.5t-42.5 -155.5t-26.5 -155.5t-9 -135q0 -77 10.5 -117.5t31.5 -55.5t50 -15z" />
    <glyph glyph-name="R" unicode="R" horiz-adv-x="1034" 
d="M-10 0l309 1462h330q226 0 330 -89.5t104 -256.5q0 -125 -33.5 -224t-95.5 -169.5t-146 -108.5l156 -614h-379l-98 543h-23l-112 -543h-342zM506 819h29q43 0 74 22.5t51 59.5t30 81t10 87q0 53 -24 80t-74 27h-22z" />
    <glyph glyph-name="S" unicode="S" horiz-adv-x="891" 
d="M311 -20q-109 0 -193 20.5t-155 75.5l74 348q52 -46 129 -84.5t147 -38.5q23 0 48.5 5.5t47.5 19.5t36 40.5t14 69.5q0 31 -9 58.5t-34.5 58.5t-73.5 72q-63 53 -103 108t-58.5 121t-18.5 152q0 98 30.5 184.5t92 152.5t156 103t221.5 37q83 0 174 -27t168 -84l-152 -307
q-61 49 -115 75.5t-94 26.5q-23 0 -44.5 -7.5t-39 -22.5t-27.5 -39.5t-10 -59.5q0 -25 9 -51.5t36 -58.5t82 -74q64 -49 101.5 -104.5t54 -122.5t16.5 -150q0 -94 -31 -183t-93.5 -160t-158.5 -112.5t-227 -41.5z" />
    <glyph glyph-name="T" unicode="T" horiz-adv-x="879" 
d="M150 0l245 1161h-235l63 301h815l-63 -301h-238l-245 -1161h-342z" />
    <glyph glyph-name="U" unicode="U" horiz-adv-x="1114" 
d="M451 -20q-118 0 -203 42.5t-130.5 122.5t-45.5 191q0 35 5.5 81.5t14.5 92.5l203 952h342l-203 -958q-7 -31 -10.5 -59t-3.5 -50q0 -58 19.5 -84t58.5 -26q40 0 69.5 21t51 69.5t38.5 130.5l205 956h342l-215 -1009q-32 -155 -99 -260.5t-174.5 -159t-264.5 -53.5z" />
    <glyph glyph-name="V" unicode="V" horiz-adv-x="1063" 
d="M219 0l-29 1462h353l-19 -741q-1 -42 -3.5 -80.5t-6.5 -80t-10 -93.5h4q10 42 22 83t26.5 82.5t31.5 84.5l297 745h366l-639 -1462h-393z" />
    <glyph glyph-name="W" unicode="W" horiz-adv-x="1524" 
d="M135 0l55 1462h330l-33 -606q-4 -81 -10 -144t-12 -110h2q23 62 46.5 123t49.5 127l248 610h279l-23 -610q-3 -76 -6 -129t-8 -119h4q10 35 23 72.5t29.5 81t35.5 96.5l225 608h344l-557 -1462h-389l10 516q0 29 2 62t5.5 69t7.5 72h-5q-15 -46 -30.5 -92t-34.5 -90
l-205 -537h-383z" />
    <glyph glyph-name="X" unicode="X" horiz-adv-x="1024" 
d="M-121 0l471 731l-143 731h358l47 -364l195 364h369l-441 -719l174 -743h-370l-60 385l-233 -385h-367z" />
    <glyph glyph-name="Y" unicode="Y" horiz-adv-x="1001" 
d="M211 0l115 549l-136 913h357l39 -469l237 469h367l-518 -901l-119 -561h-342z" />
    <glyph glyph-name="Z" unicode="Z" horiz-adv-x="897" 
d="M-80 0l49 240l619 927h-410l62 295h800l-49 -239l-620 -924h434l-64 -299h-821z" />
    <glyph glyph-name="bracketleft" unicode="[" horiz-adv-x="588" 
d="M-102 -344l393 1847h465l-54 -254h-172l-284 -1339h172l-56 -254h-464z" />
    <glyph glyph-name="backslash" unicode="\" horiz-adv-x="813" 
d="M397 -20l-196 1503h286l197 -1503h-287z" />
    <glyph glyph-name="bracketright" unicode="]" horiz-adv-x="588" 
d="M-160 -344l54 254h169l287 1339h-172l53 254h467l-393 -1847h-465z" />
    <glyph glyph-name="asciicircum" unicode="^" horiz-adv-x="952" 
d="M-41 496l616 966h181l207 -966h-291l-101 485l-309 -485h-303z" />
    <glyph glyph-name="underscore" unicode="_" horiz-adv-x="788" 
d="M-203 -379l51 246h797l-53 -246h-795z" />
    <glyph glyph-name="grave" unicode="`" horiz-adv-x="676" 
d="M487 1241q-24 34 -62.5 93t-74.5 119t-55 97v19h364q9 -39 20 -85t26 -99.5t34 -116.5l-2 -27h-250z" />
    <glyph glyph-name="a" unicode="a" horiz-adv-x="997" 
d="M264 -20q-72 0 -125 41.5t-81.5 117.5t-28.5 180q0 87 17 197t51.5 221.5t87.5 206t126 152t166 57.5q43 0 81.5 -15t70 -49t51.5 -92h6l53 136h287l-242 -1133h-266l-8 135h-8q-35 -44 -69.5 -79t-75 -55.5t-93.5 -20.5zM412 256q44 0 75.5 47.5t52.5 114.5t33 125
q22 95 27.5 140.5t5.5 74.5q0 57 -15 83.5t-46 26.5t-58.5 -37t-49.5 -96t-37.5 -126.5t-24 -130.5t-8.5 -107q0 -57 11.5 -86t33.5 -29z" />
    <glyph glyph-name="b" unicode="b" horiz-adv-x="997" 
d="M510 -20q-47 0 -85.5 16t-68 46.5t-51.5 74.5h-6l-59 -117h-267l332 1556h328l-72 -335q-3 -17 -10 -46t-17 -65t-22 -74h4q35 45 70 70.5t73.5 36t83.5 10.5q69 0 120.5 -41t80.5 -116t29 -179q0 -96 -18.5 -208.5t-55.5 -223.5t-92.5 -202.5t-129.5 -147t-167 -55.5z
M455 256q26 0 52 36.5t48.5 95t40 126.5t27.5 132t10 110q0 56 -12.5 84t-36.5 28q-30 0 -56 -25.5t-47.5 -68.5t-37.5 -96.5t-27.5 -110t-17 -108.5t-5.5 -92q0 -57 15.5 -84t46.5 -27z" />
    <glyph glyph-name="c" unicode="c" horiz-adv-x="815" 
d="M362 -20q-104 0 -176.5 45t-110.5 128t-38 195q0 102 18.5 213.5t58.5 216.5t105 190t157 135t214 50q84 0 154 -22t133 -66l-134 -258q-31 28 -71.5 45.5t-77.5 17.5q-62 0 -104.5 -53.5t-67.5 -132.5t-36 -157.5t-11 -127.5q0 -45 8 -75.5t25 -46t43 -15.5
q46 0 102.5 24.5t122.5 73.5v-278q-55 -41 -140.5 -71.5t-173.5 -30.5z" />
    <glyph glyph-name="d" unicode="d" horiz-adv-x="997" 
d="M264 -20q-72 0 -125 41.5t-81.5 117.5t-28.5 180q0 83 17 192t50.5 221t85 207.5t120 154.5t155.5 59q47 0 90 -12.5t77.5 -41t55.5 -75.5h6q4 39 9 73.5t9.5 62t8.5 44.5l75 352h328l-332 -1556h-266l-8 117h-8q-40 -44 -74.5 -74.5t-72.5 -46.5t-91 -16zM412 256
q30 0 56 26t47.5 69.5t38.5 97.5t28.5 110.5t17.5 108.5t6 90q0 57 -15 83.5t-46 26.5q-35 0 -63.5 -41t-50 -105t-35.5 -134t-21.5 -129t-7.5 -88q0 -57 11.5 -86t33.5 -29z" />
    <glyph glyph-name="e" unicode="e" horiz-adv-x="944" 
d="M408 -20q-116 0 -199.5 45.5t-128.5 131t-45 203.5q0 133 32 272t101 256.5t178 190t262 72.5q143 0 233.5 -79.5t90.5 -213.5q0 -103 -40 -178t-113 -123.5t-173.5 -72t-222.5 -23.5h-21q-3 -17 -4.5 -34.5t-1.5 -31.5q0 -84 32 -117.5t95 -33.5q74 0 134 17t145 65
v-244q-91 -60 -178 -81t-176 -21zM412 694h4q87 0 134 17t65 47t18 67q0 31 -20.5 50.5t-51.5 19.5q-28 0 -55 -20.5t-50.5 -65t-43.5 -115.5z" />
    <glyph glyph-name="f" unicode="f" horiz-adv-x="633" 
d="M-74 -492q-37 0 -73.5 4t-77.5 19v285q18 -10 51 -15.5t51 -5.5q66 0 86.5 43t30.5 96l194 926h-110l35 170l131 92l16 70q12 55 33 119.5t60.5 123t104 95.5t163.5 37q59 0 120.5 -13t124.5 -45l-110 -245q-22 12 -45.5 19t-40.5 7q-37 0 -54.5 -27t-25.5 -61l-17 -69
h166l-55 -273h-166l-205 -952q-26 -128 -69.5 -217.5t-119 -136t-198.5 -46.5z" />
    <glyph glyph-name="g" unicode="g" horiz-adv-x="1020" 
d="M254 -492q-205 0 -302 71t-97 198q0 116 74 197.5t200 117.5q-32 14 -58 52.5t-26 92.5q0 69 44 120t110 100q-37 27 -60 91t-23 138q0 124 58.5 235t171.5 172q47 26 107.5 40.5t121.5 14.5q65 0 110 -10.5t72 -18.5h367l-40 -190l-141 -49q4 -16 6 -32.5t2 -34.5
q0 -82 -37 -174.5t-96 -151.5q-61 -60 -146 -89.5t-192 -30.5q-48 0 -66 -1.5t-24 -3.5q-32 -11 -51.5 -36t-19.5 -50q0 -15 21 -19q11 -2 30 -2.5t46 -0.5h202q77 0 131.5 -26.5t83.5 -78.5t29 -129q0 -157 -72 -267.5t-194 -172.5q-72 -35 -158.5 -53.5t-183.5 -18.5z
M267 -250q50 0 95.5 9t82.5 28q44 22 70.5 57t26.5 83q0 8 -4 14t-14 10q-12 5 -34 7t-58 2h-154q-32 0 -58 -29t-41.5 -65.5t-15.5 -61.5q0 -31 26 -42.5t78 -11.5zM477 592q33 0 60 21.5t47.5 65t35.5 107.5q7 30 10.5 53t3.5 39q0 28 -10 38t-31 10q-32 0 -56 -18
t-40.5 -47t-28 -63.5t-19.5 -67.5q-7 -29 -10.5 -51t-3.5 -39q0 -48 42 -48z" />
    <glyph glyph-name="h" unicode="h" horiz-adv-x="1006" 
d="M-27 0l332 1556h328l-62 -284q-8 -39 -19.5 -81t-25.5 -84.5t-28 -82.5h6q30 42 64 71t75 43.5t92 14.5q74 0 126.5 -33.5t80 -94t27.5 -142.5q0 -35 -5.5 -77.5t-13.5 -82.5l-153 -723h-328l133 631q9 41 15 79.5t6 75.5q0 28 -13 50t-47 22q-19 0 -41 -18t-44 -66.5
t-42 -138.5l-133 -635h-330z" />
    <glyph glyph-name="i" unicode="i" horiz-adv-x="516" 
d="M-25 0l242 1133h326l-240 -1133h-328zM412 1243q-76 0 -114 31t-38 94q0 50 21.5 101t68 85.5t119.5 34.5q72 0 112 -31t40 -94q0 -94 -57.5 -157.5t-151.5 -63.5z" />
    <glyph glyph-name="j" unicode="j" horiz-adv-x="516" 
d="M-104 -492q-37 0 -74 4t-78 19v285q19 -10 51.5 -15.5t50.5 -5.5q36 0 58 15t35.5 45.5t23.5 78.5l254 1199h326l-260 -1225q-27 -128 -70.5 -217.5t-118.5 -136t-198 -46.5zM412 1243q-76 0 -114 31t-38 94q0 50 21.5 101t68 85.5t119.5 34.5q72 0 112 -31t40 -94
q0 -94 -57.5 -157.5t-151.5 -63.5z" />
    <glyph glyph-name="k" unicode="k" horiz-adv-x="991" 
d="M-27 0l332 1556h328l-129 -602q-8 -37 -18 -74.5t-20.5 -76t-23.5 -78.5h4l304 408h356l-379 -490l160 -643h-357l-88 379l-80 -68l-59 -311h-330z" />
    <glyph glyph-name="l" unicode="l" horiz-adv-x="512" 
d="M-27 0l332 1556h328l-330 -1556h-330z" />
    <glyph glyph-name="m" unicode="m" horiz-adv-x="1485" 
d="M-27 0l242 1133h262l-6 -129h8q31 45 70.5 78.5t85.5 52t96 18.5q89 0 143.5 -34t81.5 -105h7q34 42 76 73t89.5 48.5t96.5 17.5q110 0 168.5 -65.5t58.5 -184.5q0 -37 -5.5 -83t-16.5 -97l-154 -723h-328l133 629q10 44 15.5 84.5t5.5 68.5q0 39 -11.5 57.5t-35.5 18.5
q-29 0 -51.5 -25t-39 -64t-28.5 -84t-21 -85l-127 -600h-327l133 629q9 44 15.5 87t6.5 70q0 38 -11 55t-34 17q-27 0 -49.5 -25t-40.5 -64t-30.5 -84t-20.5 -85l-127 -600h-330z" />
    <glyph glyph-name="n" unicode="n" horiz-adv-x="1006" 
d="M-27 0l242 1133h262l-4 -132h6q33 48 71.5 82t81.5 52t91 18q61 0 117 -24t92.5 -81.5t36.5 -160.5q0 -31 -4 -70.5t-15 -93.5l-153 -723h-328l133 631q9 44 16 86t7 69q0 34 -12 53t-40 19q-35 0 -62 -37t-47.5 -99t-37.5 -138l-123 -584h-330z" />
    <glyph glyph-name="o" unicode="o" horiz-adv-x="981" 
d="M395 -20q-112 0 -192.5 47t-123 134.5t-42.5 209.5q0 89 18.5 194.5t59 209t105.5 189t157.5 137.5t216.5 52q111 0 189.5 -48.5t120.5 -136t42 -206.5q0 -96 -19.5 -203.5t-60.5 -210t-106 -186t-155.5 -133t-209.5 -49.5zM434 256q32 0 60 36t50.5 94.5t38.5 127
t24.5 134t8.5 114.5q0 38 -6.5 63.5t-20.5 38.5t-38 13q-34 0 -62.5 -36t-51 -94.5t-38.5 -127t-24 -134.5t-8 -116q0 -54 16 -83.5t51 -29.5z" />
    <glyph glyph-name="p" unicode="p" horiz-adv-x="997" 
d="M-129 -492l344 1625h266l-4 -144h8q39 61 78.5 96.5t82 51.5t89.5 16q72 0 125 -37t82 -112.5t29 -192.5q0 -98 -18.5 -210.5t-55 -222.5t-90.5 -200t-126 -144t-161 -54q-45 0 -83.5 16.5t-67.5 47.5t-47 75h-7q-6 -57 -13.5 -105.5t-12.5 -74.5l-92 -431h-326zM455 264
q31 0 58 36t49 93.5t38 125t24.5 132t8.5 111.5q0 59 -12 87t-33 28q-29 0 -55 -27.5t-47.5 -72.5t-38.5 -100.5t-29 -112t-18.5 -106t-6.5 -83.5q0 -57 15.5 -84t46.5 -27z" />
    <glyph glyph-name="q" unicode="q" horiz-adv-x="997" 
d="M352 -492l86 406q4 18 11.5 46.5t17 64t20.5 71.5h-6q-34 -45 -69 -70t-73 -35.5t-83 -10.5q-68 0 -120 38t-80.5 110.5t-28.5 174.5q0 89 18 200.5t54 225.5t91 210t130 155t169 59q57 0 95 -16t63 -50t41 -90h4l47 136h287l-346 -1625h-328zM416 264q30 0 56 25.5
t47 68.5t37.5 97t27.5 112t16.5 113.5t5.5 99.5q0 42 -16 65t-47 23q-30 0 -56.5 -35t-48.5 -92t-38 -123t-24.5 -130t-8.5 -111q0 -57 12 -85t37 -28z" />
    <glyph glyph-name="r" unicode="r" horiz-adv-x="721" 
d="M-25 0l240 1133h258l-4 -164h8q37 66 74 106.5t81.5 59t102.5 18.5q20 0 40.5 -2.5t51.5 -11.5l-102 -361q-23 10 -47.5 14.5t-52.5 4.5q-42 0 -76 -18t-59 -50t-42 -73t-26 -87l-119 -569h-328z" />
    <glyph glyph-name="s" unicode="s" horiz-adv-x="793" 
d="M295 -20q-109 0 -173 16t-126 51v303q62 -41 132 -63.5t124 -22.5q28 0 51 8.5t37 25.5t14 42q0 18 -6.5 39t-28.5 48.5t-67 64.5q-61 50 -91.5 97.5t-40 93.5t-9.5 93q0 105 42 190.5t126.5 136t209.5 50.5q97 0 186.5 -27.5t149.5 -70.5l-125 -248q-50 44 -105.5 63
t-84.5 19t-45 -16.5t-16 -47.5q0 -19 5.5 -36t26.5 -39.5t68 -59.5q49 -40 83 -81.5t52 -97t18 -136.5q0 -105 -48 -195t-139 -145t-220 -55z" />
    <glyph glyph-name="t" unicode="t" horiz-adv-x="700" 
d="M319 -20q-133 0 -186 75t-53 189q0 37 5 79.5t17 100.5l93 436h-103l35 170l156 92l114 238h232l-49 -227h192l-57 -273h-193l-102 -483q-3 -14 -5.5 -28t-2.5 -25q0 -31 12 -44.5t43 -13.5q15 0 51 7t74 24v-262q-57 -31 -136.5 -43t-136.5 -12z" />
    <glyph glyph-name="u" unicode="u" horiz-adv-x="1006" 
d="M285 -20q-80 0 -135 32.5t-83 92t-28 141.5q0 35 5.5 78t12.5 88l154 721h328l-133 -629q-10 -46 -15.5 -88t-5.5 -70q0 -34 11 -53t40 -19q35 0 61.5 37t47.5 100t37 140l125 582h327l-239 -1133h-263l5 131h-7q-32 -46 -70.5 -80t-82 -52.5t-92.5 -18.5z" />
    <glyph glyph-name="v" unicode="v" horiz-adv-x="936" 
d="M174 0l-47 1133h328l-6 -445q0 -33 -0.5 -67t-2.5 -68.5t-8 -69.5h8q5 18 11.5 38t14.5 40.5t15 38.5l218 533h346l-529 -1133h-348z" />
    <glyph glyph-name="w" unicode="w" horiz-adv-x="1389" 
d="M102 0l29 1133h322l-23 -355q-4 -64 -11 -126.5t-13 -119.5h6q9 31 20.5 68t25 77t27.5 79l140 377h372l-24 -383q-4 -66 -10 -126.5t-11 -113.5h6q13 42 27 88t29 92t30 88l130 355h327l-457 -1133h-376l34 510q3 31 5.5 61.5t5 61.5t4.5 61h-6q-9 -28 -18 -54.5
t-17.5 -52t-18.5 -52.5l-194 -535h-361z" />
    <glyph glyph-name="x" unicode="x" horiz-adv-x="942" 
d="M-109 0l377 578l-131 555h355l36 -271l148 271h366l-360 -555l133 -578h-354l-45 297l-164 -297h-361z" />
    <glyph glyph-name="y" unicode="y" horiz-adv-x="936" 
d="M33 -492q-51 0 -88 5.5t-68 15.5l60 293q26 -9 47.5 -14t38.5 -5q43 0 66.5 23t45.5 68l62 126l-70 1113h332l2 -445q0 -30 -0.5 -61.5t-1.5 -62.5l-2 -62h6q8 34 19 71t22 69.5t18 51.5l185 439h344l-590 -1260q-49 -103 -105 -186t-132.5 -131t-190.5 -48z" />
    <glyph glyph-name="z" unicode="z" horiz-adv-x="801" 
d="M-86 0l41 195l479 661h-319l59 277h694l-45 -213l-461 -644h338l-57 -276h-729z" />
    <glyph glyph-name="braceleft" unicode="{" horiz-adv-x="707" 
d="M504 -324q-220 0 -314 75t-94 214q0 31 4 63.5t11 63.5l34 162q2 12 5.5 28.5t3.5 34.5q0 60 -27 88.5t-119 28.5l60 287q89 2 141.5 42.5t71.5 129.5l51 246q32 147 99 215.5t173 88t254 19.5h4l-61 -280q-74 0 -108 -25.5t-48 -103.5l-49 -238q-20 -95 -89.5 -160.5
t-203.5 -81.5l-2 -8q95 -31 137.5 -86t42.5 -123q0 -25 -4 -55.5t-10 -62.5l-29 -144q-3 -13 -4.5 -26.5t-1.5 -22.5q0 -44 18 -66t74 -22v-281h-20z" />
    <glyph glyph-name="bar" unicode="|" horiz-adv-x="803" 
d="M256 -469v2048h287v-2048h-287z" />
    <glyph glyph-name="braceright" unicode="}" horiz-adv-x="707" 
d="M-119 -324v281q51 0 87 11.5t58.5 39.5t32.5 78l50 238q20 95 89.5 160.5t202.5 80.5l2 8q-95 31 -137.5 85.5t-42.5 123.5q0 26 3.5 56.5t11.5 62.5l28 143q3 14 4.5 26.5t1.5 23.5q0 43 -27.5 65.5t-84.5 22.5l59 280h12q141 0 223 -28.5t117 -88t35 -151.5
q0 -31 -3 -74.5t-9 -75.5l-35 -159q-3 -14 -5.5 -29.5t-2.5 -34.5q0 -60 26.5 -88t118.5 -28l-59 -287q-58 -1 -102 -22t-72 -59t-39 -91l-51 -246q-31 -141 -88.5 -210.5t-154 -91.5t-245.5 -22h-4z" />
    <glyph glyph-name="asciitilde" unicode="~" horiz-adv-x="1024" 
d="M498 592q-58 28 -111 41.5t-100 13.5q-49 0 -101 -30.5t-108 -90.5v281q47 54 106 81t131 27q66 0 128.5 -17.5t123.5 -45.5q59 -28 111.5 -41.5t101.5 -13.5q45 0 101 32t106 89v-281q-47 -55 -106.5 -82t-130.5 -27q-63 0 -124.5 17.5t-127.5 46.5z" />
    <glyph glyph-name="uni00A0" unicode="&#xa0;" horiz-adv-x="352" 
 />
    <glyph glyph-name="exclamdown" unicode="&#xa1;" horiz-adv-x="530" 
d="M-119 -369l252 981h287l-164 -981h-375zM309 770q-67 0 -106 35.5t-39 101.5q0 113 66.5 179.5t152.5 66.5q78 0 119 -35t41 -104q0 -63 -26.5 -119t-78.5 -90.5t-129 -34.5z" />
    <glyph glyph-name="cent" unicode="&#xa2;" horiz-adv-x="971" 
d="M307 -20l43 188q-121 25 -174 119.5t-53 269.5q0 85 17.5 183t54 194.5t92.5 179t133 138.5t176 71l33 160h186l-33 -160q53 -9 99 -31.5t82 -48.5l-136 -262q-27 28 -68 48t-67 20q-54 0 -96.5 -47t-72.5 -120.5t-46 -154.5t-16 -149q0 -70 18.5 -104t57.5 -34
q40 0 86 17.5t100 52.5l88 -225q-63 -57 -142.5 -82.5t-131.5 -34.5l-41 -188h-189z" />
    <glyph glyph-name="sterling" unicode="&#xa3;" horiz-adv-x="971" 
d="M-25 0l62 283q48 31 81 64.5t54 76t33 100.5l20 105h-116l53 250h117l43 206q27 120 79.5 209.5t138 139t210.5 49.5q77 0 157.5 -22t136.5 -62l-131 -275q-37 28 -78 43t-73 15q-51 0 -77 -35t-40 -103l-37 -165h238l-53 -250h-236l-20 -103q-14 -70 -61.5 -128
t-117.5 -99h482l-64 -299h-801z" />
    <glyph glyph-name="currency" unicode="&#xa4;" horiz-adv-x="971" 
d="M862 248l-131 127q-44 -25 -95 -38t-104 -13q-56 0 -107.5 13t-92.5 38l-127 -125l-148 147l129 127q-27 45 -40 94.5t-13 104.5q0 51 13 100.5t40 98.5l-131 129l150 149l129 -129q44 28 95 40.5t103 12.5q54 0 104.5 -13.5t94.5 -41.5l131 131l150 -145l-131 -131
q26 -46 39.5 -95.5t13.5 -105.5q0 -57 -12.5 -107.5t-38.5 -95.5l125 -125zM532 532q55 0 99.5 26t71 69.5t26.5 95.5t-26.5 95.5t-71 70t-99.5 26.5q-52 0 -95 -26t-69 -69.5t-26 -96.5q0 -52 26 -95.5t69 -69.5t95 -26z" />
    <glyph glyph-name="yen" unicode="&#xa5;" horiz-adv-x="971" 
d="M201 0l45 211h-228l45 211h228l24 119h-227l45 211h176l-104 710h348l22 -448l213 448h357l-410 -710h183l-46 -211h-225l-26 -119h227l-45 -211h-228l-43 -211h-331z" />
    <glyph glyph-name="brokenbar" unicode="&#xa6;" horiz-adv-x="803" 
d="M256 799v780h287v-780h-287zM256 -469v780h287v-780h-287z" />
    <glyph glyph-name="section" unicode="&#xa7;" horiz-adv-x="905" 
d="M350 -37q-85 0 -160 20t-131 60v258q77 -64 148.5 -87.5t116.5 -23.5q53 0 83.5 32t30.5 85q0 31 -20 54t-48 41.5t-53 35.5q-57 38 -95.5 79t-58.5 90.5t-20 111.5q0 75 25.5 132t71 100t104.5 75q-38 40 -58 87.5t-20 123.5q0 72 41.5 145t122.5 123.5t201 53.5
q97 0 181 -22t157 -67l-115 -217q-47 41 -102 60.5t-109 19.5q-25 0 -45 -12t-31.5 -32.5t-11.5 -47.5q0 -28 25 -53.5t77 -61.5q74 -51 117.5 -95t62.5 -87.5t19 -93.5q0 -74 -24 -129.5t-66.5 -102t-99.5 -92.5q24 -29 43.5 -75.5t19.5 -120.5q0 -99 -46.5 -182.5
t-131.5 -134t-201 -50.5zM528 635q19 22 33 61t14 80q0 28 -7.5 51.5t-28.5 47t-62 51.5q-19 -13 -31.5 -35t-18 -47.5t-5.5 -50.5q0 -31 11.5 -57.5t35 -51t59.5 -49.5z" />
    <glyph glyph-name="dieresis" unicode="&#xa8;" horiz-adv-x="879" 
d="M788 1257q-62 0 -95.5 29t-33.5 86q0 77 48.5 138t140.5 61q56 0 87.5 -29.5t31.5 -83.5q0 -91 -54.5 -146t-124.5 -55zM399 1257q-63 0 -95 29t-32 86q0 77 48.5 138t140.5 61q36 0 62 -13t40.5 -38.5t14.5 -61.5q0 -91 -54 -146t-125 -55z" />
    <glyph glyph-name="copyright" unicode="&#xa9;" horiz-adv-x="1688" 
d="M846 -20q-174 0 -313.5 59t-238 162.5t-150.5 240.5t-52 293q0 165 56 302t157.5 237t238.5 154.5t298 54.5q164 0 301.5 -56t238.5 -157.5t157 -240t56 -304.5q0 -163 -54 -299t-153.5 -236t-237 -155t-304.5 -55zM850 262q-211 0 -327.5 123.5t-116.5 347.5
q0 147 50.5 251t147.5 159t236 55q83 0 163 -20t158 -58l-92 -184q-54 28 -106 41.5t-99 13.5q-97 0 -149.5 -64.5t-52.5 -205.5q0 -130 50 -191t160 -61q60 0 125 17t125 51v-211q-63 -32 -130.5 -48t-141.5 -16zM848 131q130 0 235.5 46t181.5 127.5t117 191.5t41 237
q0 134 -44 244t-123.5 189t-185.5 122t-230 43q-130 0 -236 -46t-182 -128t-117 -192t-41 -238q0 -135 44.5 -244.5t124 -188.5t185.5 -121t230 -42z" />
    <glyph glyph-name="ordfeminine" unicode="&#xaa;" horiz-adv-x="674" 
d="M348 729q-44 0 -92.5 24.5t-82.5 83.5t-34 164q0 80 22.5 163t67 153.5t109.5 114t149 43.5q56 0 91.5 -27t52.5 -72h8l37 86h158l-154 -721h-170l8 86h-8q-25 -41 -63.5 -69.5t-98.5 -28.5zM403 915q23 0 42 17t34 45t25.5 62.5t16 70.5t5.5 68q0 59 -10.5 86.5
t-32.5 27.5q-26 0 -47.5 -24t-37.5 -64.5t-24.5 -90.5t-8.5 -101q0 -52 9.5 -74.5t28.5 -22.5z" />
    <glyph glyph-name="guillemotleft" unicode="&#xab;" horiz-adv-x="1102" 
d="M258 61l-227 494l2 23l362 493l238 -143l-271 -369l164 -379zM737 61l-227 494l4 23l363 493l237 -143l-272 -369l166 -379z" />
    <glyph glyph-name="logicalnot" unicode="&#xac;" horiz-adv-x="1024" 
d="M965 856v-618h-275v350h-600v268h875z" />
    <glyph glyph-name="uni00AD" unicode="&#xad;" horiz-adv-x="629" 
d="M18 393l66 312h522l-67 -312h-521z" />
    <glyph glyph-name="registered" unicode="&#xae;" horiz-adv-x="1688" 
d="M510 313v875h303q185 0 276 -67.5t91 -202.5q0 -86 -33 -145.5t-109 -96.5l174 -363h-270l-127 320h-53v-320h-252zM762 809h35q58 0 91.5 21.5t33.5 76.5q0 48 -27 67t-96 19h-37v-184zM846 -20q-174 0 -313.5 59t-238 162.5t-150.5 240.5t-52 293q0 165 56 302
t157.5 237t238.5 154.5t298 54.5q164 0 301.5 -56t238.5 -157.5t157 -240t56 -304.5q0 -163 -54 -299t-153.5 -236t-237 -155t-304.5 -55zM848 131q130 0 235.5 46t181.5 127.5t117 191.5t41 237q0 134 -44 244t-123.5 189t-185.5 122t-230 43q-130 0 -236 -46t-182 -128
t-117 -192t-41 -238q0 -135 44.5 -244.5t124 -188.5t185.5 -121t230 -42z" />
    <glyph glyph-name="overscore" unicode="&#xaf;" horiz-adv-x="942" 
d="M207 1556l53 246h950l-51 -246h-952z" />
    <glyph glyph-name="degree" unicode="&#xb0;" horiz-adv-x="735" 
d="M367 852q-92 0 -166 40t-117 111t-43 164q0 94 43 165t117 111t166 40q93 0 167 -40t117 -111t43 -165q0 -93 -43 -164t-117 -111t-167 -40zM367 1044q58 0 90 32.5t32 90.5q0 57 -32 90t-90 33t-89.5 -33t-31.5 -90q0 -58 31.5 -90.5t89.5 -32.5z" />
    <glyph glyph-name="plusminus" unicode="&#xb1;" horiz-adv-x="1024" 
d="M90 0v268h885v-268h-885zM670 979h305v-268h-305v-361h-275v361h-305v268h305v367h275v-367z" />
    <glyph glyph-name="uni00B2" unicode="&#xb2;" horiz-adv-x="670" 
d="M129 852l43 203l205 217q49 52 83.5 90.5t53 71t18.5 65.5q0 22 -10 35.5t-33 13.5q-34 0 -73.5 -32.5t-67.5 -61.5l-76 160q56 66 136.5 101.5t158.5 35.5q113 0 169.5 -55.5t56.5 -147.5q0 -69 -32.5 -130.5t-83 -115.5t-104.5 -102l-145 -133h277l-46 -215h-530z" />
    <glyph glyph-name="uni00B3" unicode="&#xb3;" horiz-adv-x="670" 
d="M375 836q-69 0 -123 18.5t-92 52.5v228q37 -42 96 -65t125 -23q46 0 75 23t29 71q0 26 -19 43.5t-56 17.5h-97l39 182h78q37 0 62.5 13t39 37t13.5 57q0 29 -16.5 42t-39.5 13q-32 0 -64.5 -16t-76.5 -51l-84 159q68 63 144.5 86t140.5 23q87 0 140.5 -26t77.5 -71.5
t24 -105.5q0 -75 -42 -134.5t-139 -96.5l-2 -8q48 -19 79.5 -60t31.5 -115q0 -98 -43.5 -163.5t-120.5 -98t-180 -32.5z" />
    <glyph glyph-name="acute" unicode="&#xb4;" horiz-adv-x="674" 
d="M225 1241l6 23q37 50 72.5 100t70 101t66.5 104h363l-2 -17q-23 -24 -69.5 -67.5t-99.5 -93t-97.5 -91t-65.5 -59.5h-244z" />
    <glyph glyph-name="uni00B5" unicode="&#xb5;" horiz-adv-x="1006" 
d="M-133 -492l344 1625h328l-133 -629q-10 -46 -15.5 -82t-5.5 -64q0 -41 10.5 -62.5t38.5 -21.5q25 0 48.5 17.5t47.5 71.5t48 161l129 609h327l-239 -1133h-258l-2 113h-7q-26 -54 -53.5 -82.5t-54 -39.5t-53.5 -11q-25 0 -45 12t-35 35h-6q0 -30 -2 -62.5t-6 -67.5
t-11 -71l-67 -318h-328z" />
    <glyph glyph-name="paragraph" unicode="&#xb6;" horiz-adv-x="1106" 
d="M547 -260l-2 811q-17 -6 -33 -8t-39 -2q-99 0 -161.5 50.5t-96 130.5t-46.5 172t-13 175q0 84 16 170t54.5 158t103.5 115.5t164 43.5h528v-1816h-182v1657h-111v-1657h-182z" />
    <glyph glyph-name="periodcentered" unicode="&#xb7;" horiz-adv-x="532" 
d="M271 532q-79 0 -119.5 35.5t-40.5 104.5q0 95 60 169t173 74q69 0 108.5 -36t39.5 -101q0 -112 -67.5 -179t-153.5 -67z" />
    <glyph glyph-name="cedilla" unicode="&#xb8;" horiz-adv-x="293" 
d="M-96 -492q-43 0 -85 5t-83 18v180q25 -6 55.5 -11t58.5 -5q27 0 45.5 7.5t27.5 23t9 38.5q0 29 -26.5 47.5t-77.5 18.5l100 170h156l-41 -70q62 -9 103.5 -50.5t41.5 -115.5q0 -96 -38.5 -152t-103 -80t-142.5 -24z" />
    <glyph glyph-name="uni00B9" unicode="&#xb9;" horiz-adv-x="670" 
d="M340 852l98 459q8 35 16 62t17 54q-7 -9 -16.5 -18t-14.5 -14l-106 -80l-101 141l340 273h197l-186 -877h-244z" />
    <glyph glyph-name="ordmasculine" unicode="&#xba;" horiz-adv-x="659" 
d="M383 727q-118 0 -181 75.5t-63 201.5q0 89 24 173.5t71.5 152.5t116.5 108.5t159 40.5q101 0 171.5 -67t70.5 -210q0 -90 -26 -174.5t-75 -152.5t-116.5 -108t-151.5 -40zM414 922q24 0 44.5 21t35.5 57.5t23.5 83t8.5 98.5q0 53 -11.5 77.5t-37.5 24.5q-25 0 -45.5 -22
t-35.5 -60t-23 -86t-8 -100t12 -73t37 -21z" />
    <glyph glyph-name="guillemotright" unicode="&#xbb;" horiz-adv-x="1102" 
d="M700 61l-237 144l272 368l-166 379l269 119l229 -493l-4 -23zM221 61l-237 144l270 368l-164 379l268 119l228 -493l-2 -23z" />
    <glyph glyph-name="onequarter" unicode="&#xbc;" horiz-adv-x="1645" 
d="M242 0l956 1462h250l-956 -1462h-250zM285 586l98 459q8 35 16 62t17 54q-7 -9 -16.5 -18t-14.5 -14l-106 -80l-101 141l340 273h197l-186 -877h-244zM1166 0l30 139h-295l37 174l392 570h264l-119 -553h100l-41 -191h-98l-31 -139h-239zM1137 330h100l37 176q5 20 9 40
t14 52q-11 -23 -20 -45.5t-23 -44.5z" />
    <glyph glyph-name="onehalf" unicode="&#xbd;" horiz-adv-x="1645" 
d="M221 0l956 1462h250l-956 -1462h-250zM285 586l98 459q8 35 16 62t17 54q-7 -9 -16.5 -18t-14.5 -14l-106 -80l-101 141l340 273h197l-186 -877h-244zM924 0l43 203l205 217q49 52 83.5 90.5t53 71t18.5 65.5q0 22 -10 35.5t-33 13.5q-34 0 -73.5 -32.5t-67.5 -61.5
l-76 160q56 66 136.5 101.5t158.5 35.5q113 0 169.5 -55.5t56.5 -147.5q0 -69 -32.5 -130.5t-83 -115.5t-104.5 -102l-145 -133h277l-46 -215h-530z" />
    <glyph glyph-name="threequarters" unicode="&#xbe;" horiz-adv-x="1645" 
d="M320 570q-69 0 -123 18.5t-92 52.5v228q37 -42 96 -65t125 -23q46 0 75 23t29 71q0 26 -19 43.5t-56 17.5h-97l39 182h78q37 0 62.5 13t39 37t13.5 57q0 29 -16.5 42t-39.5 13q-32 0 -64.5 -16t-76.5 -51l-84 159q68 63 144.5 86t140.5 23q87 0 140.5 -26t77.5 -71.5
t24 -105.5q0 -75 -42 -134.5t-139 -96.5l-2 -8q48 -19 79.5 -60t31.5 -115q0 -98 -43.5 -163.5t-120.5 -98t-180 -32.5zM260 0l956 1462h250l-956 -1462h-250zM1166 0l30 139h-295l37 174l392 570h264l-119 -553h100l-41 -191h-98l-31 -139h-239zM1137 330h100l37 176
q5 20 9 40t14 52q-11 -23 -20 -45.5t-23 -44.5z" />
    <glyph glyph-name="questiondown" unicode="&#xbf;" horiz-adv-x="770" 
d="M584 612q-14 -91 -35 -151t-53.5 -105t-81.5 -90q-78 -72 -117.5 -112t-53.5 -68.5t-14 -65.5q0 -35 22.5 -57.5t59.5 -22.5q65 0 129.5 33.5t122.5 73.5l39 -256q-97 -74 -194 -110t-189 -36q-155 0 -235 75.5t-80 207.5q0 101 37 183.5t96.5 151t124.5 124.5
q44 38 69 65.5t40 63t28 96.5h285zM547 1153q80 0 121 -35.5t41 -104.5q0 -95 -60 -169t-176 -74q-67 0 -106 36.5t-39 100.5q0 112 66.5 179t152.5 67z" />
    <glyph glyph-name="Agrave" unicode="&#xc0;" horiz-adv-x="1090" 
d="M-119 0l631 1468h436l23 -1468h-365l8 285h-249l-109 -285h-375zM477 582h156l16 379q2 49 4 97t9 105h-7q-9 -53 -21.5 -99.5t-29.5 -96.5zM645 1624q-24 34 -62.5 93t-74.5 119t-55 97v19h364q9 -39 20 -85t26 -99.5t34 -116.5l-2 -27h-250z" />
    <glyph glyph-name="Aacute" unicode="&#xc1;" horiz-adv-x="1090" 
d="M-119 0l631 1468h436l23 -1468h-365l8 285h-249l-109 -285h-375zM477 582h156l16 379q2 49 4 97t9 105h-7q-9 -53 -21.5 -99.5t-29.5 -96.5zM559 1624l6 23q37 50 72.5 100t70 101t66.5 104h363l-2 -17q-23 -24 -69.5 -67.5t-99.5 -93t-97.5 -91t-65.5 -59.5h-244z" />
    <glyph glyph-name="Acircumflex" unicode="&#xc2;" horiz-adv-x="1090" 
d="M-119 0l631 1468h436l23 -1468h-365l8 285h-249l-109 -285h-375zM477 582h156l16 379q2 49 4 97t9 105h-7q-9 -53 -21.5 -99.5t-29.5 -96.5zM436 1624l4 25q44 45 85.5 94t81.5 101.5t79 107.5h297q10 -40 28 -93.5t40.5 -108t42.5 -97.5l-6 -29h-203q-14 17 -29.5 37.5
t-31 45t-31.5 52.5q-45 -46 -80.5 -79.5t-63.5 -55.5h-213z" />
    <glyph glyph-name="Atilde" unicode="&#xc3;" horiz-adv-x="1090" 
d="M-119 0l631 1468h436l23 -1468h-365l8 285h-249l-109 -285h-375zM477 582h156l16 379q2 49 4 97t9 105h-7q-9 -53 -21.5 -99.5t-29.5 -96.5zM424 1620q18 92 46 170t77 125t129 47q51 0 86 -14.5t61 -33.5t48 -33.5t45 -14.5q25 0 42 22t29 76h183q-20 -129 -61.5 -203.5
t-92.5 -106.5t-102 -32q-49 0 -83.5 14.5t-60.5 33.5t-48 33.5t-46 14.5q-18 0 -38 -21t-31 -77h-183z" />
    <glyph glyph-name="Adieresis" unicode="&#xc4;" horiz-adv-x="1090" 
d="M-119 0l631 1468h436l23 -1468h-365l8 285h-249l-109 -285h-375zM477 582h156l16 379q2 49 4 97t9 105h-7q-9 -53 -21.5 -99.5t-29.5 -96.5zM966 1640q-62 0 -95.5 29t-33.5 86q0 77 48.5 138t140.5 61q56 0 87.5 -29.5t31.5 -83.5q0 -91 -54.5 -146t-124.5 -55z
M577 1640q-63 0 -95 29t-32 86q0 77 48.5 138t140.5 61q36 0 62 -13t40.5 -38.5t14.5 -61.5q0 -91 -54 -146t-125 -55z" />
    <glyph glyph-name="Aring" unicode="&#xc5;" horiz-adv-x="1090" 
d="M-119 0l631 1468h436l23 -1468h-365l8 285h-249l-109 -285h-375zM477 582h156l16 379q2 49 4 97t9 105h-7q-9 -53 -21.5 -99.5t-29.5 -96.5zM774 1538q-121 0 -188.5 68.5t-67.5 183.5q0 112 69.5 180t186.5 68q106 0 180 -67t74 -177q0 -112 -68 -184t-186 -72z
M774 1698q40 0 65 24.5t25 65.5q0 40 -24.5 66t-65.5 26q-43 0 -67.5 -26t-24.5 -66q0 -41 22 -65.5t70 -24.5z" />
    <glyph glyph-name="AE" unicode="&#xc6;" horiz-adv-x="1409" 
d="M-127 0l719 1462h921l-61 -295h-322l-55 -264h297l-63 -295h-297l-66 -309h322l-64 -299h-659l61 285h-231l-133 -285h-369zM510 584h160l123 583h-19z" />
    <glyph glyph-name="Ccedilla" unicode="&#xc7;" horiz-adv-x="965" 
d="M446 -20q-123 0 -207 58t-126.5 163.5t-42.5 247.5q0 145 29.5 292t86 280t138 237.5t186 164.5t229.5 60q92 0 184 -23t169 -82l-160 -270q-49 38 -92 57t-86 19q-67 0 -119.5 -56t-90.5 -144.5t-63 -188t-37 -188t-12 -142.5q0 -100 28.5 -142t80.5 -42
q68 0 133.5 22.5t128.5 54.5v-303q-79 -40 -175 -57.5t-182 -17.5zM361 -492q-43 0 -85 5t-83 18v180q25 -6 55.5 -11t58.5 -5q27 0 45.5 7.5t27.5 23t9 38.5q0 29 -26.5 47.5t-77.5 18.5l100 170h156l-41 -70q62 -9 103.5 -50.5t41.5 -115.5q0 -96 -38.5 -152t-103 -80
t-142.5 -24z" />
    <glyph glyph-name="Egrave" unicode="&#xc8;" horiz-adv-x="858" 
d="M-10 0l309 1462h664l-62 -295h-321l-58 -264h299l-63 -295h-297l-68 -309h324l-64 -299h-663zM542 1579q-24 34 -62.5 93t-74.5 119t-55 97v19h364q9 -39 20 -85t26 -99.5t34 -116.5l-2 -27h-250z" />
    <glyph glyph-name="Eacute" unicode="&#xc9;" horiz-adv-x="858" 
d="M-10 0l309 1462h664l-62 -295h-321l-58 -264h299l-63 -295h-297l-68 -309h324l-64 -299h-663zM467 1579l6 23q37 50 72.5 100t70 101t66.5 104h363l-2 -17q-23 -24 -69.5 -67.5t-99.5 -93t-97.5 -91t-65.5 -59.5h-244z" />
    <glyph glyph-name="Ecircumflex" unicode="&#xca;" horiz-adv-x="858" 
d="M-10 0l309 1462h664l-62 -295h-321l-58 -264h299l-63 -295h-297l-68 -309h324l-64 -299h-663zM329 1579l4 25q44 45 85.5 94t81.5 101.5t79 107.5h297q10 -40 28 -93.5t40.5 -108t42.5 -97.5l-6 -29h-203q-14 17 -29.5 37.5t-31 45t-31.5 52.5q-45 -46 -80.5 -79.5
t-63.5 -55.5h-213z" />
    <glyph glyph-name="Edieresis" unicode="&#xcb;" horiz-adv-x="858" 
d="M-10 0l309 1462h664l-62 -295h-321l-58 -264h299l-63 -295h-297l-68 -309h324l-64 -299h-663zM841 1595q-62 0 -95.5 29t-33.5 86q0 77 48.5 138t140.5 61q56 0 87.5 -29.5t31.5 -83.5q0 -91 -54.5 -146t-124.5 -55zM452 1595q-63 0 -95 29t-32 86q0 77 48.5 138
t140.5 61q36 0 62 -13t40.5 -38.5t14.5 -61.5q0 -91 -54 -146t-125 -55z" />
    <glyph glyph-name="Igrave" unicode="&#xcc;" horiz-adv-x="557" 
d="M-12 0l311 1462h342l-311 -1462h-342zM426 1618q-24 34 -62.5 93t-74.5 119t-55 97v19h364q9 -39 20 -85t26 -99.5t34 -116.5l-2 -27h-250z" />
    <glyph glyph-name="Iacute" unicode="&#xcd;" horiz-adv-x="557" 
d="M-12 0l311 1462h342l-311 -1462h-342zM325 1618l6 23q37 50 72.5 100t70 101t66.5 104h363l-2 -17q-23 -24 -69.5 -67.5t-99.5 -93t-97.5 -91t-65.5 -59.5h-244z" />
    <glyph glyph-name="Icircumflex" unicode="&#xce;" horiz-adv-x="557" 
d="M-12 0l311 1462h342l-311 -1462h-342zM163 1618l4 25q44 45 85.5 94t81.5 101.5t79 107.5h297q10 -40 28 -93.5t40.5 -108t42.5 -97.5l-6 -29h-203q-14 17 -29.5 37.5t-31 45t-31.5 52.5q-45 -46 -80.5 -79.5t-63.5 -55.5h-213z" />
    <glyph glyph-name="Idieresis" unicode="&#xcf;" horiz-adv-x="557" 
d="M-12 0l311 1462h342l-311 -1462h-342zM704 1634q-62 0 -95.5 29t-33.5 86q0 77 48.5 138t140.5 61q56 0 87.5 -29.5t31.5 -83.5q0 -91 -54.5 -146t-124.5 -55zM315 1634q-63 0 -95 29t-32 86q0 77 48.5 138t140.5 61q36 0 62 -13t40.5 -38.5t14.5 -61.5q0 -91 -54 -146
t-125 -55z" />
    <glyph glyph-name="Eth" unicode="&#xd0;" horiz-adv-x="1112" 
d="M-10 0l133 631h-109l56 256h108l121 575h336q235 0 357 -124t122 -341q0 -142 -29.5 -284.5t-88.5 -270.5t-148.5 -227.5t-210 -157t-272.5 -57.5h-375zM395 303h21q76 0 132.5 49t96 127.5t63.5 168t35 173t11 140.5q0 103 -37 151.5t-111 48.5h-28l-60 -274h129
l-53 -256h-131z" />
    <glyph glyph-name="Ntilde" unicode="&#xd1;" horiz-adv-x="1239" 
d="M-10 0l309 1462h379l151 -835h7q8 54 16.5 106.5t17 99.5t15.5 82l116 547h322l-309 -1462h-381l-152 862h-4q-7 -48 -13.5 -92t-12.5 -83t-12 -72.5t-11 -59.5l-119 -555h-319zM479 1575q18 92 46 170t77 125t129 47q51 0 86 -14.5t61 -33.5t48 -33.5t45 -14.5
q25 0 42 22t29 76h183q-20 -129 -61.5 -203.5t-92.5 -106.5t-102 -32q-49 0 -83.5 14.5t-60.5 33.5t-48 33.5t-46 14.5q-18 0 -38 -21t-31 -77h-183z" />
    <glyph glyph-name="Ograve" unicode="&#xd2;" horiz-adv-x="1176" 
d="M498 -20q-145 0 -239.5 52.5t-140.5 162t-46 280.5q0 115 20 234t59.5 232.5t97.5 211.5t134 173t169.5 117t203.5 42q221 0 320.5 -125.5t99.5 -368.5q0 -98 -16.5 -210.5t-51.5 -226t-89 -216.5t-129.5 -183.5t-173 -127.5t-218.5 -47zM522 285q47 0 87.5 36t73.5 96.5
t58.5 136.5t42.5 156.5t26 156t9 134.5q0 94 -24 139.5t-68 45.5q-47 0 -87 -35.5t-73.5 -96t-58.5 -135.5t-42.5 -155.5t-26.5 -155.5t-9 -135q0 -77 10.5 -117.5t31.5 -55.5t50 -15zM677 1579q-24 34 -62.5 93t-74.5 119t-55 97v19h364q9 -39 20 -85t26 -99.5t34 -116.5
l-2 -27h-250z" />
    <glyph glyph-name="Oacute" unicode="&#xd3;" horiz-adv-x="1176" 
d="M498 -20q-145 0 -239.5 52.5t-140.5 162t-46 280.5q0 115 20 234t59.5 232.5t97.5 211.5t134 173t169.5 117t203.5 42q221 0 320.5 -125.5t99.5 -368.5q0 -98 -16.5 -210.5t-51.5 -226t-89 -216.5t-129.5 -183.5t-173 -127.5t-218.5 -47zM522 285q47 0 87.5 36t73.5 96.5
t58.5 136.5t42.5 156.5t26 156t9 134.5q0 94 -24 139.5t-68 45.5q-47 0 -87 -35.5t-73.5 -96t-58.5 -135.5t-42.5 -155.5t-26.5 -155.5t-9 -135q0 -77 10.5 -117.5t31.5 -55.5t50 -15zM604 1579l6 23q37 50 72.5 100t70 101t66.5 104h363l-2 -17q-23 -24 -69.5 -67.5
t-99.5 -93t-97.5 -91t-65.5 -59.5h-244z" />
    <glyph glyph-name="Ocircumflex" unicode="&#xd4;" horiz-adv-x="1176" 
d="M498 -20q-145 0 -239.5 52.5t-140.5 162t-46 280.5q0 115 20 234t59.5 232.5t97.5 211.5t134 173t169.5 117t203.5 42q221 0 320.5 -125.5t99.5 -368.5q0 -98 -16.5 -210.5t-51.5 -226t-89 -216.5t-129.5 -183.5t-173 -127.5t-218.5 -47zM522 285q47 0 87.5 36t73.5 96.5
t58.5 136.5t42.5 156.5t26 156t9 134.5q0 94 -24 139.5t-68 45.5q-47 0 -87 -35.5t-73.5 -96t-58.5 -135.5t-42.5 -155.5t-26.5 -155.5t-9 -135q0 -77 10.5 -117.5t31.5 -55.5t50 -15zM440 1579l4 25q44 45 85.5 94t81.5 101.5t79 107.5h297q10 -40 28 -93.5t40.5 -108
t42.5 -97.5l-6 -29h-203q-14 17 -29.5 37.5t-31 45t-31.5 52.5q-45 -46 -80.5 -79.5t-63.5 -55.5h-213z" />
    <glyph glyph-name="Otilde" unicode="&#xd5;" horiz-adv-x="1176" 
d="M498 -20q-145 0 -239.5 52.5t-140.5 162t-46 280.5q0 115 20 234t59.5 232.5t97.5 211.5t134 173t169.5 117t203.5 42q221 0 320.5 -125.5t99.5 -368.5q0 -98 -16.5 -210.5t-51.5 -226t-89 -216.5t-129.5 -183.5t-173 -127.5t-218.5 -47zM522 285q47 0 87.5 36t73.5 96.5
t58.5 136.5t42.5 156.5t26 156t9 134.5q0 94 -24 139.5t-68 45.5q-47 0 -87 -35.5t-73.5 -96t-58.5 -135.5t-42.5 -155.5t-26.5 -155.5t-9 -135q0 -77 10.5 -117.5t31.5 -55.5t50 -15zM456 1575q18 92 46 170t77 125t129 47q51 0 86 -14.5t61 -33.5t48 -33.5t45 -14.5
q25 0 42 22t29 76h183q-20 -129 -61.5 -203.5t-92.5 -106.5t-102 -32q-49 0 -83.5 14.5t-60.5 33.5t-48 33.5t-46 14.5q-18 0 -38 -21t-31 -77h-183z" />
    <glyph glyph-name="Odieresis" unicode="&#xd6;" horiz-adv-x="1176" 
d="M498 -20q-145 0 -239.5 52.5t-140.5 162t-46 280.5q0 115 20 234t59.5 232.5t97.5 211.5t134 173t169.5 117t203.5 42q221 0 320.5 -125.5t99.5 -368.5q0 -98 -16.5 -210.5t-51.5 -226t-89 -216.5t-129.5 -183.5t-173 -127.5t-218.5 -47zM522 285q47 0 87.5 36t73.5 96.5
t58.5 136.5t42.5 156.5t26 156t9 134.5q0 94 -24 139.5t-68 45.5q-47 0 -87 -35.5t-73.5 -96t-58.5 -135.5t-42.5 -155.5t-26.5 -155.5t-9 -135q0 -77 10.5 -117.5t31.5 -55.5t50 -15zM976 1595q-62 0 -95.5 29t-33.5 86q0 77 48.5 138t140.5 61q56 0 87.5 -29.5t31.5 -83.5
q0 -91 -54.5 -146t-124.5 -55zM587 1595q-63 0 -95 29t-32 86q0 77 48.5 138t140.5 61q36 0 62 -13t40.5 -38.5t14.5 -61.5q0 -91 -54 -146t-125 -55z" />
    <glyph glyph-name="multiply" unicode="&#xd7;" horiz-adv-x="1024" 
d="M782 1159l189 -182l-254 -254l250 -252l-185 -184l-254 250l-252 -248l-178 186l244 248l-246 248l180 188l252 -246z" />
    <glyph glyph-name="Oslash" unicode="&#xd8;" horiz-adv-x="1176" 
d="M176 -117l-147 86l114 176q-37 59 -54 141.5t-17 188.5q0 115 20 234t59.5 232.5t97.5 211.5t134 173t169.5 117t203.5 42q71 0 129 -13.5t104 -37.5l80 122l148 -86l-107 -161q34 -60 50 -140t16 -178t-16.5 -210.5t-51.5 -226t-89 -216.5t-129.5 -183.5t-173 -127.5
t-218.5 -47q-69 0 -126 11t-104 36zM522 285q37 0 70 22.5t61 61.5t52 91t42.5 111.5t32.5 122.5t23 123q3 16 5 30t3 27l-358 -550q12 -22 29.5 -30.5t39.5 -8.5zM434 567l367 561q-13 29 -31 43.5t-43 14.5q-37 0 -69.5 -22.5t-61 -62.5t-53 -92.5t-43.5 -113t-33 -123
t-23 -123.5q-3 -21 -5.5 -41.5t-4.5 -40.5z" />
    <glyph glyph-name="Ugrave" unicode="&#xd9;" horiz-adv-x="1114" 
d="M451 -20q-118 0 -203 42.5t-130.5 122.5t-45.5 191q0 35 5.5 81.5t14.5 92.5l203 952h342l-203 -958q-7 -31 -10.5 -59t-3.5 -50q0 -58 19.5 -84t58.5 -26q40 0 69.5 21t51 69.5t38.5 130.5l205 956h342l-215 -1009q-32 -155 -99 -260.5t-174.5 -159t-264.5 -53.5z
M659 1579q-24 34 -62.5 93t-74.5 119t-55 97v19h364q9 -39 20 -85t26 -99.5t34 -116.5l-2 -27h-250z" />
    <glyph glyph-name="Uacute" unicode="&#xda;" horiz-adv-x="1114" 
d="M451 -20q-118 0 -203 42.5t-130.5 122.5t-45.5 191q0 35 5.5 81.5t14.5 92.5l203 952h342l-203 -958q-7 -31 -10.5 -59t-3.5 -50q0 -58 19.5 -84t58.5 -26q40 0 69.5 21t51 69.5t38.5 130.5l205 956h342l-215 -1009q-32 -155 -99 -260.5t-174.5 -159t-264.5 -53.5z
M606 1579l6 23q37 50 72.5 100t70 101t66.5 104h363l-2 -17q-23 -24 -69.5 -67.5t-99.5 -93t-97.5 -91t-65.5 -59.5h-244z" />
    <glyph glyph-name="Ucircumflex" unicode="&#xdb;" horiz-adv-x="1114" 
d="M451 -20q-118 0 -203 42.5t-130.5 122.5t-45.5 191q0 35 5.5 81.5t14.5 92.5l203 952h342l-203 -958q-7 -31 -10.5 -59t-3.5 -50q0 -58 19.5 -84t58.5 -26q40 0 69.5 21t51 69.5t38.5 130.5l205 956h342l-215 -1009q-32 -155 -99 -260.5t-174.5 -159t-264.5 -53.5z
M438 1579l4 25q44 45 85.5 94t81.5 101.5t79 107.5h297q10 -40 28 -93.5t40.5 -108t42.5 -97.5l-6 -29h-203q-14 17 -29.5 37.5t-31 45t-31.5 52.5q-45 -46 -80.5 -79.5t-63.5 -55.5h-213z" />
    <glyph glyph-name="Udieresis" unicode="&#xdc;" horiz-adv-x="1114" 
d="M451 -20q-118 0 -203 42.5t-130.5 122.5t-45.5 191q0 35 5.5 81.5t14.5 92.5l203 952h342l-203 -958q-7 -31 -10.5 -59t-3.5 -50q0 -58 19.5 -84t58.5 -26q40 0 69.5 21t51 69.5t38.5 130.5l205 956h342l-215 -1009q-32 -155 -99 -260.5t-174.5 -159t-264.5 -53.5z
M964 1595q-62 0 -95.5 29t-33.5 86q0 77 48.5 138t140.5 61q56 0 87.5 -29.5t31.5 -83.5q0 -91 -54.5 -146t-124.5 -55zM575 1595q-63 0 -95 29t-32 86q0 77 48.5 138t140.5 61q36 0 62 -13t40.5 -38.5t14.5 -61.5q0 -91 -54 -146t-125 -55z" />
    <glyph glyph-name="Yacute" unicode="&#xdd;" horiz-adv-x="1001" 
d="M211 0l115 549l-136 913h357l39 -469l237 469h367l-518 -901l-119 -561h-342zM549 1579l6 23q37 50 72.5 100t70 101t66.5 104h363l-2 -17q-23 -24 -69.5 -67.5t-99.5 -93t-97.5 -91t-65.5 -59.5h-244z" />
    <glyph glyph-name="Thorn" unicode="&#xde;" horiz-adv-x="987" 
d="M-10 0l309 1462h342l-45 -213h16q139 0 225 -43.5t126.5 -122t40.5 -184.5q0 -105 -30 -215.5t-94.5 -203.5t-166 -150.5t-244.5 -57.5h-80l-57 -272h-342zM451 567h26q54 0 93 37t60 102t21 148q0 60 -24.5 80t-73.5 20h-18z" />
    <glyph glyph-name="germandbls" unicode="&#xdf;" horiz-adv-x="1122" 
d="M-106 -492q-37 0 -74 4t-78 19v285q19 -10 51.5 -15.5t50.5 -5.5q47 0 74 29t43 110l246 1166q30 140 96 245t169.5 163.5t244.5 58.5q198 0 301.5 -85t103.5 -220q0 -64 -14 -115.5t-43 -96t-74 -87.5q-55 -48 -99 -89t-44 -112q0 -15 7 -33.5t21.5 -39t36.5 -44.5
q53 -54 86 -111t33 -157q0 -121 -55.5 -210t-151.5 -138t-219 -49q-67 0 -130.5 13t-119.5 48l64 305q49 -47 99.5 -64.5t90.5 -17.5q41 0 59.5 23.5t18.5 54.5q0 22 -9 40t-31 46.5t-62 79.5q-48 59 -66 102.5t-18 100.5q0 52 19.5 101.5t54.5 96t83 90.5q38 34 65.5 64
t42.5 63.5t15 77.5q0 35 -19 60.5t-61 25.5q-44 0 -77 -26t-57 -77t-42 -128l-245 -1151q-27 -128 -70.5 -217.5t-118.5 -136t-198 -46.5z" />
    <glyph glyph-name="agrave" unicode="&#xe0;" horiz-adv-x="997" 
d="M264 -20q-72 0 -125 41.5t-81.5 117.5t-28.5 180q0 87 17 197t51.5 221.5t87.5 206t126 152t166 57.5q43 0 81.5 -15t70 -49t51.5 -92h6l53 136h287l-242 -1133h-266l-8 135h-8q-35 -44 -69.5 -79t-75 -55.5t-93.5 -20.5zM412 256q44 0 75.5 47.5t52.5 114.5t33 125
q22 95 27.5 140.5t5.5 74.5q0 57 -15 83.5t-46 26.5t-58.5 -37t-49.5 -96t-37.5 -126.5t-24 -130.5t-8.5 -107q0 -57 11.5 -86t33.5 -29zM534 1253q-24 34 -62.5 93t-74.5 119t-55 97v19h364q9 -39 20 -85t26 -99.5t34 -116.5l-2 -27h-250z" />
    <glyph glyph-name="aacute" unicode="&#xe1;" horiz-adv-x="997" 
d="M264 -20q-72 0 -125 41.5t-81.5 117.5t-28.5 180q0 87 17 197t51.5 221.5t87.5 206t126 152t166 57.5q43 0 81.5 -15t70 -49t51.5 -92h6l53 136h287l-242 -1133h-266l-8 135h-8q-35 -44 -69.5 -79t-75 -55.5t-93.5 -20.5zM412 256q44 0 75.5 47.5t52.5 114.5t33 125
q22 95 27.5 140.5t5.5 74.5q0 57 -15 83.5t-46 26.5t-58.5 -37t-49.5 -96t-37.5 -126.5t-24 -130.5t-8.5 -107q0 -57 11.5 -86t33.5 -29zM448 1253l6 23q37 50 72.5 100t70 101t66.5 104h363l-2 -17q-23 -24 -69.5 -67.5t-99.5 -93t-97.5 -91t-65.5 -59.5h-244z" />
    <glyph glyph-name="acircumflex" unicode="&#xe2;" horiz-adv-x="997" 
d="M264 -20q-72 0 -125 41.5t-81.5 117.5t-28.5 180q0 87 17 197t51.5 221.5t87.5 206t126 152t166 57.5q43 0 81.5 -15t70 -49t51.5 -92h6l53 136h287l-242 -1133h-266l-8 135h-8q-35 -44 -69.5 -79t-75 -55.5t-93.5 -20.5zM412 256q44 0 75.5 47.5t52.5 114.5t33 125
q22 95 27.5 140.5t5.5 74.5q0 57 -15 83.5t-46 26.5t-58.5 -37t-49.5 -96t-37.5 -126.5t-24 -130.5t-8.5 -107q0 -57 11.5 -86t33.5 -29zM325 1253l4 25q44 45 85.5 94t81.5 101.5t79 107.5h297q10 -40 28 -93.5t40.5 -108t42.5 -97.5l-6 -29h-203q-14 17 -29.5 37.5t-31 45
t-31.5 52.5q-45 -46 -80.5 -79.5t-63.5 -55.5h-213z" />
    <glyph glyph-name="atilde" unicode="&#xe3;" horiz-adv-x="997" 
d="M264 -20q-72 0 -125 41.5t-81.5 117.5t-28.5 180q0 87 17 197t51.5 221.5t87.5 206t126 152t166 57.5q43 0 81.5 -15t70 -49t51.5 -92h6l53 136h287l-242 -1133h-266l-8 135h-8q-35 -44 -69.5 -79t-75 -55.5t-93.5 -20.5zM412 256q44 0 75.5 47.5t52.5 114.5t33 125
q22 95 27.5 140.5t5.5 74.5q0 57 -15 83.5t-46 26.5t-58.5 -37t-49.5 -96t-37.5 -126.5t-24 -130.5t-8.5 -107q0 -57 11.5 -86t33.5 -29zM313 1249q18 92 46 170t77 125t129 47q51 0 86 -14.5t61 -33.5t48 -33.5t45 -14.5q25 0 42 22t29 76h183q-20 -129 -61.5 -203.5
t-92.5 -106.5t-102 -32q-49 0 -83.5 14.5t-60.5 33.5t-48 33.5t-46 14.5q-18 0 -38 -21t-31 -77h-183z" />
    <glyph glyph-name="adieresis" unicode="&#xe4;" horiz-adv-x="997" 
d="M264 -20q-72 0 -125 41.5t-81.5 117.5t-28.5 180q0 87 17 197t51.5 221.5t87.5 206t126 152t166 57.5q43 0 81.5 -15t70 -49t51.5 -92h6l53 136h287l-242 -1133h-266l-8 135h-8q-35 -44 -69.5 -79t-75 -55.5t-93.5 -20.5zM412 256q44 0 75.5 47.5t52.5 114.5t33 125
q22 95 27.5 140.5t5.5 74.5q0 57 -15 83.5t-46 26.5t-58.5 -37t-49.5 -96t-37.5 -126.5t-24 -130.5t-8.5 -107q0 -57 11.5 -86t33.5 -29zM856 1269q-62 0 -95.5 29t-33.5 86q0 77 48.5 138t140.5 61q56 0 87.5 -29.5t31.5 -83.5q0 -91 -54.5 -146t-124.5 -55zM467 1269
q-63 0 -95 29t-32 86q0 77 48.5 138t140.5 61q36 0 62 -13t40.5 -38.5t14.5 -61.5q0 -91 -54 -146t-125 -55z" />
    <glyph glyph-name="aring" unicode="&#xe5;" horiz-adv-x="997" 
d="M264 -20q-72 0 -125 41.5t-81.5 117.5t-28.5 180q0 87 17 197t51.5 221.5t87.5 206t126 152t166 57.5q43 0 81.5 -15t70 -49t51.5 -92h6l53 136h287l-242 -1133h-266l-8 135h-8q-35 -44 -69.5 -79t-75 -55.5t-93.5 -20.5zM412 256q44 0 75.5 47.5t52.5 114.5t33 125
q22 95 27.5 140.5t5.5 74.5q0 57 -15 83.5t-46 26.5t-58.5 -37t-49.5 -96t-37.5 -126.5t-24 -130.5t-8.5 -107q0 -57 11.5 -86t33.5 -29zM678 1239q-121 0 -188.5 68.5t-67.5 183.5q0 112 69.5 180t186.5 68q106 0 180 -67t74 -177q0 -112 -68 -184t-186 -72zM678 1399
q40 0 65 24.5t25 65.5q0 40 -24.5 66t-65.5 26q-43 0 -67.5 -26t-24.5 -66q0 -41 22 -65.5t70 -24.5z" />
    <glyph glyph-name="ae" unicode="&#xe6;" horiz-adv-x="1450" 
d="M246 -20q-63 0 -112 41.5t-77 117.5t-28 180q0 106 18.5 221.5t55.5 224.5t91 196.5t125 139.5t158 52q38 0 77 -11.5t73 -37.5t55 -68h2l25 97h227l-6 -56q40 31 90 52.5t127 21.5q134 0 212.5 -82.5t78.5 -210.5q0 -103 -40 -178t-113.5 -123.5t-174 -72t-221.5 -23.5
h-21q-3 -17 -4.5 -34.5t-1.5 -31.5q0 -84 32.5 -117.5t96.5 -33.5q72 0 144.5 23t169.5 77l-60 -276q-86 -51 -159 -69.5t-162 -18.5q-74 0 -118.5 18t-66.5 43l-10 -41h-227l18 125h-6q-36 -43 -78 -75.5t-89.5 -51t-100.5 -18.5zM412 256q37 0 64 30.5t46 76.5t31.5 95
t19.5 85q22 95 27.5 140.5t5.5 74.5q0 57 -15 83.5t-46 26.5q-28 0 -54 -33t-48.5 -87t-39.5 -120t-26.5 -133t-9.5 -124t11.5 -86t33.5 -29zM918 694h4q89 0 136 17.5t64 47.5t17 66q0 31 -20.5 50.5t-51.5 19.5q-43 0 -72.5 -35t-48 -82.5t-28.5 -83.5z" />
    <glyph glyph-name="ccedilla" unicode="&#xe7;" horiz-adv-x="815" 
d="M362 -20q-104 0 -176.5 45t-110.5 128t-38 195q0 102 18.5 213.5t58.5 216.5t105 190t157 135t214 50q84 0 154 -22t133 -66l-134 -258q-31 28 -71.5 45.5t-77.5 17.5q-62 0 -104.5 -53.5t-67.5 -132.5t-36 -157.5t-11 -127.5q0 -45 8 -75.5t25 -46t43 -15.5
q46 0 102.5 24.5t122.5 73.5v-278q-55 -41 -140.5 -71.5t-173.5 -30.5zM252 -492q-43 0 -85 5t-83 18v180q25 -6 55.5 -11t58.5 -5q27 0 45.5 7.5t27.5 23t9 38.5q0 29 -26.5 47.5t-77.5 18.5l100 170h156l-41 -70q62 -9 103.5 -50.5t41.5 -115.5q0 -96 -38.5 -152t-103 -80
t-142.5 -24z" />
    <glyph glyph-name="egrave" unicode="&#xe8;" horiz-adv-x="944" 
d="M408 -20q-116 0 -199.5 45.5t-128.5 131t-45 203.5q0 133 32 272t101 256.5t178 190t262 72.5q143 0 233.5 -79.5t90.5 -213.5q0 -103 -40 -178t-113 -123.5t-173.5 -72t-222.5 -23.5h-21q-3 -17 -4.5 -34.5t-1.5 -31.5q0 -84 32 -117.5t95 -33.5q74 0 134 17t145 65
v-244q-91 -60 -178 -81t-176 -21zM412 694h4q87 0 134 17t65 47t18 67q0 31 -20.5 50.5t-51.5 19.5q-28 0 -55 -20.5t-50.5 -65t-43.5 -115.5zM542 1241q-24 34 -62.5 93t-74.5 119t-55 97v19h364q9 -39 20 -85t26 -99.5t34 -116.5l-2 -27h-250z" />
    <glyph glyph-name="eacute" unicode="&#xe9;" horiz-adv-x="944" 
d="M408 -20q-116 0 -199.5 45.5t-128.5 131t-45 203.5q0 133 32 272t101 256.5t178 190t262 72.5q143 0 233.5 -79.5t90.5 -213.5q0 -103 -40 -178t-113 -123.5t-173.5 -72t-222.5 -23.5h-21q-3 -17 -4.5 -34.5t-1.5 -31.5q0 -84 32 -117.5t95 -33.5q74 0 134 17t145 65
v-244q-91 -60 -178 -81t-176 -21zM412 694h4q87 0 134 17t65 47t18 67q0 31 -20.5 50.5t-51.5 19.5q-28 0 -55 -20.5t-50.5 -65t-43.5 -115.5zM420 1241l6 23q37 50 72.5 100t70 101t66.5 104h363l-2 -17q-23 -24 -69.5 -67.5t-99.5 -93t-97.5 -91t-65.5 -59.5h-244z" />
    <glyph glyph-name="ecircumflex" unicode="&#xea;" horiz-adv-x="944" 
d="M408 -20q-116 0 -199.5 45.5t-128.5 131t-45 203.5q0 133 32 272t101 256.5t178 190t262 72.5q143 0 233.5 -79.5t90.5 -213.5q0 -103 -40 -178t-113 -123.5t-173.5 -72t-222.5 -23.5h-21q-3 -17 -4.5 -34.5t-1.5 -31.5q0 -84 32 -117.5t95 -33.5q74 0 134 17t145 65
v-244q-91 -60 -178 -81t-176 -21zM412 694h4q87 0 134 17t65 47t18 67q0 31 -20.5 50.5t-51.5 19.5q-28 0 -55 -20.5t-50.5 -65t-43.5 -115.5zM295 1241l4 25q44 45 85.5 94t81.5 101.5t79 107.5h297q10 -40 28 -93.5t40.5 -108t42.5 -97.5l-6 -29h-203q-14 17 -29.5 37.5
t-31 45t-31.5 52.5q-45 -46 -80.5 -79.5t-63.5 -55.5h-213z" />
    <glyph glyph-name="edieresis" unicode="&#xeb;" horiz-adv-x="944" 
d="M408 -20q-116 0 -199.5 45.5t-128.5 131t-45 203.5q0 133 32 272t101 256.5t178 190t262 72.5q143 0 233.5 -79.5t90.5 -213.5q0 -103 -40 -178t-113 -123.5t-173.5 -72t-222.5 -23.5h-21q-3 -17 -4.5 -34.5t-1.5 -31.5q0 -84 32 -117.5t95 -33.5q74 0 134 17t145 65
v-244q-91 -60 -178 -81t-176 -21zM412 694h4q87 0 134 17t65 47t18 67q0 31 -20.5 50.5t-51.5 19.5q-28 0 -55 -20.5t-50.5 -65t-43.5 -115.5zM825 1257q-62 0 -95.5 29t-33.5 86q0 77 48.5 138t140.5 61q56 0 87.5 -29.5t31.5 -83.5q0 -91 -54.5 -146t-124.5 -55zM436 1257
q-63 0 -95 29t-32 86q0 77 48.5 138t140.5 61q36 0 62 -13t40.5 -38.5t14.5 -61.5q0 -91 -54 -146t-125 -55z" />
    <glyph glyph-name="igrave" unicode="&#xec;" horiz-adv-x="516" 
d="M-25 0l242 1133h326l-240 -1133h-328zM294 1241q-24 34 -62.5 93t-74.5 119t-55 97v19h364q9 -39 20 -85t26 -99.5t34 -116.5l-2 -27h-250z" />
    <glyph glyph-name="iacute" unicode="&#xed;" horiz-adv-x="516" 
d="M-25 0l242 1133h326l-240 -1133h-328zM219 1241l6 23q37 50 72.5 100t70 101t66.5 104h363l-2 -17q-23 -24 -69.5 -67.5t-99.5 -93t-97.5 -91t-65.5 -59.5h-244z" />
    <glyph glyph-name="icircumflex" unicode="&#xee;" horiz-adv-x="516" 
d="M-25 0l242 1133h326l-240 -1133h-328zM65 1241l4 25q44 45 85.5 94t81.5 101.5t79 107.5h297q10 -40 28 -93.5t40.5 -108t42.5 -97.5l-6 -29h-203q-14 17 -29.5 37.5t-31 45t-31.5 52.5q-45 -46 -80.5 -79.5t-63.5 -55.5h-213z" />
    <glyph glyph-name="idieresis" unicode="&#xef;" horiz-adv-x="516" 
d="M-25 0l242 1133h326l-240 -1133h-328zM595 1257q-62 0 -95.5 29t-33.5 86q0 77 48.5 138t140.5 61q56 0 87.5 -29.5t31.5 -83.5q0 -91 -54.5 -146t-124.5 -55zM206 1257q-63 0 -95 29t-32 86q0 77 48.5 138t140.5 61q36 0 62 -13t40.5 -38.5t14.5 -61.5q0 -91 -54 -146
t-125 -55z" />
    <glyph glyph-name="eth" unicode="&#xf0;" horiz-adv-x="981" 
d="M389 -20q-117 0 -198 44t-122.5 128t-41.5 204q0 98 29 212t89 215.5t152 166t217 64.5q31 0 61 -10.5t56 -28.5h4q0 47 -7.5 83t-23.5 79l-121 -95l-106 144l143 112q-19 23 -41 46.5t-45 46.5l166 180q37 -25 70.5 -51.5t64.5 -57.5l133 113l113 -145l-139 -113
q38 -63 62.5 -132.5t36 -143.5t11.5 -152q0 -112 -16.5 -237t-55 -244.5t-103 -216t-160.5 -154t-228 -57.5zM426 256q26 0 50.5 24.5t46 65.5t37.5 90.5t25 100t9 94.5q0 27 -4 46.5t-12.5 32t-21 19t-30.5 6.5q-35 0 -65.5 -37.5t-53 -95.5t-35 -120.5t-12.5 -112.5
q0 -55 17 -84t49 -29z" />
    <glyph glyph-name="ntilde" unicode="&#xf1;" horiz-adv-x="1006" 
d="M-27 0l242 1133h262l-4 -132h6q33 48 71.5 82t81.5 52t91 18q61 0 117 -24t92.5 -81.5t36.5 -160.5q0 -31 -4 -70.5t-15 -93.5l-153 -723h-328l133 631q9 44 16 86t7 69q0 34 -12 53t-40 19q-35 0 -62 -37t-47.5 -99t-37.5 -138l-123 -584h-330zM329 1249q18 92 46 170
t77 125t129 47q51 0 86 -14.5t61 -33.5t48 -33.5t45 -14.5q25 0 42 22t29 76h183q-20 -129 -61.5 -203.5t-92.5 -106.5t-102 -32q-49 0 -83.5 14.5t-60.5 33.5t-48 33.5t-46 14.5q-18 0 -38 -21t-31 -77h-183z" />
    <glyph glyph-name="ograve" unicode="&#xf2;" horiz-adv-x="981" 
d="M395 -20q-112 0 -192.5 47t-123 134.5t-42.5 209.5q0 89 18.5 194.5t59 209t105.5 189t157.5 137.5t216.5 52q111 0 189.5 -48.5t120.5 -136t42 -206.5q0 -96 -19.5 -203.5t-60.5 -210t-106 -186t-155.5 -133t-209.5 -49.5zM434 256q32 0 60 36t50.5 94.5t38.5 127
t24.5 134t8.5 114.5q0 38 -6.5 63.5t-20.5 38.5t-38 13q-34 0 -62.5 -36t-51 -94.5t-38.5 -127t-24 -134.5t-8 -116q0 -54 16 -83.5t51 -29.5zM507 1241q-24 34 -62.5 93t-74.5 119t-55 97v19h364q9 -39 20 -85t26 -99.5t34 -116.5l-2 -27h-250z" />
    <glyph glyph-name="oacute" unicode="&#xf3;" horiz-adv-x="981" 
d="M395 -20q-112 0 -192.5 47t-123 134.5t-42.5 209.5q0 89 18.5 194.5t59 209t105.5 189t157.5 137.5t216.5 52q111 0 189.5 -48.5t120.5 -136t42 -206.5q0 -96 -19.5 -203.5t-60.5 -210t-106 -186t-155.5 -133t-209.5 -49.5zM434 256q32 0 60 36t50.5 94.5t38.5 127
t24.5 134t8.5 114.5q0 38 -6.5 63.5t-20.5 38.5t-38 13q-34 0 -62.5 -36t-51 -94.5t-38.5 -127t-24 -134.5t-8 -116q0 -54 16 -83.5t51 -29.5zM456 1241l6 23q37 50 72.5 100t70 101t66.5 104h363l-2 -17q-23 -24 -69.5 -67.5t-99.5 -93t-97.5 -91t-65.5 -59.5h-244z" />
    <glyph glyph-name="ocircumflex" unicode="&#xf4;" horiz-adv-x="981" 
d="M395 -20q-112 0 -192.5 47t-123 134.5t-42.5 209.5q0 89 18.5 194.5t59 209t105.5 189t157.5 137.5t216.5 52q111 0 189.5 -48.5t120.5 -136t42 -206.5q0 -96 -19.5 -203.5t-60.5 -210t-106 -186t-155.5 -133t-209.5 -49.5zM434 256q32 0 60 36t50.5 94.5t38.5 127
t24.5 134t8.5 114.5q0 38 -6.5 63.5t-20.5 38.5t-38 13q-34 0 -62.5 -36t-51 -94.5t-38.5 -127t-24 -134.5t-8 -116q0 -54 16 -83.5t51 -29.5zM284 1241l4 25q44 45 85.5 94t81.5 101.5t79 107.5h297q10 -40 28 -93.5t40.5 -108t42.5 -97.5l-6 -29h-203q-14 17 -29.5 37.5
t-31 45t-31.5 52.5q-45 -46 -80.5 -79.5t-63.5 -55.5h-213z" />
    <glyph glyph-name="otilde" unicode="&#xf5;" horiz-adv-x="981" 
d="M395 -20q-112 0 -192.5 47t-123 134.5t-42.5 209.5q0 89 18.5 194.5t59 209t105.5 189t157.5 137.5t216.5 52q111 0 189.5 -48.5t120.5 -136t42 -206.5q0 -96 -19.5 -203.5t-60.5 -210t-106 -186t-155.5 -133t-209.5 -49.5zM434 256q32 0 60 36t50.5 94.5t38.5 127
t24.5 134t8.5 114.5q0 38 -6.5 63.5t-20.5 38.5t-38 13q-34 0 -62.5 -36t-51 -94.5t-38.5 -127t-24 -134.5t-8 -116q0 -54 16 -83.5t51 -29.5zM286 1237q18 92 46 170t77 125t129 47q51 0 86 -14.5t61 -33.5t48 -33.5t45 -14.5q25 0 42 22t29 76h183q-20 -129 -61.5 -203.5
t-92.5 -106.5t-102 -32q-49 0 -83.5 14.5t-60.5 33.5t-48 33.5t-46 14.5q-18 0 -38 -21t-31 -77h-183z" />
    <glyph glyph-name="odieresis" unicode="&#xf6;" horiz-adv-x="981" 
d="M395 -20q-112 0 -192.5 47t-123 134.5t-42.5 209.5q0 89 18.5 194.5t59 209t105.5 189t157.5 137.5t216.5 52q111 0 189.5 -48.5t120.5 -136t42 -206.5q0 -96 -19.5 -203.5t-60.5 -210t-106 -186t-155.5 -133t-209.5 -49.5zM434 256q32 0 60 36t50.5 94.5t38.5 127
t24.5 134t8.5 114.5q0 38 -6.5 63.5t-20.5 38.5t-38 13q-34 0 -62.5 -36t-51 -94.5t-38.5 -127t-24 -134.5t-8 -116q0 -54 16 -83.5t51 -29.5zM800 1257q-62 0 -95.5 29t-33.5 86q0 77 48.5 138t140.5 61q56 0 87.5 -29.5t31.5 -83.5q0 -91 -54.5 -146t-124.5 -55zM411 1257
q-63 0 -95 29t-32 86q0 77 48.5 138t140.5 61q36 0 62 -13t40.5 -38.5t14.5 -61.5q0 -91 -54 -146t-125 -55z" />
    <glyph glyph-name="divide" unicode="&#xf7;" horiz-adv-x="1024" 
d="M90 588v268h885v-268h-885zM535 141q-76 0 -120 46t-44 130q0 85 42 131t122 46q78 0 118.5 -46t40.5 -131q0 -82 -42 -129t-117 -47zM535 950q-76 0 -120 46t-44 130q0 85 42 131t122 46q78 0 118.5 -46t40.5 -131q0 -82 -42 -129t-117 -47z" />
    <glyph glyph-name="oslash" unicode="&#xf8;" horiz-adv-x="981" 
d="M131 -131l-141 88l110 168q-31 47 -47 108.5t-16 137.5q0 89 18.5 194.5t59 209t105.5 189t157.5 137.5t216.5 52q47 0 89 -9t77 -26l76 115l141 -88l-92 -139q29 -49 45 -110.5t16 -133.5q0 -96 -19.5 -203.5t-60.5 -210t-106 -186t-155.5 -133t-209.5 -49.5
q-47 0 -90 9t-78 25zM430 242q29 0 54.5 22t47 60.5t39.5 86.5t31 101t21 104q2 11 3.5 21.5t2.5 19.5l-254 -385q11 -13 25.5 -21.5t29.5 -8.5zM354 467l258 391q-10 16 -24 24.5t-33 8.5q-25 0 -49 -21.5t-45.5 -59t-40.5 -85t-33.5 -100t-24.5 -103.5q-1 -13 -3.5 -27
t-4.5 -28z" />
    <glyph glyph-name="ugrave" unicode="&#xf9;" horiz-adv-x="1006" 
d="M285 -20q-80 0 -135 32.5t-83 92t-28 141.5q0 35 5.5 78t12.5 88l154 721h328l-133 -629q-10 -46 -15.5 -88t-5.5 -70q0 -34 11 -53t40 -19q35 0 61.5 37t47.5 100t37 140l125 582h327l-239 -1133h-263l5 131h-7q-32 -46 -70.5 -80t-82 -52.5t-92.5 -18.5zM507 1241
q-24 34 -62.5 93t-74.5 119t-55 97v19h364q9 -39 20 -85t26 -99.5t34 -116.5l-2 -27h-250z" />
    <glyph glyph-name="uacute" unicode="&#xfa;" horiz-adv-x="1006" 
d="M285 -20q-80 0 -135 32.5t-83 92t-28 141.5q0 35 5.5 78t12.5 88l154 721h328l-133 -629q-10 -46 -15.5 -88t-5.5 -70q0 -34 11 -53t40 -19q35 0 61.5 37t47.5 100t37 140l125 582h327l-239 -1133h-263l5 131h-7q-32 -46 -70.5 -80t-82 -52.5t-92.5 -18.5zM497 1241l6 23
q37 50 72.5 100t70 101t66.5 104h363l-2 -17q-23 -24 -69.5 -67.5t-99.5 -93t-97.5 -91t-65.5 -59.5h-244z" />
    <glyph glyph-name="ucircumflex" unicode="&#xfb;" horiz-adv-x="1006" 
d="M285 -20q-80 0 -135 32.5t-83 92t-28 141.5q0 35 5.5 78t12.5 88l154 721h328l-133 -629q-10 -46 -15.5 -88t-5.5 -70q0 -34 11 -53t40 -19q35 0 61.5 37t47.5 100t37 140l125 582h327l-239 -1133h-263l5 131h-7q-32 -46 -70.5 -80t-82 -52.5t-92.5 -18.5zM307 1241l4 25
q44 45 85.5 94t81.5 101.5t79 107.5h297q10 -40 28 -93.5t40.5 -108t42.5 -97.5l-6 -29h-203q-14 17 -29.5 37.5t-31 45t-31.5 52.5q-45 -46 -80.5 -79.5t-63.5 -55.5h-213z" />
    <glyph glyph-name="udieresis" unicode="&#xfc;" horiz-adv-x="1006" 
d="M285 -20q-80 0 -135 32.5t-83 92t-28 141.5q0 35 5.5 78t12.5 88l154 721h328l-133 -629q-10 -46 -15.5 -88t-5.5 -70q0 -34 11 -53t40 -19q35 0 61.5 37t47.5 100t37 140l125 582h327l-239 -1133h-263l5 131h-7q-32 -46 -70.5 -80t-82 -52.5t-92.5 -18.5zM825 1257
q-62 0 -95.5 29t-33.5 86q0 77 48.5 138t140.5 61q56 0 87.5 -29.5t31.5 -83.5q0 -91 -54.5 -146t-124.5 -55zM436 1257q-63 0 -95 29t-32 86q0 77 48.5 138t140.5 61q36 0 62 -13t40.5 -38.5t14.5 -61.5q0 -91 -54 -146t-125 -55z" />
    <glyph glyph-name="yacute" unicode="&#xfd;" horiz-adv-x="936" 
d="M33 -492q-51 0 -88 5.5t-68 15.5l60 293q26 -9 47.5 -14t38.5 -5q43 0 66.5 23t45.5 68l62 126l-70 1113h332l2 -445q0 -30 -0.5 -61.5t-1.5 -62.5l-2 -62h6q8 34 19 71t22 69.5t18 51.5l185 439h344l-590 -1260q-49 -103 -105 -186t-132.5 -131t-190.5 -48zM471 1241
l6 23q37 50 72.5 100t70 101t66.5 104h363l-2 -17q-23 -24 -69.5 -67.5t-99.5 -93t-97.5 -91t-65.5 -59.5h-244z" />
    <glyph glyph-name="thorn" unicode="&#xfe;" horiz-adv-x="997" 
d="M-129 -492l434 2051h326l-86 -406q-7 -29 -13 -52.5t-14 -49.5h8q23 30 54 53t70 36t85 13q108 0 172 -83.5t64 -258.5q0 -98 -18.5 -210.5t-55 -222.5t-90.5 -200t-126 -144t-161 -54q-45 0 -83.5 16.5t-67.5 47.5t-47 75h-7q-6 -57 -13.5 -105.5t-12.5 -74.5l-92 -431
h-326zM455 264q31 0 58 36t49 93.5t38 125t24.5 132t8.5 111.5q0 59 -12 87t-33 28q-38 0 -70 -44.5t-56.5 -112.5t-41.5 -140q-13 -60 -20 -115t-7 -90q0 -57 15.5 -84t46.5 -27z" />
    <glyph glyph-name="ydieresis" unicode="&#xff;" horiz-adv-x="936" 
d="M33 -492q-51 0 -88 5.5t-68 15.5l60 293q26 -9 47.5 -14t38.5 -5q43 0 66.5 23t45.5 68l62 126l-70 1113h332l2 -445q0 -30 -0.5 -61.5t-1.5 -62.5l-2 -62h6q8 34 19 71t22 69.5t18 51.5l185 439h344l-590 -1260q-49 -103 -105 -186t-132.5 -131t-190.5 -48zM811 1257
q-62 0 -95.5 29t-33.5 86q0 77 48.5 138t140.5 61q56 0 87.5 -29.5t31.5 -83.5q0 -91 -54.5 -146t-124.5 -55zM422 1257q-63 0 -95 29t-32 86q0 77 48.5 138t140.5 61q36 0 62 -13t40.5 -38.5t14.5 -61.5q0 -91 -54 -146t-125 -55z" />
    <glyph glyph-name="Amacron" unicode="&#x100;" horiz-adv-x="1090" 
d="M-119 0l631 1468h436l23 -1468h-365l8 285h-249l-109 -285h-375zM477 582h156l16 379q2 49 4 97t9 105h-7q-9 -53 -21.5 -99.5t-29.5 -96.5zM473 1624l49 236h576l-49 -236h-576z" />
    <glyph glyph-name="amacron" unicode="&#x101;" horiz-adv-x="997" 
d="M264 -20q-72 0 -125 41.5t-81.5 117.5t-28.5 180q0 87 17 197t51.5 221.5t87.5 206t126 152t166 57.5q43 0 81.5 -15t70 -49t51.5 -92h6l53 136h287l-242 -1133h-266l-8 135h-8q-35 -44 -69.5 -79t-75 -55.5t-93.5 -20.5zM412 256q44 0 75.5 47.5t52.5 114.5t33 125
q22 95 27.5 140.5t5.5 74.5q0 57 -15 83.5t-46 26.5t-58.5 -37t-49.5 -96t-37.5 -126.5t-24 -130.5t-8.5 -107q0 -57 11.5 -86t33.5 -29zM362 1253l49 236h576l-49 -236h-576z" />
    <glyph glyph-name="Abreve" unicode="&#x102;" horiz-adv-x="1090" 
d="M-119 0l631 1468h436l23 -1468h-365l8 285h-249l-109 -285h-375zM477 582h156l16 379q2 49 4 97t9 105h-7q-9 -53 -21.5 -99.5t-29.5 -96.5zM803 1624q-98 0 -157.5 31t-86 86t-26.5 127q0 28 4 60t10 67h199q0 -40 5.5 -72t22 -51t48.5 -19q49 0 83.5 31.5t53.5 110.5
h203q-32 -180 -128.5 -275.5t-230.5 -95.5z" />
    <glyph glyph-name="abreve" unicode="&#x103;" horiz-adv-x="997" 
d="M264 -20q-72 0 -125 41.5t-81.5 117.5t-28.5 180q0 87 17 197t51.5 221.5t87.5 206t126 152t166 57.5q43 0 81.5 -15t70 -49t51.5 -92h6l53 136h287l-242 -1133h-266l-8 135h-8q-35 -44 -69.5 -79t-75 -55.5t-93.5 -20.5zM412 256q44 0 75.5 47.5t52.5 114.5t33 125
q22 95 27.5 140.5t5.5 74.5q0 57 -15 83.5t-46 26.5t-58.5 -37t-49.5 -96t-37.5 -126.5t-24 -130.5t-8.5 -107q0 -57 11.5 -86t33.5 -29zM692 1253q-98 0 -157.5 31t-86 86t-26.5 127q0 28 4 60t10 67h199q0 -40 5.5 -72t22 -51t48.5 -19q49 0 83.5 31.5t53.5 110.5h203
q-32 -180 -128.5 -275.5t-230.5 -95.5z" />
    <glyph glyph-name="Aogonek" unicode="&#x104;" horiz-adv-x="1090" 
d="M-119 0l631 1468h436l23 -1468h-365l8 285h-249l-109 -285h-375zM477 582h156l16 379q2 49 4 97t9 105h-7q-9 -53 -21.5 -99.5t-29.5 -96.5zM684 -492q-98 0 -146 48.5t-48 121.5q0 68 29.5 126t78 106.5t103.5 89.5h194q-48 -50 -77 -89.5t-42.5 -73t-15.5 -66.5
q0 -19 11.5 -28t25.5 -9q15 0 39.5 4t50.5 10l-45 -217q-41 -15 -80.5 -19t-77.5 -4z" />
    <glyph glyph-name="aogonek" unicode="&#x105;" horiz-adv-x="997" 
d="M264 -20q-72 0 -125 41.5t-81.5 117.5t-28.5 180q0 87 17 197t51.5 221.5t87.5 206t126 152t166 57.5q43 0 81.5 -15t70 -49t51.5 -92h6l53 136h287l-242 -1133h-266l-8 135h-8q-35 -44 -69.5 -79t-75 -55.5t-93.5 -20.5zM412 256q44 0 75.5 47.5t52.5 114.5t33 125
q22 95 27.5 140.5t5.5 74.5q0 57 -15 83.5t-46 26.5t-58.5 -37t-49.5 -96t-37.5 -126.5t-24 -130.5t-8.5 -107q0 -57 11.5 -86t33.5 -29zM532 -492q-98 0 -146 48.5t-48 121.5q0 68 29.5 126t78 106.5t103.5 89.5h194q-48 -50 -77 -89.5t-42.5 -73t-15.5 -66.5
q0 -19 11.5 -28t25.5 -9q15 0 39.5 4t50.5 10l-45 -217q-41 -15 -80.5 -19t-77.5 -4z" />
    <glyph glyph-name="Cacute" unicode="&#x106;" horiz-adv-x="965" 
d="M446 -20q-123 0 -207 58t-126.5 163.5t-42.5 247.5q0 145 29.5 292t86 280t138 237.5t186 164.5t229.5 60q92 0 184 -23t169 -82l-160 -270q-49 38 -92 57t-86 19q-67 0 -119.5 -56t-90.5 -144.5t-63 -188t-37 -188t-12 -142.5q0 -100 28.5 -142t80.5 -42
q68 0 133.5 22.5t128.5 54.5v-303q-79 -40 -175 -57.5t-182 -17.5zM602 1579l6 23q37 50 72.5 100t70 101t66.5 104h363l-2 -17q-23 -24 -69.5 -67.5t-99.5 -93t-97.5 -91t-65.5 -59.5h-244z" />
    <glyph glyph-name="cacute" unicode="&#x107;" horiz-adv-x="815" 
d="M362 -20q-104 0 -176.5 45t-110.5 128t-38 195q0 102 18.5 213.5t58.5 216.5t105 190t157 135t214 50q84 0 154 -22t133 -66l-134 -258q-31 28 -71.5 45.5t-77.5 17.5q-62 0 -104.5 -53.5t-67.5 -132.5t-36 -157.5t-11 -127.5q0 -45 8 -75.5t25 -46t43 -15.5
q46 0 102.5 24.5t122.5 73.5v-278q-55 -41 -140.5 -71.5t-173.5 -30.5zM481 1241l6 23q37 50 72.5 100t70 101t66.5 104h363l-2 -17q-23 -24 -69.5 -67.5t-99.5 -93t-97.5 -91t-65.5 -59.5h-244z" />
    <glyph glyph-name="Ccircumflex" unicode="&#x108;" horiz-adv-x="965" 
d="M446 -20q-123 0 -207 58t-126.5 163.5t-42.5 247.5q0 145 29.5 292t86 280t138 237.5t186 164.5t229.5 60q92 0 184 -23t169 -82l-160 -270q-49 38 -92 57t-86 19q-67 0 -119.5 -56t-90.5 -144.5t-63 -188t-37 -188t-12 -142.5q0 -100 28.5 -142t80.5 -42
q68 0 133.5 22.5t128.5 54.5v-303q-79 -40 -175 -57.5t-182 -17.5zM440 1579l4 25q44 45 85.5 94t81.5 101.5t79 107.5h297q10 -40 28 -93.5t40.5 -108t42.5 -97.5l-6 -29h-203q-14 17 -29.5 37.5t-31 45t-31.5 52.5q-45 -46 -80.5 -79.5t-63.5 -55.5h-213z" />
    <glyph glyph-name="ccircumflex" unicode="&#x109;" horiz-adv-x="815" 
d="M362 -20q-104 0 -176.5 45t-110.5 128t-38 195q0 102 18.5 213.5t58.5 216.5t105 190t157 135t214 50q84 0 154 -22t133 -66l-134 -258q-31 28 -71.5 45.5t-77.5 17.5q-62 0 -104.5 -53.5t-67.5 -132.5t-36 -157.5t-11 -127.5q0 -45 8 -75.5t25 -46t43 -15.5
q46 0 102.5 24.5t122.5 73.5v-278q-55 -41 -140.5 -71.5t-173.5 -30.5zM280 1241l4 25q44 45 85.5 94t81.5 101.5t79 107.5h297q10 -40 28 -93.5t40.5 -108t42.5 -97.5l-6 -29h-203q-14 17 -29.5 37.5t-31 45t-31.5 52.5q-45 -46 -80.5 -79.5t-63.5 -55.5h-213z" />
    <glyph glyph-name="Cdot" unicode="&#x10a;" horiz-adv-x="965" 
d="M446 -20q-123 0 -207 58t-126.5 163.5t-42.5 247.5q0 145 29.5 292t86 280t138 237.5t186 164.5t229.5 60q92 0 184 -23t169 -82l-160 -270q-49 38 -92 57t-86 19q-67 0 -119.5 -56t-90.5 -144.5t-63 -188t-37 -188t-12 -142.5q0 -100 28.5 -142t80.5 -42
q68 0 133.5 22.5t128.5 54.5v-303q-79 -40 -175 -57.5t-182 -17.5zM776 1581q-79 0 -118.5 38.5t-39.5 102.5q0 80 51 142.5t154 62.5q54 0 89 -16t52 -48t17 -79q0 -82 -52.5 -142.5t-152.5 -60.5z" />
    <glyph glyph-name="cdot" unicode="&#x10b;" horiz-adv-x="815" 
d="M362 -20q-104 0 -176.5 45t-110.5 128t-38 195q0 102 18.5 213.5t58.5 216.5t105 190t157 135t214 50q84 0 154 -22t133 -66l-134 -258q-31 28 -71.5 45.5t-77.5 17.5q-62 0 -104.5 -53.5t-67.5 -132.5t-36 -157.5t-11 -127.5q0 -45 8 -75.5t25 -46t43 -15.5
q46 0 102.5 24.5t122.5 73.5v-278q-55 -41 -140.5 -71.5t-173.5 -30.5zM627 1243q-79 0 -118.5 38.5t-39.5 102.5q0 80 51 142.5t154 62.5q54 0 89 -16t52 -48t17 -79q0 -82 -52.5 -142.5t-152.5 -60.5z" />
    <glyph glyph-name="Ccaron" unicode="&#x10c;" horiz-adv-x="965" 
d="M446 -20q-123 0 -207 58t-126.5 163.5t-42.5 247.5q0 145 29.5 292t86 280t138 237.5t186 164.5t229.5 60q92 0 184 -23t169 -82l-160 -270q-49 38 -92 57t-86 19q-67 0 -119.5 -56t-90.5 -144.5t-63 -188t-37 -188t-12 -142.5q0 -100 28.5 -142t80.5 -42
q68 0 133.5 22.5t128.5 54.5v-303q-79 -40 -175 -57.5t-182 -17.5zM612 1579q-12 44 -30 96.5t-39 105t-43 97.5l6 29h203q14 -16 29.5 -36.5t31.5 -45t31 -53.5q44 46 79.5 79.5t63.5 55.5h215l-6 -25q-32 -33 -80.5 -90.5t-94 -116t-69.5 -96.5h-297z" />
    <glyph glyph-name="ccaron" unicode="&#x10d;" horiz-adv-x="815" 
d="M362 -20q-104 0 -176.5 45t-110.5 128t-38 195q0 102 18.5 213.5t58.5 216.5t105 190t157 135t214 50q84 0 154 -22t133 -66l-134 -258q-31 28 -71.5 45.5t-77.5 17.5q-62 0 -104.5 -53.5t-67.5 -132.5t-36 -157.5t-11 -127.5q0 -45 8 -75.5t25 -46t43 -15.5
q46 0 102.5 24.5t122.5 73.5v-278q-55 -41 -140.5 -71.5t-173.5 -30.5zM450 1241q-12 44 -30 96.5t-39 105t-43 97.5l6 29h203q14 -16 29.5 -36.5t31.5 -45t31 -53.5q44 46 79.5 79.5t63.5 55.5h215l-6 -25q-32 -33 -80.5 -90.5t-94 -116t-69.5 -96.5h-297z" />
    <glyph glyph-name="Dcaron" unicode="&#x10e;" horiz-adv-x="1112" 
d="M-10 0l309 1462h336q235 0 357 -124t122 -341q0 -137 -27.5 -278t-85 -269.5t-146.5 -230t-211 -160.5t-279 -59h-375zM395 303h21q74 0 130.5 48t96 125t64 166t36 173.5t11.5 145.5q0 103 -37 151.5t-111 48.5h-28zM518 1579q-12 44 -30 96.5t-39 105t-43 97.5l6 29
h203q14 -16 29.5 -36.5t31.5 -45t31 -53.5q44 46 79.5 79.5t63.5 55.5h215l-6 -25q-32 -33 -80.5 -90.5t-94 -116t-69.5 -96.5h-297z" />
    <glyph glyph-name="dcaron" unicode="&#x10f;" horiz-adv-x="1276" 
d="M263 -20q-72 0 -125 41.5t-81.5 117.5t-28.5 180q0 83 17 192t50.5 221t85 207.5t120 154.5t155.5 59q47 0 90 -12.5t77.5 -41t55.5 -75.5h6q4 39 9 73.5t9.5 62t8.5 44.5l75 352h328l-332 -1556h-266l-8 117h-8q-40 -44 -74.5 -74.5t-72.5 -46.5t-91 -16zM411 256
q30 0 56 26t47.5 69.5t38.5 97.5t28.5 110.5t17.5 108.5t6 90q0 57 -15 83.5t-46 26.5q-35 0 -63.5 -41t-50 -105t-35.5 -134t-21.5 -129t-7.5 -88q0 -57 11.5 -86t33.5 -29zM1143 1229v22q20 49 36.5 99t31.5 101.5t28 104.5h307l2 -20q-27 -57 -56 -109t-60 -100.5
t-66 -97.5h-223z" />
    <glyph glyph-name="Dcroat" unicode="&#x110;" horiz-adv-x="1112" 
d="M-10 0l133 631h-109l56 256h108l121 575h336q235 0 357 -124t122 -341q0 -142 -29.5 -284.5t-88.5 -270.5t-148.5 -227.5t-210 -157t-272.5 -57.5h-375zM395 303h21q76 0 132.5 49t96 127.5t63.5 168t35 173t11 140.5q0 103 -37 151.5t-111 48.5h-28l-60 -274h129
l-53 -256h-131z" />
    <glyph glyph-name="dcroat" unicode="&#x111;" horiz-adv-x="997" 
d="M264 -20q-72 0 -125 41.5t-81.5 117.5t-28.5 180q0 83 17 192t50.5 221t85 207.5t120 154.5t155.5 59q47 0 90 -12.5t77.5 -41t55.5 -75.5h6q3 30 6 55.5t6.5 47.5t6.5 40l2 9h-144l49 233h146l30 147h328l-31 -147h111l-51 -233h-111l-250 -1176h-266l-8 117h-8
q-40 -44 -74.5 -74.5t-72.5 -46.5t-91 -16zM412 256q30 0 56 26t47.5 69.5t38.5 97.5t28.5 110.5t17.5 108.5t6 90q0 57 -15 83.5t-46 26.5q-35 0 -63.5 -41t-50 -105t-35.5 -134t-21.5 -129t-7.5 -88q0 -57 11.5 -86t33.5 -29z" />
    <glyph glyph-name="Emacron" unicode="&#x112;" horiz-adv-x="858" 
d="M-10 0l309 1462h664l-62 -295h-321l-58 -264h299l-63 -295h-297l-68 -309h324l-64 -299h-663zM356 1579l49 236h576l-49 -236h-576z" />
    <glyph glyph-name="emacron" unicode="&#x113;" horiz-adv-x="944" 
d="M408 -20q-116 0 -199.5 45.5t-128.5 131t-45 203.5q0 133 32 272t101 256.5t178 190t262 72.5q143 0 233.5 -79.5t90.5 -213.5q0 -103 -40 -178t-113 -123.5t-173.5 -72t-222.5 -23.5h-21q-3 -17 -4.5 -34.5t-1.5 -31.5q0 -84 32 -117.5t95 -33.5q74 0 134 17t145 65
v-244q-91 -60 -178 -81t-176 -21zM412 694h4q87 0 134 17t65 47t18 67q0 31 -20.5 50.5t-51.5 19.5q-28 0 -55 -20.5t-50.5 -65t-43.5 -115.5zM338 1241l49 236h576l-49 -236h-576z" />
    <glyph glyph-name="Ebreve" unicode="&#x114;" horiz-adv-x="858" 
d="M-10 0l309 1462h664l-62 -295h-321l-58 -264h299l-63 -295h-297l-68 -309h324l-64 -299h-663zM704 1579q-98 0 -157.5 31t-86 86t-26.5 127q0 28 4 60t10 67h199q0 -40 5.5 -72t22 -51t48.5 -19q49 0 83.5 31.5t53.5 110.5h203q-32 -180 -128.5 -275.5t-230.5 -95.5z" />
    <glyph glyph-name="ebreve" unicode="&#x115;" horiz-adv-x="944" 
d="M408 -20q-116 0 -199.5 45.5t-128.5 131t-45 203.5q0 133 32 272t101 256.5t178 190t262 72.5q143 0 233.5 -79.5t90.5 -213.5q0 -103 -40 -178t-113 -123.5t-173.5 -72t-222.5 -23.5h-21q-3 -17 -4.5 -34.5t-1.5 -31.5q0 -84 32 -117.5t95 -33.5q74 0 134 17t145 65
v-244q-91 -60 -178 -81t-176 -21zM412 694h4q87 0 134 17t65 47t18 67q0 31 -20.5 50.5t-51.5 19.5q-28 0 -55 -20.5t-50.5 -65t-43.5 -115.5zM704 1241q-98 0 -157.5 31t-86 86t-26.5 127q0 28 4 60t10 67h199q0 -40 5.5 -72t22 -51t48.5 -19q49 0 83.5 31.5t53.5 110.5
h203q-32 -180 -128.5 -275.5t-230.5 -95.5z" />
    <glyph glyph-name="Edotaccent" unicode="&#x116;" horiz-adv-x="858" 
d="M-10 0l309 1462h664l-62 -295h-321l-58 -264h299l-63 -295h-297l-68 -309h324l-64 -299h-663zM641 1552q-79 0 -118.5 38.5t-39.5 102.5q0 80 51 142.5t154 62.5q54 0 89 -16t52 -48t17 -79q0 -82 -52.5 -142.5t-152.5 -60.5z" />
    <glyph glyph-name="edotaccent" unicode="&#x117;" horiz-adv-x="944" 
d="M408 -20q-116 0 -199.5 45.5t-128.5 131t-45 203.5q0 133 32 272t101 256.5t178 190t262 72.5q143 0 233.5 -79.5t90.5 -213.5q0 -103 -40 -178t-113 -123.5t-173.5 -72t-222.5 -23.5h-21q-3 -17 -4.5 -34.5t-1.5 -31.5q0 -84 32 -117.5t95 -33.5q74 0 134 17t145 65
v-244q-91 -60 -178 -81t-176 -21zM412 694h4q87 0 134 17t65 47t18 67q0 31 -20.5 50.5t-51.5 19.5q-28 0 -55 -20.5t-50.5 -65t-43.5 -115.5zM637 1243q-79 0 -118.5 38.5t-39.5 102.5q0 80 51 142.5t154 62.5q54 0 89 -16t52 -48t17 -79q0 -82 -52.5 -142.5t-152.5 -60.5z
" />
    <glyph glyph-name="Eogonek" unicode="&#x118;" horiz-adv-x="858" 
d="M-10 0l309 1462h664l-62 -295h-321l-58 -264h299l-63 -295h-297l-68 -309h324l-64 -299h-663zM397 -492q-98 0 -146 48.5t-48 121.5q0 68 29.5 126t78 106.5t103.5 89.5h194q-48 -50 -77 -89.5t-42.5 -73t-15.5 -66.5q0 -19 11.5 -28t25.5 -9q15 0 39.5 4t50.5 10
l-45 -217q-41 -15 -80.5 -19t-77.5 -4z" />
    <glyph glyph-name="eogonek" unicode="&#x119;" horiz-adv-x="944" 
d="M387 -479q-98 0 -146 48t-48 122q0 68 29.5 125.5t77.5 106t103 89.5l289 33q-87 -48 -136 -96t-70 -90.5t-23 -75.5q0 -19 11.5 -28t25.5 -9q15 0 39.5 4t50.5 10l-45 -217q-42 -15 -81 -18.5t-77 -3.5zM408 -20q-116 0 -199.5 45.5t-128.5 131t-45 203.5q0 133 32 272
t101 256.5t178 190t262 72.5q143 0 233.5 -79.5t90.5 -213.5q0 -103 -40 -178t-113 -123.5t-173.5 -72t-222.5 -23.5h-21q-3 -17 -4.5 -34.5t-1.5 -31.5q0 -84 32 -117.5t95 -33.5q74 0 134 17t145 65v-244q-91 -60 -178 -81t-176 -21zM412 694h4q87 0 134 17t65 47t18 67
q0 31 -20.5 50.5t-51.5 19.5q-28 0 -55 -20.5t-50.5 -65t-43.5 -115.5z" />
    <glyph glyph-name="Ecaron" unicode="&#x11a;" horiz-adv-x="858" 
d="M-10 0l309 1462h664l-62 -295h-321l-58 -264h299l-63 -295h-297l-68 -309h324l-64 -299h-663zM485 1579q-12 44 -30 96.5t-39 105t-43 97.5l6 29h203q14 -16 29.5 -36.5t31.5 -45t31 -53.5q44 46 79.5 79.5t63.5 55.5h215l-6 -25q-32 -33 -80.5 -90.5t-94 -116
t-69.5 -96.5h-297z" />
    <glyph glyph-name="ecaron" unicode="&#x11b;" horiz-adv-x="944" 
d="M408 -20q-116 0 -199.5 45.5t-128.5 131t-45 203.5q0 133 32 272t101 256.5t178 190t262 72.5q143 0 233.5 -79.5t90.5 -213.5q0 -103 -40 -178t-113 -123.5t-173.5 -72t-222.5 -23.5h-21q-3 -17 -4.5 -34.5t-1.5 -31.5q0 -84 32 -117.5t95 -33.5q74 0 134 17t145 65
v-244q-91 -60 -178 -81t-176 -21zM412 694h4q87 0 134 17t65 47t18 67q0 31 -20.5 50.5t-51.5 19.5q-28 0 -55 -20.5t-50.5 -65t-43.5 -115.5zM462 1241q-12 44 -30 96.5t-39 105t-43 97.5l6 29h203q14 -16 29.5 -36.5t31.5 -45t31 -53.5q44 46 79.5 79.5t63.5 55.5h215
l-6 -25q-32 -33 -80.5 -90.5t-94 -116t-69.5 -96.5h-297z" />
    <glyph glyph-name="Gcircumflex" unicode="&#x11c;" horiz-adv-x="1122" 
d="M524 -20q-232 0 -341 125.5t-109 351.5q0 138 28.5 282.5t87 277.5t148.5 238t213 166.5t280 61.5q107 0 202 -26.5t153 -67.5l-146 -289q-55 40 -116.5 62t-126.5 22q-83 0 -150.5 -66.5t-115.5 -172t-73.5 -226t-25.5 -227.5q0 -70 13.5 -117t40.5 -70.5t67 -23.5
q20 0 42.5 3t45.5 9l57 272h-141l59 291h480l-166 -784q-117 -46 -225 -69t-181 -23zM497 1579l4 25q44 45 85.5 94t81.5 101.5t79 107.5h297q10 -40 28 -93.5t40.5 -108t42.5 -97.5l-6 -29h-203q-14 17 -29.5 37.5t-31 45t-31.5 52.5q-45 -46 -80.5 -79.5t-63.5 -55.5h-213
z" />
    <glyph glyph-name="gcircumflex" unicode="&#x11d;" horiz-adv-x="1010" 
d="M254 -492q-205 0 -302 71t-97 198q0 116 74 197.5t200 117.5q-32 14 -58 52.5t-26 92.5q0 69 44 120t110 100q-37 27 -60 91t-23 138q0 124 58.5 235t171.5 172q47 26 107.5 40.5t121.5 14.5q65 0 110 -10.5t72 -18.5h367l-40 -190l-141 -49q4 -16 6 -32.5t2 -34.5
q0 -82 -37 -174.5t-96 -151.5q-61 -60 -146 -89.5t-192 -30.5q-48 0 -66 -1.5t-24 -3.5q-32 -11 -51.5 -36t-19.5 -50q0 -15 21 -19q11 -2 30 -2.5t46 -0.5h202q77 0 131.5 -26.5t83.5 -78.5t29 -129q0 -157 -72 -267.5t-194 -172.5q-72 -35 -158.5 -53.5t-183.5 -18.5z
M267 -250q50 0 95.5 9t82.5 28q44 22 70.5 57t26.5 83q0 8 -4 14t-14 10q-12 5 -34 7t-58 2h-154q-32 0 -58 -29t-41.5 -65.5t-15.5 -61.5q0 -31 26 -42.5t78 -11.5zM477 592q33 0 60 21.5t47.5 65t35.5 107.5q7 30 10.5 53t3.5 39q0 28 -10 38t-31 10q-32 0 -56 -18
t-40.5 -47t-28 -63.5t-19.5 -67.5q-7 -29 -10.5 -51t-3.5 -39q0 -48 42 -48zM347 1254l4 25q44 45 85.5 94t81.5 101.5t79 107.5h297q10 -40 28 -93.5t40.5 -108t42.5 -97.5l-6 -29h-203q-14 17 -29.5 37.5t-31 45t-31.5 52.5q-45 -46 -80.5 -79.5t-63.5 -55.5h-213z" />
    <glyph glyph-name="Gbreve" unicode="&#x11e;" horiz-adv-x="1122" 
d="M524 -20q-232 0 -341 125.5t-109 351.5q0 138 28.5 282.5t87 277.5t148.5 238t213 166.5t280 61.5q107 0 202 -26.5t153 -67.5l-146 -289q-55 40 -116.5 62t-126.5 22q-83 0 -150.5 -66.5t-115.5 -172t-73.5 -226t-25.5 -227.5q0 -70 13.5 -117t40.5 -70.5t67 -23.5
q20 0 42.5 3t45.5 9l57 272h-141l59 291h480l-166 -784q-117 -46 -225 -69t-181 -23zM907 1579q-98 0 -157.5 31t-86 86t-26.5 127q0 28 4 60t10 67h199q0 -40 5.5 -72t22 -51t48.5 -19q49 0 83.5 31.5t53.5 110.5h203q-32 -180 -128.5 -275.5t-230.5 -95.5z" />
    <glyph glyph-name="gbreve" unicode="&#x11f;" horiz-adv-x="1010" 
d="M254 -492q-205 0 -302 71t-97 198q0 116 74 197.5t200 117.5q-32 14 -58 52.5t-26 92.5q0 69 44 120t110 100q-37 27 -60 91t-23 138q0 124 58.5 235t171.5 172q47 26 107.5 40.5t121.5 14.5q65 0 110 -10.5t72 -18.5h367l-40 -190l-141 -49q4 -16 6 -32.5t2 -34.5
q0 -82 -37 -174.5t-96 -151.5q-61 -60 -146 -89.5t-192 -30.5q-48 0 -66 -1.5t-24 -3.5q-32 -11 -51.5 -36t-19.5 -50q0 -15 21 -19q11 -2 30 -2.5t46 -0.5h202q77 0 131.5 -26.5t83.5 -78.5t29 -129q0 -157 -72 -267.5t-194 -172.5q-72 -35 -158.5 -53.5t-183.5 -18.5z
M267 -250q50 0 95.5 9t82.5 28q44 22 70.5 57t26.5 83q0 8 -4 14t-14 10q-12 5 -34 7t-58 2h-154q-32 0 -58 -29t-41.5 -65.5t-15.5 -61.5q0 -31 26 -42.5t78 -11.5zM477 592q33 0 60 21.5t47.5 65t35.5 107.5q7 30 10.5 53t3.5 39q0 28 -10 38t-31 10q-32 0 -56 -18
t-40.5 -47t-28 -63.5t-19.5 -67.5q-7 -29 -10.5 -51t-3.5 -39q0 -48 42 -48zM684 1254q-98 0 -157.5 31t-86 86t-26.5 127q0 28 4 60t10 67h199q0 -40 5.5 -72t22 -51t48.5 -19q49 0 83.5 31.5t53.5 110.5h203q-32 -180 -128.5 -275.5t-230.5 -95.5z" />
    <glyph glyph-name="Gdot" unicode="&#x120;" horiz-adv-x="1122" 
d="M524 -20q-232 0 -341 125.5t-109 351.5q0 138 28.5 282.5t87 277.5t148.5 238t213 166.5t280 61.5q107 0 202 -26.5t153 -67.5l-146 -289q-55 40 -116.5 62t-126.5 22q-83 0 -150.5 -66.5t-115.5 -172t-73.5 -226t-25.5 -227.5q0 -70 13.5 -117t40.5 -70.5t67 -23.5
q20 0 42.5 3t45.5 9l57 272h-141l59 291h480l-166 -784q-117 -46 -225 -69t-181 -23zM840 1581q-79 0 -118.5 38.5t-39.5 102.5q0 80 51 142.5t154 62.5q54 0 89 -16t52 -48t17 -79q0 -82 -52.5 -142.5t-152.5 -60.5z" />
    <glyph glyph-name="gdot" unicode="&#x121;" horiz-adv-x="1010" 
d="M254 -492q-205 0 -302 71t-97 198q0 116 74 197.5t200 117.5q-32 14 -58 52.5t-26 92.5q0 69 44 120t110 100q-37 27 -60 91t-23 138q0 124 58.5 235t171.5 172q47 26 107.5 40.5t121.5 14.5q65 0 110 -10.5t72 -18.5h367l-40 -190l-141 -49q4 -16 6 -32.5t2 -34.5
q0 -82 -37 -174.5t-96 -151.5q-61 -60 -146 -89.5t-192 -30.5q-48 0 -66 -1.5t-24 -3.5q-32 -11 -51.5 -36t-19.5 -50q0 -15 21 -19q11 -2 30 -2.5t46 -0.5h202q77 0 131.5 -26.5t83.5 -78.5t29 -129q0 -157 -72 -267.5t-194 -172.5q-72 -35 -158.5 -53.5t-183.5 -18.5z
M267 -250q50 0 95.5 9t82.5 28q44 22 70.5 57t26.5 83q0 8 -4 14t-14 10q-12 5 -34 7t-58 2h-154q-32 0 -58 -29t-41.5 -65.5t-15.5 -61.5q0 -31 26 -42.5t78 -11.5zM477 592q33 0 60 21.5t47.5 65t35.5 107.5q7 30 10.5 53t3.5 39q0 28 -10 38t-31 10q-32 0 -56 -18
t-40.5 -47t-28 -63.5t-19.5 -67.5q-7 -29 -10.5 -51t-3.5 -39q0 -48 42 -48zM656 1256q-79 0 -118.5 38.5t-39.5 102.5q0 80 51 142.5t154 62.5q54 0 89 -16t52 -48t17 -79q0 -82 -52.5 -142.5t-152.5 -60.5z" />
    <glyph glyph-name="uni0122" unicode="&#x122;" horiz-adv-x="1122" 
d="M524 -20q-232 0 -341 125.5t-109 351.5q0 138 28.5 282.5t87 277.5t148.5 238t213 166.5t280 61.5q107 0 202 -26.5t153 -67.5l-146 -289q-55 40 -116.5 62t-126.5 22q-83 0 -150.5 -66.5t-115.5 -172t-73.5 -226t-25.5 -227.5q0 -70 13.5 -117t40.5 -70.5t67 -23.5
q20 0 42.5 3t45.5 9l57 272h-141l59 291h480l-166 -784q-117 -46 -225 -69t-181 -23zM263 -453v25q15 41 33.5 94t36 108t28.5 101h307v-18q-23 -50 -54 -105.5t-64 -108.5t-64 -96h-223z" />
    <glyph glyph-name="uni0123" unicode="&#x123;" horiz-adv-x="1010" 
d="M462 1241v21q23 48 53.5 102t64.5 107t67 98h219l2 -23q-15 -41 -34.5 -98.5t-36.5 -113.5t-27 -93h-308zM254 -492q-205 0 -302 71t-97 198q0 116 74 197.5t200 117.5q-32 14 -58 52.5t-26 92.5q0 69 44 120t110 100q-37 27 -60 91t-23 138q0 124 58.5 235t171.5 172
q47 26 107.5 40.5t121.5 14.5q65 0 110 -10.5t72 -18.5h367l-40 -190l-141 -49q4 -16 6 -32.5t2 -34.5q0 -82 -37 -174.5t-96 -151.5q-61 -60 -146 -89.5t-192 -30.5q-48 0 -66 -1.5t-24 -3.5q-32 -11 -51.5 -36t-19.5 -50q0 -15 21 -19q11 -2 30 -2.5t46 -0.5h202
q77 0 131.5 -26.5t83.5 -78.5t29 -129q0 -157 -72 -267.5t-194 -172.5q-72 -35 -158.5 -53.5t-183.5 -18.5zM267 -250q50 0 95.5 9t82.5 28q44 22 70.5 57t26.5 83q0 8 -4 14t-14 10q-12 5 -34 7t-58 2h-154q-32 0 -58 -29t-41.5 -65.5t-15.5 -61.5q0 -31 26 -42.5t78 -11.5
zM477 592q33 0 60 21.5t47.5 65t35.5 107.5q7 30 10.5 53t3.5 39q0 28 -10 38t-31 10q-32 0 -56 -18t-40.5 -47t-28 -63.5t-19.5 -67.5q-7 -29 -10.5 -51t-3.5 -39q0 -48 42 -48z" />
    <glyph glyph-name="Hcircumflex" unicode="&#x124;" horiz-adv-x="1153" 
d="M-10 0l309 1462h342l-117 -553h252l119 553h342l-311 -1462h-342l129 610h-252l-129 -610h-342zM456 1579l4 25q44 45 85.5 94t81.5 101.5t79 107.5h297q10 -40 28 -93.5t40.5 -108t42.5 -97.5l-6 -29h-203q-14 17 -29.5 37.5t-31 45t-31.5 52.5q-45 -46 -80.5 -79.5
t-63.5 -55.5h-213z" />
    <glyph glyph-name="hcircumflex" unicode="&#x125;" horiz-adv-x="1006" 
d="M-27 0l332 1556h328l-62 -284q-8 -39 -19.5 -81t-25.5 -84.5t-28 -82.5h6q30 42 64 71t75 43.5t92 14.5q74 0 126.5 -33.5t80 -94t27.5 -142.5q0 -35 -5.5 -77.5t-13.5 -82.5l-153 -723h-328l133 631q9 41 15 79.5t6 75.5q0 28 -13 50t-47 22q-19 0 -41 -18t-44 -66.5
t-42 -138.5l-133 -635h-330zM141 1700l4 25q44 45 85.5 94t81.5 101.5t79 107.5h297q10 -40 28 -93.5t40.5 -108t42.5 -97.5l-6 -29h-203q-14 17 -29.5 37.5t-31 45t-31.5 52.5q-45 -46 -80.5 -79.5t-63.5 -55.5h-213z" />
    <glyph glyph-name="Hbar" unicode="&#x126;" horiz-adv-x="1153" 
d="M-10 0l225 1067h-106l49 233h106l35 162h342l-35 -162h254l35 162h342l-35 -162h109l-49 -233h-109l-227 -1067h-342l129 610h-252l-129 -610h-342zM520 887h252l39 180h-254z" />
    <glyph glyph-name="hbar" unicode="&#x127;" horiz-adv-x="1006" 
d="M-27 0l250 1176h-106l49 233h106l33 147h328l-33 -147h164l-49 -233h-164q-10 -48 -20.5 -83t-21 -61.5t-22.5 -52.5h7q31 41 64.5 69.5t74.5 43t92 14.5q74 0 126 -33.5t79.5 -94t27.5 -142.5q0 -36 -5 -78t-13 -82l-143 -676h-328l123 584q9 41 14.5 79.5t5.5 75.5
t-14 54.5t-39 17.5q-30 0 -53.5 -23.5t-42 -72.5t-35.5 -127l-125 -588h-330z" />
    <glyph glyph-name="Itilde" unicode="&#x128;" horiz-adv-x="557" 
d="M-12 0l311 1462h342l-311 -1462h-342zM161 1614q18 92 46 170t77 125t129 47q51 0 86 -14.5t61 -33.5t48 -33.5t45 -14.5q25 0 42 22t29 76h183q-20 -129 -61.5 -203.5t-92.5 -106.5t-102 -32q-49 0 -83.5 14.5t-60.5 33.5t-48 33.5t-46 14.5q-18 0 -38 -21t-31 -77h-183
z" />
    <glyph glyph-name="itilde" unicode="&#x129;" horiz-adv-x="516" 
d="M-25 0l242 1133h326l-240 -1133h-328zM54 1237q18 92 46 170t77 125t129 47q51 0 86 -14.5t61 -33.5t48 -33.5t45 -14.5q25 0 42 22t29 76h183q-20 -129 -61.5 -203.5t-92.5 -106.5t-102 -32q-49 0 -83.5 14.5t-60.5 33.5t-48 33.5t-46 14.5q-18 0 -38 -21t-31 -77h-183z
" />
    <glyph glyph-name="Imacron" unicode="&#x12a;" horiz-adv-x="557" 
d="M-12 0l311 1462h342l-311 -1462h-342zM211 1618l49 236h576l-49 -236h-576z" />
    <glyph glyph-name="imacron" unicode="&#x12b;" horiz-adv-x="516" 
d="M-25 0l242 1133h326l-240 -1133h-328zM112 1241l49 236h576l-49 -236h-576z" />
    <glyph glyph-name="Ibreve" unicode="&#x12c;" horiz-adv-x="557" 
d="M-12 0l311 1462h342l-311 -1462h-342zM541 1618q-98 0 -157.5 31t-86 86t-26.5 127q0 28 4 60t10 67h199q0 -40 5.5 -72t22 -51t48.5 -19q49 0 83.5 31.5t53.5 110.5h203q-32 -180 -128.5 -275.5t-230.5 -95.5z" />
    <glyph glyph-name="ibreve" unicode="&#x12d;" horiz-adv-x="516" 
d="M-25 0l242 1133h326l-240 -1133h-328zM461 1241q-98 0 -157.5 31t-86 86t-26.5 127q0 28 4 60t10 67h199q0 -40 5.5 -72t22 -51t48.5 -19q49 0 83.5 31.5t53.5 110.5h203q-32 -180 -128.5 -275.5t-230.5 -95.5z" />
    <glyph glyph-name="Iogonek" unicode="&#x12e;" horiz-adv-x="557" 
d="M-12 0l311 1462h342l-311 -1462h-342zM103 -492q-98 0 -146 48.5t-48 121.5q0 68 29.5 126t78 106.5t103.5 89.5h194q-48 -50 -77 -89.5t-42.5 -73t-15.5 -66.5q0 -19 11.5 -28t25.5 -9q15 0 39.5 4t50.5 10l-45 -217q-41 -15 -80.5 -19t-77.5 -4z" />
    <glyph glyph-name="iogonek" unicode="&#x12f;" horiz-adv-x="516" 
d="M-25 0l242 1133h326l-240 -1133h-328zM412 1243q-76 0 -114 31t-38 94q0 50 21.5 101t68 85.5t119.5 34.5q72 0 112 -31t40 -94q0 -94 -57.5 -157.5t-151.5 -63.5zM61 -492q-98 0 -146 48.5t-48 121.5q0 68 29.5 126t78 106.5t103.5 89.5h194q-48 -50 -77 -89.5
t-42.5 -73t-15.5 -66.5q0 -19 11.5 -28t25.5 -9q15 0 39.5 4t50.5 10l-45 -217q-41 -15 -80.5 -19t-77.5 -4z" />
    <glyph glyph-name="Idotaccent" unicode="&#x130;" horiz-adv-x="557" 
d="M-12 0l311 1462h342l-311 -1462h-342zM513 1620q-79 0 -118.5 38.5t-39.5 102.5q0 80 51 142.5t154 62.5q54 0 89 -16t52 -48t17 -79q0 -82 -52.5 -142.5t-152.5 -60.5z" />
    <glyph glyph-name="dotlessi" unicode="&#x131;" horiz-adv-x="516" 
d="M-25 0l242 1133h326l-240 -1133h-328z" />
    <glyph glyph-name="IJ" unicode="&#x132;" horiz-adv-x="1120" 
d="M-12 0l311 1462h342l-311 -1462h-342zM426 -459q-64 0 -109 6t-84 19l64 299q29 -14 56 -21.5t52 -7.5q56 0 88.5 44t50 105t27.5 111l291 1366h342l-299 -1415q-39 -182 -107.5 -293.5t-162 -162t-209.5 -50.5z" />
    <glyph glyph-name="ij" unicode="&#x133;" horiz-adv-x="1032" 
d="M-25 0l242 1133h326l-240 -1133h-328zM412 1243q-76 0 -114 31t-38 94q0 50 21.5 101t68 85.5t119.5 34.5q72 0 112 -31t40 -94q0 -94 -57.5 -157.5t-151.5 -63.5zM412 -492q-37 0 -74 4t-78 19v285q19 -10 51.5 -15.5t50.5 -5.5q36 0 58 15t35.5 45.5t23.5 78.5
l254 1199h326l-260 -1225q-27 -128 -70.5 -217.5t-118.5 -136t-198 -46.5zM928 1243q-76 0 -114 31t-38 94q0 50 21.5 101t68 85.5t119.5 34.5q72 0 112 -31t40 -94q0 -94 -57.5 -157.5t-151.5 -63.5z" />
    <glyph glyph-name="Jcircumflex" unicode="&#x134;" horiz-adv-x="563" 
d="M-131 -459q-64 0 -109 6t-84 19l64 299q29 -14 56 -21.5t52 -7.5q56 0 88.5 44t50 105t27.5 111l291 1366h342l-299 -1415q-39 -182 -107.5 -293.5t-162 -162t-209.5 -50.5zM153 1579l4 25q44 45 85.5 94t81.5 101.5t79 107.5h297q10 -40 28 -93.5t40.5 -108t42.5 -97.5
l-6 -29h-203q-14 17 -29.5 37.5t-31 45t-31.5 52.5q-45 -46 -80.5 -79.5t-63.5 -55.5h-213z" />
    <glyph glyph-name="jcircumflex" unicode="&#x135;" horiz-adv-x="516" 
d="M-104 -492q-37 0 -74 4t-78 19v285q19 -10 51.5 -15.5t50.5 -5.5q36 0 58 15t35.5 45.5t23.5 78.5l254 1199h326l-260 -1225q-27 -128 -70.5 -217.5t-118.5 -136t-198 -46.5zM56 1241l4 25q44 45 85.5 94t81.5 101.5t79 107.5h297q10 -40 28 -93.5t40.5 -108t42.5 -97.5
l-6 -29h-203q-14 17 -29.5 37.5t-31 45t-31.5 52.5q-45 -46 -80.5 -79.5t-63.5 -55.5h-213z" />
    <glyph glyph-name="uni0136" unicode="&#x136;" horiz-adv-x="1049" 
d="M-10 0l309 1462h342l-123 -588l72 140l293 448h377l-463 -690l149 -772h-377l-73 532l-60 -36l-104 -496h-342zM185 -453v25q15 41 33.5 94t36 108t28.5 101h307v-18q-23 -50 -54 -105.5t-64 -108.5t-64 -96h-223z" />
    <glyph glyph-name="uni0137" unicode="&#x137;" horiz-adv-x="991" 
d="M-27 0l332 1556h328l-129 -602q-8 -37 -18 -74.5t-20.5 -76t-23.5 -78.5h4l304 408h356l-379 -490l160 -643h-357l-88 379l-80 -68l-59 -311h-330zM150 -453v25q15 41 33.5 94t36 108t28.5 101h307v-18q-23 -50 -54 -105.5t-64 -108.5t-64 -96h-223z" />
    <glyph glyph-name="kgreenlandic" unicode="&#x138;" horiz-adv-x="991" 
d="M-27 0l242 1133h328l-39 -179q-13 -58 -28 -113.5t-34 -115.5h4l304 408h356l-379 -490l160 -643h-357l-88 379l-80 -68l-59 -311h-330z" />
    <glyph glyph-name="Lacute" unicode="&#x139;" horiz-adv-x="819" 
d="M-10 0l309 1462h342l-248 -1163h344l-61 -299h-686zM342 1579l6 23q37 50 72.5 100t70 101t66.5 104h363l-2 -17q-23 -24 -69.5 -67.5t-99.5 -93t-97.5 -91t-65.5 -59.5h-244z" />
    <glyph glyph-name="lacute" unicode="&#x13a;" horiz-adv-x="512" 
d="M-27 0l332 1556h328l-330 -1556h-330zM307 1636l6 23q37 50 72.5 100t70 101t66.5 104h363l-2 -17q-23 -24 -69.5 -67.5t-99.5 -93t-97.5 -91t-65.5 -59.5h-244z" />
    <glyph glyph-name="uni013B" unicode="&#x13b;" horiz-adv-x="819" 
d="M-10 0l309 1462h342l-248 -1163h344l-61 -299h-686zM58 -453v25q15 41 33.5 94t36 108t28.5 101h307v-18q-23 -50 -54 -105.5t-64 -108.5t-64 -96h-223z" />
    <glyph glyph-name="uni013C" unicode="&#x13c;" horiz-adv-x="512" 
d="M-27 0l332 1556h328l-330 -1556h-330zM-137 -453v25q15 41 33.5 94t36 108t28.5 101h307v-18q-23 -50 -54 -105.5t-64 -108.5t-64 -96h-223z" />
    <glyph glyph-name="Lcaron" unicode="&#x13d;" horiz-adv-x="819" 
d="M-10 0l309 1462h342l-248 -1163h344l-61 -299h-686zM639 1137v22q20 49 36.5 99t31.5 101.5t28 104.5h307l2 -20q-27 -57 -56 -109t-60 -100.5t-66 -97.5h-223z" />
    <glyph glyph-name="lcaron" unicode="&#x13e;" horiz-adv-x="795" 
d="M-27 0l332 1556h328l-330 -1556h-330zM662 1229v22q20 49 36.5 99t31.5 101.5t28 104.5h307l2 -20q-27 -57 -56 -109t-60 -100.5t-66 -97.5h-223z" />
    <glyph glyph-name="Ldot" unicode="&#x13f;" horiz-adv-x="819" 
d="M-10 0l309 1462h342l-248 -1163h344l-61 -299h-686zM709 592q-79 0 -118.5 38.5t-39.5 102.5q0 80 51 142.5t154 62.5q54 0 89 -16t52 -48t17 -79q0 -82 -52.5 -142.5t-152.5 -60.5z" />
    <glyph glyph-name="ldot" unicode="&#x140;" horiz-adv-x="836" 
d="M-27 0l332 1556h328l-330 -1556h-330zM690 530q-79 0 -118.5 38.5t-39.5 102.5q0 80 51 142.5t154 62.5q54 0 89 -16t52 -48t17 -79q0 -82 -52.5 -142.5t-152.5 -60.5z" />
    <glyph glyph-name="Lslash" unicode="&#x141;" horiz-adv-x="864" 
d="M35 0l98 469l-57 -41l-135 195l266 192l137 647h342l-78 -360l131 96l138 -186l-340 -258l-99 -455h344l-61 -299h-686z" />
    <glyph glyph-name="lslash" unicode="&#x142;" horiz-adv-x="623" 
d="M29 0l125 590l-82 -33l-90 217l229 92l147 690h328l-119 -557l82 31l90 -215l-229 -92l-154 -723h-327z" />
    <glyph glyph-name="Nacute" unicode="&#x143;" horiz-adv-x="1239" 
d="M-10 0l309 1462h379l151 -835h7q8 54 16.5 106.5t17 99.5t15.5 82l116 547h322l-309 -1462h-381l-152 862h-4q-7 -48 -13.5 -92t-12.5 -83t-12 -72.5t-11 -59.5l-119 -555h-319zM678 1579l6 23q37 50 72.5 100t70 101t66.5 104h363l-2 -17q-23 -24 -69.5 -67.5t-99.5 -93
t-97.5 -91t-65.5 -59.5h-244z" />
    <glyph glyph-name="nacute" unicode="&#x144;" horiz-adv-x="1006" 
d="M-27 0l242 1133h262l-4 -132h6q33 48 71.5 82t81.5 52t91 18q61 0 117 -24t92.5 -81.5t36.5 -160.5q0 -31 -4 -70.5t-15 -93.5l-153 -723h-328l133 631q9 44 16 86t7 69q0 34 -12 53t-40 19q-35 0 -62 -37t-47.5 -99t-37.5 -138l-123 -584h-330zM491 1241l6 23
q37 50 72.5 100t70 101t66.5 104h363l-2 -17q-23 -24 -69.5 -67.5t-99.5 -93t-97.5 -91t-65.5 -59.5h-244z" />
    <glyph glyph-name="uni0145" unicode="&#x145;" horiz-adv-x="1239" 
d="M-10 0l309 1462h379l151 -835h7q8 54 16.5 106.5t17 99.5t15.5 82l116 547h322l-309 -1462h-381l-152 862h-4q-7 -48 -13.5 -92t-12.5 -83t-12 -72.5t-11 -59.5l-119 -555h-319zM261 -453v25q15 41 33.5 94t36 108t28.5 101h307v-18q-23 -50 -54 -105.5t-64 -108.5
t-64 -96h-223z" />
    <glyph glyph-name="uni0146" unicode="&#x146;" horiz-adv-x="1006" 
d="M-27 0l242 1133h262l-4 -132h6q33 48 71.5 82t81.5 52t91 18q61 0 117 -24t92.5 -81.5t36.5 -160.5q0 -31 -4 -70.5t-15 -93.5l-153 -723h-328l133 631q9 44 16 86t7 69q0 34 -12 53t-40 19q-35 0 -62 -37t-47.5 -99t-37.5 -138l-123 -584h-330zM115 -453v25
q15 41 33.5 94t36 108t28.5 101h307v-18q-23 -50 -54 -105.5t-64 -108.5t-64 -96h-223z" />
    <glyph glyph-name="Ncaron" unicode="&#x147;" horiz-adv-x="1239" 
d="M-10 0l309 1462h379l151 -835h7q8 54 16.5 106.5t17 99.5t15.5 82l116 547h322l-309 -1462h-381l-152 862h-4q-7 -48 -13.5 -92t-12.5 -83t-12 -72.5t-11 -59.5l-119 -555h-319zM667 1579q-12 44 -30 96.5t-39 105t-43 97.5l6 29h203q14 -16 29.5 -36.5t31.5 -45
t31 -53.5q44 46 79.5 79.5t63.5 55.5h215l-6 -25q-32 -33 -80.5 -90.5t-94 -116t-69.5 -96.5h-297z" />
    <glyph glyph-name="ncaron" unicode="&#x148;" horiz-adv-x="1006" 
d="M-27 0l242 1133h262l-4 -132h6q33 48 71.5 82t81.5 52t91 18q61 0 117 -24t92.5 -81.5t36.5 -160.5q0 -31 -4 -70.5t-15 -93.5l-153 -723h-328l133 631q9 44 16 86t7 69q0 34 -12 53t-40 19q-35 0 -62 -37t-47.5 -99t-37.5 -138l-123 -584h-330zM491 1241
q-12 44 -30 96.5t-39 105t-43 97.5l6 29h203q14 -16 29.5 -36.5t31.5 -45t31 -53.5q44 46 79.5 79.5t63.5 55.5h215l-6 -25q-32 -33 -80.5 -90.5t-94 -116t-69.5 -96.5h-297z" />
    <glyph glyph-name="napostrophe" unicode="&#x149;" horiz-adv-x="1333" 
d="M301 0l242 1133h262l-4 -132h6q33 48 71.5 82t81.5 52t91 18q61 0 117 -24t92.5 -81.5t36.5 -160.5q0 -31 -4 -70.5t-15 -93.5l-153 -723h-328l133 631q9 44 16 86t7 69q0 34 -12 53t-40 19q-35 0 -62 -37t-47.5 -99t-37.5 -138l-123 -584h-330zM24 879q35 93 67.5 188
t63.5 193.5t60 201.5h319l4 -20q-37 -110 -76 -210t-80.5 -188t-84.5 -165h-273z" />
    <glyph glyph-name="Eng" unicode="&#x14a;" horiz-adv-x="1239" 
d="M535 -459q-43 0 -84 5.5t-78 19.5l63 301q29 -14 56.5 -22.5t52.5 -8.5q40 0 68 21t46.5 60t30.5 93l-194 914h-7q-4 -43 -10.5 -87t-13.5 -85.5t-14 -77.5t-13 -64l-129 -610h-319l309 1462h393l160 -745h6q8 60 16 112.5t16 98.5t15 84l96 450h322l-293 -1382
q-36 -162 -93.5 -283t-153.5 -188.5t-248 -67.5z" />
    <glyph glyph-name="eng" unicode="&#x14b;" horiz-adv-x="1006" 
d="M387 -492q-51 0 -87 6.5t-62 16.5v285q18 -10 50.5 -15.5t51.5 -5.5q37 0 59 13.5t35 44t23 81.5l145 697q9 44 16 86t7 69q0 34 -12 53t-40 19q-35 0 -62 -35t-45 -88t-30 -106l-133 -629h-330l242 1133h262l-4 -132h6q33 48 71.5 82t81.5 52t91 18q61 0 117 -24
t92.5 -81.5t36.5 -160.5q0 -31 -4 -70.5t-15 -93.5l-174 -815q-32 -153 -83.5 -240.5t-126.5 -123.5t-179 -36z" />
    <glyph glyph-name="Omacron" unicode="&#x14c;" horiz-adv-x="1176" 
d="M498 -20q-145 0 -239.5 52.5t-140.5 162t-46 280.5q0 115 20 234t59.5 232.5t97.5 211.5t134 173t169.5 117t203.5 42q221 0 320.5 -125.5t99.5 -368.5q0 -98 -16.5 -210.5t-51.5 -226t-89 -216.5t-129.5 -183.5t-173 -127.5t-218.5 -47zM522 285q47 0 87.5 36t73.5 96.5
t58.5 136.5t42.5 156.5t26 156t9 134.5q0 94 -24 139.5t-68 45.5q-47 0 -87 -35.5t-73.5 -96t-58.5 -135.5t-42.5 -155.5t-26.5 -155.5t-9 -135q0 -77 10.5 -117.5t31.5 -55.5t50 -15zM499 1579l49 236h576l-49 -236h-576z" />
    <glyph glyph-name="omacron" unicode="&#x14d;" horiz-adv-x="981" 
d="M395 -20q-112 0 -192.5 47t-123 134.5t-42.5 209.5q0 89 18.5 194.5t59 209t105.5 189t157.5 137.5t216.5 52q111 0 189.5 -48.5t120.5 -136t42 -206.5q0 -96 -19.5 -203.5t-60.5 -210t-106 -186t-155.5 -133t-209.5 -49.5zM434 256q32 0 60 36t50.5 94.5t38.5 127
t24.5 134t8.5 114.5q0 38 -6.5 63.5t-20.5 38.5t-38 13q-34 0 -62.5 -36t-51 -94.5t-38.5 -127t-24 -134.5t-8 -116q0 -54 16 -83.5t51 -29.5zM320 1241l49 236h576l-49 -236h-576z" />
    <glyph glyph-name="Obreve" unicode="&#x14e;" horiz-adv-x="1176" 
d="M498 -20q-145 0 -239.5 52.5t-140.5 162t-46 280.5q0 115 20 234t59.5 232.5t97.5 211.5t134 173t169.5 117t203.5 42q221 0 320.5 -125.5t99.5 -368.5q0 -98 -16.5 -210.5t-51.5 -226t-89 -216.5t-129.5 -183.5t-173 -127.5t-218.5 -47zM522 285q47 0 87.5 36t73.5 96.5
t58.5 136.5t42.5 156.5t26 156t9 134.5q0 94 -24 139.5t-68 45.5q-47 0 -87 -35.5t-73.5 -96t-58.5 -135.5t-42.5 -155.5t-26.5 -155.5t-9 -135q0 -77 10.5 -117.5t31.5 -55.5t50 -15zM854 1579q-98 0 -157.5 31t-86 86t-26.5 127q0 28 4 60t10 67h199q0 -40 5.5 -72t22 -51
t48.5 -19q49 0 83.5 31.5t53.5 110.5h203q-32 -180 -128.5 -275.5t-230.5 -95.5z" />
    <glyph glyph-name="obreve" unicode="&#x14f;" horiz-adv-x="981" 
d="M395 -20q-112 0 -192.5 47t-123 134.5t-42.5 209.5q0 89 18.5 194.5t59 209t105.5 189t157.5 137.5t216.5 52q111 0 189.5 -48.5t120.5 -136t42 -206.5q0 -96 -19.5 -203.5t-60.5 -210t-106 -186t-155.5 -133t-209.5 -49.5zM434 256q32 0 60 36t50.5 94.5t38.5 127
t24.5 134t8.5 114.5q0 38 -6.5 63.5t-20.5 38.5t-38 13q-34 0 -62.5 -36t-51 -94.5t-38.5 -127t-24 -134.5t-8 -116q0 -54 16 -83.5t51 -29.5zM684 1241q-98 0 -157.5 31t-86 86t-26.5 127q0 28 4 60t10 67h199q0 -40 5.5 -72t22 -51t48.5 -19q49 0 83.5 31.5t53.5 110.5
h203q-32 -180 -128.5 -275.5t-230.5 -95.5z" />
    <glyph glyph-name="Ohungarumlaut" unicode="&#x150;" horiz-adv-x="1176" 
d="M498 -20q-145 0 -239.5 52.5t-140.5 162t-46 280.5q0 115 20 234t59.5 232.5t97.5 211.5t134 173t169.5 117t203.5 42q221 0 320.5 -125.5t99.5 -368.5q0 -98 -16.5 -210.5t-51.5 -226t-89 -216.5t-129.5 -183.5t-173 -127.5t-218.5 -47zM522 285q47 0 87.5 36t73.5 96.5
t58.5 136.5t42.5 156.5t26 156t9 134.5q0 94 -24 139.5t-68 45.5q-47 0 -87 -35.5t-73.5 -96t-58.5 -135.5t-42.5 -155.5t-26.5 -155.5t-9 -135q0 -77 10.5 -117.5t31.5 -55.5t50 -15zM848 1579l6 25q49 74 87.5 132.5t66 102t41.5 68.5h297l-3 -17q-20 -29 -57 -68.5
t-82.5 -83.5t-92 -85.5t-85.5 -73.5h-178zM481 1579l6 25q50 75 88.5 134t65.5 102t41 67h295l-4 -17q-16 -28 -51.5 -66.5t-82 -81.5t-97.5 -85.5t-99 -77.5h-162z" />
    <glyph glyph-name="ohungarumlaut" unicode="&#x151;" horiz-adv-x="981" 
d="M395 -20q-112 0 -192.5 47t-123 134.5t-42.5 209.5q0 89 18.5 194.5t59 209t105.5 189t157.5 137.5t216.5 52q111 0 189.5 -48.5t120.5 -136t42 -206.5q0 -96 -19.5 -203.5t-60.5 -210t-106 -186t-155.5 -133t-209.5 -49.5zM434 256q32 0 60 36t50.5 94.5t38.5 127
t24.5 134t8.5 114.5q0 38 -6.5 63.5t-20.5 38.5t-38 13q-34 0 -62.5 -36t-51 -94.5t-38.5 -127t-24 -134.5t-8 -116q0 -54 16 -83.5t51 -29.5zM666 1241l6 25q49 74 87.5 132.5t66 102t41.5 68.5h297l-3 -17q-20 -29 -57 -68.5t-82.5 -83.5t-92 -85.5t-85.5 -73.5h-178z
M299 1241l6 25q50 75 88.5 134t65.5 102t41 67h295l-4 -17q-16 -28 -51.5 -66.5t-82 -81.5t-97.5 -85.5t-99 -77.5h-162z" />
    <glyph glyph-name="OE" unicode="&#x152;" horiz-adv-x="1427" 
d="M446 -20q-133 0 -215.5 59.5t-120.5 160.5t-38 226q0 130 21.5 275t69 284t123 252t183.5 180.5t252 67.5q50 0 98.5 -6t77.5 -17h635l-62 -295h-321l-57 -264h297l-62 -295h-297l-67 -309h323l-63 -299h-637q-26 -6 -62 -13t-78 -7zM516 285q43 0 71 4t44 10l182 858
q-19 11 -40 20t-44 9q-56 0 -103 -50t-83 -132t-60.5 -177.5t-37.5 -189t-13 -164.5q0 -69 9 -110.5t28 -59.5t47 -18z" />
    <glyph glyph-name="oe" unicode="&#x153;" horiz-adv-x="1468" 
d="M365 -20q-146 0 -237 104t-91 287q0 80 16.5 182.5t54 207.5t100 194t152.5 143.5t213 54.5q104 0 157.5 -32t94.5 -89q60 57 143 88t162 31q143 0 234.5 -79.5t91.5 -213.5q0 -103 -40 -178t-114 -123.5t-174.5 -72t-222.5 -23.5h-20q-3 -17 -4.5 -34.5t-1.5 -31.5
q0 -84 33 -117.5t96 -33.5q72 0 145 23.5t131 58.5v-244q-86 -51 -174.5 -76.5t-179.5 -25.5q-64 0 -115.5 14.5t-90 42.5t-65.5 67q-55 -56 -128 -90t-166 -34zM434 256q32 0 59.5 35.5t50 93.5t38.5 126.5t25 134.5t9 116q0 57 -15 86t-50 29q-29 0 -56.5 -35.5t-50.5 -93
t-40.5 -125.5t-27 -135t-9.5 -119q0 -54 16 -83.5t51 -29.5zM936 694h8q86 0 131.5 17.5t62.5 47.5t17 66q0 31 -20.5 50.5t-51.5 19.5q-35 0 -69 -34.5t-56 -81.5t-22 -85z" />
    <glyph glyph-name="Racute" unicode="&#x154;" horiz-adv-x="1034" 
d="M-10 0l309 1462h330q226 0 330 -89.5t104 -256.5q0 -125 -33.5 -224t-95.5 -169.5t-146 -108.5l156 -614h-379l-98 543h-23l-112 -543h-342zM506 819h29q43 0 74 22.5t51 59.5t30 81t10 87q0 53 -24 80t-74 27h-22zM497 1579l6 23q37 50 72.5 100t70 101t66.5 104h363
l-2 -17q-23 -24 -69.5 -67.5t-99.5 -93t-97.5 -91t-65.5 -59.5h-244z" />
    <glyph glyph-name="racute" unicode="&#x155;" horiz-adv-x="721" 
d="M-25 0l240 1133h258l-4 -164h8q37 66 74 106.5t81.5 59t102.5 18.5q20 0 40.5 -2.5t51.5 -11.5l-102 -361q-23 10 -47.5 14.5t-52.5 4.5q-42 0 -76 -18t-59 -50t-42 -73t-26 -87l-119 -569h-328zM370 1241l6 23q37 50 72.5 100t70 101t66.5 104h363l-2 -17
q-23 -24 -69.5 -67.5t-99.5 -93t-97.5 -91t-65.5 -59.5h-244z" />
    <glyph glyph-name="uni0156" unicode="&#x156;" horiz-adv-x="1034" 
d="M-10 0l309 1462h330q226 0 330 -89.5t104 -256.5q0 -125 -33.5 -224t-95.5 -169.5t-146 -108.5l156 -614h-379l-98 543h-23l-112 -543h-342zM506 819h29q43 0 74 22.5t51 59.5t30 81t10 87q0 53 -24 80t-74 27h-22zM183 -453v25q15 41 33.5 94t36 108t28.5 101h307v-18
q-23 -50 -54 -105.5t-64 -108.5t-64 -96h-223z" />
    <glyph glyph-name="uni0157" unicode="&#x157;" horiz-adv-x="721" 
d="M-25 0l240 1133h258l-4 -164h8q37 66 74 106.5t81.5 59t102.5 18.5q20 0 40.5 -2.5t51.5 -11.5l-102 -361q-23 10 -47.5 14.5t-52.5 4.5q-42 0 -76 -18t-59 -50t-42 -73t-26 -87l-119 -569h-328zM-138 -453v25q15 41 33.5 94t36 108t28.5 101h307v-18q-23 -50 -54 -105.5
t-64 -108.5t-64 -96h-223z" />
    <glyph glyph-name="Rcaron" unicode="&#x158;" horiz-adv-x="1034" 
d="M-10 0l309 1462h330q226 0 330 -89.5t104 -256.5q0 -125 -33.5 -224t-95.5 -169.5t-146 -108.5l156 -614h-379l-98 543h-23l-112 -543h-342zM506 819h29q43 0 74 22.5t51 59.5t30 81t10 87q0 53 -24 80t-74 27h-22zM510 1579q-12 44 -30 96.5t-39 105t-43 97.5l6 29h203
q14 -16 29.5 -36.5t31.5 -45t31 -53.5q44 46 79.5 79.5t63.5 55.5h215l-6 -25q-32 -33 -80.5 -90.5t-94 -116t-69.5 -96.5h-297z" />
    <glyph glyph-name="rcaron" unicode="&#x159;" horiz-adv-x="721" 
d="M-25 0l240 1133h258l-4 -164h8q37 66 74 106.5t81.5 59t102.5 18.5q20 0 40.5 -2.5t51.5 -11.5l-102 -361q-23 10 -47.5 14.5t-52.5 4.5q-42 0 -76 -18t-59 -50t-42 -73t-26 -87l-119 -569h-328zM374 1241q-12 44 -30 96.5t-39 105t-43 97.5l6 29h203q14 -16 29.5 -36.5
t31.5 -45t31 -53.5q44 46 79.5 79.5t63.5 55.5h215l-6 -25q-32 -33 -80.5 -90.5t-94 -116t-69.5 -96.5h-297z" />
    <glyph glyph-name="Sacute" unicode="&#x15a;" horiz-adv-x="891" 
d="M311 -20q-109 0 -193 20.5t-155 75.5l74 348q52 -46 129 -84.5t147 -38.5q23 0 48.5 5.5t47.5 19.5t36 40.5t14 69.5q0 31 -9 58.5t-34.5 58.5t-73.5 72q-63 53 -103 108t-58.5 121t-18.5 152q0 98 30.5 184.5t92 152.5t156 103t221.5 37q83 0 174 -27t168 -84l-152 -307
q-61 49 -115 75.5t-94 26.5q-23 0 -44.5 -7.5t-39 -22.5t-27.5 -39.5t-10 -59.5q0 -25 9 -51.5t36 -58.5t82 -74q64 -49 101.5 -104.5t54 -122.5t16.5 -150q0 -94 -31 -183t-93.5 -160t-158.5 -112.5t-227 -41.5zM477 1579l6 23q37 50 72.5 100t70 101t66.5 104h363l-2 -17
q-23 -24 -69.5 -67.5t-99.5 -93t-97.5 -91t-65.5 -59.5h-244z" />
    <glyph glyph-name="sacute" unicode="&#x15b;" horiz-adv-x="793" 
d="M295 -20q-109 0 -173 16t-126 51v303q62 -41 132 -63.5t124 -22.5q28 0 51 8.5t37 25.5t14 42q0 18 -6.5 39t-28.5 48.5t-67 64.5q-61 50 -91.5 97.5t-40 93.5t-9.5 93q0 105 42 190.5t126.5 136t209.5 50.5q97 0 186.5 -27.5t149.5 -70.5l-125 -248q-50 44 -105.5 63
t-84.5 19t-45 -16.5t-16 -47.5q0 -19 5.5 -36t26.5 -39.5t68 -59.5q49 -40 83 -81.5t52 -97t18 -136.5q0 -105 -48 -195t-139 -145t-220 -55zM397 1241l6 23q37 50 72.5 100t70 101t66.5 104h363l-2 -17q-23 -24 -69.5 -67.5t-99.5 -93t-97.5 -91t-65.5 -59.5h-244z" />
    <glyph glyph-name="Scircumflex" unicode="&#x15c;" horiz-adv-x="891" 
d="M311 -20q-109 0 -193 20.5t-155 75.5l74 348q52 -46 129 -84.5t147 -38.5q23 0 48.5 5.5t47.5 19.5t36 40.5t14 69.5q0 31 -9 58.5t-34.5 58.5t-73.5 72q-63 53 -103 108t-58.5 121t-18.5 152q0 98 30.5 184.5t92 152.5t156 103t221.5 37q83 0 174 -27t168 -84l-152 -307
q-61 49 -115 75.5t-94 26.5q-23 0 -44.5 -7.5t-39 -22.5t-27.5 -39.5t-10 -59.5q0 -25 9 -51.5t36 -58.5t82 -74q64 -49 101.5 -104.5t54 -122.5t16.5 -150q0 -94 -31 -183t-93.5 -160t-158.5 -112.5t-227 -41.5zM336 1579l4 25q44 45 85.5 94t81.5 101.5t79 107.5h297
q10 -40 28 -93.5t40.5 -108t42.5 -97.5l-6 -29h-203q-14 17 -29.5 37.5t-31 45t-31.5 52.5q-45 -46 -80.5 -79.5t-63.5 -55.5h-213z" />
    <glyph glyph-name="scircumflex" unicode="&#x15d;" horiz-adv-x="793" 
d="M295 -20q-109 0 -173 16t-126 51v303q62 -41 132 -63.5t124 -22.5q28 0 51 8.5t37 25.5t14 42q0 18 -6.5 39t-28.5 48.5t-67 64.5q-61 50 -91.5 97.5t-40 93.5t-9.5 93q0 105 42 190.5t126.5 136t209.5 50.5q97 0 186.5 -27.5t149.5 -70.5l-125 -248q-50 44 -105.5 63
t-84.5 19t-45 -16.5t-16 -47.5q0 -19 5.5 -36t26.5 -39.5t68 -59.5q49 -40 83 -81.5t52 -97t18 -136.5q0 -105 -48 -195t-139 -145t-220 -55zM190 1241l4 25q44 45 85.5 94t81.5 101.5t79 107.5h297q10 -40 28 -93.5t40.5 -108t42.5 -97.5l-6 -29h-203q-14 17 -29.5 37.5
t-31 45t-31.5 52.5q-45 -46 -80.5 -79.5t-63.5 -55.5h-213z" />
    <glyph glyph-name="Scedilla" unicode="&#x15e;" horiz-adv-x="891" 
d="M311 -20q-109 0 -193 20.5t-155 75.5l74 348q52 -46 129 -84.5t147 -38.5q23 0 48.5 5.5t47.5 19.5t36 40.5t14 69.5q0 31 -9 58.5t-34.5 58.5t-73.5 72q-63 53 -103 108t-58.5 121t-18.5 152q0 98 30.5 184.5t92 152.5t156 103t221.5 37q83 0 174 -27t168 -84l-152 -307
q-61 49 -115 75.5t-94 26.5q-23 0 -44.5 -7.5t-39 -22.5t-27.5 -39.5t-10 -59.5q0 -25 9 -51.5t36 -58.5t82 -74q64 -49 101.5 -104.5t54 -122.5t16.5 -150q0 -94 -31 -183t-93.5 -160t-158.5 -112.5t-227 -41.5zM226 -492q-43 0 -85 5t-83 18v180q25 -6 55.5 -11t58.5 -5
q27 0 45.5 7.5t27.5 23t9 38.5q0 29 -26.5 47.5t-77.5 18.5l100 170h156l-41 -70q62 -9 103.5 -50.5t41.5 -115.5q0 -96 -38.5 -152t-103 -80t-142.5 -24z" />
    <glyph glyph-name="scedilla" unicode="&#x15f;" horiz-adv-x="793" 
d="M295 -20q-109 0 -173 16t-126 51v303q62 -41 132 -63.5t124 -22.5q28 0 51 8.5t37 25.5t14 42q0 18 -6.5 39t-28.5 48.5t-67 64.5q-61 50 -91.5 97.5t-40 93.5t-9.5 93q0 105 42 190.5t126.5 136t209.5 50.5q97 0 186.5 -27.5t149.5 -70.5l-125 -248q-50 44 -105.5 63
t-84.5 19t-45 -16.5t-16 -47.5q0 -19 5.5 -36t26.5 -39.5t68 -59.5q49 -40 83 -81.5t52 -97t18 -136.5q0 -105 -48 -195t-139 -145t-220 -55zM168 -492q-43 0 -85 5t-83 18v180q25 -6 55.5 -11t58.5 -5q27 0 45.5 7.5t27.5 23t9 38.5q0 29 -26.5 47.5t-77.5 18.5l100 170
h156l-41 -70q62 -9 103.5 -50.5t41.5 -115.5q0 -96 -38.5 -152t-103 -80t-142.5 -24z" />
    <glyph glyph-name="Scaron" unicode="&#x160;" horiz-adv-x="891" 
d="M311 -20q-109 0 -193 20.5t-155 75.5l74 348q52 -46 129 -84.5t147 -38.5q23 0 48.5 5.5t47.5 19.5t36 40.5t14 69.5q0 31 -9 58.5t-34.5 58.5t-73.5 72q-63 53 -103 108t-58.5 121t-18.5 152q0 98 30.5 184.5t92 152.5t156 103t221.5 37q83 0 174 -27t168 -84l-152 -307
q-61 49 -115 75.5t-94 26.5q-23 0 -44.5 -7.5t-39 -22.5t-27.5 -39.5t-10 -59.5q0 -25 9 -51.5t36 -58.5t82 -74q64 -49 101.5 -104.5t54 -122.5t16.5 -150q0 -94 -31 -183t-93.5 -160t-158.5 -112.5t-227 -41.5zM520 1579q-12 44 -30 96.5t-39 105t-43 97.5l6 29h203
q14 -16 29.5 -36.5t31.5 -45t31 -53.5q44 46 79.5 79.5t63.5 55.5h215l-6 -25q-32 -33 -80.5 -90.5t-94 -116t-69.5 -96.5h-297z" />
    <glyph glyph-name="scaron" unicode="&#x161;" horiz-adv-x="793" 
d="M295 -20q-109 0 -173 16t-126 51v303q62 -41 132 -63.5t124 -22.5q28 0 51 8.5t37 25.5t14 42q0 18 -6.5 39t-28.5 48.5t-67 64.5q-61 50 -91.5 97.5t-40 93.5t-9.5 93q0 105 42 190.5t126.5 136t209.5 50.5q97 0 186.5 -27.5t149.5 -70.5l-125 -248q-50 44 -105.5 63
t-84.5 19t-45 -16.5t-16 -47.5q0 -19 5.5 -36t26.5 -39.5t68 -59.5q49 -40 83 -81.5t52 -97t18 -136.5q0 -105 -48 -195t-139 -145t-220 -55zM372 1241q-12 44 -30 96.5t-39 105t-43 97.5l6 29h203q14 -16 29.5 -36.5t31.5 -45t31 -53.5q44 46 79.5 79.5t63.5 55.5h215
l-6 -25q-32 -33 -80.5 -90.5t-94 -116t-69.5 -96.5h-297z" />
    <glyph glyph-name="uni0162" unicode="&#x162;" horiz-adv-x="879" 
d="M150 0l245 1161h-235l63 301h815l-63 -301h-238l-245 -1161h-342zM228 -492q-43 0 -85 5t-83 18v180q25 -6 55.5 -11t58.5 -5q27 0 45.5 7.5t27.5 23t9 38.5q0 29 -26.5 47.5t-77.5 18.5l100 170h156l-41 -70q62 -9 103.5 -50.5t41.5 -115.5q0 -96 -38.5 -152t-103 -80
t-142.5 -24z" />
    <glyph glyph-name="uni0163" unicode="&#x163;" horiz-adv-x="700" 
d="M319 -20q-133 0 -186 75t-53 189q0 37 5 79.5t17 100.5l93 436h-103l35 170l156 92l114 238h232l-49 -227h192l-57 -273h-193l-102 -483q-3 -14 -5.5 -28t-2.5 -25q0 -31 12 -44.5t43 -13.5q15 0 51 7t74 24v-262q-57 -31 -136.5 -43t-136.5 -12zM205 -492q-43 0 -85 5
t-83 18v180q25 -6 55.5 -11t58.5 -5q27 0 45.5 7.5t27.5 23t9 38.5q0 29 -26.5 47.5t-77.5 18.5l100 170h156l-41 -70q62 -9 103.5 -50.5t41.5 -115.5q0 -96 -38.5 -152t-103 -80t-142.5 -24z" />
    <glyph glyph-name="Tcaron" unicode="&#x164;" horiz-adv-x="879" 
d="M150 0l245 1161h-235l63 301h815l-63 -301h-238l-245 -1161h-342zM497 1579q-12 44 -30 96.5t-39 105t-43 97.5l6 29h203q14 -16 29.5 -36.5t31.5 -45t31 -53.5q44 46 79.5 79.5t63.5 55.5h215l-6 -25q-32 -33 -80.5 -90.5t-94 -116t-69.5 -96.5h-297z" />
    <glyph glyph-name="tcaron" unicode="&#x165;" horiz-adv-x="807" 
d="M319 -20q-133 0 -186 75t-53 189q0 37 5 79.5t17 100.5l93 436h-103l35 170l156 92l114 238h232l-49 -227h192l-57 -273h-193l-102 -483q-3 -14 -5.5 -28t-2.5 -25q0 -31 12 -44.5t43 -13.5q15 0 51 7t74 24v-262q-57 -31 -136.5 -43t-136.5 -12zM686 1229v22
q20 49 36.5 99t31.5 101.5t28 104.5h307l2 -20q-27 -57 -56 -109t-60 -100.5t-66 -97.5h-223z" />
    <glyph glyph-name="Tbar" unicode="&#x166;" horiz-adv-x="879" 
d="M150 0l122 582h-147l55 256h148l67 323h-235l63 301h815l-63 -301h-238l-67 -323h147l-53 -256h-150l-122 -582h-342z" />
    <glyph glyph-name="tbar" unicode="&#x167;" horiz-adv-x="700" 
d="M319 -20q-133 0 -186 75t-53 189q0 37 5 79.5t17 100.5l4 27h-94l49 231h97l37 178h-103l35 170l156 92l114 238h232l-49 -227h192l-57 -273h-193l-39 -178h174l-51 -231h-172l-14 -74q-3 -14 -5.5 -28t-2.5 -25q0 -31 12 -44.5t43 -13.5q15 0 51 7t74 24v-262
q-57 -31 -136.5 -43t-136.5 -12z" />
    <glyph glyph-name="Utilde" unicode="&#x168;" horiz-adv-x="1114" 
d="M451 -20q-118 0 -203 42.5t-130.5 122.5t-45.5 191q0 35 5.5 81.5t14.5 92.5l203 952h342l-203 -958q-7 -31 -10.5 -59t-3.5 -50q0 -58 19.5 -84t58.5 -26q40 0 69.5 21t51 69.5t38.5 130.5l205 956h342l-215 -1009q-32 -155 -99 -260.5t-174.5 -159t-264.5 -53.5z
M434 1575q18 92 46 170t77 125t129 47q51 0 86 -14.5t61 -33.5t48 -33.5t45 -14.5q25 0 42 22t29 76h183q-20 -129 -61.5 -203.5t-92.5 -106.5t-102 -32q-49 0 -83.5 14.5t-60.5 33.5t-48 33.5t-46 14.5q-18 0 -38 -21t-31 -77h-183z" />
    <glyph glyph-name="utilde" unicode="&#x169;" horiz-adv-x="1006" 
d="M285 -20q-80 0 -135 32.5t-83 92t-28 141.5q0 35 5.5 78t12.5 88l154 721h328l-133 -629q-10 -46 -15.5 -88t-5.5 -70q0 -34 11 -53t40 -19q35 0 61.5 37t47.5 100t37 140l125 582h327l-239 -1133h-263l5 131h-7q-32 -46 -70.5 -80t-82 -52.5t-92.5 -18.5zM311 1237
q18 92 46 170t77 125t129 47q51 0 86 -14.5t61 -33.5t48 -33.5t45 -14.5q25 0 42 22t29 76h183q-20 -129 -61.5 -203.5t-92.5 -106.5t-102 -32q-49 0 -83.5 14.5t-60.5 33.5t-48 33.5t-46 14.5q-18 0 -38 -21t-31 -77h-183z" />
    <glyph glyph-name="Umacron" unicode="&#x16a;" horiz-adv-x="1114" 
d="M451 -20q-118 0 -203 42.5t-130.5 122.5t-45.5 191q0 35 5.5 81.5t14.5 92.5l203 952h342l-203 -958q-7 -31 -10.5 -59t-3.5 -50q0 -58 19.5 -84t58.5 -26q40 0 69.5 21t51 69.5t38.5 130.5l205 956h342l-215 -1009q-32 -155 -99 -260.5t-174.5 -159t-264.5 -53.5z
M467 1579l49 236h576l-49 -236h-576z" />
    <glyph glyph-name="umacron" unicode="&#x16b;" horiz-adv-x="1006" 
d="M285 -20q-80 0 -135 32.5t-83 92t-28 141.5q0 35 5.5 78t12.5 88l154 721h328l-133 -629q-10 -46 -15.5 -88t-5.5 -70q0 -34 11 -53t40 -19q35 0 61.5 37t47.5 100t37 140l125 582h327l-239 -1133h-263l5 131h-7q-32 -46 -70.5 -80t-82 -52.5t-92.5 -18.5zM346 1241
l49 236h576l-49 -236h-576z" />
    <glyph glyph-name="Ubreve" unicode="&#x16c;" horiz-adv-x="1114" 
d="M451 -20q-118 0 -203 42.5t-130.5 122.5t-45.5 191q0 35 5.5 81.5t14.5 92.5l203 952h342l-203 -958q-7 -31 -10.5 -59t-3.5 -50q0 -58 19.5 -84t58.5 -26q40 0 69.5 21t51 69.5t38.5 130.5l205 956h342l-215 -1009q-32 -155 -99 -260.5t-174.5 -159t-264.5 -53.5z
M829 1579q-98 0 -157.5 31t-86 86t-26.5 127q0 28 4 60t10 67h199q0 -40 5.5 -72t22 -51t48.5 -19q49 0 83.5 31.5t53.5 110.5h203q-32 -180 -128.5 -275.5t-230.5 -95.5z" />
    <glyph glyph-name="ubreve" unicode="&#x16d;" horiz-adv-x="1006" 
d="M285 -20q-80 0 -135 32.5t-83 92t-28 141.5q0 35 5.5 78t12.5 88l154 721h328l-133 -629q-10 -46 -15.5 -88t-5.5 -70q0 -34 11 -53t40 -19q35 0 61.5 37t47.5 100t37 140l125 582h327l-239 -1133h-263l5 131h-7q-32 -46 -70.5 -80t-82 -52.5t-92.5 -18.5zM711 1241
q-98 0 -157.5 31t-86 86t-26.5 127q0 28 4 60t10 67h199q0 -40 5.5 -72t22 -51t48.5 -19q49 0 83.5 31.5t53.5 110.5h203q-32 -180 -128.5 -275.5t-230.5 -95.5z" />
    <glyph glyph-name="Uring" unicode="&#x16e;" horiz-adv-x="1114" 
d="M451 -20q-118 0 -203 42.5t-130.5 122.5t-45.5 191q0 35 5.5 81.5t14.5 92.5l203 952h342l-203 -958q-7 -31 -10.5 -59t-3.5 -50q0 -58 19.5 -84t58.5 -26q40 0 69.5 21t51 69.5t38.5 130.5l205 956h342l-215 -1009q-32 -155 -99 -260.5t-174.5 -159t-264.5 -53.5z
M774 1577q-121 0 -188.5 68.5t-67.5 183.5q0 112 69.5 180t186.5 68q106 0 180 -67t74 -177q0 -112 -68 -184t-186 -72zM774 1737q40 0 65 24.5t25 65.5q0 40 -24.5 66t-65.5 26q-43 0 -67.5 -26t-24.5 -66q0 -41 22 -65.5t70 -24.5z" />
    <glyph glyph-name="uring" unicode="&#x16f;" horiz-adv-x="1006" 
d="M285 -20q-80 0 -135 32.5t-83 92t-28 141.5q0 35 5.5 78t12.5 88l154 721h328l-133 -629q-10 -46 -15.5 -88t-5.5 -70q0 -34 11 -53t40 -19q35 0 61.5 37t47.5 100t37 140l125 582h327l-239 -1133h-263l5 131h-7q-32 -46 -70.5 -80t-82 -52.5t-92.5 -18.5zM691 1239
q-121 0 -188.5 68.5t-67.5 183.5q0 112 69.5 180t186.5 68q106 0 180 -67t74 -177q0 -112 -68 -184t-186 -72zM691 1399q40 0 65 24.5t25 65.5q0 40 -24.5 66t-65.5 26q-43 0 -67.5 -26t-24.5 -66q0 -41 22 -65.5t70 -24.5z" />
    <glyph glyph-name="Uhungarumlaut" unicode="&#x170;" horiz-adv-x="1114" 
d="M451 -20q-118 0 -203 42.5t-130.5 122.5t-45.5 191q0 35 5.5 81.5t14.5 92.5l203 952h342l-203 -958q-7 -31 -10.5 -59t-3.5 -50q0 -58 19.5 -84t58.5 -26q40 0 69.5 21t51 69.5t38.5 130.5l205 956h342l-215 -1009q-32 -155 -99 -260.5t-174.5 -159t-264.5 -53.5z
M819 1579l6 25q49 74 87.5 132.5t66 102t41.5 68.5h297l-3 -17q-20 -29 -57 -68.5t-82.5 -83.5t-92 -85.5t-85.5 -73.5h-178zM452 1579l6 25q50 75 88.5 134t65.5 102t41 67h295l-4 -17q-16 -28 -51.5 -66.5t-82 -81.5t-97.5 -85.5t-99 -77.5h-162z" />
    <glyph glyph-name="uhungarumlaut" unicode="&#x171;" horiz-adv-x="1006" 
d="M285 -20q-80 0 -135 32.5t-83 92t-28 141.5q0 35 5.5 78t12.5 88l154 721h328l-133 -629q-10 -46 -15.5 -88t-5.5 -70q0 -34 11 -53t40 -19q35 0 61.5 37t47.5 100t37 140l125 582h327l-239 -1133h-263l5 131h-7q-32 -46 -70.5 -80t-82 -52.5t-92.5 -18.5zM674 1241l6 25
q49 74 87.5 132.5t66 102t41.5 68.5h297l-3 -17q-20 -29 -57 -68.5t-82.5 -83.5t-92 -85.5t-85.5 -73.5h-178zM307 1241l6 25q50 75 88.5 134t65.5 102t41 67h295l-4 -17q-16 -28 -51.5 -66.5t-82 -81.5t-97.5 -85.5t-99 -77.5h-162z" />
    <glyph glyph-name="Uogonek" unicode="&#x172;" horiz-adv-x="1114" 
d="M451 -20q-118 0 -203 42.5t-130.5 122.5t-45.5 191q0 35 5.5 81.5t14.5 92.5l203 952h342l-203 -958q-7 -31 -10.5 -59t-3.5 -50q0 -58 19.5 -84t58.5 -26q40 0 69.5 21t51 69.5t38.5 130.5l205 956h342l-215 -1009q-32 -155 -99 -260.5t-174.5 -159t-264.5 -53.5z
M391 -492q-98 0 -146 48.5t-48 121.5q0 68 29.5 126t78 106.5t103.5 89.5h194q-48 -50 -77 -89.5t-42.5 -73t-15.5 -66.5q0 -19 11.5 -28t25.5 -9q15 0 39.5 4t50.5 10l-45 -217q-41 -15 -80.5 -19t-77.5 -4z" />
    <glyph glyph-name="uogonek" unicode="&#x173;" horiz-adv-x="1006" 
d="M285 -20q-80 0 -135 32.5t-83 92t-28 141.5q0 35 5.5 78t12.5 88l154 721h328l-133 -629q-10 -46 -15.5 -88t-5.5 -70q0 -34 11 -53t40 -19q35 0 61.5 37t47.5 100t37 140l125 582h327l-239 -1133h-263l5 131h-7q-32 -46 -70.5 -80t-82 -52.5t-92.5 -18.5zM579 -492
q-98 0 -146 48.5t-48 121.5q0 68 29.5 126t78 106.5t103.5 89.5h194q-48 -50 -77 -89.5t-42.5 -73t-15.5 -66.5q0 -19 11.5 -28t25.5 -9q15 0 39.5 4t50.5 10l-45 -217q-41 -15 -80.5 -19t-77.5 -4z" />
    <glyph glyph-name="Wcircumflex" unicode="&#x174;" horiz-adv-x="1524" 
d="M135 0l55 1462h330l-33 -606q-4 -81 -10 -144t-12 -110h2q23 62 46.5 123t49.5 127l248 610h279l-23 -610q-3 -76 -6 -129t-8 -119h4q10 35 23 72.5t29.5 81t35.5 96.5l225 608h344l-557 -1462h-389l10 516q0 29 2 62t5.5 69t7.5 72h-5q-15 -46 -30.5 -92t-34.5 -90
l-205 -537h-383zM643 1579l4 25q44 45 85.5 94t81.5 101.5t79 107.5h297q10 -40 28 -93.5t40.5 -108t42.5 -97.5l-6 -29h-203q-14 17 -29.5 37.5t-31 45t-31.5 52.5q-45 -46 -80.5 -79.5t-63.5 -55.5h-213z" />
    <glyph glyph-name="wcircumflex" unicode="&#x175;" horiz-adv-x="1389" 
d="M102 0l29 1133h322l-23 -355q-4 -64 -11 -126.5t-13 -119.5h6q9 31 20.5 68t25 77t27.5 79l140 377h372l-24 -383q-4 -66 -10 -126.5t-11 -113.5h6q13 42 27 88t29 92t30 88l130 355h327l-457 -1133h-376l34 510q3 31 5.5 61.5t5 61.5t4.5 61h-6q-9 -28 -18 -54.5
t-17.5 -52t-18.5 -52.5l-194 -535h-361zM514 1241l4 25q44 45 85.5 94t81.5 101.5t79 107.5h297q10 -40 28 -93.5t40.5 -108t42.5 -97.5l-6 -29h-203q-14 17 -29.5 37.5t-31 45t-31.5 52.5q-45 -46 -80.5 -79.5t-63.5 -55.5h-213z" />
    <glyph glyph-name="Ycircumflex" unicode="&#x176;" horiz-adv-x="1001" 
d="M211 0l115 549l-136 913h357l39 -469l237 469h367l-518 -901l-119 -561h-342zM368 1579l4 25q44 45 85.5 94t81.5 101.5t79 107.5h297q10 -40 28 -93.5t40.5 -108t42.5 -97.5l-6 -29h-203q-14 17 -29.5 37.5t-31 45t-31.5 52.5q-45 -46 -80.5 -79.5t-63.5 -55.5h-213z
" />
    <glyph glyph-name="ycircumflex" unicode="&#x177;" horiz-adv-x="936" 
d="M33 -492q-51 0 -88 5.5t-68 15.5l60 293q26 -9 47.5 -14t38.5 -5q43 0 66.5 23t45.5 68l62 126l-70 1113h332l2 -445q0 -30 -0.5 -61.5t-1.5 -62.5l-2 -62h6q8 34 19 71t22 69.5t18 51.5l185 439h344l-590 -1260q-49 -103 -105 -186t-132.5 -131t-190.5 -48zM278 1241
l4 25q44 45 85.5 94t81.5 101.5t79 107.5h297q10 -40 28 -93.5t40.5 -108t42.5 -97.5l-6 -29h-203q-14 17 -29.5 37.5t-31 45t-31.5 52.5q-45 -46 -80.5 -79.5t-63.5 -55.5h-213z" />
    <glyph glyph-name="Ydieresis" unicode="&#x178;" horiz-adv-x="1001" 
d="M211 0l115 549l-136 913h357l39 -469l237 469h367l-518 -901l-119 -561h-342zM894 1595q-62 0 -95.5 29t-33.5 86q0 77 48.5 138t140.5 61q56 0 87.5 -29.5t31.5 -83.5q0 -91 -54.5 -146t-124.5 -55zM505 1595q-63 0 -95 29t-32 86q0 77 48.5 138t140.5 61q36 0 62 -13
t40.5 -38.5t14.5 -61.5q0 -91 -54 -146t-125 -55z" />
    <glyph glyph-name="Zacute" unicode="&#x179;" horiz-adv-x="897" 
d="M-80 0l49 240l619 927h-410l62 295h800l-49 -239l-620 -924h434l-64 -299h-821zM467 1579l6 23q37 50 72.5 100t70 101t66.5 104h363l-2 -17q-23 -24 -69.5 -67.5t-99.5 -93t-97.5 -91t-65.5 -59.5h-244z" />
    <glyph glyph-name="zacute" unicode="&#x17a;" horiz-adv-x="801" 
d="M-86 0l41 195l479 661h-319l59 277h694l-45 -213l-461 -644h338l-57 -276h-729zM379 1241l6 23q37 50 72.5 100t70 101t66.5 104h363l-2 -17q-23 -24 -69.5 -67.5t-99.5 -93t-97.5 -91t-65.5 -59.5h-244z" />
    <glyph glyph-name="Zdotaccent" unicode="&#x17b;" horiz-adv-x="897" 
d="M-80 0l49 240l619 927h-410l62 295h800l-49 -239l-620 -924h434l-64 -299h-821zM666 1581q-79 0 -118.5 38.5t-39.5 102.5q0 80 51 142.5t154 62.5q54 0 89 -16t52 -48t17 -79q0 -82 -52.5 -142.5t-152.5 -60.5z" />
    <glyph glyph-name="zdotaccent" unicode="&#x17c;" horiz-adv-x="801" 
d="M-86 0l41 195l479 661h-319l59 277h694l-45 -213l-461 -644h338l-57 -276h-729zM541 1243q-79 0 -118.5 38.5t-39.5 102.5q0 80 51 142.5t154 62.5q54 0 89 -16t52 -48t17 -79q0 -82 -52.5 -142.5t-152.5 -60.5z" />
    <glyph glyph-name="Zcaron" unicode="&#x17d;" horiz-adv-x="897" 
d="M-80 0l49 240l619 927h-410l62 295h800l-49 -239l-620 -924h434l-64 -299h-821zM501 1579q-12 44 -30 96.5t-39 105t-43 97.5l6 29h203q14 -16 29.5 -36.5t31.5 -45t31 -53.5q44 46 79.5 79.5t63.5 55.5h215l-6 -25q-32 -33 -80.5 -90.5t-94 -116t-69.5 -96.5h-297z" />
    <glyph glyph-name="zcaron" unicode="&#x17e;" horiz-adv-x="801" 
d="M-86 0l41 195l479 661h-319l59 277h694l-45 -213l-461 -644h338l-57 -276h-729zM370 1241q-12 44 -30 96.5t-39 105t-43 97.5l6 29h203q14 -16 29.5 -36.5t31.5 -45t31 -53.5q44 46 79.5 79.5t63.5 55.5h215l-6 -25q-32 -33 -80.5 -90.5t-94 -116t-69.5 -96.5h-297z" />
    <glyph glyph-name="longs" unicode="&#x17f;" horiz-adv-x="610" 
d="M-66 -492q-38 0 -74 4t-77 19v285q17 -10 49.5 -15.5t50.5 -5.5q60 0 81 36t36 103l266 1258q20 102 61 187t113.5 136.5t186.5 51.5q62 0 122.5 -13t124.5 -45l-112 -245q-22 12 -45.5 19t-38.5 7q-27 0 -45.5 -18t-30.5 -53t-20 -86l-260 -1225q-28 -130 -73 -219
t-120.5 -135t-194.5 -46z" />
    <glyph glyph-name="florin" unicode="&#x192;" horiz-adv-x="971" 
d="M82 -492q-60 0 -99.5 10t-68.5 23v277q28 -16 69 -24.5t54 -8.5q32 0 48.5 28.5t29.5 88.5l184 868h-113l37 170l129 92l23 84q34 139 81 219t115.5 114t165.5 34q60 0 117.5 -13.5t124.5 -44.5l-113 -245q-34 15 -55 20.5t-37 5.5q-35 0 -50.5 -30.5t-25.5 -67.5
l-14 -66h166l-57 -272h-166l-181 -842q-29 -144 -75 -237t-116 -138t-173 -45z" />
    <glyph glyph-name="Ohorn" unicode="&#x1a0;" horiz-adv-x="1221" 
d="M498 -20q-145 0 -239.5 52.5t-140.5 162t-46 280.5q0 122 21 243.5t61.5 234.5t99 210t135 169t168.5 112.5t199 40.5q125 0 210 -41t136 -121q38 47 60 112t28 121h305l6 -20q-29 -152 -104.5 -273t-222.5 -192q2 -18 2 -38v-42q0 -123 -20.5 -245t-60 -235
t-97.5 -209.5t-133.5 -168.5t-167 -112.5t-199.5 -40.5zM522 285q48 0 88.5 37t73.5 99t58 139t42.5 157.5t26 154.5t8.5 129q0 94 -24 139.5t-68 45.5t-83 -34t-72 -92.5t-59.5 -132.5t-45 -154t-28 -157.5t-9.5 -142.5q0 -77 10.5 -117.5t31.5 -55.5t50 -15z" />
    <glyph glyph-name="ohorn" unicode="&#x1a1;" horiz-adv-x="1114" 
d="M395 -20q-112 0 -192.5 47t-123 134.5t-42.5 209.5q0 115 23.5 228.5t70 213t114 176t155 120.5t194.5 44q100 0 173 -39.5t118 -112.5q45 32 75.5 79t47.5 103.5t22 116.5h303l4 -20q-25 -130 -74 -229.5t-126.5 -164t-190.5 -91.5v-17.5v-15.5q0 -117 -24 -230.5
t-70 -213t-113 -175.5t-153.5 -119.5t-190.5 -43.5zM434 256q30 0 57.5 35t50 92.5t39.5 125.5t26 134.5t9 118.5q0 38 -6.5 63.5t-20.5 38.5t-38 13q-32 0 -60 -37.5t-51 -97.5t-39 -129t-25 -134t-9 -110q0 -54 16 -83.5t51 -29.5z" />
    <glyph glyph-name="Uhorn" unicode="&#x1af;" horiz-adv-x="1341" 
d="M451 -20q-118 0 -203 42.5t-130.5 122.5t-45.5 191q0 35 5.5 81.5t14.5 92.5l203 952h342l-203 -958q-7 -31 -10.5 -59t-3.5 -50q0 -58 19.5 -84t58.5 -26q40 0 69.5 21t51 69.5t38.5 130.5l205 956h342l-45 -209q41 7 71 52t50.5 112.5t30.5 138.5h305l4 -20
q-22 -112 -63.5 -204t-104 -158t-147.5 -102t-193 -36l-123 -583q-32 -156 -100 -261.5t-176 -158.5t-262 -53z" />
    <glyph glyph-name="uhorn" unicode="&#x1b0;" horiz-adv-x="1237" 
d="M285 -20q-80 0 -135 32.5t-83 92t-28 141.5q0 35 5.5 78t12.5 88l154 721h328l-133 -629q-10 -46 -15.5 -88t-5.5 -70q0 -34 11 -53t40 -19q35 0 61.5 37t47.5 100t37 140l125 582h327l-28 -136q49 16 78.5 63.5t45 111.5t23.5 128h305l4 -20q-20 -97 -56.5 -186
t-95.5 -159t-145.5 -111.5t-206.5 -45.5l-163 -778h-263l5 131h-7q-32 -46 -70.5 -80t-82 -52.5t-92.5 -18.5z" />
    <glyph glyph-name="uni01EA" unicode="&#x1ea;" horiz-adv-x="1176" 
d="M498 -20q-145 0 -239.5 52.5t-140.5 162t-46 280.5q0 115 20 234t59.5 232.5t97.5 211.5t134 173t169.5 117t203.5 42q221 0 320.5 -125.5t99.5 -368.5q0 -98 -16.5 -210.5t-51.5 -226t-89 -216.5t-129.5 -183.5t-173 -127.5t-218.5 -47zM522 285q47 0 87.5 36t73.5 96.5
t58.5 136.5t42.5 156.5t26 156t9 134.5q0 94 -24 139.5t-68 45.5q-47 0 -87 -35.5t-73.5 -96t-58.5 -135.5t-42.5 -155.5t-26.5 -155.5t-9 -135q0 -77 10.5 -117.5t31.5 -55.5t50 -15zM407 -492q-98 0 -146 48.5t-48 121.5q0 68 29.5 126t78 106.5t103.5 89.5h194
q-48 -50 -77 -89.5t-42.5 -73t-15.5 -66.5q0 -19 11.5 -28t25.5 -9q15 0 39.5 4t50.5 10l-45 -217q-41 -15 -80.5 -19t-77.5 -4z" />
    <glyph glyph-name="uni01EB" unicode="&#x1eb;" horiz-adv-x="981" 
d="M395 -20q-112 0 -192.5 47t-123 134.5t-42.5 209.5q0 89 18.5 194.5t59 209t105.5 189t157.5 137.5t216.5 52q111 0 189.5 -48.5t120.5 -136t42 -206.5q0 -96 -19.5 -203.5t-60.5 -210t-106 -186t-155.5 -133t-209.5 -49.5zM434 256q32 0 60 36t50.5 94.5t38.5 127
t24.5 134t8.5 114.5q0 38 -6.5 63.5t-20.5 38.5t-38 13q-34 0 -62.5 -36t-51 -94.5t-38.5 -127t-24 -134.5t-8 -116q0 -54 16 -83.5t51 -29.5zM305 -492q-98 0 -146 48.5t-48 121.5q0 68 29.5 126t78 106.5t103.5 89.5h194q-48 -50 -77 -89.5t-42.5 -73t-15.5 -66.5
q0 -19 11.5 -28t25.5 -9q15 0 39.5 4t50.5 10l-45 -217q-41 -15 -80.5 -19t-77.5 -4z" />
    <glyph glyph-name="uni01EC" unicode="&#x1ec;" horiz-adv-x="1176" 
d="M498 -20q-145 0 -239.5 52.5t-140.5 162t-46 280.5q0 115 20 234t59.5 232.5t97.5 211.5t134 173t169.5 117t203.5 42q221 0 320.5 -125.5t99.5 -368.5q0 -98 -16.5 -210.5t-51.5 -226t-89 -216.5t-129.5 -183.5t-173 -127.5t-218.5 -47zM522 285q47 0 87.5 36t73.5 96.5
t58.5 136.5t42.5 156.5t26 156t9 134.5q0 94 -24 139.5t-68 45.5q-47 0 -87 -35.5t-73.5 -96t-58.5 -135.5t-42.5 -155.5t-26.5 -155.5t-9 -135q0 -77 10.5 -117.5t31.5 -55.5t50 -15zM516 1606l49 236h576l-49 -236h-576zM407 -492q-98 0 -146 48.5t-48 121.5
q0 68 29.5 126t78 106.5t103.5 89.5h194q-48 -50 -77 -89.5t-42.5 -73t-15.5 -66.5q0 -19 11.5 -28t25.5 -9q15 0 39.5 4t50.5 10l-45 -217q-41 -15 -80.5 -19t-77.5 -4z" />
    <glyph glyph-name="uni01ED" unicode="&#x1ed;" horiz-adv-x="981" 
d="M395 -20q-112 0 -192.5 47t-123 134.5t-42.5 209.5q0 89 18.5 194.5t59 209t105.5 189t157.5 137.5t216.5 52q111 0 189.5 -48.5t120.5 -136t42 -206.5q0 -96 -19.5 -203.5t-60.5 -210t-106 -186t-155.5 -133t-209.5 -49.5zM434 256q32 0 60 36t50.5 94.5t38.5 127
t24.5 134t8.5 114.5q0 38 -6.5 63.5t-20.5 38.5t-38 13q-34 0 -62.5 -36t-51 -94.5t-38.5 -127t-24 -134.5t-8 -116q0 -54 16 -83.5t51 -29.5zM328 1241l49 236h576l-49 -236h-576zM305 -492q-98 0 -146 48.5t-48 121.5q0 68 29.5 126t78 106.5t103.5 89.5h194
q-48 -50 -77 -89.5t-42.5 -73t-15.5 -66.5q0 -19 11.5 -28t25.5 -9q15 0 39.5 4t50.5 10l-45 -217q-41 -15 -80.5 -19t-77.5 -4z" />
    <glyph glyph-name="uni01F0" unicode="&#x1f0;" horiz-adv-x="516" 
d="M-104 -492q-37 0 -74 4t-78 19v285q19 -10 51.5 -15.5t50.5 -5.5q36 0 58 15t35.5 45.5t23.5 78.5l254 1199h326l-260 -1225q-27 -128 -70.5 -217.5t-118.5 -136t-198 -46.5zM240 1241q-12 44 -30 96.5t-39 105t-43 97.5l6 29h203q14 -16 29.5 -36.5t31.5 -45t31 -53.5
q44 46 79.5 79.5t63.5 55.5h215l-6 -25q-32 -33 -80.5 -90.5t-94 -116t-69.5 -96.5h-297z" />
    <glyph glyph-name="Aringacute" unicode="&#x1fa;" horiz-adv-x="1090" 
d="M-119 0l602 1405q-4 19 -7 40t-3 44q0 112 69.5 180t186.5 68q111 0 182.5 -70t71.5 -174q0 -38 -9 -73t-26 -64l23 -1356h-365l8 285h-249l-109 -285h-375zM477 582h156l16 379q2 49 4 97t9 105h-7q-9 -53 -21.5 -99.5t-29.5 -96.5zM729 1397q40 0 65 24.5t25 65.5
q0 40 -24.5 66t-65.5 26q-43 0 -67.5 -26t-24.5 -66q0 -41 22.5 -65.5t69.5 -24.5zM641 1790l2 10l56 56t55 57.5t51 60.5h383l-2 -6q-32 -23 -83.5 -58t-103.5 -68t-84 -52h-274z" />
    <glyph glyph-name="aringacute" unicode="&#x1fb;" horiz-adv-x="997" 
d="M264 -20q-72 0 -125 41.5t-81.5 117.5t-28.5 180q0 87 17 197t51.5 221.5t87.5 206t126 152t166 57.5q43 0 81.5 -15t70 -49t51.5 -92h6l53 136h287l-242 -1133h-266l-8 135h-8q-35 -44 -69.5 -79t-75 -55.5t-93.5 -20.5zM412 256q44 0 75.5 47.5t52.5 114.5t33 125
q22 95 27.5 140.5t5.5 74.5q0 57 -15 83.5t-46 26.5t-58.5 -37t-49.5 -96t-37.5 -126.5t-24 -130.5t-8.5 -107q0 -57 11.5 -86t33.5 -29zM670 1204q-120 0 -187 68.5t-67 181.5q0 114 69.5 182t184.5 68q109 0 179.5 -65.5t74.5 -178.5q0 -112 -68 -184t-186 -72zM670 1364
q41 0 66.5 24.5t25.5 65.5q0 40 -24.5 66t-67.5 26t-66.5 -26t-23.5 -66q0 -41 21 -65.5t69 -24.5zM590 1763l4 15q28 31 56.5 62.5t56.5 65t53 68.5h383l-2 -8q-32 -26 -88 -68t-110 -80t-81 -55h-272z" />
    <glyph glyph-name="AEacute" unicode="&#x1fc;" horiz-adv-x="1409" 
d="M-127 0l719 1462h921l-61 -295h-322l-55 -264h297l-63 -295h-297l-66 -309h322l-64 -299h-659l61 285h-231l-133 -285h-369zM510 584h160l123 583h-19zM782 1579l6 23q37 50 72.5 100t70 101t66.5 104h363l-2 -17q-23 -24 -69.5 -67.5t-99.5 -93t-97.5 -91t-65.5 -59.5
h-244z" />
    <glyph glyph-name="aeacute" unicode="&#x1fd;" horiz-adv-x="1450" 
d="M246 -20q-63 0 -112 41.5t-77 117.5t-28 180q0 106 18.5 221.5t55.5 224.5t91 196.5t125 139.5t158 52q38 0 77 -11.5t73 -37.5t55 -68h2l25 97h227l-6 -56q40 31 90 52.5t127 21.5q134 0 212.5 -82.5t78.5 -210.5q0 -103 -40 -178t-113.5 -123.5t-174 -72t-221.5 -23.5
h-21q-3 -17 -4.5 -34.5t-1.5 -31.5q0 -84 32.5 -117.5t96.5 -33.5q72 0 144.5 23t169.5 77l-60 -276q-86 -51 -159 -69.5t-162 -18.5q-74 0 -118.5 18t-66.5 43l-10 -41h-227l18 125h-6q-36 -43 -78 -75.5t-89.5 -51t-100.5 -18.5zM412 256q37 0 64 30.5t46 76.5t31.5 95
t19.5 85q22 95 27.5 140.5t5.5 74.5q0 57 -15 83.5t-46 26.5q-28 0 -54 -33t-48.5 -87t-39.5 -120t-26.5 -133t-9.5 -124t11.5 -86t33.5 -29zM918 694h4q89 0 136 17.5t64 47.5t17 66q0 31 -20.5 50.5t-51.5 19.5q-43 0 -72.5 -35t-48 -82.5t-28.5 -83.5zM678 1241l6 23
q37 50 72.5 100t70 101t66.5 104h363l-2 -17q-23 -24 -69.5 -67.5t-99.5 -93t-97.5 -91t-65.5 -59.5h-244z" />
    <glyph glyph-name="Oslashacute" unicode="&#x1fe;" horiz-adv-x="1176" 
d="M176 -117l-147 86l114 176q-37 59 -54 141.5t-17 188.5q0 115 20 234t59.5 232.5t97.5 211.5t134 173t169.5 117t203.5 42q71 0 129 -13.5t104 -37.5l80 122l148 -86l-107 -161q34 -60 50 -140t16 -178t-16.5 -210.5t-51.5 -226t-89 -216.5t-129.5 -183.5t-173 -127.5
t-218.5 -47q-69 0 -126 11t-104 36zM522 285q37 0 70 22.5t61 61.5t52 91t42.5 111.5t32.5 122.5t23 123q3 16 5 30t3 27l-358 -550q12 -22 29.5 -30.5t39.5 -8.5zM434 567l367 561q-13 29 -31 43.5t-43 14.5q-37 0 -69.5 -22.5t-61 -62.5t-53 -92.5t-43.5 -113t-33 -123
t-23 -123.5q-3 -21 -5.5 -41.5t-4.5 -40.5zM598 1579l6 23q37 50 72.5 100t70 101t66.5 104h363l-2 -17q-23 -24 -69.5 -67.5t-99.5 -93t-97.5 -91t-65.5 -59.5h-244z" />
    <glyph glyph-name="oslashacute" unicode="&#x1ff;" horiz-adv-x="981" 
d="M131 -131l-141 88l110 168q-31 47 -47 108.5t-16 137.5q0 89 18.5 194.5t59 209t105.5 189t157.5 137.5t216.5 52q47 0 89 -9t77 -26l76 115l141 -88l-92 -139q29 -49 45 -110.5t16 -133.5q0 -96 -19.5 -203.5t-60.5 -210t-106 -186t-155.5 -133t-209.5 -49.5
q-47 0 -90 9t-78 25zM430 242q29 0 54.5 22t47 60.5t39.5 86.5t31 101t21 104q2 11 3.5 21.5t2.5 19.5l-254 -385q11 -13 25.5 -21.5t29.5 -8.5zM354 467l258 391q-10 16 -24 24.5t-33 8.5q-25 0 -49 -21.5t-45.5 -59t-40.5 -85t-33.5 -100t-24.5 -103.5q-1 -13 -3.5 -27
t-4.5 -28zM461 1241l6 23q37 50 72.5 100t70 101t66.5 104h363l-2 -17q-23 -24 -69.5 -67.5t-99.5 -93t-97.5 -91t-65.5 -59.5h-244z" />
    <glyph glyph-name="uni0218" unicode="&#x218;" horiz-adv-x="891" 
d="M311 -20q-109 0 -193 20.5t-155 75.5l74 348q52 -46 129 -84.5t147 -38.5q23 0 48.5 5.5t47.5 19.5t36 40.5t14 69.5q0 31 -9 58.5t-34.5 58.5t-73.5 72q-63 53 -103 108t-58.5 121t-18.5 152q0 98 30.5 184.5t92 152.5t156 103t221.5 37q83 0 174 -27t168 -84l-152 -307
q-61 49 -115 75.5t-94 26.5q-23 0 -44.5 -7.5t-39 -22.5t-27.5 -39.5t-10 -59.5q0 -25 9 -51.5t36 -58.5t82 -74q64 -49 101.5 -104.5t54 -122.5t16.5 -150q0 -94 -31 -183t-93.5 -160t-158.5 -112.5t-227 -41.5zM11 -453v25q15 41 33.5 94t36 108t28.5 101h307v-18
q-23 -50 -54 -105.5t-64 -108.5t-64 -96h-223z" />
    <glyph glyph-name="uni0219" unicode="&#x219;" horiz-adv-x="793" 
d="M295 -20q-109 0 -173 16t-126 51v303q62 -41 132 -63.5t124 -22.5q28 0 51 8.5t37 25.5t14 42q0 18 -6.5 39t-28.5 48.5t-67 64.5q-61 50 -91.5 97.5t-40 93.5t-9.5 93q0 105 42 190.5t126.5 136t209.5 50.5q97 0 186.5 -27.5t149.5 -70.5l-125 -248q-50 44 -105.5 63
t-84.5 19t-45 -16.5t-16 -47.5q0 -19 5.5 -36t26.5 -39.5t68 -59.5q49 -40 83 -81.5t52 -97t18 -136.5q0 -105 -48 -195t-139 -145t-220 -55zM-2 -453v25q15 41 33.5 94t36 108t28.5 101h307v-18q-23 -50 -54 -105.5t-64 -108.5t-64 -96h-223z" />
    <glyph glyph-name="uni021A" unicode="&#x21a;" horiz-adv-x="879" 
d="M150 0l245 1161h-235l63 301h815l-63 -301h-238l-245 -1161h-342zM41 -453v25q15 41 33.5 94t36 108t28.5 101h307v-18q-23 -50 -54 -105.5t-64 -108.5t-64 -96h-223z" />
    <glyph glyph-name="uni021B" unicode="&#x21b;" horiz-adv-x="700" 
d="M319 -20q-133 0 -186 75t-53 189q0 37 5 79.5t17 100.5l93 436h-103l35 170l156 92l114 238h232l-49 -227h192l-57 -273h-193l-102 -483q-3 -14 -5.5 -28t-2.5 -25q0 -31 12 -44.5t43 -13.5q15 0 51 7t74 24v-262q-57 -31 -136.5 -43t-136.5 -12zM41 -453v25
q15 41 33.5 94t36 108t28.5 101h307v-18q-23 -50 -54 -105.5t-64 -108.5t-64 -96h-223z" />
    <glyph glyph-name="uni0237" unicode="&#x237;" horiz-adv-x="516" 
d="M-104 -492q-37 0 -74 4t-78 19v285q19 -10 51.5 -15.5t50.5 -5.5q36 0 58 15t35.5 45.5t23.5 78.5l254 1199h326l-260 -1225q-27 -128 -70.5 -217.5t-118.5 -136t-198 -46.5z" />
    <glyph glyph-name="uni0259" unicode="&#x259;" horiz-adv-x="944" 
d="M338 -20q-145 0 -235.5 79.5t-90.5 212.5q0 103 40.5 178t114 124t174.5 72.5t222 23.5h21q3 17 4.5 34.5t1.5 30.5q0 86 -33 119t-96 33q-72 0 -144.5 -23.5t-169.5 -77.5l60 279q86 49 163.5 67.5t168.5 18.5q116 0 198.5 -45.5t127 -130.5t44.5 -205
q0 -133 -32.5 -272t-101.5 -256.5t-177.5 -189.5t-259.5 -72zM385 236q28 0 54.5 20.5t50.5 65t42 114.5h-12q-84 0 -128.5 -17t-61.5 -46.5t-17 -67.5q0 -31 20.5 -50t51.5 -19z" />
    <glyph glyph-name="uni02BC" unicode="&#x2bc;" horiz-adv-x="532" 
d="M135 879q35 93 67.5 188t63.5 193.5t60 201.5h319l4 -20q-37 -110 -76 -210t-80.5 -188t-84.5 -165h-273z" />
    <glyph glyph-name="circumflex" unicode="&#x2c6;" horiz-adv-x="817" 
d="M227 1241l4 25q44 45 85.5 94t81.5 101.5t79 107.5h297q10 -40 28 -93.5t40.5 -108t42.5 -97.5l-6 -29h-203q-14 17 -29.5 37.5t-31 45t-31.5 52.5q-45 -46 -80.5 -79.5t-63.5 -55.5h-213z" />
    <glyph glyph-name="caron" unicode="&#x2c7;" horiz-adv-x="817" 
d="M401 1241q-12 44 -30 96.5t-39 105t-43 97.5l6 29h203q14 -16 29.5 -36.5t31.5 -45t31 -53.5q44 46 79.5 79.5t63.5 55.5h215l-6 -25q-32 -33 -80.5 -90.5t-94 -116t-69.5 -96.5h-297z" />
    <glyph glyph-name="macron" unicode="&#x2c9;" horiz-adv-x="739" 
d="M225 1241l49 236h576l-49 -236h-576z" />
    <glyph glyph-name="breve" unicode="&#x2d8;" horiz-adv-x="780" 
d="M561 1241q-98 0 -157.5 31t-86 86t-26.5 127q0 28 4 60t10 67h199q0 -40 5.5 -72t22 -51t48.5 -19q49 0 83.5 31.5t53.5 110.5h203q-32 -180 -128.5 -275.5t-230.5 -95.5z" />
    <glyph glyph-name="dotaccent" unicode="&#x2d9;" horiz-adv-x="524" 
d="M420 1243q-79 0 -118.5 38.5t-39.5 102.5q0 80 51 142.5t154 62.5q54 0 89 -16t52 -48t17 -79q0 -82 -52.5 -142.5t-152.5 -60.5z" />
    <glyph glyph-name="ring" unicode="&#x2da;" horiz-adv-x="686" 
d="M541 1239q-121 0 -188.5 68.5t-67.5 183.5q0 112 69.5 180t186.5 68q106 0 180 -67t74 -177q0 -112 -68 -184t-186 -72zM541 1399q40 0 65 24.5t25 65.5q0 40 -24.5 66t-65.5 26q-43 0 -67.5 -26t-24.5 -66q0 -41 22 -65.5t70 -24.5z" />
    <glyph glyph-name="ogonek" unicode="&#x2db;" horiz-adv-x="553" 
d="M94 -492q-98 0 -146 48.5t-48 121.5q0 68 29.5 126t78 106.5t103.5 89.5h194q-48 -50 -77 -89.5t-42.5 -73t-15.5 -66.5q0 -19 11.5 -28t25.5 -9q15 0 39.5 4t50.5 10l-45 -217q-41 -15 -80.5 -19t-77.5 -4z" />
    <glyph glyph-name="tilde" unicode="&#x2dc;" horiz-adv-x="838" 
d="M225 1237q18 92 46 170t77 125t129 47q51 0 86 -14.5t61 -33.5t48 -33.5t45 -14.5q25 0 42 22t29 76h183q-20 -129 -61.5 -203.5t-92.5 -106.5t-102 -32q-49 0 -83.5 14.5t-60.5 33.5t-48 33.5t-46 14.5q-18 0 -38 -21t-31 -77h-183z" />
    <glyph glyph-name="hungarumlaut" unicode="&#x2dd;" horiz-adv-x="961" 
d="M592 1241l6 25q49 74 87.5 132.5t66 102t41.5 68.5h297l-3 -17q-20 -29 -57 -68.5t-82.5 -83.5t-92 -85.5t-85.5 -73.5h-178zM225 1241l6 25q50 75 88.5 134t65.5 102t41 67h295l-4 -17q-16 -28 -51.5 -66.5t-82 -81.5t-97.5 -85.5t-99 -77.5h-162z" />
    <glyph glyph-name="uni02F3" unicode="&#x2f3;" horiz-adv-x="801" 
d="M209 -594q-120 0 -187 68t-67 182q0 112 68.5 180t185.5 68q103 0 178.5 -67t75.5 -177q0 -112 -67.5 -183t-186.5 -71zM209 -436q41 0 66.5 25.5t25.5 66.5q0 38 -24.5 64t-67.5 26t-66.5 -26t-23.5 -64q0 -41 21 -66.5t69 -25.5z" />
    <glyph glyph-name="gravecomb" unicode="&#x300;" 
d="M-414 1241q-24 34 -62.5 93t-74.5 119t-55 97v19h364q9 -39 20 -85t26 -99.5t34 -116.5l-2 -27h-250z" />
    <glyph glyph-name="acutecomb" unicode="&#x301;" 
d="M-627 1241l6 23q37 50 72.5 100t70 101t66.5 104h363l-2 -17q-23 -24 -69.5 -67.5t-99.5 -93t-97.5 -91t-65.5 -59.5h-244z" />
    <glyph glyph-name="uni0302" unicode="&#x302;" 
d="M-193 1241l4 25q44 45 85.5 94t81.5 101.5t79 107.5h297q10 -40 28 -93.5t40.5 -108t42.5 -97.5l-6 -29h-203q-14 17 -29.5 37.5t-31 45t-31.5 52.5q-45 -46 -80.5 -79.5t-63.5 -55.5h-213z" />
    <glyph glyph-name="tildecomb" unicode="&#x303;" 
d="M-791 1237q18 92 46 170t77 125t129 47q51 0 86 -14.5t61 -33.5t48 -33.5t45 -14.5q25 0 42 22t29 76h183q-20 -129 -61.5 -203.5t-92.5 -106.5t-102 -32q-49 0 -83.5 14.5t-60.5 33.5t-48 33.5t-46 14.5q-18 0 -38 -21t-31 -77h-183z" />
    <glyph glyph-name="uni0304" unicode="&#x304;" 
d="M-135 1241l49 236h576l-49 -236h-576z" />
    <glyph glyph-name="uni0306" unicode="&#x306;" 
d="M207 1241q-98 0 -157.5 31t-86 86t-26.5 127q0 28 4 60t10 67h199q0 -40 5.5 -72t22 -51t48.5 -19q49 0 83.5 31.5t53.5 110.5h203q-32 -180 -128.5 -275.5t-230.5 -95.5z" />
    <glyph glyph-name="uni0307" unicode="&#x307;" 
d="M148 1243q-79 0 -118.5 38.5t-39.5 102.5q0 80 51 142.5t154 62.5q54 0 89 -16t52 -48t17 -79q0 -82 -52.5 -142.5t-152.5 -60.5z" />
    <glyph glyph-name="uni0308" unicode="&#x308;" 
d="M358 1257q-62 0 -95.5 29t-33.5 86q0 77 48.5 138t140.5 61q56 0 87.5 -29.5t31.5 -83.5q0 -91 -54.5 -146t-124.5 -55zM-31 1257q-63 0 -95 29t-32 86q0 77 48.5 138t140.5 61q36 0 62 -13t40.5 -38.5t14.5 -61.5q0 -91 -54 -146t-125 -55z" />
    <glyph glyph-name="hookabovecomb" unicode="&#x309;" 
d="M-424 1225l18 127q33 7 55 21.5t33 34.5t11 42q0 32 -16.5 43.5t-36.5 11.5q-13 0 -36 -5.5t-40 -16.5v188q40 19 89.5 30t96.5 11q101 0 156 -55t55 -152q0 -76 -49.5 -142t-157.5 -91l-22 -47h-156z" />
    <glyph glyph-name="uni030A" unicode="&#x30a;" 
d="M191 1239q-121 0 -188.5 68.5t-67.5 183.5q0 112 69.5 180t186.5 68q106 0 180 -67t74 -177q0 -112 -68 -184t-186 -72zM191 1399q40 0 65 24.5t25 65.5q0 40 -24.5 66t-65.5 26q-43 0 -67.5 -26t-24.5 -66q0 -41 22 -65.5t70 -24.5z" />
    <glyph glyph-name="uni030B" unicode="&#x30b;" 
d="M137 1241l6 25q49 74 87.5 132.5t66 102t41.5 68.5h297l-3 -17q-20 -29 -57 -68.5t-82.5 -83.5t-92 -85.5t-85.5 -73.5h-178zM-230 1241l6 25q50 75 88.5 134t65.5 102t41 67h295l-4 -17q-16 -28 -51.5 -66.5t-82 -81.5t-97.5 -85.5t-99 -77.5h-162z" />
    <glyph glyph-name="uni030C" unicode="&#x30c;" 
d="M-7 1241q-12 44 -30 96.5t-39 105t-43 97.5l6 29h203q14 -16 29.5 -36.5t31.5 -45t31 -53.5q44 46 79.5 79.5t63.5 55.5h215l-6 -25q-32 -33 -80.5 -90.5t-94 -116t-69.5 -96.5h-297z" />
    <glyph glyph-name="uni030F" unicode="&#x30f;" 
d="M-225 1241q-45 50 -87.5 108.5t-72 112t-35.5 86.5l4 21h297q4 -24 12.5 -66t21.5 -100t30 -133l-6 -29h-164zM-596 1241q-37 44 -78 104.5t-71 116.5t-35 86l4 21h299q5 -42 15 -94t23 -105.5t27 -99.5l-6 -29h-178z" />
    <glyph glyph-name="uni0312" unicode="&#x312;" 
d="M-117 879l-6 20q38 111 77.5 210.5t81 188t85.5 164.5h272q-21 -54 -48 -131.5t-54.5 -162.5t-51 -161.5t-36.5 -127.5h-320z" />
    <glyph glyph-name="dotbelowcomb" unicode="&#x323;" 
d="M-707 -477q-78 0 -117.5 38.5t-39.5 102.5q0 80 51 142.5t154 62.5q54 0 89 -16t51.5 -48t16.5 -79q0 -82 -52 -142.5t-153 -60.5z" />
    <glyph glyph-name="uni0326" unicode="&#x326;" 
d="M-20 -453v25q15 41 33.5 94t36 108t28.5 101h307v-18q-23 -50 -54 -105.5t-64 -108.5t-64 -96h-223z" />
    <glyph glyph-name="uni0327" unicode="&#x327;" 
d="M-233 -492q-43 0 -85 5t-83 18v180q25 -6 55.5 -11t58.5 -5q27 0 45.5 7.5t27.5 23t9 38.5q0 29 -26.5 47.5t-77.5 18.5l100 170h156l-41 -70q62 -9 103.5 -50.5t41.5 -115.5q0 -96 -38.5 -152t-103 -80t-142.5 -24z" />
    <glyph glyph-name="uni0328" unicode="&#x328;" 
d="M-178 -494q-98 0 -146 48.5t-48 121.5q0 68 29.5 126t78 106.5t103.5 89.5h194q-48 -50 -77 -89.5t-42.5 -73t-15.5 -66.5q0 -19 11.5 -28t25.5 -9q15 0 39.5 4t50.5 10l-45 -217q-41 -15 -80.5 -19t-77.5 -4z" />
    <glyph glyph-name="tonos" unicode="&#x384;" horiz-adv-x="793" 
d="M410 1241l6 29q10 20 26.5 61t35 88.5t33.5 88t21 59.5h291l-4 -21q-19 -31 -44.5 -72t-53.5 -83.5t-55 -81.5t-50 -68h-206z" />
    <glyph glyph-name="dieresistonos" unicode="&#x385;" horiz-adv-x="825" 
d="M492 1419v21l28.5 85.5t35.5 110.5t22 80h264l-4 -14q-16 -34 -51 -88.5t-72 -108.5t-60 -86h-163zM291 1257q-58 0 -88.5 29t-30.5 86q0 77 44 138t130 61q51 0 80 -29.5t29 -83.5q0 -91 -49.5 -146t-114.5 -55zM852 1257q-57 0 -87 29t-30 86q0 77 44 138t128 61
q51 0 80 -29.5t29 -83.5q0 -91 -49.5 -146t-114.5 -55z" />
    <glyph glyph-name="Alphatonos" unicode="&#x386;" horiz-adv-x="1145" 
d="M-64 0l631 1468h436l23 -1468h-365l8 285h-249l-109 -285h-375zM532 582h156l16 379q2 49 4 97t9 105h-7q-9 -53 -21.5 -99.5t-29.5 -96.5zM52 1137l6 29q10 20 26.5 61t35 88.5t33.5 88t21 59.5h291l-4 -21q-19 -31 -44.5 -72t-53.5 -83.5t-55 -81.5t-50 -68h-206z" />
    <glyph glyph-name="anoteleia" unicode="&#x387;" horiz-adv-x="532" 
d="M326 766q-79 0 -119.5 35.5t-40.5 104.5q0 95 60 169t173 74q69 0 108.5 -36t39.5 -101q0 -112 -67.5 -179t-153.5 -67z" />
    <glyph glyph-name="Epsilontonos" unicode="&#x388;" horiz-adv-x="1130" 
d="M262 0l309 1462h664l-62 -295h-321l-58 -264h299l-63 -295h-297l-68 -309h324l-64 -299h-663zM91 1137l6 29q10 20 26.5 61t35 88.5t33.5 88t21 59.5h291l-4 -21q-19 -31 -44.5 -72t-53.5 -83.5t-55 -81.5t-50 -68h-206z" />
    <glyph glyph-name="Etatonos" unicode="&#x389;" horiz-adv-x="1425" 
d="M262 0l309 1462h342l-117 -553h252l119 553h342l-311 -1462h-342l129 610h-252l-129 -610h-342zM91 1137l6 29q10 20 26.5 61t35 88.5t33.5 88t21 59.5h291l-4 -21q-19 -31 -44.5 -72t-53.5 -83.5t-55 -81.5t-50 -68h-206z" />
    <glyph glyph-name="Iotatonos" unicode="&#x38a;" horiz-adv-x="852" 
d="M283 0l311 1462h342l-311 -1462h-342zM91 1137l6 29q10 20 26.5 61t35 88.5t33.5 88t21 59.5h291l-4 -21q-19 -31 -44.5 -72t-53.5 -83.5t-55 -81.5t-50 -68h-206z" />
    <glyph glyph-name="Omicrontonos" unicode="&#x38c;" horiz-adv-x="1358" 
d="M680 -20q-145 0 -239.5 52.5t-140.5 162t-46 280.5q0 115 20 234t59.5 232.5t97.5 211.5t134 173t169.5 117t203.5 42q221 0 320.5 -125.5t99.5 -368.5q0 -98 -16.5 -210.5t-51.5 -226t-89 -216.5t-129.5 -183.5t-173 -127.5t-218.5 -47zM704 285q47 0 87.5 36t73.5 96.5
t58.5 136.5t42.5 156.5t26 156t9 134.5q0 94 -24 139.5t-68 45.5q-47 0 -87 -35.5t-73.5 -96t-58.5 -135.5t-42.5 -155.5t-26.5 -155.5t-9 -135q0 -77 10.5 -117.5t31.5 -55.5t50 -15zM91 1137l6 29q10 20 26.5 61t35 88.5t33.5 88t21 59.5h291l-4 -21q-19 -31 -44.5 -72
t-53.5 -83.5t-55 -81.5t-50 -68h-206z" />
    <glyph glyph-name="Upsilontonos" unicode="&#x38e;" horiz-adv-x="1350" 
d="M559 0l115 549l-136 913h357l39 -469l237 469h367l-518 -901l-119 -561h-342zM91 1137l6 29q10 20 26.5 61t35 88.5t33.5 88t21 59.5h291l-4 -21q-19 -31 -44.5 -72t-53.5 -83.5t-55 -81.5t-50 -68h-206z" />
    <glyph glyph-name="Omegatonos" unicode="&#x38f;" horiz-adv-x="1360" 
d="M70 1137l6 29q10 20 26.5 61t35 88.5t33.5 88t21 59.5h291l-4 -21q-19 -31 -44.5 -72t-53.5 -83.5t-55 -81.5t-50 -68h-206zM98 0l64 299h268q-52 47 -82 107.5t-42.5 130t-12.5 143.5q0 121 29.5 238t85 219.5t134 180.5t177 122.5t213.5 44.5q140 0 239.5 -56t152 -158
t52.5 -241q0 -111 -23.5 -218t-70.5 -202.5t-117 -175t-164 -135.5h268l-63 -299h-512l70 336q64 48 111.5 129t79 176.5t47.5 188.5t16 163q0 62 -15 105t-42.5 65.5t-65.5 22.5q-55 0 -99 -45t-77.5 -118.5t-56 -159.5t-33.5 -168.5t-11 -145.5q0 -72 14.5 -125t45.5 -88
l-70 -336h-510z" />
    <glyph glyph-name="iotadieresistonos" unicode="&#x390;" horiz-adv-x="643" 
d="M285 -20q-117 0 -179.5 64t-62.5 177q0 41 6.5 89t16.5 91l155 732h328l-164 -768q-1 -11 -3.5 -23t-2.5 -29q0 -19 10.5 -33t30.5 -14q18 0 49 11t55 24v-254q-55 -34 -120.5 -50.5t-118.5 -16.5zM328 1419v21l28.5 85.5t35.5 110.5t22 80h264l-4 -14q-16 -34 -51 -88.5
t-72 -108.5t-60 -86h-163zM127 1257q-58 0 -88.5 29t-30.5 86q0 77 44 138t130 61q51 0 80 -29.5t29 -83.5q0 -91 -49.5 -146t-114.5 -55zM688 1257q-57 0 -87 29t-30 86q0 77 44 138t128 61q51 0 80 -29.5t29 -83.5q0 -91 -49.5 -146t-114.5 -55z" />
    <glyph glyph-name="Alpha" unicode="&#x391;" horiz-adv-x="1090" 
d="M-119 0l631 1468h436l23 -1468h-365l8 285h-249l-109 -285h-375zM477 582h156l16 379q2 49 4 97t9 105h-7q-9 -53 -21.5 -99.5t-29.5 -96.5z" />
    <glyph glyph-name="Beta" unicode="&#x392;" horiz-adv-x="1059" 
d="M-10 0l309 1462h397q100 0 188.5 -29t144.5 -97.5t56 -188.5q0 -85 -28.5 -160.5t-86.5 -132.5t-147 -88v-8q66 -29 106 -98.5t40 -167.5q0 -125 -57.5 -237.5t-171.5 -183.5t-283 -71h-467zM393 289h62q54 0 90 31.5t53.5 82.5t17.5 109q0 54 -22.5 81.5t-67.5 27.5h-63
zM520 893h55q46 0 79 29t51 74.5t18 93.5q0 44 -23 67t-69 23h-49z" />
    <glyph glyph-name="Gamma" unicode="&#x393;" horiz-adv-x="844" 
d="M-10 0l309 1462h711l-62 -295h-368l-248 -1167h-342z" />
    <glyph glyph-name="uni0394" unicode="&#x394;" horiz-adv-x="1085" 
d="M-55 0v195l571 1273h434l35 -1271l-41 -197h-999zM346 301h287l14 660q1 20 1.5 39.5t1 40.5t2 46t3.5 56q-6 -26 -15.5 -62t-19.5 -68t-16 -46z" />
    <glyph glyph-name="Epsilon" unicode="&#x395;" horiz-adv-x="858" 
d="M-10 0l309 1462h664l-62 -295h-321l-58 -264h299l-63 -295h-297l-68 -309h324l-64 -299h-663z" />
    <glyph glyph-name="Zeta" unicode="&#x396;" horiz-adv-x="897" 
d="M-80 0l49 240l619 927h-410l62 295h800l-49 -239l-620 -924h434l-64 -299h-821z" />
    <glyph glyph-name="Eta" unicode="&#x397;" horiz-adv-x="1153" 
d="M-10 0l309 1462h342l-117 -553h252l119 553h342l-311 -1462h-342l129 610h-252l-129 -610h-342z" />
    <glyph glyph-name="Theta" unicode="&#x398;" horiz-adv-x="1210" 
d="M512 -20q-150 0 -247.5 52.5t-145 162t-47.5 280.5q0 115 20.5 234t61 232.5t100 211.5t138 173t175 117t209.5 42q229 0 332.5 -125.5t103.5 -368.5q0 -124 -21.5 -247t-63 -236t-101.5 -209t-138 -167.5t-172 -111.5t-204 -40zM535 285q59 0 106 42.5t83.5 112
t63 151.5t43.5 163t25 146.5t8 100.5q0 94 -30 139.5t-82 45.5q-53 0 -98 -36.5t-81.5 -98t-64.5 -137.5t-46.5 -156.5t-28 -154.5t-9.5 -130q0 -77 13.5 -117.5t38.5 -55.5t59 -15zM483 604l60 277h262l-60 -277h-262z" />
    <glyph glyph-name="Iota" unicode="&#x399;" horiz-adv-x="557" 
d="M-12 0l311 1462h342l-311 -1462h-342z" />
    <glyph glyph-name="Kappa" unicode="&#x39a;" horiz-adv-x="1049" 
d="M-10 0l309 1462h342l-123 -588l72 140l293 448h377l-463 -690l149 -772h-377l-73 532l-60 -36l-104 -496h-342z" />
    <glyph glyph-name="Lambda" unicode="&#x39b;" horiz-adv-x="1063" 
d="M-119 0l645 1468h394l24 -1468h-362l16 727q2 43 4 99.5t6 105.5q-29 -83 -45.5 -128t-27.5 -73l-295 -731h-359z" />
    <glyph glyph-name="Mu" unicode="&#x39c;" horiz-adv-x="1520" 
d="M-10 0l309 1462h444l21 -844h6l358 844h474l-312 -1462h-332l142 662q5 27 11.5 53t14.5 52t15 52h-6l-361 -819h-278l-17 807h-6q-6 -41 -11.5 -79.5t-11.5 -73.5t-14 -68l-125 -586h-321z" />
    <glyph glyph-name="Nu" unicode="&#x39d;" horiz-adv-x="1239" 
d="M-10 0l309 1462h379l151 -835h7q8 54 16.5 106.5t17 99.5t15.5 82l116 547h322l-309 -1462h-381l-152 862h-4q-7 -48 -13.5 -92t-12.5 -83t-12 -72.5t-11 -59.5l-119 -555h-319z" />
    <glyph glyph-name="Xi" unicode="&#x39e;" horiz-adv-x="879" 
d="M-68 0l64 299h774l-63 -299h-775zM150 618l63 295h604l-63 -295h-604zM209 1167l61 295h719l-61 -295h-719z" />
    <glyph glyph-name="Omicron" unicode="&#x39f;" horiz-adv-x="1176" 
d="M498 -20q-145 0 -239.5 52.5t-140.5 162t-46 280.5q0 115 20 234t59.5 232.5t97.5 211.5t134 173t169.5 117t203.5 42q221 0 320.5 -125.5t99.5 -368.5q0 -98 -16.5 -210.5t-51.5 -226t-89 -216.5t-129.5 -183.5t-173 -127.5t-218.5 -47zM522 285q47 0 87.5 36t73.5 96.5
t58.5 136.5t42.5 156.5t26 156t9 134.5q0 94 -24 139.5t-68 45.5q-47 0 -87 -35.5t-73.5 -96t-58.5 -135.5t-42.5 -155.5t-26.5 -155.5t-9 -135q0 -77 10.5 -117.5t31.5 -55.5t50 -15z" />
    <glyph glyph-name="Pi" unicode="&#x3a0;" horiz-adv-x="1126" 
d="M-10 0l309 1462h909l-309 -1462h-342l246 1161h-225l-246 -1161h-342z" />
    <glyph glyph-name="Rho" unicode="&#x3a1;" horiz-adv-x="987" 
d="M-10 0l309 1462h358q140 0 226 -44t126 -122.5t40 -183.5t-30 -215.5t-94.5 -203.5t-166 -150.5t-244.5 -57.5h-80l-102 -485h-342zM496 780h24q55 0 94 37t60.5 101.5t21.5 148.5q0 60 -24 80t-74 20h-18z" />
    <glyph glyph-name="Sigma" unicode="&#x3a3;" horiz-adv-x="920" 
d="M-57 0l59 281l391 487l-180 422l57 272h748l-62 -295h-356l162 -395l-377 -473h422l-64 -299h-800z" />
    <glyph glyph-name="Tau" unicode="&#x3a4;" horiz-adv-x="879" 
d="M150 0l245 1161h-235l63 301h815l-63 -301h-238l-245 -1161h-342z" />
    <glyph glyph-name="Upsilon" unicode="&#x3a5;" horiz-adv-x="1001" 
d="M211 0l115 549l-136 913h357l39 -469l237 469h367l-518 -901l-119 -561h-342z" />
    <glyph glyph-name="Phi" unicode="&#x3a6;" horiz-adv-x="1409" 
d="M416 -20l49 225q-114 3 -200.5 48t-134.5 133t-48 220q0 122 34 243t107 221.5t190 163.5t283 69l39 180h332l-39 -180q113 -3 198.5 -56t134 -143t48.5 -207q0 -127 -36 -249.5t-110.5 -222t-190.5 -159t-277 -61.5l-47 -225h-332zM524 492l113 524q-53 0 -93 -37.5
t-66.5 -97t-40 -126t-13.5 -124.5q0 -49 11 -80t33.5 -45t55.5 -14zM856 492q47 0 85.5 33.5t66.5 88t43.5 119.5t15.5 129q0 48 -11.5 82t-33.5 52.5t-55 19.5z" />
    <glyph glyph-name="Chi" unicode="&#x3a7;" horiz-adv-x="1024" 
d="M-121 0l471 731l-143 731h358l47 -364l195 364h369l-441 -719l174 -743h-370l-60 385l-233 -385h-367z" />
    <glyph glyph-name="Psi" unicode="&#x3a8;" horiz-adv-x="1460" 
d="M446 0l84 397h-4q-130 2 -213 44t-123 121.5t-40 193.5q0 44 7 99t19 110l105 497h342l-117 -549q-7 -34 -12 -61.5t-5 -50.5q0 -41 12 -63.5t34.5 -31.5t54.5 -10h4l162 766h331l-161 -766h4q60 0 93.5 33.5t52 85.5t30.5 107l115 540h342l-115 -542
q-29 -135 -69.5 -234t-104 -163t-161.5 -95t-243 -31h-8l-86 -397h-330z" />
    <glyph glyph-name="uni03A9" unicode="&#x3a9;" horiz-adv-x="1178" 
d="M-84 0l64 299h268q-52 47 -82 107.5t-42.5 130t-12.5 143.5q0 121 29.5 238t85 219.5t134 180.5t177 122.5t213.5 44.5q140 0 239.5 -56t152 -158t52.5 -241q0 -111 -23.5 -218t-70.5 -202.5t-117 -175t-164 -135.5h268l-63 -299h-512l70 336q64 48 111.5 129t79 176.5
t47.5 188.5t16 163q0 62 -15 105t-42.5 65.5t-65.5 22.5q-55 0 -99 -45t-77.5 -118.5t-56 -159.5t-33.5 -168.5t-11 -145.5q0 -72 14.5 -125t45.5 -88l-70 -336h-510z" />
    <glyph glyph-name="Iotadieresis" unicode="&#x3aa;" horiz-adv-x="557" 
d="M-12 0l311 1462h342l-311 -1462h-342zM704 1634q-62 0 -95.5 29t-33.5 86q0 77 48.5 138t140.5 61q56 0 87.5 -29.5t31.5 -83.5q0 -91 -54.5 -146t-124.5 -55zM315 1634q-63 0 -95 29t-32 86q0 77 48.5 138t140.5 61q36 0 62 -13t40.5 -38.5t14.5 -61.5q0 -91 -54 -146
t-125 -55z" />
    <glyph glyph-name="Upsilondieresis" unicode="&#x3ab;" horiz-adv-x="1001" 
d="M211 0l115 549l-136 913h357l39 -469l237 469h367l-518 -901l-119 -561h-342zM894 1595q-62 0 -95.5 29t-33.5 86q0 77 48.5 138t140.5 61q56 0 87.5 -29.5t31.5 -83.5q0 -91 -54.5 -146t-124.5 -55zM505 1595q-63 0 -95 29t-32 86q0 77 48.5 138t140.5 61q36 0 62 -13
t40.5 -38.5t14.5 -61.5q0 -91 -54 -146t-125 -55z" />
    <glyph glyph-name="alphatonos" unicode="&#x3ac;" horiz-adv-x="1065" 
d="M274 -20q-109 0 -177 91.5t-68 247.5q0 110 20 226.5t58.5 224.5t94 194.5t127 137.5t156.5 51q66 0 129.5 -35t94.5 -121h6q13 29 27 54t28.5 46t28.5 36h293q-34 -74 -62.5 -150.5t-51 -156t-40.5 -162.5l-59 -277q-5 -22 -9 -45.5t-4 -36.5q0 -25 10 -32t25 -7
q9 0 25.5 5t38.5 18v-269q-45 -15 -106 -27.5t-93 -12.5q-99 0 -148.5 28t-65.5 65t-17 62h-9q-34 -44 -72.5 -79t-82.5 -55.5t-97 -20.5zM412 256q48 0 81.5 47t55 114t33.5 126q20 95 25 140.5t5 74.5q0 57 -16 83.5t-47 26.5q-33 0 -61 -38t-50.5 -98t-38 -128t-24 -130
t-8.5 -103q0 -57 11.5 -86t33.5 -29zM535 1241l6 29q10 20 26.5 61t35 88.5t33.5 88t21 59.5h291l-4 -21q-19 -31 -44.5 -72t-53.5 -83.5t-55 -81.5t-50 -68h-206z" />
    <glyph glyph-name="epsilontonos" unicode="&#x3ad;" horiz-adv-x="860" 
d="M356 -20q-120 0 -200.5 29.5t-121 92t-40.5 160.5q0 63 29 131.5t90 122.5t157 72v10q-50 20 -83 72.5t-33 152.5q0 95 50.5 169.5t141 117.5t209.5 43q98 0 187 -23t171 -79l-143 -242q-47 38 -100 56t-95 18q-50 0 -79 -29t-29 -80q0 -41 28.5 -56.5t88.5 -15.5h90
l-51 -241h-107q-48 0 -88 -13t-64 -40.5t-24 -71.5q0 -37 22 -58.5t89 -21.5q53 0 117 19t137 57v-269q-82 -44 -174.5 -63.5t-174.5 -19.5zM451 1241l6 29q10 20 26.5 61t35 88.5t33.5 88t21 59.5h291l-4 -21q-19 -31 -44.5 -72t-53.5 -83.5t-55 -81.5t-50 -68h-206z" />
    <glyph glyph-name="etatonos" unicode="&#x3ae;" horiz-adv-x="1006" 
d="M365 -492l237 1123q9 44 16 86t7 69q0 34 -12 53t-40 19q-35 0 -62 -37t-47.5 -99t-37.5 -138l-123 -584h-330l242 1133h262l-4 -132h6q33 48 71.5 82t81.5 52t91 18q61 0 117 -24t92.5 -81.5t36.5 -160.5q0 -31 -4 -70.5t-15 -93.5l-258 -1215h-327zM508 1241l6 29
q10 20 26.5 61t35 88.5t33.5 88t21 59.5h291l-4 -21q-19 -31 -44.5 -72t-53.5 -83.5t-55 -81.5t-50 -68h-206z" />
    <glyph glyph-name="iotatonos" unicode="&#x3af;" horiz-adv-x="642" 
d="M285 -20q-117 0 -179.5 64t-62.5 177q0 41 6.5 89t16.5 91l155 732h328l-164 -768q-1 -11 -3.5 -23t-2.5 -29q0 -19 10.5 -33t30.5 -14q18 0 49 11t55 24v-254q-55 -34 -120.5 -50.5t-118.5 -16.5zM281 1241l6 29q10 20 26.5 61t35 88.5t33.5 88t21 59.5h291l-4 -21
q-19 -31 -44.5 -72t-53.5 -83.5t-55 -81.5t-50 -68h-206z" />
    <glyph glyph-name="upsilondieresistonos" unicode="&#x3b0;" horiz-adv-x="1014" 
d="M403 -16q-184 0 -265 85t-81 242q0 48 8 106.5t21 121.5l125 594h328l-138 -652q-6 -28 -10 -61.5t-4 -54.5q0 -49 13.5 -70t37.5 -21q39 0 71 42.5t57.5 115t44.5 163t32 187t21 187.5t10 164h325q-1 -156 -17.5 -318.5t-55.5 -311t-106.5 -265.5t-170 -185.5
t-246.5 -68.5zM558 1419v21l28.5 85.5t35.5 110.5t22 80h264l-4 -14q-16 -34 -51 -88.5t-72 -108.5t-60 -86h-163zM357 1257q-58 0 -88.5 29t-30.5 86q0 77 44 138t130 61q51 0 80 -29.5t29 -83.5q0 -91 -49.5 -146t-114.5 -55zM918 1257q-57 0 -87 29t-30 86q0 77 44 138
t128 61q51 0 80 -29.5t29 -83.5q0 -91 -49.5 -146t-114.5 -55z" />
    <glyph glyph-name="alpha" unicode="&#x3b1;" horiz-adv-x="1065" 
d="M274 -20q-109 0 -177 91.5t-68 247.5q0 110 20 226.5t58.5 224.5t94 194.5t127 137.5t156.5 51q66 0 129.5 -35t94.5 -121h6q13 29 27 54t28.5 46t28.5 36h293q-34 -74 -62.5 -150.5t-51 -156t-40.5 -162.5l-59 -277q-5 -22 -9 -45.5t-4 -36.5q0 -25 10 -32t25 -7
q9 0 25.5 5t38.5 18v-269q-45 -15 -106 -27.5t-93 -12.5q-99 0 -148.5 28t-65.5 65t-17 62h-9q-34 -44 -72.5 -79t-82.5 -55.5t-97 -20.5zM412 256q48 0 81.5 47t55 114t33.5 126q20 95 25 140.5t5 74.5q0 57 -16 83.5t-47 26.5q-33 0 -61 -38t-50.5 -98t-38 -128t-24 -130
t-8.5 -103q0 -57 11.5 -86t33.5 -29z" />
    <glyph glyph-name="beta" unicode="&#x3b2;" horiz-adv-x="1030" 
d="M-129 -492l336 1588q33 150 93.5 255t158.5 160.5t241 55.5q116 0 195.5 -45.5t120.5 -122t41 -168.5q0 -102 -31 -185t-95 -139t-165 -80q98 -19 149.5 -98t51.5 -186q0 -104 -31.5 -204t-90.5 -181.5t-142 -129.5t-187 -48q-61 0 -119 12.5t-90 32.5l-110 -517h-326z
M459 266q48 0 81.5 31t54 77t29.5 92t9 77q0 55 -21.5 85.5t-64.5 30.5h-49l59 279h37q31 0 53.5 27t37 68.5t21.5 85t7 75.5q0 47 -14.5 71.5t-45.5 24.5q-26 0 -47.5 -20.5t-37.5 -59t-27 -92.5l-172 -803q12 -22 41.5 -35.5t48.5 -13.5z" />
    <glyph glyph-name="gamma" unicode="&#x3b3;" horiz-adv-x="942" 
d="M10 -492q20 87 47 172t59.5 168t65.5 164l-55 1121h334v-330q0 -39 -1 -82.5t-2.5 -85t-3 -75t-3.5 -52.5h10q17 57 43 132t57 144l146 349h352l-527 -1119q-32 -70 -66 -158.5t-62.5 -179t-45.5 -168.5h-348z" />
    <glyph glyph-name="delta" unicode="&#x3b4;" horiz-adv-x="965" 
d="M389 -20q-131 0 -214 44.5t-122 129t-39 202.5q0 122 48 229.5t134.5 189t200.5 124.5q-55 62 -85.5 129.5t-30.5 161.5q0 115 55 201.5t151.5 135t221.5 48.5q121 0 221 -32t164 -85l-152 -258q-73 57 -135 77.5t-107 20.5q-43 0 -67.5 -22.5t-24.5 -69.5
q0 -38 27.5 -75.5t65.5 -75t67 -74.5q47 -58 77.5 -119t45 -125.5t14.5 -134.5q0 -132 -33 -245t-98 -198t-161.5 -132t-223.5 -47zM414 256q38 0 66.5 36.5t47 90.5t28 107.5t9.5 87.5q0 56 -13 95t-36 70q-31 -17 -60 -61.5t-52.5 -102t-37.5 -114.5t-14 -100
q0 -46 15 -77.5t47 -31.5z" />
    <glyph glyph-name="epsilon" unicode="&#x3b5;" horiz-adv-x="860" 
d="M356 -20q-120 0 -200.5 29.5t-121 92t-40.5 160.5q0 63 29 131.5t90 122.5t157 72v10q-50 20 -83 72.5t-33 152.5q0 95 50.5 169.5t141 117.5t209.5 43q98 0 187 -23t171 -79l-143 -242q-47 38 -100 56t-95 18q-50 0 -79 -29t-29 -80q0 -41 28.5 -56.5t88.5 -15.5h90
l-51 -241h-107q-48 0 -88 -13t-64 -40.5t-24 -71.5q0 -37 22 -58.5t89 -21.5q53 0 117 19t137 57v-269q-82 -44 -174.5 -63.5t-174.5 -19.5z" />
    <glyph glyph-name="zeta" unicode="&#x3b6;" horiz-adv-x="821" 
d="M180 -365q28 33 59.5 79.5t53.5 96.5t22 93q0 53 -40.5 85t-90.5 64q-47 33 -83 69t-56 85.5t-20 122.5q0 144 49.5 281t130.5 261.5t176 231.5t186 190q-24 -7 -51 -10.5t-55 -3.5h-201l57 276h676l-45 -213q-94 -91 -193.5 -204t-185 -233.5t-138 -237.5t-52.5 -217
q0 -51 24 -85.5t56.5 -58t56.5 -43.5q35 -23 75 -54.5t68.5 -75t28.5 -103.5q0 -86 -25 -154.5t-66.5 -126.5t-92.5 -115h-324z" />
    <glyph glyph-name="eta" unicode="&#x3b7;" horiz-adv-x="1006" 
d="M365 -492l237 1123q9 44 16 86t7 69q0 34 -12 53t-40 19q-35 0 -62 -37t-47.5 -99t-37.5 -138l-123 -584h-330l242 1133h262l-4 -132h6q33 48 71.5 82t81.5 52t91 18q61 0 117 -24t92.5 -81.5t36.5 -160.5q0 -31 -4 -70.5t-15 -93.5l-258 -1215h-327z" />
    <glyph glyph-name="theta" unicode="&#x3b8;" horiz-adv-x="1014" 
d="M414 -20q-117 0 -194 47.5t-115.5 145.5t-38.5 249q0 58 5.5 123.5t16 136t25.5 141.5q30 143 78 278t117 243t163 171.5t215 63.5q98 0 175.5 -42t123 -142t45.5 -273q0 -101 -19 -234t-54.5 -269t-86.5 -248q-37 -81 -82.5 -152t-101 -125t-123.5 -84t-149 -30z
M434 244q34 0 62 37.5t52 98t43.5 130.5t35.5 135h-219q-19 -98 -29 -168.5t-10 -114.5q0 -58 19.5 -88t45.5 -30zM465 909h215q14 95 22.5 165t8.5 116q0 62 -17 93.5t-45 31.5t-53.5 -30.5t-48.5 -85.5t-43.5 -129t-38.5 -161z" />
    <glyph glyph-name="iota" unicode="&#x3b9;" horiz-adv-x="643" 
d="M285 -20q-117 0 -179.5 64t-62.5 177q0 41 6.5 89t16.5 91l155 732h328l-164 -768q-1 -11 -3.5 -23t-2.5 -29q0 -19 10.5 -33t30.5 -14q18 0 49 11t55 24v-254q-55 -34 -120.5 -50.5t-118.5 -16.5z" />
    <glyph glyph-name="kappa" unicode="&#x3ba;" horiz-adv-x="991" 
d="M-27 0l242 1133h328l-39 -179q-13 -58 -28 -113.5t-34 -115.5h4l304 408h356l-379 -490l160 -643h-357l-88 379l-80 -68l-59 -311h-330z" />
    <glyph glyph-name="lambda" unicode="&#x3bb;" horiz-adv-x="1008" 
d="M756 -20q-122 0 -182 47.5t-80.5 128.5t-22.5 180l-2 113q0 30 0.5 63.5t1.5 65.5q-4 -15 -8.5 -32.5t-9.5 -35t-10.5 -33.5t-10.5 -28l-205 -449h-340l537 1065l-2 100q-1 77 -22.5 104t-55.5 27q-16 0 -31.5 -3.5t-44.5 -12.5v268q37 10 94.5 17.5t94.5 7.5
q124 0 185 -53.5t83.5 -148t28.5 -218.5l32 -778q3 -40 10.5 -62t21 -30.5t32.5 -8.5q15 0 30.5 2.5t43.5 12.5v-289q-35 -9 -85.5 -14.5t-82.5 -5.5z" />
    <glyph glyph-name="uni03BC" unicode="&#x3bc;" horiz-adv-x="1006" 
d="M-132 -492l344 1625h328l-133 -629q-10 -46 -15.5 -82t-5.5 -64q0 -41 10.5 -62.5t38.5 -21.5q25 0 48.5 17.5t47.5 71.5t48 161l129 609h327l-239 -1133h-258l-2 113h-7q-26 -54 -53.5 -82.5t-54 -39.5t-53.5 -11q-25 0 -45 12t-35 35h-6q0 -30 -2 -62.5t-6 -67.5
t-11 -71l-67 -318h-328z" />
    <glyph glyph-name="nu" unicode="&#x3bd;" horiz-adv-x="961" 
d="M141 0l-14 1133h334l-8 -494q-1 -55 -3 -113.5t-6 -113.5q54 93 94.5 194.5t75.5 229t72 297.5h342q-48 -221 -122 -412.5t-183.5 -368t-265.5 -352.5h-316z" />
    <glyph glyph-name="xi" unicode="&#x3be;" horiz-adv-x="850" 
d="M178 -365q28 34 66 88t67 110t29 95q-1 34 -23 55.5t-75 41.5q-70 28 -116 70t-68.5 101t-22.5 136q0 106 33.5 200.5t102.5 166.5t177 110l2 8q-64 20 -96.5 71t-32.5 113q0 50 17 95.5t48.5 84.5t73.5 67t91 42q-37 -6 -66.5 -8t-60.5 -2h-70l59 276h662l-60 -276h-116
q-39 0 -74.5 -10t-66 -30t-53.5 -49.5t-35.5 -67.5t-12.5 -85q0 -49 30 -72.5t91 -23.5h115l-60 -276h-112q-73 0 -126 -31.5t-81.5 -89t-28.5 -135.5q0 -41 19 -66.5t51 -42t69 -31.5q47 -18 83 -47t56.5 -72.5t20.5 -107.5q0 -69 -20.5 -137.5t-61 -136t-100.5 -134.5
h-324z" />
    <glyph glyph-name="omicron" unicode="&#x3bf;" horiz-adv-x="981" 
d="M395 -20q-112 0 -192.5 47t-123 134.5t-42.5 209.5q0 89 18.5 194.5t59 209t105.5 189t157.5 137.5t216.5 52q111 0 189.5 -48.5t120.5 -136t42 -206.5q0 -96 -19.5 -203.5t-60.5 -210t-106 -186t-155.5 -133t-209.5 -49.5zM434 256q32 0 60 36t50.5 94.5t38.5 127
t24.5 134t8.5 114.5q0 38 -6.5 63.5t-20.5 38.5t-38 13q-34 0 -62.5 -36t-51 -94.5t-38.5 -127t-24 -134.5t-8 -116q0 -54 16 -83.5t51 -29.5z" />
    <glyph glyph-name="pi" unicode="&#x3c0;" horiz-adv-x="1161" 
d="M803 -20q-117 0 -179.5 64t-62.5 177q0 41 6.5 89t16.5 91l96 455h-143l-183 -856h-327l182 856h-158l33 148l170 129h971l-60 -277h-157l-105 -491q-1 -11 -3.5 -23t-2.5 -29q0 -19 10.5 -33t30.5 -14q28 0 55 11.5t49 23.5v-254q-55 -34 -120.5 -50.5t-118.5 -16.5z
" />
    <glyph glyph-name="rho" unicode="&#x3c1;" horiz-adv-x="997" 
d="M-129 -492l223 1059q41 194 100.5 324t155 196t244.5 66q126 0 210 -48.5t125.5 -136t41.5 -206.5q0 -91 -19.5 -196.5t-57 -209t-92.5 -188.5t-125.5 -136.5t-156.5 -51.5q-73 0 -128 20.5t-89 60.5q-3 -46 -12 -95.5t-17 -84.5l-77 -373h-326zM455 264q34 0 62 41
t49.5 104.5t36.5 133t22.5 129t7.5 90.5q0 59 -19.5 87t-42.5 28q-29 0 -53 -26.5t-47 -96t-51 -199.5l-47 -221q11 -25 31 -47.5t51 -22.5z" />
    <glyph glyph-name="uni03C2" unicode="&#x3c2;" horiz-adv-x="840" 
d="M188 -365q49 58 79.5 102t45.5 79.5t15 66.5q0 34 -15.5 59t-45.5 48.5t-74 52.5q-60 41 -93 88t-46 105t-15 131q0 100 19.5 209t61.5 211.5t107.5 185t158.5 131.5t214 49q85 0 161.5 -22t139.5 -66l-129 -252q-34 26 -74.5 41.5t-68.5 15.5q-46 0 -83.5 -29.5
t-67 -78.5t-50 -107.5t-31 -118t-10.5 -108.5q0 -46 17 -79t44 -57.5t58 -45.5q50 -33 92.5 -68t68 -82t25.5 -116q0 -51 -16.5 -106.5t-54.5 -114.5t-105 -124h-328z" />
    <glyph glyph-name="sigma" unicode="&#x3c3;" horiz-adv-x="1053" 
d="M395 -20q-169 0 -263.5 104t-94.5 287q0 103 20.5 210.5t65 206t117.5 176.5t177.5 123.5t244.5 45.5h458l-57 -277h-186q26 -38 41.5 -91t15.5 -134q0 -88 -25.5 -180t-73 -176.5t-114 -150.5t-149 -105t-177.5 -39zM434 256q30 0 57.5 32.5t50 86t39.5 118t26 129.5
t9 119q0 42 -2.5 69t-5.5 46h-8q-63 0 -107.5 -50.5t-72 -128t-40.5 -160.5t-13 -148q0 -54 16 -83.5t51 -29.5z" />
    <glyph glyph-name="tau" unicode="&#x3c4;" horiz-adv-x="795" 
d="M383 -20q-117 0 -179.5 64t-62.5 177q0 41 6.5 88.5t16.5 91.5l96 455h-209l33 148l170 129h620l-57 -277h-229l-105 -491q-3 -11 -4.5 -23t-1.5 -29q0 -19 11 -33t30 -14t49.5 11.5t55.5 23.5v-254q-55 -34 -120.5 -50.5t-119.5 -16.5z" />
    <glyph glyph-name="upsilon" unicode="&#x3c5;" horiz-adv-x="1014" 
d="M403 -16q-184 0 -265 85t-81 242q0 48 8 106.5t21 121.5l125 594h328l-138 -652q-6 -28 -10 -61.5t-4 -54.5q0 -49 13.5 -70t37.5 -21q39 0 71 42.5t57.5 115t44.5 163t32 187t21 187.5t10 164h325q-1 -156 -17.5 -318.5t-55.5 -311t-106.5 -265.5t-170 -185.5
t-246.5 -68.5z" />
    <glyph glyph-name="phi" unicode="&#x3c6;" horiz-adv-x="1399" 
d="M303 -492l103 486q-100 12 -184 59t-134.5 136.5t-50.5 228.5q0 120 37.5 247.5t106.5 253.5t163 238l236 -147q-56 -79 -105 -179t-78.5 -205.5t-29.5 -199.5q0 -38 11 -69.5t33.5 -53t55.5 -31.5l96 455q45 201 150.5 310.5t298.5 109.5q160 0 256 -98.5t96 -290.5
q0 -124 -31 -236t-87.5 -206t-135.5 -164t-176 -111t-207 -47l-104 -486h-320zM786 272q60 14 102.5 55t70.5 98.5t44 120.5t22.5 122t6.5 102q0 46 -16 73t-41 27q-29 0 -52.5 -31t-43.5 -128z" />
    <glyph glyph-name="chi" unicode="&#x3c7;" horiz-adv-x="963" 
d="M-260 -492l526 879l-24 381q-3 50 -20 74t-52 24q-23 0 -48 -6t-46 -12l45 285q34 9 86 14.5t90 5.5q131 0 192.5 -78t71.5 -215l2 -24l152 297h354l-473 -793l29 -446q3 -54 19.5 -76.5t41.5 -22.5q17 0 48.5 11t56.5 24v-274q-55 -25 -119.5 -36.5t-118.5 -11.5
q-80 0 -133 32t-81.5 105t-35.5 197l-6 84l-209 -418h-348z" />
    <glyph glyph-name="psi" unicode="&#x3c8;" horiz-adv-x="1421" 
d="M328 -492l104 478q-192 21 -283.5 122t-91.5 271q0 44 7.5 99t19.5 112l115 543h327l-127 -603q-7 -38 -11.5 -69.5t-4.5 -57.5q0 -59 22.5 -89.5t86.5 -37.5l272 1278h319l-270 -1275q68 0 116 56t79 149.5t48 206.5t24 228.5t7 213.5h320q0 -167 -13.5 -331.5
t-51.5 -310t-110.5 -258.5t-189.5 -178.5t-290 -68.5l-103 -478h-321z" />
    <glyph glyph-name="omega" unicode="&#x3c9;" horiz-adv-x="1452" 
d="M332 -20q-158 0 -226.5 104t-68.5 281q0 110 31 243.5t84 270t118 254.5h328q-69 -144 -120.5 -278t-80 -254t-28.5 -224q0 -49 16 -71.5t39 -22.5q49 0 75 58t52 185l59 275h320l-60 -275q-6 -32 -11 -60.5t-8 -51t-3 -39.5q0 -48 11.5 -70t39.5 -22q43 0 75 49t54 127
t36 166t20 167.5t6 129.5q0 78 -2.5 125t-8.5 86h334q3 -40 3.5 -87t0.5 -128q0 -107 -14.5 -233.5t-49.5 -250.5t-95.5 -227t-152.5 -165t-220 -62q-96 0 -150.5 32t-77 76.5t-24.5 83.5q-51 -91 -127.5 -141.5t-173.5 -50.5z" />
    <glyph glyph-name="iotadieresis" unicode="&#x3ca;" horiz-adv-x="642" 
d="M285 -20q-117 0 -179.5 64t-62.5 177q0 41 6.5 89t16.5 91l155 732h328l-164 -768q-1 -11 -3.5 -23t-2.5 -29q0 -19 10.5 -33t30.5 -14q18 0 49 11t55 24v-254q-55 -34 -120.5 -50.5t-118.5 -16.5zM593 1257q-62 0 -95.5 29t-33.5 86q0 77 48.5 138t140.5 61
q56 0 87.5 -29.5t31.5 -83.5q0 -91 -54.5 -146t-124.5 -55zM204 1257q-63 0 -95 29t-32 86q0 77 48.5 138t140.5 61q36 0 62 -13t40.5 -38.5t14.5 -61.5q0 -91 -54 -146t-125 -55z" />
    <glyph glyph-name="upsilondieresis" unicode="&#x3cb;" horiz-adv-x="1014" 
d="M403 -16q-184 0 -265 85t-81 242q0 48 8 106.5t21 121.5l125 594h328l-138 -652q-6 -28 -10 -61.5t-4 -54.5q0 -49 13.5 -70t37.5 -21q39 0 71 42.5t57.5 115t44.5 163t32 187t21 187.5t10 164h325q-1 -156 -17.5 -318.5t-55.5 -311t-106.5 -265.5t-170 -185.5
t-246.5 -68.5zM825 1257q-62 0 -95.5 29t-33.5 86q0 77 48.5 138t140.5 61q56 0 87.5 -29.5t31.5 -83.5q0 -91 -54.5 -146t-124.5 -55zM436 1257q-63 0 -95 29t-32 86q0 77 48.5 138t140.5 61q36 0 62 -13t40.5 -38.5t14.5 -61.5q0 -91 -54 -146t-125 -55z" />
    <glyph glyph-name="omicrontonos" unicode="&#x3cc;" horiz-adv-x="981" 
d="M395 -20q-112 0 -192.5 47t-123 134.5t-42.5 209.5q0 89 18.5 194.5t59 209t105.5 189t157.5 137.5t216.5 52q111 0 189.5 -48.5t120.5 -136t42 -206.5q0 -96 -19.5 -203.5t-60.5 -210t-106 -186t-155.5 -133t-209.5 -49.5zM434 256q32 0 60 36t50.5 94.5t38.5 127
t24.5 134t8.5 114.5q0 38 -6.5 63.5t-20.5 38.5t-38 13q-34 0 -62.5 -36t-51 -94.5t-38.5 -127t-24 -134.5t-8 -116q0 -54 16 -83.5t51 -29.5zM488 1241l6 29q10 20 26.5 61t35 88.5t33.5 88t21 59.5h291l-4 -21q-19 -31 -44.5 -72t-53.5 -83.5t-55 -81.5t-50 -68h-206z" />
    <glyph glyph-name="upsilontonos" unicode="&#x3cd;" horiz-adv-x="1014" 
d="M403 -16q-184 0 -265 85t-81 242q0 48 8 106.5t21 121.5l125 594h328l-138 -652q-6 -28 -10 -61.5t-4 -54.5q0 -49 13.5 -70t37.5 -21q39 0 71 42.5t57.5 115t44.5 163t32 187t21 187.5t10 164h325q-1 -156 -17.5 -318.5t-55.5 -311t-106.5 -265.5t-170 -185.5
t-246.5 -68.5zM486 1241l6 29q10 20 26.5 61t35 88.5t33.5 88t21 59.5h291l-4 -21q-19 -31 -44.5 -72t-53.5 -83.5t-55 -81.5t-50 -68h-206z" />
    <glyph glyph-name="omegatonos" unicode="&#x3ce;" horiz-adv-x="1452" 
d="M332 -20q-158 0 -226.5 104t-68.5 281q0 110 31 243.5t84 270t118 254.5h328q-69 -144 -120.5 -278t-80 -254t-28.5 -224q0 -49 16 -71.5t39 -22.5q49 0 75 58t52 185l59 275h320l-60 -275q-6 -32 -11 -60.5t-8 -51t-3 -39.5q0 -48 11.5 -70t39.5 -22q43 0 75 49t54 127
t36 166t20 167.5t6 129.5q0 78 -2.5 125t-8.5 86h334q3 -40 3.5 -87t0.5 -128q0 -107 -14.5 -233.5t-49.5 -250.5t-95.5 -227t-152.5 -165t-220 -62q-96 0 -150.5 32t-77 76.5t-24.5 83.5q-51 -91 -127.5 -141.5t-173.5 -50.5zM723 1241l6 29q10 20 26.5 61t35 88.5t33.5 88
t21 59.5h291l-4 -21q-19 -31 -44.5 -72t-53.5 -83.5t-55 -81.5t-50 -68h-206z" />
    <glyph glyph-name="uni03D1" unicode="&#x3d1;" horiz-adv-x="1116" 
d="M426 -20q-90 0 -174 19t-138.5 72.5t-54.5 159.5q0 29 9 59.5t18 59.5q8 25 14 49t6 43t-7 27t-19 8q-6 0 -19 -1t-34 -9v270q31 11 86 20t104 9q98 0 163.5 -50.5t65.5 -150.5q0 -32 -7.5 -64t-16.5 -61q-10 -35 -20.5 -68t-10.5 -61q0 -34 14.5 -50.5t43.5 -16.5
q27 0 53 16.5t52 51t52 89.5t52.5 132t54.5 178q-144 2 -239 53.5t-142 145.5t-47 223q0 110 45.5 212t140.5 168t242 66q149 0 235.5 -54t124 -148.5t37.5 -215.5q0 -41 -4 -81.5t-12 -94.5h94l-60 -276h-90q-41 -166 -87.5 -288.5t-100.5 -207t-118 -136t-140 -74.5
t-166 -23zM766 985q9 51 12.5 93.5t3.5 76.5q0 60 -14.5 110t-58.5 50q-33 0 -54.5 -31t-32 -72t-10.5 -73q0 -51 17 -84.5t51 -50.5t86 -19z" />
    <glyph glyph-name="uni03D2" unicode="&#x3d2;" horiz-adv-x="1008" 
d="M211 0l115 549l-136 913h351l39 -467q27 55 56.5 108.5t60.5 104t64.5 97t69.5 86.5q42 44 93.5 64t103.5 20q48 0 92.5 -9.5t73.5 -27.5l-61 -283q-16 11 -30.5 16t-31.5 5q-31 0 -62.5 -29.5t-90.5 -120.5q-29 -46 -60 -102t-63 -118t-63.5 -128t-63.5 -133l-115 -545
h-342z" />
    <glyph glyph-name="uni03D6" unicode="&#x3d6;" horiz-adv-x="1591" 
d="M397 -20q-158 0 -226.5 104t-68.5 281q0 72 17 160t43.5 175.5t54.5 155.5h-156l33 148l166 129h1419l-59 -277h-156q3 -22 4.5 -45t1.5 -57q0 -112 -20.5 -223t-61.5 -210t-103.5 -176t-146 -121t-188.5 -44q-113 0 -180.5 51t-67.5 151q-56 -103 -131.5 -152.5
t-173.5 -49.5zM489 283q40 0 63 35t37 91t27 117l31 136h320l-29 -136q-7 -32 -12.5 -60.5t-9 -51t-3.5 -39.5q0 -48 13 -70t39 -22q34 0 61.5 33.5t49.5 87t37 117t22.5 124.5t7.5 107q0 24 -0.5 49.5t-3.5 54.5h-588q-33 -81 -59.5 -163.5t-42 -162t-15.5 -153.5
q0 -49 16.5 -71.5t38.5 -22.5z" />
    <glyph glyph-name="uni0400" unicode="&#x400;" horiz-adv-x="858" 
d="M-10 0l309 1462h664l-62 -295h-321l-58 -264h299l-63 -295h-297l-68 -309h324l-64 -299h-663zM528 1579q-24 34 -62.5 93t-74.5 119t-55 97v19h364q9 -39 20 -85t26 -99.5t34 -116.5l-2 -27h-250z" />
    <glyph glyph-name="uni0401" unicode="&#x401;" horiz-adv-x="858" 
d="M-10 0l309 1462h664l-62 -295h-321l-58 -264h299l-63 -295h-297l-68 -309h324l-64 -299h-663zM837 1595q-62 0 -95.5 29t-33.5 86q0 77 48.5 138t140.5 61q56 0 87.5 -29.5t31.5 -83.5q0 -91 -54.5 -146t-124.5 -55zM448 1595q-63 0 -95 29t-32 86q0 77 48.5 138
t140.5 61q36 0 62 -13t40.5 -38.5t14.5 -61.5q0 -91 -54 -146t-125 -55z" />
    <glyph glyph-name="uni0402" unicode="&#x402;" horiz-adv-x="1186" 
d="M711 -20q-35 0 -77 6t-71 18l58 287q14 -11 28.5 -14t20.5 -3q22 0 33.5 14t18.5 37.5t13 53.5l37 168q2 11 3 27.5t1 23.5q0 34 -17.5 45.5t-43.5 11.5h-84l-139 -655h-342l245 1161h-229l63 301h803l-63 -301h-232l-43 -205h125q142 0 220.5 -78t78.5 -210
q0 -29 -4 -74t-12 -82l-47 -233q-22 -104 -67 -170.5t-113.5 -97.5t-163.5 -31z" />
    <glyph glyph-name="uni0403" unicode="&#x403;" horiz-adv-x="844" 
d="M-10 0l309 1462h711l-62 -295h-368l-248 -1167h-342zM469 1579l6 23q37 50 72.5 100t70 101t66.5 104h363l-2 -17q-23 -24 -69.5 -67.5t-99.5 -93t-97.5 -91t-65.5 -59.5h-244z" />
    <glyph glyph-name="uni0404" unicode="&#x404;" horiz-adv-x="999" 
d="M471 -20q-136 0 -225 58.5t-132.5 168t-43.5 260.5q0 141 31.5 285t91.5 275t145.5 234t193.5 162.5t236 59.5q107 0 201 -26t164 -79l-160 -270q-54 38 -101 57t-94 19q-54 0 -97 -30.5t-76.5 -76.5t-57.5 -95t-39 -87h348l-63 -297h-353q-3 -34 -5.5 -68t-2.5 -65
q0 -59 11 -100.5t39 -62.5t79 -21q34 0 80 12t95.5 32.5t94.5 43.5v-303q-51 -27 -118 -46t-132 -29.5t-110 -10.5z" />
    <glyph glyph-name="uni0405" unicode="&#x405;" horiz-adv-x="891" 
d="M311 -20q-109 0 -193 20.5t-155 75.5l74 348q52 -46 129 -84.5t147 -38.5q23 0 48.5 5.5t47.5 19.5t36 40.5t14 69.5q0 31 -9 58.5t-34.5 58.5t-73.5 72q-63 53 -103 108t-58.5 121t-18.5 152q0 98 30.5 184.5t92 152.5t156 103t221.5 37q83 0 174 -27t168 -84l-152 -307
q-61 49 -115 75.5t-94 26.5q-23 0 -44.5 -7.5t-39 -22.5t-27.5 -39.5t-10 -59.5q0 -25 9 -51.5t36 -58.5t82 -74q64 -49 101.5 -104.5t54 -122.5t16.5 -150q0 -94 -31 -183t-93.5 -160t-158.5 -112.5t-227 -41.5z" />
    <glyph glyph-name="uni0406" unicode="&#x406;" horiz-adv-x="557" 
d="M-12 0l311 1462h342l-311 -1462h-342z" />
    <glyph glyph-name="uni0407" unicode="&#x407;" horiz-adv-x="557" 
d="M-12 0l311 1462h342l-311 -1462h-342zM704 1634q-62 0 -95.5 29t-33.5 86q0 77 48.5 138t140.5 61q56 0 87.5 -29.5t31.5 -83.5q0 -91 -54.5 -146t-124.5 -55zM315 1634q-63 0 -95 29t-32 86q0 77 48.5 138t140.5 61q36 0 62 -13t40.5 -38.5t14.5 -61.5q0 -91 -54 -146
t-125 -55z" />
    <glyph glyph-name="uni0408" unicode="&#x408;" horiz-adv-x="563" 
d="M-131 -459q-64 0 -109 6t-84 19l64 299q29 -14 56 -21.5t52 -7.5q56 0 88.5 44t50 105t27.5 111l291 1366h342l-299 -1415q-39 -182 -107.5 -293.5t-162 -162t-209.5 -50.5z" />
    <glyph glyph-name="uni0409" unicode="&#x409;" horiz-adv-x="1583" 
d="M47 -20q-32 0 -66.5 5t-60.5 17v295q26 -12 50 -17.5t36 -5.5q24 0 44 10t40.5 36.5t42.5 76.5q29 65 62.5 159.5t73.5 224t88.5 298.5t107.5 383h778l-110 -520h28q121 0 203.5 -40t125 -119t42.5 -197q0 -106 -31.5 -210t-100 -189t-179.5 -136t-269 -51h-356l240 1139
h-140q-33 -117 -72 -249t-78 -256.5t-72.5 -221t-55.5 -142.5q-49 -103 -98 -167t-113 -93.5t-160 -29.5zM993 297h27q37 0 66.5 19t50.5 54t32 82.5t11 104.5q0 50 -26 70t-73 20h-12z" />
    <glyph glyph-name="uni040A" unicode="&#x40a;" horiz-adv-x="1524" 
d="M-10 0l309 1462h342l-115 -536h201l115 536h342l-111 -520h29q121 0 203.5 -40t125 -119t42.5 -197q0 -110 -32.5 -214.5t-102 -188.5t-180 -133.5t-265.5 -49.5h-363l136 631h-201l-133 -631h-342zM936 297h25q49 0 84.5 33.5t55 92.5t19.5 134q0 50 -26 70t-72 20h-12z
" />
    <glyph glyph-name="uni040B" unicode="&#x40b;" horiz-adv-x="1200" 
d="M150 0l245 1161h-229l63 301h803l-63 -301h-232l-43 -205h125q146 0 222.5 -83t76.5 -199q0 -49 -7 -100.5t-15 -92.5l-103 -481h-340l119 547q2 11 3 27.5t1 23.5q0 34 -17.5 45.5t-43.5 11.5h-84l-139 -655h-342z" />
    <glyph glyph-name="uni040C" unicode="&#x40c;" horiz-adv-x="1067" 
d="M-10 0l309 1462h342l-149 -698l419 698h369l-465 -712l152 -750h-359l-121 743l-155 -743h-342zM608 1579l6 23q37 50 72.5 100t70 101t66.5 104h363l-2 -17q-23 -24 -69.5 -67.5t-99.5 -93t-97.5 -91t-65.5 -59.5h-244z" />
    <glyph glyph-name="uni040D" unicode="&#x40d;" horiz-adv-x="1266" 
d="M-10 0l309 1462h334l-113 -524q-7 -37 -18 -85.5t-25.5 -101.5t-32.5 -106h9l491 817h404l-310 -1462h-333l112 528q7 33 20 85t29.5 111t32.5 112h-8l-498 -836h-403zM704 1579q-24 34 -62.5 93t-74.5 119t-55 97v19h364q9 -39 20 -85t26 -99.5t34 -116.5l-2 -27h-250z
" />
    <glyph glyph-name="uni040E" unicode="&#x40e;" horiz-adv-x="1022" 
d="M168 -20q-67 0 -110.5 8.5t-84.5 23.5v299q32 -21 82 -29t78 -8q34 0 59 10.5t44.5 29t35.5 45t31 57.5l-106 1046h350l20 -379q2 -25 4 -70.5t4 -90t3 -70.5q23 59 51.5 128t62.5 142l152 340h366l-524 -1026q-58 -117 -130 -221.5t-166.5 -169.5t-221.5 -65zM715 1569
q-112 0 -179.5 33t-98 94t-30.5 145q0 17 3.5 45.5t7.5 53.5h260q-4 -25 -7 -49.5t-3 -43.5q0 -40 15.5 -62t49.5 -22q45 0 78.5 44.5t54.5 132.5h258q-27 -131 -84 -213t-139 -120t-186 -38z" />
    <glyph glyph-name="uni040F" unicode="&#x40f;" horiz-adv-x="1126" 
d="M180 -455l96 455h-286l309 1462h342l-248 -1163h228l245 1163h342l-309 -1462h-289l-96 -455h-334z" />
    <glyph glyph-name="uni0410" unicode="&#x410;" horiz-adv-x="1090" 
d="M-119 0l631 1468h436l23 -1468h-365l8 285h-249l-109 -285h-375zM477 582h156l16 379q2 49 4 97t9 105h-7q-9 -53 -21.5 -99.5t-29.5 -96.5z" />
    <glyph glyph-name="uni0411" unicode="&#x411;" horiz-adv-x="983" 
d="M-10 0l309 1462h729l-63 -301h-387l-48 -219h31q121 0 203.5 -40t125 -119t42.5 -197q0 -106 -32 -210t-101 -189t-180 -136t-269 -51h-360zM393 297h27q48 0 84 33.5t56 92.5t20 134q0 50 -27 70t-74 20h-10z" />
    <glyph glyph-name="uni0412" unicode="&#x412;" horiz-adv-x="1059" 
d="M-10 0l309 1462h397q100 0 188.5 -29t144.5 -97.5t56 -188.5q0 -85 -28.5 -160.5t-86.5 -132.5t-147 -88v-8q66 -29 106 -98.5t40 -167.5q0 -125 -57.5 -237.5t-171.5 -183.5t-283 -71h-467zM393 289h62q54 0 90 31.5t53.5 82.5t17.5 109q0 54 -22.5 81.5t-67.5 27.5h-63
zM520 893h55q46 0 79 29t51 74.5t18 93.5q0 44 -23 67t-69 23h-49z" />
    <glyph glyph-name="uni0413" unicode="&#x413;" horiz-adv-x="844" 
d="M-10 0l309 1462h711l-62 -295h-368l-248 -1167h-342z" />
    <glyph glyph-name="uni0414" unicode="&#x414;" horiz-adv-x="1233" 
d="M-205 -455l158 754h86q69 122 133 257t122 281t109 302.5t93 322.5h764l-248 -1163h139l-160 -754h-334l97 455h-531l-96 -455h-332zM399 299h271l186 872h-115q-31 -110 -69 -222t-81.5 -222.5t-91.5 -218t-100 -209.5z" />
    <glyph glyph-name="uni0415" unicode="&#x415;" horiz-adv-x="858" 
d="M-10 0l309 1462h664l-62 -295h-321l-58 -264h299l-63 -295h-297l-68 -309h324l-64 -299h-663z" />
    <glyph glyph-name="uni0416" unicode="&#x416;" horiz-adv-x="1565" 
d="M-137 0l471 774l-164 688h350l139 -698l148 698h332l-150 -698l420 698h367l-465 -712l153 -750h-358l-121 743l-158 -743h-329l157 745l-419 -745h-373z" />
    <glyph glyph-name="uni0417" unicode="&#x417;" horiz-adv-x="983" 
d="M324 -20q-112 0 -190.5 16t-141.5 51v336q59 -52 142.5 -77t166.5 -25q56 0 100.5 11.5t75 36.5t46.5 64.5t16 95.5q0 63 -45 94t-136 31h-131l64 295h127q76 0 126 20.5t75.5 62.5t25.5 104q0 35 -31.5 61.5t-85.5 26.5q-69 0 -127 -27.5t-108 -71.5l-111 240
q110 82 218 120t237 38q107 0 186 -38t123.5 -112t46.5 -182q0 -102 -40 -179.5t-114 -127.5t-175 -72l-2 -8q57 -10 109.5 -46t86 -99t33.5 -156q0 -113 -43.5 -202.5t-120.5 -152t-180 -95.5t-223 -33z" />
    <glyph glyph-name="uni0418" unicode="&#x418;" horiz-adv-x="1266" 
d="M-10 0l309 1462h334l-113 -524q-7 -37 -18 -85.5t-25.5 -101.5t-32.5 -106h9l491 817h404l-310 -1462h-333l112 528q7 33 20 85t29.5 111t32.5 112h-8l-498 -836h-403z" />
    <glyph glyph-name="uni0419" unicode="&#x419;" horiz-adv-x="1266" 
d="M-10 0l309 1462h334l-113 -524q-7 -37 -18 -85.5t-25.5 -101.5t-32.5 -106h9l491 817h404l-310 -1462h-333l112 528q7 33 20 85t29.5 111t32.5 112h-8l-498 -836h-403zM820 1569q-112 0 -179.5 33t-98 94t-30.5 145q0 17 3.5 45.5t7.5 53.5h260q-4 -25 -7 -49.5t-3 -43.5
q0 -40 15.5 -62t49.5 -22q45 0 78.5 44.5t54.5 132.5h258q-27 -131 -84 -213t-139 -120t-186 -38z" />
    <glyph glyph-name="uni041A" unicode="&#x41a;" horiz-adv-x="1067" 
d="M-10 0l309 1462h342l-149 -698l419 698h369l-465 -712l152 -750h-359l-121 743l-155 -743h-342z" />
    <glyph glyph-name="uni041B" unicode="&#x41b;" horiz-adv-x="1174" 
d="M47 -20q-32 0 -66.5 5t-60.5 17v295q26 -12 50 -17.5t36 -5.5q23 0 46 13t47.5 48.5t50.5 102.5q18 45 50.5 147t75 243t91 304t98.5 330h792l-309 -1462h-342l242 1139h-152q-19 -71 -46.5 -165.5t-59 -197.5t-63 -201t-60 -178t-49.5 -127q-49 -102 -98 -166t-113 -94
t-160 -30z" />
    <glyph glyph-name="uni041C" unicode="&#x41c;" horiz-adv-x="1520" 
d="M-10 0l309 1462h444l21 -844h6l358 844h474l-312 -1462h-332l142 662q5 27 11.5 53t14.5 52t15 52h-6l-361 -819h-278l-17 807h-6q-6 -41 -11.5 -79.5t-11.5 -73.5t-14 -68l-125 -586h-321z" />
    <glyph glyph-name="uni041D" unicode="&#x41d;" horiz-adv-x="1153" 
d="M-10 0l309 1462h342l-117 -553h252l119 553h342l-311 -1462h-342l129 610h-252l-129 -610h-342z" />
    <glyph glyph-name="uni041E" unicode="&#x41e;" horiz-adv-x="1176" 
d="M498 -20q-145 0 -239.5 52.5t-140.5 162t-46 280.5q0 115 20 234t59.5 232.5t97.5 211.5t134 173t169.5 117t203.5 42q221 0 320.5 -125.5t99.5 -368.5q0 -98 -16.5 -210.5t-51.5 -226t-89 -216.5t-129.5 -183.5t-173 -127.5t-218.5 -47zM522 285q47 0 87.5 36t73.5 96.5
t58.5 136.5t42.5 156.5t26 156t9 134.5q0 94 -24 139.5t-68 45.5q-47 0 -87 -35.5t-73.5 -96t-58.5 -135.5t-42.5 -155.5t-26.5 -155.5t-9 -135q0 -77 10.5 -117.5t31.5 -55.5t50 -15z" />
    <glyph glyph-name="uni041F" unicode="&#x41f;" horiz-adv-x="1126" 
d="M-10 0l309 1462h909l-309 -1462h-342l246 1161h-225l-246 -1161h-342z" />
    <glyph glyph-name="uni0420" unicode="&#x420;" horiz-adv-x="987" 
d="M-10 0l309 1462h358q140 0 226 -44t126 -122.5t40 -183.5t-30 -215.5t-94.5 -203.5t-166 -150.5t-244.5 -57.5h-80l-102 -485h-342zM496 780h24q55 0 94 37t60.5 101.5t21.5 148.5q0 60 -24 80t-74 20h-18z" />
    <glyph glyph-name="uni0421" unicode="&#x421;" horiz-adv-x="965" 
d="M446 -20q-123 0 -207 58t-126.5 163.5t-42.5 247.5q0 145 29.5 292t86 280t138 237.5t186 164.5t229.5 60q92 0 184 -23t169 -82l-160 -270q-49 38 -92 57t-86 19q-67 0 -119.5 -56t-90.5 -144.5t-63 -188t-37 -188t-12 -142.5q0 -100 28.5 -142t80.5 -42
q68 0 133.5 22.5t128.5 54.5v-303q-79 -40 -175 -57.5t-182 -17.5z" />
    <glyph glyph-name="uni0422" unicode="&#x422;" horiz-adv-x="879" 
d="M150 0l245 1161h-235l63 301h815l-63 -301h-238l-245 -1161h-342z" />
    <glyph glyph-name="uni0423" unicode="&#x423;" horiz-adv-x="1022" 
d="M168 -20q-67 0 -110.5 8.5t-84.5 23.5v299q32 -21 82 -29t78 -8q34 0 59 10.5t44.5 29t35.5 45t31 57.5l-106 1046h350l20 -379q2 -25 4 -70.5t4 -90t3 -70.5q23 59 51.5 128t62.5 142l152 340h366l-524 -1026q-58 -117 -130 -221.5t-166.5 -169.5t-221.5 -65z" />
    <glyph glyph-name="uni0424" unicode="&#x424;" horiz-adv-x="1409" 
d="M416 -20l49 225q-114 3 -200.5 48t-134.5 133t-48 220q0 122 34 243t107 221.5t190 163.5t283 69l39 180h332l-39 -180q113 -3 198.5 -56t134 -143t48.5 -207q0 -127 -36 -249.5t-110.5 -222t-190.5 -159t-277 -61.5l-47 -225h-332zM524 492l113 524q-53 0 -93 -37.5
t-66.5 -97t-40 -126t-13.5 -124.5q0 -49 11 -80t33.5 -45t55.5 -14zM856 492q47 0 85.5 33.5t66.5 88t43.5 119.5t15.5 129q0 48 -11.5 82t-33.5 52.5t-55 19.5z" />
    <glyph glyph-name="uni0425" unicode="&#x425;" horiz-adv-x="1024" 
d="M-121 0l471 731l-143 731h358l47 -364l195 364h369l-441 -719l174 -743h-370l-60 385l-233 -385h-367z" />
    <glyph glyph-name="uni0426" unicode="&#x426;" horiz-adv-x="1243" 
d="M668 -455l96 455h-774l309 1462h342l-248 -1163h254l248 1163h342l-248 -1163h172l-162 -754h-331z" />
    <glyph glyph-name="uni0427" unicode="&#x427;" horiz-adv-x="1077" 
d="M508 0l110 520q-61 -25 -129 -46t-127 -21q-80 0 -132 33t-76.5 92t-24.5 137q0 32 7 83.5t18 100.5l118 563h342l-108 -510q-7 -37 -12 -66t-5 -52q0 -43 12 -61.5t34 -18.5q35 0 75 18t68 35l141 655h342l-311 -1462h-342z" />
    <glyph glyph-name="uni0428" unicode="&#x428;" horiz-adv-x="1669" 
d="M-10 0l309 1462h342l-248 -1163h215l248 1163h342l-248 -1163h213l248 1163h342l-309 -1462h-1454z" />
    <glyph glyph-name="uni0429" unicode="&#x429;" horiz-adv-x="1759" 
d="M1184 -455l98 455h-1292l309 1462h342l-248 -1163h215l248 1163h342l-248 -1163h213l248 1163h342l-248 -1163h172l-159 -754h-334z" />
    <glyph glyph-name="uni042A" unicode="&#x42a;" horiz-adv-x="1143" 
d="M150 0l245 1161h-235l63 301h580l-111 -520h29q121 0 203.5 -40t125 -119t42.5 -197q0 -106 -31.5 -210t-100 -189t-179.5 -136t-269 -51h-362zM555 297h25q49 0 84.5 33.5t55 92.5t19.5 134q0 50 -26 70t-72 20h-12z" />
    <glyph glyph-name="uni042B" unicode="&#x42b;" horiz-adv-x="1522" 
d="M-10 0l309 1462h342l-111 -520h31q121 0 203.5 -40t125 -119t42.5 -197q0 -108 -32.5 -212.5t-102 -189t-180 -134.5t-267.5 -50h-360zM393 297h27q36 0 65.5 19t50.5 54t32.5 82.5t11.5 104.5q0 50 -27 70t-74 20h-10zM952 0l312 1462h342l-312 -1462h-342z" />
    <glyph glyph-name="uni042C" unicode="&#x42c;" horiz-adv-x="983" 
d="M-10 0l309 1462h342l-111 -520h31q121 0 203.5 -40t125 -119t42.5 -197q0 -108 -32.5 -212.5t-102 -189t-180 -134.5t-267.5 -50h-360zM393 297h27q36 0 65.5 19t50.5 54t32.5 82.5t11.5 104.5q0 50 -27 70t-74 20h-10z" />
    <glyph glyph-name="uni042D" unicode="&#x42d;" horiz-adv-x="1004" 
d="M309 -20q-100 0 -169 18.5t-126 56.5v310q43 -29 93 -47.5t100.5 -27.5t93.5 -9q60 0 111.5 36t94 107t75.5 174h-359l64 297h350q2 8 3 24.5t1 26.5q0 76 -15.5 129t-45 81t-72.5 28q-63 0 -114.5 -18.5t-127.5 -55.5l-78 260q94 56 186.5 84.5t186.5 28.5
q133 0 230 -61.5t149.5 -185.5t52.5 -312q0 -124 -28 -256t-83.5 -254.5t-138 -220.5t-191 -155.5t-243.5 -57.5z" />
    <glyph glyph-name="uni042E" unicode="&#x42e;" horiz-adv-x="1610" 
d="M963 -20q-138 0 -227.5 52.5t-133 162t-43.5 280.5q0 32 1.5 65.5t4.5 67.5h-104l-129 -608h-342l309 1462h342l-117 -555h99q28 104 77.5 206.5t121 186.5t166 134.5t214.5 50.5q192 0 299 -117t107 -377q0 -96 -15.5 -207t-48.5 -224.5t-84.5 -217.5t-123 -185.5
t-164.5 -129t-209 -47.5zM977 285q48 0 87 42t69.5 111t52.5 151t36.5 163t21.5 147t7 102q0 94 -22 139.5t-64 45.5q-44 0 -82 -37.5t-68.5 -101t-53.5 -140.5t-38.5 -157.5t-23.5 -152.5t-8 -124q0 -77 9.5 -117.5t29 -55.5t47.5 -15z" />
    <glyph glyph-name="uni042F" unicode="&#x42f;" horiz-adv-x="1036" 
d="M-139 0l403 629q-44 43 -67 106.5t-23 149.5q0 129 37.5 235t111 182.5t181 118t248.5 41.5h366l-309 -1462h-342l113 539h-17l-323 -539h-379zM612 819h29l74 352h-29q-42 0 -72.5 -22t-50.5 -59.5t-29.5 -84t-9.5 -94.5q0 -43 24 -67.5t64 -24.5z" />
    <glyph glyph-name="uni0430" unicode="&#x430;" horiz-adv-x="997" 
d="M264 -20q-72 0 -125 41.5t-81.5 117.5t-28.5 180q0 87 17 197t51.5 221.5t87.5 206t126 152t166 57.5q43 0 81.5 -15t70 -49t51.5 -92h6l53 136h287l-242 -1133h-266l-8 135h-8q-35 -44 -69.5 -79t-75 -55.5t-93.5 -20.5zM412 256q44 0 75.5 47.5t52.5 114.5t33 125
q22 95 27.5 140.5t5.5 74.5q0 57 -15 83.5t-46 26.5t-58.5 -37t-49.5 -96t-37.5 -126.5t-24 -130.5t-8.5 -107q0 -57 11.5 -86t33.5 -29z" />
    <glyph glyph-name="uni0431" unicode="&#x431;" horiz-adv-x="977" 
d="M408 -20q-104 0 -187.5 42t-131.5 137.5t-48 256.5q0 110 14 239.5t52 261t108 249.5t181.5 206.5t273.5 130.5q29 8 69.5 17t91 19t112 19.5t132.5 18.5v-301q-60 -5 -114 -11.5t-110 -16t-122 -23.5q-87 -19 -142.5 -63t-86.5 -103.5t-45 -128.5h6q46 60 103.5 93.5
t121.5 33.5q69 0 126 -34t91.5 -109t34.5 -199q0 -127 -37.5 -256.5t-107 -238t-167.5 -174.5t-218 -66zM424 256q31 0 57 31.5t47 82t35.5 108.5t22.5 112.5t8 93.5q0 38 -8.5 72.5t-40.5 34.5q-22 0 -51 -24t-55 -57t-40 -61q-15 -75 -22.5 -139t-7.5 -115q0 -46 6.5 -77
t19 -46.5t29.5 -15.5z" />
    <glyph glyph-name="uni0432" unicode="&#x432;" horiz-adv-x="1020" 
d="M420 -20q-101 0 -188.5 43t-141 130t-53.5 218q0 104 18 213.5t59.5 211t110 182t169 128t237.5 47.5q113 0 195.5 -33t127.5 -97.5t45 -160.5q0 -61 -23.5 -113t-77 -91t-142.5 -64l-2 -8q60 -13 108.5 -67t48.5 -165q0 -97 -54.5 -182.5t-163.5 -138.5t-273 -53z
M465 225q28 0 55 18t45.5 49.5t18.5 69.5q0 32 -10.5 55.5t-33.5 36.5t-61 13h-104q-6 -34 -7 -52t-1 -46q0 -83 29 -113.5t69 -30.5zM428 702h100q48 0 75.5 15.5t39.5 43t12 62.5q0 41 -15 62.5t-46 21.5q-48 0 -79.5 -34t-51.5 -81.5t-35 -89.5z" />
    <glyph glyph-name="uni0433" unicode="&#x433;" horiz-adv-x="834" 
d="M377 -20q-98 0 -179.5 24t-131.5 86.5t-54 177.5q0 72 19 131.5t53.5 108.5t81.5 87.5t104 66.5q58 31 100.5 58.5t66.5 56t24 61.5q0 26 -19.5 35.5t-44.5 9.5q-52 0 -96.5 -20t-79.5 -40l-78 234q76 44 152.5 70t165.5 26q116 0 190.5 -38.5t111 -108t36.5 -162.5
q0 -69 -17.5 -126.5t-50.5 -104.5t-79 -83.5t-103 -64.5q-74 -37 -115 -63.5t-57.5 -49t-16.5 -49.5q0 -28 26.5 -37.5t57.5 -9.5q32 0 73 7t86 21.5t89 37.5v-269q-72 -38 -156 -55.5t-159 -17.5z" />
    <glyph glyph-name="uni0434" unicode="&#x434;" horiz-adv-x="1014" 
d="M414 -20q-120 0 -204.5 43t-128.5 124t-44 195q0 78 15.5 172t49.5 187t88 171t130.5 125t177.5 47q40 0 76 -8.5t64 -23t44 -33.5h6q8 46 10 85.5t2 74.5q0 101 -27 136.5t-77 35.5q-52 0 -105 -20t-116 -60l-66 256q80 47 175 69.5t171 22.5q118 0 202 -55t128.5 -157
t44.5 -245q0 -103 -13 -227t-42 -252t-76.5 -246.5t-115.5 -212.5t-159.5 -149t-209.5 -55zM432 244q33 0 61.5 38.5t52 98.5t41.5 127t30 125.5t18 91.5q-6 10 -19.5 23t-30.5 22.5t-36 9.5q-33 0 -61.5 -31.5t-50.5 -82.5t-38 -110.5t-24 -116.5t-8 -99q0 -46 15 -71
t50 -25z" />
    <glyph glyph-name="uni0435" unicode="&#x435;" horiz-adv-x="944" 
d="M408 -20q-116 0 -199.5 45.5t-128.5 131t-45 203.5q0 133 32 272t101 256.5t178 190t262 72.5q143 0 233.5 -79.5t90.5 -213.5q0 -103 -40 -178t-113 -123.5t-173.5 -72t-222.5 -23.5h-21q-3 -17 -4.5 -34.5t-1.5 -31.5q0 -84 32 -117.5t95 -33.5q74 0 134 17t145 65
v-244q-91 -60 -178 -81t-176 -21zM412 694h4q87 0 134 17t65 47t18 67q0 31 -20.5 50.5t-51.5 19.5q-28 0 -55 -20.5t-50.5 -65t-43.5 -115.5z" />
    <glyph glyph-name="uni0436" unicode="&#x436;" horiz-adv-x="1714" 
d="M49 -20q-31 0 -60.5 3.5t-60.5 12.5l80 272q9 -3 20.5 -4.5t26.5 -1.5q47 0 83.5 35.5t62 92t42 121t24 124t7.5 98.5q0 68 -18.5 102.5t-56.5 34.5q-19 0 -37 -4t-37 -10v270q31 13 70.5 20t80.5 7q157 0 241.5 -99t84.5 -270q0 -16 -1 -34.5t-3 -36.5h125l90 420h315
l-88 -420h111q26 92 67.5 172t101 140t140.5 94t187 34q29 0 59 -3t61 -11l-79 -275q-11 3 -22.5 4.5t-25.5 1.5q-41 0 -75.5 -31t-61 -82.5t-45 -114t-28 -126t-9.5 -117.5q0 -67 19.5 -102t56.5 -35q19 0 37 3.5t37 10.5v-270q-31 -12 -70.5 -19t-81.5 -7q-104 0 -177 45
t-110.5 128t-37.5 195q0 23 1.5 48t2.5 50h-115l-94 -446h-318l95 446h-113q-37 -127 -86 -216t-112 -144.5t-139 -80.5t-167 -25z" />
    <glyph glyph-name="uni0437" unicode="&#x437;" horiz-adv-x="827" 
d="M297 -20q-86 0 -170 16.5t-154 54.5v295q76 -49 151 -69.5t138 -20.5q46 0 80 14t53 39.5t19 59.5q0 46 -30 69t-101 23h-107l51 241h90q41 0 78 10t60.5 32t23.5 59q0 44 -20 62t-56 18q-41 0 -86.5 -14.5t-105.5 -45.5l-76 234q103 62 187 79t170 17q103 0 173.5 -33
t107 -97t36.5 -157q0 -70 -27 -122t-76.5 -87.5t-119.5 -58.5l-2 -10q80 -19 119.5 -83.5t39.5 -150.5q0 -103 -54 -188t-154 -135.5t-238 -50.5z" />
    <glyph glyph-name="uni0438" unicode="&#x438;" horiz-adv-x="1006" 
d="M285 -20q-80 0 -135 32.5t-83 92t-28 141.5q0 35 5.5 78t12.5 88l154 721h328l-133 -629q-10 -46 -15.5 -88t-5.5 -70q0 -34 11 -53t40 -19q35 0 61.5 37t47.5 100t37 140l125 582h327l-239 -1133h-263l5 131h-7q-32 -46 -70.5 -80t-82 -52.5t-92.5 -18.5z" />
    <glyph glyph-name="uni0439" unicode="&#x439;" horiz-adv-x="1006" 
d="M285 -20q-80 0 -135 32.5t-83 92t-28 141.5q0 35 5.5 78t12.5 88l154 721h328l-133 -629q-10 -46 -15.5 -88t-5.5 -70q0 -34 11 -53t40 -19q35 0 61.5 37t47.5 100t37 140l125 582h327l-239 -1133h-263l5 131h-7q-32 -46 -70.5 -80t-82 -52.5t-92.5 -18.5zM639 1231
q-112 0 -179.5 33t-98 94t-30.5 145q0 17 3.5 45.5t7.5 53.5h260q-4 -25 -7 -49.5t-3 -43.5q0 -40 15.5 -62t49.5 -22q45 0 78.5 44.5t54.5 132.5h258q-27 -131 -84 -213t-139 -120t-186 -38z" />
    <glyph glyph-name="uni043A" unicode="&#x43a;" horiz-adv-x="1014" 
d="M-27 0l242 1133h328l-113 -533l322 533h358l-369 -560l154 -573h-352l-123 549l-117 -549h-330z" />
    <glyph glyph-name="uni043B" unicode="&#x43b;" horiz-adv-x="1044" 
d="M43 -20q-44 0 -71 8.5t-58 23.5v281q19 -16 39.5 -21.5t42.5 -5.5q24 0 47.5 17.5t46.5 60.5t45.5 117t44.5 188q26 129 69 224t109 157t160 92.5t221 30.5q101 0 172 -6t162 -17l-239 -1130h-328l184 870h-13h-13q-51 0 -85.5 -36.5t-60.5 -116t-55 -207.5
q-18 -84 -47 -176t-76.5 -172.5t-119.5 -131t-177 -50.5z" />
    <glyph glyph-name="uni043C" unicode="&#x43c;" horiz-adv-x="1317" 
d="M-27 0l242 1133h438l-2 -580h4l234 580h457l-240 -1133h-309l96 459q12 49 23.5 97t23.5 97h-2l-279 -653h-237l-8 653h-2q-8 -46 -14.5 -91t-14.5 -91l-100 -471h-310z" />
    <glyph glyph-name="uni043D" unicode="&#x43d;" horiz-adv-x="1010" 
d="M-27 0l242 1133h328l-88 -414h166l88 414h327l-239 -1133h-328l94 440h-168l-92 -440h-330z" />
    <glyph glyph-name="uni043E" unicode="&#x43e;" horiz-adv-x="981" 
d="M395 -20q-112 0 -192.5 47t-123 134.5t-42.5 209.5q0 89 18.5 194.5t59 209t105.5 189t157.5 137.5t216.5 52q111 0 189.5 -48.5t120.5 -136t42 -206.5q0 -96 -19.5 -203.5t-60.5 -210t-106 -186t-155.5 -133t-209.5 -49.5zM434 256q32 0 60 36t50.5 94.5t38.5 127
t24.5 134t8.5 114.5q0 38 -6.5 63.5t-20.5 38.5t-38 13q-34 0 -62.5 -36t-51 -94.5t-38.5 -127t-24 -134.5t-8 -116q0 -54 16 -83.5t51 -29.5z" />
    <glyph glyph-name="uni043F" unicode="&#x43f;" horiz-adv-x="1006" 
d="M-27 0l242 1133h262l-4 -132h6q33 48 71.5 82t81.5 52t91 18q61 0 117 -24t92.5 -81.5t36.5 -160.5q0 -31 -4 -70.5t-15 -93.5l-153 -723h-328l133 631q9 44 16 86t7 69q0 34 -12 53t-40 19q-35 0 -62 -37t-47.5 -99t-37.5 -138l-123 -584h-330z" />
    <glyph glyph-name="uni0440" unicode="&#x440;" horiz-adv-x="997" 
d="M-129 -492l344 1625h266l-4 -144h8q39 61 78.5 96.5t82 51.5t89.5 16q72 0 125 -37t82 -112.5t29 -192.5q0 -98 -18.5 -210.5t-55 -222.5t-90.5 -200t-126 -144t-161 -54q-45 0 -83.5 16.5t-67.5 47.5t-47 75h-7q-6 -57 -13.5 -105.5t-12.5 -74.5l-92 -431h-326zM455 264
q31 0 58 36t49 93.5t38 125t24.5 132t8.5 111.5q0 59 -12 87t-33 28q-29 0 -55 -27.5t-47.5 -72.5t-38.5 -100.5t-29 -112t-18.5 -106t-6.5 -83.5q0 -57 15.5 -84t46.5 -27z" />
    <glyph glyph-name="uni0441" unicode="&#x441;" horiz-adv-x="815" 
d="M362 -20q-104 0 -176.5 45t-110.5 128t-38 195q0 102 18.5 213.5t58.5 216.5t105 190t157 135t214 50q84 0 154 -22t133 -66l-134 -258q-31 28 -71.5 45.5t-77.5 17.5q-62 0 -104.5 -53.5t-67.5 -132.5t-36 -157.5t-11 -127.5q0 -45 8 -75.5t25 -46t43 -15.5
q46 0 102.5 24.5t122.5 73.5v-278q-55 -41 -140.5 -71.5t-173.5 -30.5z" />
    </font>
</defs>
</svg>
