<?xml version="1.0" standalone="no"?>
<!DOCTYPE svg PUBLIC "-//W3C//DTD SVG 1.1//EN" "http://www.w3.org/Graphics/SVG/1.1/DTD/svg11.dtd" >
<svg xmlns="http://www.w3.org/2000/svg" xmlns:xlink="http://www.w3.org/1999/xlink" version="1.1">
<metadata>
Created by FontForge 20170731 at Wed Feb 10 17:54:37 2021
 By Aleksey,,,
Copyright 2020 The Open Sans Project Authors (https://github.com/googlefonts/opensans)
</metadata>
<defs>
<font id="OpenSansCondensed-Italic" horiz-adv-x="0" >
  <font-face 
    font-family="Open Sans Condensed"
    font-weight="400"
    font-style="italic"
    font-stretch="condensed"
    units-per-em="2048"
    panose-1="0 0 0 0 0 0 0 0 0 0"
    ascent="1638"
    descent="-410"
    x-height="1096"
    cap-height="1462"
    bbox="-811 -548 1985 2165"
    underline-thickness="50"
    underline-position="-175"
    slope="-12"
    unicode-range="U+000D-FFFD"
  />
<missing-glyph horiz-adv-x="1229" 
 />
    <glyph glyph-name="f_f" unicode="ff" horiz-adv-x="908" 
d="M-152 -492q-28 0 -53.5 4t-48.5 11v131q19 -6 41.5 -10t45.5 -4q74 0 101.5 62t52.5 174l233 1094h-118l16 83l129 45l28 125q18 83 39.5 146.5t52.5 108t76.5 67t111.5 22.5q38 0 76 -8t68 -24l-56 -118q-19 10 -40 15t-42 5q-60 0 -89 -56t-52 -163l-25 -122h301
l25 127q17 83 38.5 146.5t52.5 108t77 67t113 22.5q38 0 75 -8t68 -24l-54 -118q-20 10 -41.5 15t-40.5 5q-60 0 -89.5 -56t-52.5 -163l-27 -122h150l-26 -126h-149l-239 -1105q-21 -98 -50.5 -179.5t-83.5 -129.5t-148 -48q-28 0 -53 4t-48 11v131q17 -6 40.5 -10t46.5 -4
q74 0 101.5 62t51.5 174l234 1094h-299l-239 -1105q-21 -98 -50.5 -179.5t-83 -129.5t-147.5 -48z" />
    <glyph glyph-name="fi" unicode="fi" horiz-adv-x="839" 
d="M-152 -492q-28 0 -53.5 4t-48.5 11v131q19 -6 41.5 -10t45.5 -4q74 0 101.5 62t52.5 174l233 1094h-118l16 83l129 45l28 125q18 83 39.5 146.5t52.5 108t76.5 67t111.5 22.5q38 0 76 -8t68 -24l-56 -118q-19 10 -40 15t-42 5q-60 0 -89 -56t-52 -163l-25 -122h148
l-27 -126h-148l-239 -1105q-21 -98 -50.5 -179.5t-83 -129.5t-147.5 -48zM455 0l232 1096h147l-233 -1096h-146zM808 1286q-36 0 -54.5 19.5t-18.5 56.5q0 35 12 67t36.5 53t61.5 21q35 0 53 -17.5t18 -54.5q0 -59 -29 -102t-79 -43z" />
    <glyph glyph-name="fl" unicode="fl" horiz-adv-x="837" 
d="M-152 -492q-28 0 -53.5 4t-48.5 11v131q19 -6 41.5 -10t45.5 -4q74 0 101.5 62t52.5 174l233 1094h-118l16 83l129 45l28 125q18 83 39.5 146.5t52.5 108t76.5 67t111.5 22.5q38 0 76 -8t68 -24l-56 -118q-19 10 -40 15t-42 5q-60 0 -89 -56t-52 -163l-25 -122h148
l-27 -126h-148l-239 -1105q-21 -98 -50.5 -179.5t-83 -129.5t-147.5 -48zM456 0l332 1556h146l-331 -1556h-147z" />
    <glyph glyph-name="f_f_i" unicode="ffi" horiz-adv-x="1288" 
d="M-152 -492q-28 0 -53.5 4t-48.5 11v131q19 -6 41.5 -10t45.5 -4q74 0 101.5 62t52.5 174l233 1094h-118l16 83l129 45l28 125q18 83 39.5 146.5t52.5 108t76.5 67t111.5 22.5q38 0 76 -8t68 -24l-56 -118q-19 10 -40 15t-42 5q-60 0 -89 -56t-52 -163l-25 -122h301
l25 127q17 83 38.5 146.5t52.5 108t77 67t113 22.5q38 0 75 -8t68 -24l-54 -118q-20 10 -41.5 15t-40.5 5q-60 0 -89.5 -56t-52.5 -163l-27 -122h150l-26 -126h-149l-239 -1105q-21 -98 -50.5 -179.5t-83.5 -129.5t-148 -48q-28 0 -53 4t-48 11v131q17 -6 40.5 -10t46.5 -4
q74 0 101.5 62t51.5 174l234 1094h-299l-239 -1105q-21 -98 -50.5 -179.5t-83 -129.5t-147.5 -48zM903 0l233 1096h146l-233 -1096h-146zM1254 1286q-36 0 -54.5 19.5t-18.5 56.5q0 35 12 67t36.5 53t61.5 21q35 0 53.5 -17.5t18.5 -54.5q0 -59 -29.5 -102t-79.5 -43z" />
    <glyph glyph-name="f_f_l" unicode="ffl" horiz-adv-x="1285" 
d="M-152 -492q-28 0 -53.5 4t-48.5 11v131q19 -6 41.5 -10t45.5 -4q74 0 101.5 62t52.5 174l233 1094h-118l16 83l129 45l28 125q18 83 39.5 146.5t52.5 108t76.5 67t111.5 22.5q38 0 76 -8t68 -24l-56 -118q-19 10 -40 15t-42 5q-60 0 -89 -56t-52 -163l-25 -122h301
l25 127q17 83 38.5 146.5t52.5 108t77 67t113 22.5q38 0 75 -8t68 -24l-54 -118q-20 10 -41.5 15t-40.5 5q-60 0 -89.5 -56t-52.5 -163l-27 -122h150l-26 -126h-149l-239 -1105q-21 -98 -50.5 -179.5t-83.5 -129.5t-148 -48q-28 0 -53 4t-48 11v131q17 -6 40.5 -10t46.5 -4
q74 0 101.5 62t51.5 174l234 1094h-299l-239 -1105q-21 -98 -50.5 -179.5t-83 -129.5t-147.5 -48zM906 0l331 1556h147l-332 -1556h-146z" />
    <glyph glyph-name=".notdef" horiz-adv-x="1229" 
 />
    <glyph glyph-name=".null" 
 />
    <glyph glyph-name="nonmarkingreturn" horiz-adv-x="682" 
 />
    <glyph glyph-name="NULL" 
 />
    <glyph glyph-name="NULL" 
 />
    <glyph glyph-name="CR" unicode="&#xd;" horiz-adv-x="348" 
 />
    <glyph glyph-name="space" unicode=" " horiz-adv-x="348" 
 />
    <glyph glyph-name="exclam" unicode="!" horiz-adv-x="474" 
d="M124 401l206 1061h172l-257 -1061h-121zM102 -14q-36 0 -58.5 21t-22.5 62q0 61 33 108.5t95 47.5q35 0 55 -23t20 -63q0 -64 -34.5 -108.5t-87.5 -44.5z" />
    <glyph glyph-name="quotedbl" unicode="&#x22;" horiz-adv-x="674" 
d="M503 934l88 528h163l-139 -528h-112zM202 934l86 528h163l-137 -528h-112z" />
    <glyph glyph-name="numbersign" unicode="#" horiz-adv-x="853" 
d="M8 0l140 450h-147l20 119h163l114 362h-158l21 118h175l128 413h117l-129 -413h186l129 413h115l-127 -413h148l-22 -118h-164l-115 -362h159l-20 -119h-174l-141 -450h-117l142 450h-188l-138 -450h-117zM301 569h187l113 362h-186z" />
    <glyph glyph-name="dollar" unicode="$" horiz-adv-x="790" 
d="M197 -119l46 215q-81 3 -143.5 22t-101.5 44l18 150q41 -31 107 -56.5t149 -29.5l100 477q-50 41 -96 85t-74.5 100.5t-28.5 133.5q0 115 43.5 193t121 121t178.5 50l37 170h78l-35 -170q79 -4 134 -24.5t98 -47.5l-67 -123q-41 26 -88 45t-106 23l-95 -456
q57 -45 102.5 -92t72.5 -105.5t27 -138.5q0 -111 -44 -190.5t-123.5 -125t-184.5 -55.5l-45 -215h-80zM350 231q66 8 107.5 37.5t61.5 76t20 103.5q0 39 -9.5 70.5t-32 63t-60.5 67.5zM406 859l84 398q-61 -7 -101.5 -36t-61 -74t-20.5 -104q0 -34 10 -63.5t32 -58t57 -62.5
z" />
    <glyph glyph-name="percent" unicode="%" horiz-adv-x="1225" 
d="M184 0l758 1462h120l-752 -1462h-126zM260 565q-77 0 -119.5 58t-42.5 175q0 68 13 157t39 181.5t66.5 171t95.5 127t125 48.5q75 0 118 -57t43 -173q0 -64 -12.5 -152.5t-38.5 -181.5t-66 -173.5t-95 -130.5t-126 -50zM275 678q38 0 70 45t57 116t42.5 150.5t27 150
t9.5 113.5q0 62 -14.5 90t-44.5 28q-37 0 -69 -44t-57.5 -113.5t-43.5 -148t-27.5 -149.5t-9.5 -117q0 -65 16 -93t44 -28zM818 -21q-78 0 -120 58t-42 175q0 74 13.5 165t40.5 182t67.5 168t95 123.5t122.5 46.5q75 0 118.5 -57t43.5 -172q0 -66 -13 -155t-39 -182
t-66.5 -173t-95.5 -129.5t-125 -49.5zM831 92q38 0 70 45t57.5 116t43 150.5t27 150.5t9.5 115q0 61 -15.5 88.5t-44.5 27.5q-38 0 -70.5 -45t-57.5 -115.5t-42.5 -149.5t-26.5 -149.5t-9 -112.5q0 -64 15.5 -92.5t43.5 -28.5z" />
    <glyph glyph-name="ampersand" unicode="&#x26;" horiz-adv-x="853" 
d="M231 -20q-114 0 -179 72.5t-65 200.5q0 114 37.5 210.5t107 179.5t164.5 155q-21 65 -33.5 134t-12.5 140q0 114 33 207t97.5 148.5t158.5 55.5q53 0 95.5 -23t68 -68.5t25.5 -113.5q0 -98 -32.5 -188t-91 -169t-137.5 -148l110 -368q30 56 56.5 127.5t46.5 150.5h145
q-18 -70 -46.5 -144.5t-65 -146t-77.5 -134.5l92 -258h-169l-41 141q-57 -65 -123 -113t-164 -48zM258 113q48 0 85.5 22.5t68 57.5t57.5 73l-131 422q-65 -57 -110 -120.5t-68 -135.5t-23 -153q0 -54 14 -91t41 -56t66 -19zM422 881q36 36 66.5 78.5t52.5 91t34 100.5
t12 106q0 48 -17 77.5t-52 29.5q-46 0 -74 -40.5t-40.5 -102.5t-12.5 -126q0 -61 8 -113t23 -101z" />
    <glyph glyph-name="quotesingle" unicode="'" horiz-adv-x="373" 
d="M209 934l86 528h163l-137 -528h-112z" />
    <glyph glyph-name="parenleft" unicode="(" horiz-adv-x="523" 
d="M147 -324q-35 69 -59 161t-36.5 191t-12.5 190q0 171 32.5 340.5t95.5 331t153 308.5t204 273h127q-109 -137 -196 -287t-148.5 -309t-93.5 -325t-32 -334q0 -93 9.5 -189t29.5 -186t49 -165h-122z" />
    <glyph glyph-name="parenright" unicode=")" horiz-adv-x="523" 
d="M-149 -324q110 137 196.5 287t147 309t92.5 325t32 334q0 90 -9 188t-28.5 189.5t-49.5 162.5h124q36 -74 60 -164t35.5 -186.5t11.5 -191.5q0 -174 -32.5 -344.5t-95.5 -331t-152.5 -306.5t-203.5 -271h-128z" />
    <glyph glyph-name="asterisk" unicode="*" horiz-adv-x="729" 
d="M590 894l-92 246l-163 -211l-101 93l196 188l-224 73l46 129l216 -114l13 265l144 -19l-59 -257l236 50l11 -136l-237 -8l138 -235z" />
    <glyph glyph-name="plus" unicode="+" horiz-adv-x="874" 
d="M520 788h307v-131h-307v-412h-131v412h-310v131h310v415h131v-415z" />
    <glyph glyph-name="comma" unicode="," horiz-adv-x="404" 
d="M-91 -269q30 68 66 155.5t68.5 177t51.5 160.5h154l6 -20q-30 -79 -67.5 -161t-79 -161t-85.5 -151h-114z" />
    <glyph glyph-name="hyphen" unicode="-" horiz-adv-x="531" 
d="M33 481l27 145h428l-27 -145h-428z" />
    <glyph glyph-name="period" unicode="." horiz-adv-x="403" 
d="M105 -14q-37 0 -59 21t-22 62q0 61 32 108.5t93 47.5q36 0 56.5 -23t20.5 -63q0 -64 -35.5 -108.5t-85.5 -44.5z" />
    <glyph glyph-name="slash" unicode="/" horiz-adv-x="675" 
d="M-99 -5l786 1472h140l-789 -1472h-137z" />
    <glyph glyph-name="zero" unicode="0" horiz-adv-x="790" 
d="M275 -20q-115 0 -173 83.5t-58 264.5q0 80 13 195.5t40 246t68.5 256.5t98.5 229.5t131 165.5t165 62q57 0 100 -20.5t71.5 -62t42.5 -105.5t14 -150t-13 -204.5t-39.5 -250t-68 -257t-98.5 -228.5t-130 -164t-164 -61zM288 118q55 0 102.5 56.5t87 151t70.5 208.5
t52 230.5t32 217.5t11 168q0 99 -23 146.5t-73 47.5q-54 0 -101 -57t-87 -151t-71.5 -207.5t-53.5 -228.5t-33.5 -214t-11.5 -162q0 -110 24 -158t75 -48z" />
    <glyph glyph-name="one" unicode="1" horiz-adv-x="790" 
d="M250 0l222 1050q8 38 13.5 64t14 59.5t23.5 92.5q-15 -16 -31 -32.5t-36 -33.5l-170 -147l-71 98l354 311h140l-309 -1462h-150z" />
    <glyph glyph-name="two" unicode="2" horiz-adv-x="790" 
d="M-68 0l21 113l353 427q65 80 124.5 158t106 155.5t73.5 157t27 162.5q0 86 -37.5 130t-108.5 44q-41 0 -76.5 -14.5t-69 -37.5t-68.5 -51l-59 111q62 59 136 93.5t166 34.5q82 0 143 -34.5t95 -98t34 -152.5q0 -119 -47 -235t-127.5 -231t-181.5 -232l-301 -358v-7h456
l-29 -135h-630z" />
    <glyph glyph-name="three" unicode="3" horiz-adv-x="790" 
d="M211 -20q-79 0 -138 14t-109 42v153q51 -39 114.5 -57.5t126.5 -18.5q73 0 129 27.5t94.5 75t58 109.5t19.5 132q0 80 -25 131t-72.5 76t-117.5 25h-66l28 132h65q77 0 137 28t102.5 77t64.5 112.5t22 134.5q0 83 -37.5 129.5t-114.5 46.5q-61 0 -117.5 -25t-110.5 -67
l-48 117q65 50 137.5 79.5t163.5 29.5q88 0 150.5 -33.5t96.5 -96t34 -149.5q0 -105 -38.5 -196.5t-108.5 -155.5t-165 -89l-2 -5q79 -26 128.5 -97t49.5 -191q0 -96 -29.5 -184t-86.5 -157t-141 -109t-194 -40z" />
    <glyph glyph-name="four" unicode="4" horiz-adv-x="790" 
d="M342 0l71 322h-450l24 120l651 1034h166l-217 -1022h138l-28 -132h-139l-67 -322h-149zM122 454h318l136 629q8 32 16 65.5t16.5 67.5t16.5 65h-7q-36 -69 -58.5 -111t-48.5 -83z" />
    <glyph glyph-name="five" unicode="5" horiz-adv-x="790" 
d="M206 -20q-50 0 -94 7t-79 19t-60 25v160q43 -35 102.5 -56.5t132.5 -21.5q80 0 140.5 33t101 89.5t61 128.5t20.5 150q0 122 -49 186t-148 64q-40 0 -78 -9t-78 -24l-50 62l181 669h500l-30 -138h-365l-125 -445q27 8 56 12t60 4q90 0 153 -41.5t96.5 -120.5t33.5 -191
q0 -107 -29 -207.5t-88.5 -180.5t-150 -127t-214.5 -47z" />
    <glyph glyph-name="six" unicode="6" horiz-adv-x="790" 
d="M311 -20q-90 0 -148 45t-85.5 127t-27.5 192q0 115 16 235t47 236.5t74 220t97 184.5q42 66 99.5 126.5t131.5 98.5t164 38q53 0 91.5 -5.5t69.5 -15.5l-35 -135q-27 11 -59.5 16.5t-67.5 5.5q-97 0 -177.5 -65.5t-144 -195t-111.5 -323.5h6q30 48 69 82.5t85.5 53.5
t98.5 19q110 0 163.5 -85t53.5 -219q0 -99 -23.5 -209.5t-73 -207.5t-127.5 -158t-186 -61zM321 115q67 0 114.5 51t77 128.5t43 160t13.5 146.5q0 89 -31.5 137.5t-87.5 48.5q-51 0 -91.5 -24.5t-70.5 -65.5t-48 -92q-14 -31 -24 -73.5t-14.5 -92t-4.5 -102.5
q0 -54 8.5 -95.5t24.5 -69.5t39 -42.5t52 -14.5z" />
    <glyph glyph-name="seven" unicode="7" horiz-adv-x="790" 
d="M64 0l635 1324h-507l29 138h656l-19 -113l-637 -1349h-157z" />
    <glyph glyph-name="eight" unicode="8" horiz-adv-x="790" 
d="M303 -20q-100 0 -171.5 38t-109 108t-37.5 166q0 113 39.5 199.5t114 155t177.5 125.5q-43 49 -72 101t-44 109t-15 119q0 107 43 193.5t123.5 137.5t192.5 51q83 0 143.5 -34.5t93.5 -96.5t33 -146q0 -94 -35.5 -175.5t-103 -148.5t-162.5 -118q58 -57 95 -116t55 -122
t18 -135q0 -107 -45.5 -201t-130 -152t-202.5 -58zM305 108q77 0 127.5 38t76 101t26.5 137q0 61 -17.5 114t-49 100.5t-72.5 91.5q-76 -42 -135.5 -95t-94 -124.5t-34.5 -167.5q0 -82 46 -138.5t127 -56.5zM434 844q78 41 130 94t78 115t26 131q0 82 -39 126.5t-102 44.5
q-60 0 -104 -30t-68.5 -86t-24.5 -134q0 -80 27.5 -143t76.5 -118z" />
    <glyph glyph-name="nine" unicode="9" horiz-adv-x="790" 
d="M164 -20q-54 0 -94.5 6.5t-72.5 15.5v138q29 -13 71.5 -20t90.5 -7q75 0 138.5 37t117 110t97 182.5t77.5 254.5h-6q-31 -46 -70.5 -81t-85.5 -54t-97 -19q-74 0 -122 40t-71.5 109.5t-23.5 156.5q0 78 15 165t46.5 170t80.5 151t117 108t156 40q82 0 138.5 -40.5
t86 -120t29.5 -196.5q0 -101 -12 -208.5t-34.5 -213t-56 -203t-75.5 -178.5q-34 -72 -78 -134t-98.5 -109t-120 -73.5t-143.5 -26.5zM384 677q37 0 68.5 15t57 42t43.5 62q41 55 61.5 139.5t20.5 192.5q0 73 -14 121.5t-41 73t-67 24.5q-63 0 -110 -47.5t-78.5 -121.5
t-47 -156.5t-15.5 -151.5q0 -94 32 -143.5t90 -49.5z" />
    <glyph glyph-name="colon" unicode=":" horiz-adv-x="407" 
d="M272 864q-36 0 -58 21.5t-22 61.5q0 41 15 76.5t43 57.5t67 22q38 0 58 -24t20 -61q0 -64 -35 -109t-88 -45zM85 -14q-36 0 -58.5 21t-22.5 62q0 61 32 108.5t93 47.5q36 0 56.5 -23t20.5 -63q0 -64 -35 -108.5t-86 -44.5z" />
    <glyph glyph-name="semicolon" unicode=";" horiz-adv-x="407" 
d="M-101 -269q37 82 72 166t64.5 167t51.5 160h151l8 -20q-30 -79 -67 -160.5t-79.5 -160.5t-87.5 -152h-113zM283 864q-36 0 -58 21.5t-22 61.5q0 41 14.5 76.5t42.5 57.5t68 22q37 0 57 -24t20 -61q0 -64 -34.5 -109t-87.5 -45z" />
    <glyph glyph-name="less" unicode="&#x3c;" horiz-adv-x="874" 
d="M831 274l-753 411v92l753 403v-149l-579 -301l579 -308v-148z" />
    <glyph glyph-name="equal" unicode="=" horiz-adv-x="874" 
d="M79 875v131h748v-131h-748zM79 437v129h748v-129h-748z" />
    <glyph glyph-name="greater" unicode="&#x3e;" horiz-adv-x="874" 
d="M79 422l579 307l-579 302v149l754 -403v-92l-754 -411v148z" />
    <glyph glyph-name="question" unicode="?" horiz-adv-x="581" 
d="M121 401q21 100 44 170t57.5 128.5t87.5 123.5q62 74 108.5 132t72.5 118.5t26 140.5q0 68 -33 100.5t-89 32.5q-55 0 -100 -21t-87 -50l-35 117q60 45 124 67.5t128 22.5q116 0 179 -63t63 -176q0 -90 -30 -165.5t-81 -145t-114 -141.5q-61 -71 -99 -126t-61 -115.5
t-39 -149.5h-122zM111 -14q-37 0 -59.5 21t-22.5 62q0 61 32.5 108.5t93.5 47.5q35 0 55.5 -23t20.5 -63q0 -64 -34.5 -108.5t-85.5 -44.5z" />
    <glyph glyph-name="at" unicode="@" horiz-adv-x="1183" 
d="M441 -173q-98 0 -171.5 34t-122.5 97t-73.5 150t-24.5 193q0 166 33 333.5t96 318.5t154 268t207 185t255 68q117 0 198.5 -57.5t124 -162t42.5 -245.5q0 -91 -16.5 -196.5t-47 -207t-74.5 -185.5t-99.5 -134t-120.5 -50q-73 0 -100.5 43.5t-32.5 118.5h-2
q-31 -74 -78.5 -120.5t-101.5 -46.5q-72 0 -109 51t-37 155q0 67 15.5 151.5t46 169t76.5 156t107 115t137 43.5q53 0 97.5 -9.5t80.5 -27.5l-117 -472q-12 -48 -18.5 -84t-6.5 -57q0 -43 13 -63.5t41 -20.5q41 0 77 47t65 123t50 165t32 174.5t11 149.5q0 126 -30 209
t-88.5 123.5t-145.5 40.5q-118 0 -215.5 -63t-172.5 -171t-127 -245t-78.5 -286t-26.5 -293q0 -111 28 -197.5t90 -136t164 -49.5q67 0 133.5 17t121.5 46v-102q-58 -29 -124.5 -46t-134.5 -17zM516 337q44 0 86 80t85 246l77 299q-13 5 -27.5 7t-32.5 2q-58 0 -104 -56
t-78 -140t-48.5 -172t-16.5 -151q0 -59 15 -87t44 -28z" />
    <glyph glyph-name="A" unicode="A" horiz-adv-x="810" 
d="M-134 0l611 1468h194l5 -1468h-158l2 478h-293l-196 -478h-165zM278 616h248l8 524q0 49 2 92.5t6 79.5h-6q-10 -34 -23 -76.5t-33 -95.5z" />
    <glyph glyph-name="B" unicode="B" horiz-adv-x="868" 
d="M1 0l309 1462h262q90 0 160 -31.5t110 -94t40 -156.5q0 -92 -29.5 -177t-91 -147.5t-158.5 -87.5v-6q79 -22 120.5 -96t41.5 -172q0 -136 -51.5 -248.5t-152.5 -179t-250 -66.5h-310zM182 135h130q104 0 169 50t95.5 132.5t30.5 179.5q0 102 -48.5 152t-133.5 50h-124z
M328 830h119q89 0 150 46t92.5 121t31.5 160q0 86 -44 129t-136 43h-108z" />
    <glyph glyph-name="C" unicode="C" horiz-adv-x="780" 
d="M398 -20q-107 0 -179.5 52.5t-108.5 157.5t-36 262q0 120 24.5 260t74.5 276.5t125 249t176.5 180t228.5 67.5q69 0 126.5 -17.5t102.5 -53.5l-80 -124q-32 29 -70 42.5t-82 13.5q-96 0 -171.5 -63t-131.5 -164.5t-92.5 -220.5t-54.5 -233.5t-18 -200.5q0 -182 48 -264.5
t152 -82.5q44 0 91 12.5t99 34.5v-139q-55 -23 -112 -34t-112 -11z" />
    <glyph glyph-name="D" unicode="D" horiz-adv-x="940" 
d="M1 0l309 1462h230q179 0 274 -108t95 -323q0 -131 -23 -274t-72.5 -277.5t-128.5 -243t-190.5 -172.5t-259.5 -64h-234zM181 139h75q105 0 185.5 55.5t138.5 149t95 209t55 237.5t18 232q0 159 -56.5 230.5t-169.5 71.5h-89z" />
    <glyph glyph-name="E" unicode="E" horiz-adv-x="744" 
d="M0 0l310 1462h523l-29 -136h-371l-104 -493h347l-31 -137h-346l-118 -559h371l-29 -137h-523z" />
    <glyph glyph-name="F" unicode="F" horiz-adv-x="700" 
d="M0 0l310 1462h525l-30 -136h-372l-116 -554h347l-29 -136h-348l-135 -636h-152z" />
    <glyph glyph-name="G" unicode="G" horiz-adv-x="999" 
d="M462 -20q-196 0 -292 117.5t-96 346.5q0 171 31.5 326.5t90.5 285.5t141.5 226.5t184.5 149.5t220 53q91 0 168 -25t134 -66l-77 -132q-58 44 -115.5 64t-122.5 20q-114 0 -206 -79t-157.5 -210t-100 -289t-34.5 -316q0 -117 27.5 -191t81.5 -109t135 -35q45 0 86 6.5
t80 19.5l103 489h-183l29 134h335l-155 -725q-77 -29 -155.5 -45t-152.5 -16z" />
    <glyph glyph-name="H" unicode="H" horiz-adv-x="979" 
d="M0 0l310 1462h152l-133 -627h408l134 627h152l-311 -1462h-152l147 696h-408l-147 -696h-152z" />
    <glyph glyph-name="I" unicode="I" horiz-adv-x="420" 
d="M0 0l310 1462h151l-309 -1462h-152z" />
    <glyph glyph-name="J" unicode="J" horiz-adv-x="403" 
d="M-167 -389q-43 0 -75 6.5t-58 17.5l35 137q23 -10 46.5 -17t48.5 -7q48 0 79.5 29t53 84t38.5 133l310 1468h152l-316 -1496q-26 -124 -68.5 -202.5t-103 -115.5t-142.5 -37z" />
    <glyph glyph-name="K" unicode="K" horiz-adv-x="816" 
d="M0 0l310 1462h152l-156 -736l116 176l392 560h166l-462 -666l169 -796h-165l-135 679l-117 -123l-118 -556h-152z" />
    <glyph glyph-name="L" unicode="L" horiz-adv-x="682" 
d="M0 0l310 1462h152l-281 -1325h361l-27 -137h-515z" />
    <glyph glyph-name="M" unicode="M" horiz-adv-x="1312" 
d="M0 0l310 1462h213l47 -1218h4l552 1218h229l-311 -1462h-150l215 1011q7 31 14 61.5t15 62.5t16 65h-4l-550 -1200h-154l-49 1199h-4q-8 -42 -14.5 -79t-12.5 -71.5t-13 -69.5l-208 -979h-145z" />
    <glyph glyph-name="N" unicode="N" horiz-adv-x="1039" 
d="M0 0l310 1462h181l196 -1184h6q12 71 25 139.5t25 127t20 98.5l173 819h148l-312 -1462h-174l-201 1203h-6q-7 -54 -17 -113.5t-21.5 -116.5t-22 -104.5t-17.5 -78.5l-166 -790h-147z" />
    <glyph glyph-name="O" unicode="O" horiz-adv-x="1004" 
d="M384 -20q-105 0 -174 46t-103.5 141t-34.5 240q0 109 16 230t48.5 242t81.5 229.5t114.5 193t148.5 133t183 48.5q156 0 232 -100.5t76 -309.5q0 -96 -14.5 -213t-44.5 -240t-77 -237t-112 -205t-149.5 -144.5t-190.5 -53.5zM395 118q71 0 130 47t106 127t82 180.5
t58 208t34.5 209.5t11.5 185q0 139 -41.5 205t-125.5 66q-76 0 -137 -50t-107.5 -133.5t-80 -186t-55 -208.5t-31.5 -201t-10 -162q0 -101 19 -164.5t56 -93t91 -29.5z" />
    <glyph glyph-name="P" unicode="P" horiz-adv-x="815" 
d="M1 0l309 1462h211q109 0 182.5 -39t111 -110t37.5 -168q0 -121 -32.5 -225t-94.5 -180.5t-152 -119.5t-205 -43h-93l-122 -577h-152zM303 715h62q109 0 182 52.5t110 145t37 213.5q0 98 -49 149t-148 51h-64z" />
    <glyph glyph-name="Q" unicode="Q" horiz-adv-x="1004" 
d="M483 -348l-92 332q-9 -1 -17.5 -1.5t-18.5 -0.5q-95 5 -158 52.5t-94 140.5t-31 232q0 109 16 230t48.5 242t81.5 229.5t114.5 193t148.5 133t183 48.5q156 0 232 -100.5t76 -309.5q0 -100 -15.5 -223t-47.5 -251.5t-83 -245.5t-122 -206t-163 -131l117 -364h-175z
M395 118q71 0 130 47t106 127t82 180.5t58 208t34.5 209.5t11.5 185q0 139 -41.5 205t-125.5 66q-76 0 -137 -50t-107.5 -133.5t-80 -186t-55 -208.5t-31.5 -201t-10 -162q0 -101 19 -164.5t56 -93t91 -29.5z" />
    <glyph glyph-name="R" unicode="R" horiz-adv-x="842" 
d="M1 0l309 1462h213q159 0 244.5 -82t85.5 -233q0 -121 -36.5 -226.5t-104.5 -177.5t-162 -96l129 -647h-164l-111 617h-121l-130 -617h-152zM312 747h96q75 0 129 32.5t88.5 87t51.5 122.5t17 139q0 99 -49.5 149t-144.5 50h-67z" />
    <glyph glyph-name="S" unicode="S" horiz-adv-x="762" 
d="M228 -20q-88 0 -158.5 17t-117.5 48l19 160q53 -35 121 -58t141 -23q57 0 104 18.5t80.5 53.5t52 86.5t18.5 117.5q0 56 -13 99.5t-46.5 90.5t-96.5 112q-54 56 -93.5 109t-61 115t-21.5 143q0 95 29 171.5t83 130.5t130 83t169 29q72 0 147 -21.5t120 -53.5l-73 -139
q-46 32 -98 51.5t-108 19.5q-51 0 -94.5 -17t-76 -50t-51 -80t-18.5 -107t19 -107t58 -94t98 -108q53 -53 87.5 -107t52 -116.5t17.5 -140.5q0 -96 -27.5 -175t-81 -137t-131.5 -89.5t-179 -31.5z" />
    <glyph glyph-name="T" unicode="T" horiz-adv-x="694" 
d="M135 0l281 1324h-253l31 138h657l-31 -138h-252l-281 -1324h-152z" />
    <glyph glyph-name="U" unicode="U" horiz-adv-x="956" 
d="M355 -20q-90 0 -154.5 35.5t-99 103t-34.5 163.5q0 37 5.5 82t15.5 92l214 1006h152l-216 -1014q-8 -40 -12.5 -78t-4.5 -70q0 -92 40 -137t113 -45t122.5 37.5t84 116t61.5 200.5l214 990h152l-218 -1005q-31 -146 -83 -253.5t-136.5 -165.5t-215.5 -58z" />
    <glyph glyph-name="V" unicode="V" horiz-adv-x="814" 
d="M183 0l-7 1462h155l-8 -951q0 -46 -1 -93.5t-3.5 -100t-7.5 -113.5h4q10 37 24 79.5t32.5 91.5t39.5 103l407 984h163l-622 -1462h-176z" />
    <glyph glyph-name="W" unicode="W" horiz-adv-x="1325" 
d="M144 0l33 1462h149l-26 -945q-3 -89 -7 -158t-8 -122h4q25 71 51.5 142t53.5 140l368 943h139l-31 -913q-3 -96 -8 -170t-10 -143h4q20 57 38.5 107t37 98t36.5 97l361 924h156l-580 -1462h-182l35 952q1 31 3 65.5t5 70.5t6 73h-4q-16 -49 -33.5 -99t-36.5 -97
l-374 -965h-180z" />
    <glyph glyph-name="X" unicode="X" horiz-adv-x="745" 
d="M-121 0l440 771l-97 691h157l62 -549l288 549h161l-396 -712l97 -750h-161l-57 601l-332 -601h-162z" />
    <glyph glyph-name="Y" unicode="Y" horiz-adv-x="714" 
d="M148 0l118 564l-93 898h158l53 -692l344 692h162l-470 -895l-121 -567h-151z" />
    <glyph glyph-name="Z" unicode="Z" horiz-adv-x="679" 
d="M-84 0l25 118l665 1207h-397l29 137h568l-26 -120l-668 -1205h425l-28 -137h-593z" />
    <glyph glyph-name="bracketleft" unicode="[" horiz-adv-x="576" 
d="M-53 -329l385 1803h382l-27 -123h-245l-333 -1558h246l-26 -122h-382z" />
    <glyph glyph-name="backslash" unicode="\" horiz-adv-x="691" 
d="M393 -5l-186 1472h135l189 -1472h-138z" />
    <glyph glyph-name="bracketright" unicode="]" horiz-adv-x="576" 
d="M-134 -329l24 122h246l331 1558h-245l27 123h382l-385 -1803h-380z" />
    <glyph glyph-name="asciicircum" unicode="^" horiz-adv-x="813" 
d="M26 687l461 775h99l222 -775h-138l-167 574l-330 -574h-147z" />
    <glyph glyph-name="underscore" unicode="_" horiz-adv-x="612" 
d="M-175 -289l21 117h612l-22 -117h-611z" />
    <glyph glyph-name="grave" unicode="`" horiz-adv-x="500" 
d="M474 1241q-27 37 -62.5 92.5t-66.5 114t-46 102.5v17h169q13 -49 28 -99.5t32.5 -101.5t39.5 -105l-3 -20h-91z" />
    <glyph glyph-name="a" unicode="a" horiz-adv-x="856" 
d="M263 -20q-68 0 -116 35t-72.5 103.5t-24.5 166.5q0 92 17 203t51 221.5t87 202.5t124.5 148t162.5 56q47 0 83 -18.5t61 -55t37 -89.5h6l45 143h125l-233 -1096h-118l15 159h-4q-36 -56 -74 -96.5t-80 -61.5t-92 -21zM309 109q71 0 121 56t85 143t59 180q25 99 38.5 180
t13.5 151q0 79 -31.5 122.5t-87.5 43.5q-57 0 -105 -46.5t-85 -122.5t-62.5 -168t-39 -184t-13.5 -168q0 -96 27 -141.5t80 -45.5z" />
    <glyph glyph-name="b" unicode="b" horiz-adv-x="844" 
d="M358 -20q-50 0 -88.5 20t-63 56t-35.5 83h-6l-48 -139h-117l329 1556h146l-106 -497q-4 -18 -9 -37.5t-10 -38.5t-11 -39h4q33 55 71.5 93t82.5 58.5t93 20.5q67 0 113.5 -34.5t71.5 -101.5t25 -167q0 -90 -17 -200.5t-51 -221.5t-87 -204.5t-124.5 -150t-162.5 -56.5z
M345 108q57 0 104.5 48t84.5 126t62.5 170.5t38.5 184.5t13 165q0 96 -27 140t-82 44q-52 0 -95.5 -36t-78.5 -96t-61.5 -135t-44 -153.5t-26 -151.5t-8.5 -128q0 -88 30 -133t90 -45z" />
    <glyph glyph-name="c" unicode="c" horiz-adv-x="638" 
d="M310 -20q-84 0 -141.5 37t-87 110.5t-29.5 182.5q0 97 17 207t53 216t92 192.5t133 138.5t177 52q52 0 95.5 -11t80.5 -34l-59 -122q-26 18 -57.5 27.5t-61.5 9.5q-80 0 -140 -65t-100 -167t-60 -216t-20 -213q0 -75 16 -122.5t47.5 -70.5t77.5 -23q37 0 78 14.5t85 39.5
v-129q-38 -23 -89 -38.5t-107 -15.5z" />
    <glyph glyph-name="d" unicode="d" horiz-adv-x="854" 
d="M260 -20q-67 0 -114 35t-71.5 103.5t-24.5 166.5q0 91 17 201.5t51 221.5t86 203.5t122.5 148.5t158.5 56q49 0 87 -18t64 -52t37 -82h6q6 35 12.5 69.5t13 67.5t12.5 63l82 392h146l-329 -1556h-118l15 156h-4q-37 -56 -75 -95.5t-80.5 -60t-93.5 -20.5zM309 108
q57 0 102 39t80.5 104.5t61 144.5t41.5 159.5t24 151t8 116.5q0 78 -29.5 120t-89.5 42q-59 0 -107.5 -48t-85.5 -126.5t-62 -171.5t-37.5 -184t-12.5 -163q0 -94 27 -139t80 -45z" />
    <glyph glyph-name="e" unicode="e" horiz-adv-x="770" 
d="M331 -20q-88 0 -151 38.5t-96.5 112.5t-33.5 181q0 166 35.5 311.5t99.5 256.5t149.5 173.5t185.5 62.5q99 0 157 -56t58 -166q0 -89 -34 -162.5t-99 -126t-159.5 -81t-215.5 -28.5h-14q-7 -40 -11.5 -82t-4.5 -84q0 -118 42 -172t127 -54q55 0 101.5 14.5t103.5 47.5
v-125q-51 -32 -111 -46.5t-129 -14.5zM234 610h7q126 0 204 35.5t114.5 98t36.5 142.5q0 50 -23 78t-73 28q-55 0 -106.5 -49.5t-92.5 -135.5t-67 -197z" />
    <glyph glyph-name="f" unicode="f" horiz-adv-x="461" 
d="M-152 -492q-28 0 -53.5 4t-48.5 11v131q19 -6 41.5 -10t45.5 -4q74 0 101.5 62t52.5 174l233 1094h-118l16 83l129 45l28 125q18 83 39.5 146.5t52.5 108t76.5 67t111.5 22.5q38 0 76 -8t68 -24l-56 -118q-19 10 -40 15t-42 5q-60 0 -89 -56t-52 -163l-25 -122h148
l-27 -126h-148l-239 -1105q-21 -98 -50.5 -179.5t-83 -129.5t-147.5 -48z" />
    <glyph glyph-name="g" unicode="g" horiz-adv-x="781" 
d="M180 -492q-151 -1 -233 62t-81 194q2 109 69 196t187 136q-31 15 -49 48t-18 74q0 52 36 104.5t114 104.5q-40 25 -64 79.5t-24 132.5q0 110 46 220.5t131 178.5q41 36 93.5 57t109.5 21q42 0 71.5 -8t47.5 -17h241l-19 -95l-130 -25q14 -23 20 -55t6 -70
q0 -85 -30.5 -176.5t-83.5 -157.5q-49 -60 -114.5 -95t-145.5 -35q-20 0 -38 -0.5t-26 -4.5q-58 -27 -85 -67t-27 -73q0 -37 30 -54q11 -5 26.5 -7.5t34.5 -3.5h149q81 0 129 -28.5t69 -79.5t21 -118q0 -109 -47.5 -198.5t-126.5 -145.5q-59 -45 -134 -69t-155 -25z
M186 -375q59 1 113.5 20t96.5 56q44 37 72 93.5t28 117.5q0 29 -6.5 52.5t-24.5 42.5q-14 14 -40.5 22t-65.5 9h-127q-50 0 -102 -39.5t-87 -100t-35 -122.5q0 -88 47 -120.5t131 -30.5zM362 493q60 0 108 49.5t78.5 130.5t35.5 176q3 44 -3 78t-24 54q-11 12 -26.5 18.5
t-37.5 6.5q-46 0 -85.5 -33t-70 -86t-49 -114t-21.5 -118q-1 -34 2.5 -63.5t13.5 -49.5q21 -49 79 -49z" />
    <glyph glyph-name="h" unicode="h" horiz-adv-x="830" 
d="M2 0l330 1556h145l-90 -417q-6 -30 -13.5 -61.5t-16 -62.5t-17.5 -61h4q29 53 65 89t80 54.5t95 18.5q58 0 100 -23t65 -68.5t23 -112.5q0 -43 -10 -105t-21 -117l-148 -690h-146l142 673q12 54 22 108.5t10 101.5t-24 72.5t-70 25.5q-58 0 -104.5 -40t-82.5 -123
t-63 -214l-129 -604h-146z" />
    <glyph glyph-name="i" unicode="i" horiz-adv-x="385" 
d="M0 0l232 1096h147l-233 -1096h-146zM353 1286q-36 0 -54.5 19.5t-18.5 56.5q0 35 12 67t36.5 53t61.5 21q35 0 53 -17.5t18 -54.5q0 -59 -29 -102t-79 -43z" />
    <glyph glyph-name="j" unicode="j" horiz-adv-x="388" 
d="M-165 -492q-28 0 -53 3.5t-47 10.5v134q17 -7 39.5 -10.5t44.5 -3.5q47 0 76 23.5t49 81.5t40 161l251 1188h147l-256 -1199q-24 -117 -55.5 -204.5t-86 -136t-149.5 -48.5zM356 1286q-36 0 -54.5 19.5t-18.5 56.5q0 35 12 67t36.5 53t61.5 21q35 0 53 -17.5t18 -54.5
q0 -59 -29 -102t-79 -43z" />
    <glyph glyph-name="k" unicode="k" horiz-adv-x="724" 
d="M1 0l332 1556h146l-163 -758q-6 -30 -14 -65t-18 -74.5t-22 -84.5h5l386 522h160l-328 -442l115 -654h-154l-88 531l-130 -144l-80 -387h-147z" />
    <glyph glyph-name="l" unicode="l" horiz-adv-x="380" 
d="M1 0l332 1556h146l-331 -1556h-147z" />
    <glyph glyph-name="m" unicode="m" horiz-adv-x="1240" 
d="M0 0l232 1096h120l-21 -144h6q30 53 66 89.5t79.5 55.5t92.5 19q78 0 123 -35t59 -107h4q30 45 66 77t79 48.5t93 16.5q86 0 135.5 -51.5t49.5 -153.5q0 -30 -5 -67.5t-13 -73.5l-163 -770h-146l157 743q8 38 13 73t5 56q0 55 -24 83t-69 28q-43 0 -76.5 -22.5
t-58.5 -60.5t-42.5 -85.5t-28.5 -96.5l-153 -718h-146l162 762q8 32 10.5 61.5t2.5 50.5q0 53 -22 81t-68 28q-53 0 -92.5 -31.5t-68 -85.5t-48.5 -123.5t-35 -144.5l-127 -598h-148z" />
    <glyph glyph-name="n" unicode="n" horiz-adv-x="830" 
d="M0 0l232 1096h120l-21 -149h5q30 55 67 92.5t81.5 57t94.5 19.5q55 0 98.5 -21.5t69 -66t25.5 -115.5q0 -43 -9.5 -100t-20.5 -111l-149 -702h-146l144 683q11 51 20 104.5t9 95.5q0 47 -23 72.5t-69 25.5q-62 0 -109.5 -45t-83 -132t-62.5 -214l-125 -590h-148z" />
    <glyph glyph-name="o" unicode="o" horiz-adv-x="823" 
d="M308 -20q-81 0 -138 37t-87.5 110.5t-30.5 180.5q0 82 15.5 188t49 214.5t88 200.5t132 148.5t180.5 56.5q80 0 137 -38.5t87 -112.5t30 -182q0 -100 -17.5 -211t-53.5 -216t-91.5 -190t-130.5 -135.5t-170 -50.5zM323 109q58 0 105 45t83 119.5t60.5 164.5t37 181
t12.5 168q0 64 -13.5 109t-40.5 68.5t-68 23.5q-62 0 -110.5 -49t-84 -128t-58.5 -171t-34.5 -180.5t-11.5 -153.5q0 -96 31 -146.5t92 -50.5z" />
    <glyph glyph-name="p" unicode="p" horiz-adv-x="844" 
d="M-96 -476l330 1572h122l-22 -162h6q37 60 76 100.5t82 61t92 20.5q68 0 114.5 -33.5t71 -101.5t24.5 -170q0 -94 -17.5 -206t-52 -222t-87.5 -201.5t-124 -146.5t-160 -55q-47 0 -84 19.5t-62 54.5t-36 81h-6q-7 -52 -16 -104t-20 -97l-88 -410h-143zM344 109
q57 0 105 46.5t85 123.5t63 169t39.5 185t13.5 170q0 96 -27 141.5t-82 45.5q-52 0 -95.5 -37t-78 -99t-61 -138.5t-44 -157t-26.5 -153.5t-9 -127q0 -82 29.5 -125.5t87.5 -43.5z" />
    <glyph glyph-name="q" unicode="q" horiz-adv-x="855" 
d="M368 -488l102 486q4 20 10.5 44t14 50.5t14.5 54.5h-4q-34 -54 -72.5 -91t-81.5 -56.5t-93 -19.5q-66 0 -112.5 33.5t-71 100.5t-24.5 165q0 89 16.5 200t51 222.5t87 205.5t124 151.5t163.5 57.5q53 0 90 -19t60.5 -55.5t34.5 -89.5h4l43 144h125l-335 -1584h-146z
M311 109q51 0 94.5 36.5t78.5 98t61.5 137.5t44.5 156.5t27 154t9 129.5q0 79 -31.5 121.5t-89.5 42.5t-106 -47.5t-85 -125t-61.5 -170t-37.5 -184t-13 -164.5q0 -97 27 -141t82 -44z" />
    <glyph glyph-name="r" unicode="r" horiz-adv-x="555" 
d="M1 0l231 1096h114l-23 -181h6q30 67 66 111.5t80 67t98 22.5q20 0 38.5 -3t37.5 -9l-43 -155q-16 7 -33.5 10t-38.5 3q-55 0 -98 -35t-75.5 -92t-55 -125.5t-36.5 -135.5l-121 -574h-147z" />
    <glyph glyph-name="s" unicode="s" horiz-adv-x="638" 
d="M200 -20q-71 0 -131 14.5t-93 35.5v152q37 -28 95.5 -49.5t113.5 -21.5q58 0 98 21.5t61.5 63.5t21.5 102q0 41 -10 73.5t-35.5 68.5t-71.5 84q-43 45 -73.5 88t-46.5 91t-16 107q0 86 36.5 155t105 110t164.5 41q77 0 139.5 -19.5t105.5 -50.5l-66 -118
q-37 29 -82.5 45.5t-93.5 16.5q-73 0 -116 -44t-43 -116q0 -38 9 -69.5t32 -64t63 -74.5q53 -56 86.5 -100.5t49.5 -92.5t16 -116q0 -101 -37.5 -176t-108.5 -116t-173 -41z" />
    <glyph glyph-name="t" unicode="t" horiz-adv-x="474" 
d="M203 -20q-82 0 -119 47t-37 131q0 29 5 67t15 81l141 664h-98l17 85l115 39l86 253h106l-53 -251h153l-27 -126h-153l-143 -673q-7 -34 -12 -64t-5 -51q0 -36 14 -53.5t48 -17.5q20 0 44 4.5t44 13.5v-121q-31 -13 -70 -20.5t-71 -7.5z" />
    <glyph glyph-name="u" unicode="u" horiz-adv-x="834" 
d="M245 -20q-63 0 -106 24t-65.5 70.5t-22.5 113.5q0 38 7.5 89.5t17.5 97.5l154 721h147l-149 -704q-11 -46 -18 -90.5t-7 -84.5q0 -49 22 -76.5t68 -27.5q63 0 111 45.5t84.5 133.5t62.5 214l125 590h146l-231 -1096h-118l14 141h-6q-29 -51 -66.5 -87t-80.5 -55t-89 -19z
" />
    <glyph glyph-name="v" unicode="v" horiz-adv-x="673" 
d="M135 0l-14 1096h146l-4 -624q0 -33 -1 -82t-3 -97t-5 -78h8q12 37 24 70t25 65.5t27 65.5l288 680h152l-481 -1096h-162z" />
    <glyph glyph-name="w" unicode="w" horiz-adv-x="1093" 
d="M110 0l19 1096h143l-18 -641q-1 -61 -4.5 -118t-8.5 -109h4q10 33 22.5 70t26 72.5t25.5 65.5l260 660h164l-20 -636q-1 -54 -5.5 -117t-7.5 -122h4q15 44 29.5 86t30 85t32.5 87l237 617h148l-438 -1096h-170l25 693q1 32 2.5 65t4 67t5.5 67h-4q-8 -28 -17.5 -55
t-19 -53.5t-20.5 -53.5l-282 -730h-167z" />
    <glyph glyph-name="x" unicode="x" horiz-adv-x="692" 
d="M-93 0l351 570l-103 526h153l66 -400l232 400h161l-336 -540l116 -556h-154l-75 429l-252 -429h-159z" />
    <glyph glyph-name="y" unicode="y" horiz-adv-x="686" 
d="M-91 -494q-34 0 -60 6t-47 15l20 131q20 -7 40 -12t44 -5q60 0 97.5 46.5t74.5 131.5l82 188l-25 1089h146l3 -629q0 -38 -1 -78.5t-2.5 -81.5t-4.5 -82h6q13 41 27.5 80.5t29 75.5t25.5 64l276 651h152l-577 -1312q-38 -86 -79.5 -148.5t-95.5 -96t-131 -33.5z" />
    <glyph glyph-name="z" unicode="z" horiz-adv-x="568" 
d="M-73 0l21 100l492 870h-287l26 126h451l-24 -106l-486 -862h317l-29 -128h-481z" />
    <glyph glyph-name="braceleft" unicode="{" horiz-adv-x="668" 
d="M419 -324q-148 2 -215 61t-67 172q0 26 4 53t9 56l58 280q5 21 8 41.5t3 41.5q0 67 -38 98t-132 31l27 122q108 0 166 47.5t80 154.5l75 347q24 111 72 172t126.5 85t192.5 24h7l-29 -124q-108 -1 -157.5 -43t-72.5 -146l-72 -338q-22 -102 -79 -162.5t-164 -77.5v-6
q74 -17 109.5 -60t35.5 -112q0 -20 -3 -44.5t-10 -53.5l-59 -280q-4 -25 -6.5 -45t-2.5 -37q0 -70 34.5 -100t115.5 -32l-5 -125h-11z" />
    <glyph glyph-name="bar" unicode="|" horiz-adv-x="745" 
d="M301 -487v2051h133v-2051h-133z" />
    <glyph glyph-name="braceright" unicode="}" horiz-adv-x="666" 
d="M-124 -324l3 125q76 0 124.5 19t77 61t43.5 109l71 338q21 102 78.5 162.5t164.5 76.5v6q-73 18 -108.5 60.5t-35.5 112.5q0 21 3 45.5t9 52.5l59 279q5 24 7 45t2 38q0 68 -36.5 99.5t-116.5 32.5l25 124h13q95 0 153 -26t84 -76.5t26 -124.5q0 -25 -3 -55t-9 -59
l-59 -280q-4 -22 -7.5 -42t-3.5 -41q0 -67 38.5 -98t131.5 -31l-26 -123q-73 0 -122.5 -21t-79 -65.5t-44.5 -114.5l-76 -347q-23 -108 -69 -169.5t-122 -87t-188 -25.5h-7z" />
    <glyph glyph-name="asciitilde" unicode="~" horiz-adv-x="874" 
d="M437 659q-45 26 -88 41.5t-81 15.5q-45 0 -94.5 -31.5t-95.5 -88.5v149q39 49 88.5 75.5t109.5 26.5q56 0 101.5 -17t97.5 -44q51 -27 90.5 -41.5t78.5 -14.5q48 0 98.5 32.5t91.5 84.5v-148q-38 -46 -88 -72t-109 -26q-60 0 -102.5 15t-97.5 43z" />
    <glyph glyph-name="uni00A0" unicode="&#xa0;" horiz-adv-x="348" 
 />
    <glyph glyph-name="exclamdown" unicode="&#xa1;" horiz-adv-x="474" 
d="M-40 -378l258 1071h117l-203 -1071h-172zM317 869q-34 0 -54.5 23t-20.5 62q0 65 34 109.5t86 44.5q37 0 59.5 -21t22.5 -62q0 -40 -15 -76t-43 -58t-69 -22z" />
    <glyph glyph-name="cent" unicode="&#xa2;" horiz-adv-x="790" 
d="M261 -20l45 209q-90 21 -133 100.5t-43 224.5q0 88 15.5 190t47.5 203t81 187.5t117 145t155 73.5l35 170h104l-35 -168q38 -4 70 -15.5t57 -25.5l-58 -124q-26 16 -57.5 26.5t-60.5 10.5q-77 0 -137 -64t-101 -166t-62 -217.5t-21 -217.5q0 -114 34.5 -162.5
t101.5 -48.5q39 0 76 12.5t71 33.5l35 -116q-40 -26 -91 -39.5t-98 -18.5l-43 -203h-105z" />
    <glyph glyph-name="sterling" unicode="&#xa3;" horiz-adv-x="793" 
d="M-49 0l27 125q47 21 83 59t63 96.5t45 141.5l53 249h-137l25 122h137l73 350q24 105 64 181.5t104.5 117.5t160.5 41q68 0 123.5 -21t104.5 -61l-73 -121q-33 30 -71.5 48t-85.5 18q-79 0 -119 -57.5t-65 -170.5l-68 -325h227l-26 -122h-226l-53 -247q-25 -115 -67 -183
t-99 -104h470l-29 -137h-641z" />
    <glyph glyph-name="currency" unicode="&#xa4;" horiz-adv-x="1050" 
d="M908 289l-136 132q-52 -37 -109.5 -57t-117.5 -20q-62 0 -121 20.5t-109 58.5l-132 -132l-70 73l131 132q-40 51 -59 108.5t-19 118.5q0 60 19 117.5t59 109.5l-134 134l73 73l134 -134q52 40 110.5 59.5t117.5 19.5q60 0 117.5 -19.5t109.5 -58.5l134 133l73 -73
l-134 -132q40 -50 60.5 -108.5t20.5 -120.5t-20.5 -120t-58.5 -109l132 -134zM543 452q77 0 139.5 37.5t99 99.5t36.5 134q2 73 -36.5 135.5t-101 100.5t-135.5 38q-74 0 -137 -37.5t-100 -99.5t-37 -137t37 -136.5t99 -98t136 -36.5z" />
    <glyph glyph-name="yen" unicode="&#xa5;" horiz-adv-x="781" 
d="M178 0l59 275h-202l23 110h202l38 182h-200l24 110h176l-55 785h149l28 -674l308 674h154l-386 -785h180l-22 -110h-206l-40 -182h205l-21 -110h-206l-60 -275h-148z" />
    <glyph glyph-name="brokenbar" unicode="&#xa6;" horiz-adv-x="745" 
d="M301 781v781h133v-781h-133zM301 -486v780h133v-780h-133z" />
    <glyph glyph-name="section" unicode="&#xa7;" horiz-adv-x="694" 
d="M217 68q-73 0 -132 15.5t-96 40.5v133q45 -37 104.5 -56.5t116.5 -19.5q85 0 140 53t55 136q0 37 -15 66.5t-43 57t-68 56.5q-45 32 -85 68.5t-64.5 82.5t-24.5 106q0 62 22.5 111.5t66.5 88.5t107 69q-44 44 -64 92t-20 106q0 77 37 139.5t105 101t159 41.5
q75 0 136 -18t108 -52l-61 -104q-40 32 -85 47.5t-94 15.5q-47 0 -85.5 -20t-61 -56.5t-22.5 -87.5q0 -60 34 -99t87 -77q60 -42 98 -81t55.5 -78.5t17.5 -85.5q0 -64 -21 -115.5t-61 -94t-98 -80.5q34 -35 55.5 -82t21.5 -105q0 -91 -41.5 -162t-115 -112t-168.5 -41z
M398 632q54 38 84 88.5t30 109.5q0 38 -13.5 67.5t-43 58t-78.5 62.5q-45 -19 -76 -46.5t-46.5 -62.5t-15.5 -77q0 -38 17.5 -70t53 -63t88.5 -67z" />
    <glyph glyph-name="dieresis" unicode="&#xa8;" horiz-adv-x="963" 
d="M726 1296q-33 0 -50.5 18t-17.5 54q0 50 27.5 89t75.5 39q31 0 48 -17t17 -51q0 -56 -28 -94t-72 -38zM425 1296q-32 0 -49.5 18t-17.5 54q0 50 27 89t76 39q20 0 33.5 -7.5t21 -22.5t7.5 -38q0 -56 -27 -94t-71 -38z" />
    <glyph glyph-name="copyright" unicode="&#xa9;" horiz-adv-x="1700" 
d="M849 -20q-173 0 -312 59t-237 163t-150 239.5t-52 289.5q0 168 58 306t161 238t239.5 154t293.5 54q167 0 305 -57.5t238 -160t154.5 -239.5t54.5 -295q0 -163 -56 -300.5t-157.5 -238.5t-239 -156.5t-300.5 -55.5zM881 276q-193 0 -300.5 117t-107.5 334q0 141 50 243.5
t143 158t223 55.5q66 0 130 -14t125 -43l-50 -107q-52 25 -102.5 36t-99.5 11q-132 0 -206 -87t-74 -247q0 -175 71 -257.5t208 -82.5q50 0 105 12t112 37v-117q-53 -24 -110.5 -36.5t-116.5 -12.5zM849 82q144 0 262 50t203.5 138.5t131.5 206.5t46 254q0 141 -48 259.5
t-134.5 206t-203.5 135.5t-256 48q-144 0 -262 -49.5t-203 -138t-131.5 -206.5t-46.5 -255q0 -145 48.5 -264t135.5 -205t204 -133t254 -47z" />
    <glyph glyph-name="ordfeminine" unicode="&#xaa;" horiz-adv-x="545" 
d="M298 790q-40 0 -78 22.5t-62.5 73t-24.5 135.5q0 81 19 161.5t56.5 147t93 107t128.5 40.5q59 0 89.5 -29t43.5 -71h8l32 87h80l-139 -661h-84l12 96h-6q-29 -50 -68.5 -79.5t-99.5 -29.5zM326 887q40 0 70.5 25t52.5 65t36.5 87t21 92t6.5 79q0 70 -22 107.5t-69 37.5
q-40 0 -72.5 -31t-55.5 -82.5t-35 -113t-12 -122.5q0 -75 21 -109.5t58 -34.5z" />
    <glyph glyph-name="guillemotleft" unicode="&#xab;" horiz-adv-x="841" 
d="M244 129l-188 399l4 27l338 387l98 -63l-280 -343l140 -358zM594 129l-189 399l4 27l338 387l98 -63l-278 -343l139 -358z" />
    <glyph glyph-name="logicalnot" unicode="&#xac;" horiz-adv-x="874" 
d="M811 788v-542h-131v411h-599v131h730z" />
    <glyph glyph-name="uni00AD" unicode="&#xad;" horiz-adv-x="531" 
d="M33 481l27 145h428l-27 -145h-428z" />
    <glyph glyph-name="registered" unicode="&#xae;" horiz-adv-x="1700" 
d="M583 297v878h239q151 0 234 -63t83 -194q0 -90 -38 -149t-113 -91l197 -381h-149l-171 350h-147v-350h-135zM716 751h98q84 0 134 39t50 122q0 79 -45.5 115t-137.5 36h-99v-312zM849 -20q-173 0 -312 59t-237 163t-150 239.5t-52 289.5q0 168 58 306t161 238t239.5 154
t293.5 54q167 0 305 -57.5t238 -160t154.5 -239.5t54.5 -295q0 -163 -56 -300.5t-157.5 -238.5t-239 -156.5t-300.5 -55.5zM849 82q144 0 262 50t203.5 138.5t131.5 206.5t46 254q0 141 -48 259.5t-134.5 206t-203.5 135.5t-256 48q-144 0 -262 -49.5t-203 -138
t-131.5 -206.5t-46.5 -255q0 -145 48.5 -264t135.5 -205t204 -133t254 -47z" />
    <glyph glyph-name="overscore" unicode="&#xaf;" horiz-adv-x="800" 
d="M191 1556l27 117h810l-25 -117h-812z" />
    <glyph glyph-name="degree" unicode="&#xb0;" horiz-adv-x="746" 
d="M372 937q-80 0 -143 33t-98.5 94.5t-35.5 144.5q0 84 36.5 145t99.5 94t141 33q80 0 143 -33t99.5 -94t36.5 -145t-37 -145t-100 -94t-142 -33zM374 1037q75 0 120.5 47t45.5 125q0 77 -44.5 124.5t-121.5 47.5q-82 0 -125 -50t-43 -122q0 -80 47.5 -126t120.5 -46z" />
    <glyph glyph-name="plusminus" unicode="&#xb1;" horiz-adv-x="874" 
d="M81 0v130h747v-130h-747zM520 821h307v-131h-307v-412h-131v412h-310v131h310v415h131v-415z" />
    <glyph glyph-name="uni00B2" unicode="&#xb2;" horiz-adv-x="566" 
d="M79 852l17 102l248 273q54 59 95.5 111.5t65 103.5t23.5 103q0 50 -25 76t-69 26q-41 0 -79 -21.5t-73 -51.5l-46 86q46 44 103.5 67.5t122.5 23.5q90 0 140.5 -51t50.5 -137q0 -75 -32.5 -142.5t-83.5 -129t-108 -120.5l-197 -211h313l-24 -108h-442z" />
    <glyph glyph-name="uni00B3" unicode="&#xb3;" horiz-adv-x="566" 
d="M274 836q-58 0 -103.5 11.5t-76.5 32.5v118q35 -27 79.5 -41.5t102.5 -14.5q85 0 133 51.5t48 129.5q0 68 -36.5 101t-94.5 33h-63l20 99h59q62 0 103.5 25.5t63 67t21.5 90.5q0 51 -25.5 78.5t-71.5 27.5q-43 0 -80.5 -16t-75.5 -45l-47 85q47 38 102.5 60t120.5 22
q67 0 110.5 -25t65.5 -68.5t22 -99.5q0 -88 -47.5 -152.5t-133.5 -92.5l-2 -8q48 -21 78 -64t30 -116q0 -84 -36 -149t-103.5 -102.5t-162.5 -37.5z" />
    <glyph glyph-name="acute" unicode="&#xb4;" horiz-adv-x="505" 
d="M232 1241l1 19q47 54 89.5 108t77.5 105.5t60 95.5h178l-2 -17q-21 -30 -60 -72.5t-85 -88.5t-89.5 -86t-74.5 -64h-95z" />
    <glyph glyph-name="uni00B5" unicode="&#xb5;" horiz-adv-x="831" 
d="M-105 -492l335 1588h146l-148 -704q-10 -46 -16 -84t-6 -70q0 -60 23.5 -91.5t69.5 -31.5q60 0 105.5 40t81 125t63.5 219l128 597h145l-231 -1096h-116l9 128h-4q-28 -51 -60.5 -84t-69 -48.5t-77.5 -15.5q-46 0 -75.5 22t-46.5 60h-4q-1 -23 -3.5 -45.5t-6.5 -44.5
t-9 -46l-89 -418h-144z" />
    <glyph glyph-name="paragraph" unicode="&#xb6;" horiz-adv-x="922" 
d="M471 -260l-2 922q-12 -6 -28 -9.5t-39 -3.5q-65 0 -110 36.5t-72 100t-39 144.5t-12 169q0 104 18.5 188t55 144t91.5 92.5t127 32.5h355v-1816h-102v1716h-141v-1716h-102z" />
    <glyph glyph-name="periodcentered" unicode="&#xb7;" horiz-adv-x="412" 
d="M214 602q-37 0 -59 21t-22 62q0 61 32 108.5t93 47.5q36 0 56.5 -23t20.5 -63q0 -64 -35.5 -108.5t-85.5 -44.5z" />
    <glyph glyph-name="cedilla" unicode="&#xb8;" horiz-adv-x="391" 
d="M-22 -492q-37 0 -68 4t-60 11v98q17 -6 45 -10t67 -4q46 0 79 15.5t50.5 43t17.5 64.5q0 46 -35.5 71.5t-108.5 34.5l106 164h93l-74 -107q66 -14 104 -54t38 -102q0 -73 -33.5 -124t-90.5 -78t-130 -27z" />
    <glyph glyph-name="uni00B9" unicode="&#xb9;" horiz-adv-x="566" 
d="M297 852l140 641q6 29 12 50.5t12 44.5q-19 -18 -34 -30.5t-28 -20.5l-124 -88l-49 81l269 199h109l-188 -877h-119z" />
    <glyph glyph-name="ordmasculine" unicode="&#xba;" horiz-adv-x="558" 
d="M328 787q-94 0 -140 62.5t-46 171.5q0 77 18.5 157.5t55.5 148.5t93.5 110t132.5 42q82 0 134 -55.5t52 -174.5q0 -77 -18.5 -158t-55.5 -150t-93.5 -111.5t-132.5 -42.5zM342 888q46 0 79 34t53.5 87.5t30 115t9.5 115.5q0 65 -19.5 101.5t-67.5 36.5q-43 0 -75.5 -33
t-54 -86t-32 -114t-10.5 -117q0 -72 21 -106t66 -34z" />
    <glyph glyph-name="guillemotright" unicode="&#xbb;" horiz-adv-x="843" 
d="M434 129l-98 65l278 342l-139 357l112 49l189 -398l-4 -28zM83 129l-97 65l277 342l-139 357l112 49l187 -398l-2 -28z" />
    <glyph glyph-name="onequarter" unicode="&#xbc;" horiz-adv-x="1305" 
d="M70 0l1087 1462h130l-1085 -1462h-132zM255 586l140 641q6 29 12 50.5t12 44.5q-19 -18 -34 -30.5t-28 -20.5l-124 -88l-49 81l269 199h109l-188 -877h-119zM931 0l40 196h-297l16 90l423 597h122l-125 -584h93l-21 -103h-92l-44 -196h-115zM804 299h188l59 271
q9 43 17.5 78.5t15.5 62.5q-19 -31 -37.5 -62t-42.5 -66z" />
    <glyph glyph-name="onehalf" unicode="&#xbd;" horiz-adv-x="1396" 
d="M59 0l1087 1462h130l-1085 -1462h-132zM255 586l140 641q6 29 12 50.5t12 44.5q-19 -18 -34 -30.5t-28 -20.5l-124 -88l-49 81l269 199h109l-188 -877h-119zM743 0l17 102l248 273q54 59 95.5 111.5t65 103.5t23.5 103q0 50 -25 76t-69 26q-41 0 -79 -21.5t-73 -51.5
l-46 86q46 44 103.5 67.5t122.5 23.5q90 0 140.5 -51t50.5 -137q0 -75 -32.5 -142.5t-83.5 -129t-108 -120.5l-197 -211h313l-24 -108h-442z" />
    <glyph glyph-name="threequarters" unicode="&#xbe;" horiz-adv-x="1319" 
d="M230 570q-58 0 -103.5 11.5t-76.5 32.5v118q35 -27 79.5 -41.5t102.5 -14.5q85 0 133 51.5t48 129.5q0 68 -36.5 101t-94.5 33h-63l20 99h59q62 0 103.5 25.5t63 67t21.5 90.5q0 51 -25.5 78.5t-71.5 27.5q-43 0 -80.5 -16t-75.5 -45l-47 85q47 38 102.5 60t120.5 22
q67 0 110.5 -25t65.5 -68.5t22 -99.5q0 -88 -47.5 -152.5t-133.5 -92.5l-2 -8q48 -21 78 -64t30 -116q0 -84 -36 -149t-103.5 -102.5t-162.5 -37.5zM97 0l1087 1462h130l-1085 -1462h-132zM945 0l40 196h-297l16 90l423 597h122l-125 -584h93l-21 -103h-92l-44 -196h-115z
M818 299h188l59 271q9 43 17.5 78.5t15.5 62.5q-19 -31 -37.5 -62t-42.5 -66z" />
    <glyph glyph-name="questiondown" unicode="&#xbf;" horiz-adv-x="575" 
d="M448 683q-20 -99 -43.5 -169.5t-57.5 -129t-88 -123.5q-61 -74 -108 -132t-73 -118t-26 -141q0 -67 33 -100t89 -33q55 0 100 21.5t87 49.5l35 -117q-60 -45 -123.5 -67.5t-128.5 -22.5q-116 0 -179 63.5t-63 175.5q0 90 30 165.5t81 145.5t114 141q62 71 99.5 126
t60.5 116t39 149h122zM458 1098q38 0 60 -21t22 -62q0 -61 -32 -108.5t-94 -47.5q-35 0 -55.5 23t-20.5 63q0 65 34.5 109t85.5 44z" />
    <glyph glyph-name="Agrave" unicode="&#xc0;" horiz-adv-x="810" 
d="M-134 0l611 1468h194l5 -1468h-158l2 478h-293l-196 -478h-165zM278 616h248l8 524q0 49 2 92.5t6 79.5h-6q-10 -34 -23 -76.5t-33 -95.5zM612 1622q-27 37 -62.5 92.5t-66.5 114t-46 102.5v17h169q13 -49 28 -99.5t32.5 -101.5t39.5 -105l-3 -20h-91z" />
    <glyph glyph-name="Aacute" unicode="&#xc1;" horiz-adv-x="810" 
d="M-134 0l611 1468h194l5 -1468h-158l2 478h-293l-196 -478h-165zM278 616h248l8 524q0 49 2 92.5t6 79.5h-6q-10 -34 -23 -76.5t-33 -95.5zM509 1620l1 19q47 54 89.5 108t77.5 105.5t60 95.5h178l-2 -17q-21 -30 -60 -72.5t-85 -88.5t-89.5 -86t-74.5 -64h-95z" />
    <glyph glyph-name="Acircumflex" unicode="&#xc2;" horiz-adv-x="810" 
d="M-134 0l611 1468h194l5 -1468h-158l2 478h-293l-196 -478h-165zM278 616h248l8 524q0 49 2 92.5t6 79.5h-6q-10 -34 -23 -76.5t-33 -95.5zM339 1620l4 20q47 50 90.5 102.5t82.5 105t69 100.5h130q8 -37 28 -96t43.5 -117.5t40.5 -94.5l-4 -20h-81q-18 26 -38 57.5
t-39.5 66.5t-38.5 73q-54 -58 -105 -108.5t-96 -88.5h-86z" />
    <glyph glyph-name="Atilde" unicode="&#xc3;" horiz-adv-x="810" 
d="M-134 0l611 1468h194l5 -1468h-158l2 478h-293l-196 -478h-165zM278 616h248l8 524q0 49 2 92.5t6 79.5h-6q-10 -34 -23 -76.5t-33 -95.5zM314 1625q17 79 42.5 134.5t63 84.5t89.5 29q42 0 72.5 -18.5t55.5 -42.5t48 -42.5t49 -18.5q33 0 52.5 27t35.5 97h95
q-16 -91 -43 -145.5t-63 -78.5t-80 -24q-40 0 -70 18.5t-55.5 43.5t-49.5 43.5t-51 18.5q-37 0 -59.5 -32t-36.5 -94h-95z" />
    <glyph glyph-name="Adieresis" unicode="&#xc4;" horiz-adv-x="810" 
d="M-134 0l611 1468h194l5 -1468h-158l2 478h-293l-196 -478h-165zM278 616h248l8 524q0 49 2 92.5t6 79.5h-6q-10 -34 -23 -76.5t-33 -95.5zM745 1675q-33 0 -50.5 18t-17.5 54q0 50 27.5 89t75.5 39q31 0 48 -17t17 -51q0 -56 -28 -94t-72 -38zM444 1675q-32 0 -49.5 18
t-17.5 54q0 50 27 89t76 39q20 0 33.5 -7.5t21 -22.5t7.5 -38q0 -56 -27 -94t-71 -38z" />
    <glyph glyph-name="Aring" unicode="&#xc5;" horiz-adv-x="810" 
d="M-134 0l611 1468h194l5 -1468h-158l2 478h-293l-196 -478h-165zM278 616h248l8 524q0 49 2 92.5t6 79.5h-6q-10 -34 -23 -76.5t-33 -95.5zM614 1608q-96 0 -149.5 54.5t-53.5 147.5q0 89 54 144.5t149 55.5q93 0 148 -55.5t56 -141.5q0 -90 -54.5 -147.5t-149.5 -57.5z
M616 1695q52 0 82.5 31.5t30.5 83.5q0 50 -30 82t-83 32q-54 0 -83.5 -32t-29.5 -82q0 -52 28.5 -83.5t84.5 -31.5z" />
    <glyph glyph-name="AE" unicode="&#xc6;" horiz-adv-x="1118" 
d="M-138 0l692 1462h655l-29 -136h-371l-104 -493h349l-31 -137h-348l-118 -559h371l-28 -137h-523l102 480h-233l-223 -480h-161zM309 618h201l150 706h-28z" />
    <glyph glyph-name="Ccedilla" unicode="&#xc7;" horiz-adv-x="780" 
d="M398 -20q-107 0 -179.5 52.5t-108.5 157.5t-36 262q0 120 24.5 260t74.5 276.5t125 249t176.5 180t228.5 67.5q69 0 126.5 -17.5t102.5 -53.5l-80 -124q-32 29 -70 42.5t-82 13.5q-96 0 -171.5 -63t-131.5 -164.5t-92.5 -220.5t-54.5 -233.5t-18 -200.5q0 -182 48 -264.5
t152 -82.5q44 0 91 12.5t99 34.5v-139q-55 -23 -112 -34t-112 -11zM227 -492q-37 0 -68 4t-60 11v98q17 -6 45 -10t67 -4q46 0 79 15.5t50.5 43t17.5 64.5q0 46 -35.5 71.5t-108.5 34.5l106 164h93l-74 -107q66 -14 104 -54t38 -102q0 -73 -33.5 -124t-90.5 -78t-130 -27z
" />
    <glyph glyph-name="Egrave" unicode="&#xc8;" horiz-adv-x="744" 
d="M0 0l310 1462h523l-29 -136h-371l-104 -493h347l-31 -137h-346l-118 -559h371l-29 -137h-523zM583 1621q-27 37 -62.5 92.5t-66.5 114t-46 102.5v17h169q13 -49 28 -99.5t32.5 -101.5t39.5 -105l-3 -20h-91z" />
    <glyph glyph-name="Eacute" unicode="&#xc9;" horiz-adv-x="744" 
d="M0 0l310 1462h523l-29 -136h-371l-104 -493h347l-31 -137h-346l-118 -559h371l-29 -137h-523zM479 1618l1 19q47 54 89.5 108t77.5 105.5t60 95.5h178l-2 -17q-21 -30 -60 -72.5t-85 -88.5t-89.5 -86t-74.5 -64h-95z" />
    <glyph glyph-name="Ecircumflex" unicode="&#xca;" horiz-adv-x="744" 
d="M0 0l310 1462h523l-29 -136h-371l-104 -493h347l-31 -137h-346l-118 -559h371l-29 -137h-523zM342 1579l4 20q47 50 90.5 102.5t82.5 105t69 100.5h130q8 -37 28 -96t43.5 -117.5t40.5 -94.5l-4 -20h-81q-18 26 -38 57.5t-39.5 66.5t-38.5 73q-54 -58 -105 -108.5
t-96 -88.5h-86z" />
    <glyph glyph-name="Edieresis" unicode="&#xcb;" horiz-adv-x="744" 
d="M0 0l310 1462h523l-29 -136h-371l-104 -493h347l-31 -137h-346l-118 -559h371l-29 -137h-523zM735 1634q-33 0 -50.5 18t-17.5 54q0 50 27.5 89t75.5 39q31 0 48 -17t17 -51q0 -56 -28 -94t-72 -38zM434 1634q-32 0 -49.5 18t-17.5 54q0 50 27 89t76 39q20 0 33.5 -7.5
t21 -22.5t7.5 -38q0 -56 -27 -94t-71 -38z" />
    <glyph glyph-name="Igrave" unicode="&#xcc;" horiz-adv-x="420" 
d="M0 0l310 1462h151l-309 -1462h-152zM410 1621q-27 37 -62.5 92.5t-66.5 114t-46 102.5v17h169q13 -49 28 -99.5t32.5 -101.5t39.5 -105l-3 -20h-91z" />
    <glyph glyph-name="Iacute" unicode="&#xcd;" horiz-adv-x="420" 
d="M0 0l310 1462h151l-309 -1462h-152zM328 1621l1 19q47 54 89.5 108t77.5 105.5t60 95.5h178l-2 -17q-21 -30 -60 -72.5t-85 -88.5t-89.5 -86t-74.5 -64h-95z" />
    <glyph glyph-name="Icircumflex" unicode="&#xce;" horiz-adv-x="420" 
d="M0 0l310 1462h151l-309 -1462h-152zM167 1624l4 20q47 50 90.5 102.5t82.5 105t69 100.5h130q8 -37 28 -96t43.5 -117.5t40.5 -94.5l-4 -20h-81q-18 26 -38 57.5t-39.5 66.5t-38.5 73q-54 -58 -105 -108.5t-96 -88.5h-86z" />
    <glyph glyph-name="Idieresis" unicode="&#xcf;" horiz-adv-x="420" 
d="M0 0l310 1462h151l-309 -1462h-152zM575 1676q-33 0 -50.5 18t-17.5 54q0 50 27.5 89t75.5 39q31 0 48 -17t17 -51q0 -56 -28 -94t-72 -38zM274 1676q-32 0 -49.5 18t-17.5 54q0 50 27 89t76 39q20 0 33.5 -7.5t21 -22.5t7.5 -38q0 -56 -27 -94t-71 -38z" />
    <glyph glyph-name="Eth" unicode="&#xd0;" horiz-adv-x="941" 
d="M1 0l146 696h-100l27 126h100l136 640h230q179 0 274 -108t95 -323q0 -133 -23.5 -276.5t-73 -277.5t-129 -242t-190.5 -171.5t-258 -63.5h-234zM181 139h75q111 0 193 60t139.5 158.5t92.5 216t51 235t16 213.5q0 159 -56.5 230.5t-169.5 71.5h-89l-107 -502h177
l-27 -126h-179z" />
    <glyph glyph-name="Ntilde" unicode="&#xd1;" horiz-adv-x="1039" 
d="M0 0l310 1462h181l196 -1184h6q12 71 25 139.5t25 127t20 98.5l173 819h148l-312 -1462h-174l-201 1203h-6q-7 -54 -17 -113.5t-21.5 -116.5t-22 -104.5t-17.5 -78.5l-166 -790h-147zM425 1584q17 79 42.5 134.5t63 84.5t89.5 29q42 0 72.5 -18.5t55.5 -42.5t48 -42.5
t49 -18.5q33 0 52.5 27t35.5 97h95q-16 -91 -43 -145.5t-63 -78.5t-80 -24q-40 0 -70 18.5t-55.5 43.5t-49.5 43.5t-51 18.5q-37 0 -59.5 -32t-36.5 -94h-95z" />
    <glyph glyph-name="Ograve" unicode="&#xd2;" horiz-adv-x="1004" 
d="M384 -20q-105 0 -174 46t-103.5 141t-34.5 240q0 109 16 230t48.5 242t81.5 229.5t114.5 193t148.5 133t183 48.5q156 0 232 -100.5t76 -309.5q0 -96 -14.5 -213t-44.5 -240t-77 -237t-112 -205t-149.5 -144.5t-190.5 -53.5zM395 118q71 0 130 47t106 127t82 180.5
t58 208t34.5 209.5t11.5 185q0 139 -41.5 205t-125.5 66q-76 0 -137 -50t-107.5 -133.5t-80 -186t-55 -208.5t-31.5 -201t-10 -162q0 -101 19 -164.5t56 -93t91 -29.5zM712 1621q-27 37 -62.5 92.5t-66.5 114t-46 102.5v17h169q13 -49 28 -99.5t32.5 -101.5t39.5 -105
l-3 -20h-91z" />
    <glyph glyph-name="Oacute" unicode="&#xd3;" horiz-adv-x="1004" 
d="M384 -20q-105 0 -174 46t-103.5 141t-34.5 240q0 109 16 230t48.5 242t81.5 229.5t114.5 193t148.5 133t183 48.5q156 0 232 -100.5t76 -309.5q0 -96 -14.5 -213t-44.5 -240t-77 -237t-112 -205t-149.5 -144.5t-190.5 -53.5zM395 118q71 0 130 47t106 127t82 180.5
t58 208t34.5 209.5t11.5 185q0 139 -41.5 205t-125.5 66q-76 0 -137 -50t-107.5 -133.5t-80 -186t-55 -208.5t-31.5 -201t-10 -162q0 -101 19 -164.5t56 -93t91 -29.5zM608 1618l1 19q47 54 89.5 108t77.5 105.5t60 95.5h178l-2 -17q-21 -30 -60 -72.5t-85 -88.5t-89.5 -86
t-74.5 -64h-95z" />
    <glyph glyph-name="Ocircumflex" unicode="&#xd4;" horiz-adv-x="1004" 
d="M384 -20q-105 0 -174 46t-103.5 141t-34.5 240q0 109 16 230t48.5 242t81.5 229.5t114.5 193t148.5 133t183 48.5q156 0 232 -100.5t76 -309.5q0 -96 -14.5 -213t-44.5 -240t-77 -237t-112 -205t-149.5 -144.5t-190.5 -53.5zM395 118q71 0 130 47t106 127t82 180.5
t58 208t34.5 209.5t11.5 185q0 139 -41.5 205t-125.5 66q-76 0 -137 -50t-107.5 -133.5t-80 -186t-55 -208.5t-31.5 -201t-10 -162q0 -101 19 -164.5t56 -93t91 -29.5zM429 1579l4 20q47 50 90.5 102.5t82.5 105t69 100.5h130q8 -37 28 -96t43.5 -117.5t40.5 -94.5l-4 -20
h-81q-18 26 -38 57.5t-39.5 66.5t-38.5 73q-54 -58 -105 -108.5t-96 -88.5h-86z" />
    <glyph glyph-name="Otilde" unicode="&#xd5;" horiz-adv-x="1004" 
d="M384 -20q-105 0 -174 46t-103.5 141t-34.5 240q0 109 16 230t48.5 242t81.5 229.5t114.5 193t148.5 133t183 48.5q156 0 232 -100.5t76 -309.5q0 -96 -14.5 -213t-44.5 -240t-77 -237t-112 -205t-149.5 -144.5t-190.5 -53.5zM395 118q71 0 130 47t106 127t82 180.5
t58 208t34.5 209.5t11.5 185q0 139 -41.5 205t-125.5 66q-76 0 -137 -50t-107.5 -133.5t-80 -186t-55 -208.5t-31.5 -201t-10 -162q0 -101 19 -164.5t56 -93t91 -29.5zM404 1584q17 79 42.5 134.5t63 84.5t89.5 29q42 0 72.5 -18.5t55.5 -42.5t48 -42.5t49 -18.5
q33 0 52.5 27t35.5 97h95q-16 -91 -43 -145.5t-63 -78.5t-80 -24q-40 0 -70 18.5t-55.5 43.5t-49.5 43.5t-51 18.5q-37 0 -59.5 -32t-36.5 -94h-95z" />
    <glyph glyph-name="Odieresis" unicode="&#xd6;" horiz-adv-x="1004" 
d="M384 -20q-105 0 -174 46t-103.5 141t-34.5 240q0 109 16 230t48.5 242t81.5 229.5t114.5 193t148.5 133t183 48.5q156 0 232 -100.5t76 -309.5q0 -96 -14.5 -213t-44.5 -240t-77 -237t-112 -205t-149.5 -144.5t-190.5 -53.5zM395 118q71 0 130 47t106 127t82 180.5
t58 208t34.5 209.5t11.5 185q0 139 -41.5 205t-125.5 66q-76 0 -137 -50t-107.5 -133.5t-80 -186t-55 -208.5t-31.5 -201t-10 -162q0 -101 19 -164.5t56 -93t91 -29.5zM840 1634q-33 0 -50.5 18t-17.5 54q0 50 27.5 89t75.5 39q31 0 48 -17t17 -51q0 -56 -28 -94t-72 -38z
M539 1634q-32 0 -49.5 18t-17.5 54q0 50 27 89t76 39q20 0 33.5 -7.5t21 -22.5t7.5 -38q0 -56 -27 -94t-71 -38z" />
    <glyph glyph-name="multiply" unicode="&#xd7;" horiz-adv-x="874" 
d="M735 1095l92 -87l-283 -285l276 -281l-87 -87l-280 279l-280 -281l-87 89l278 281l-278 278l87 90l281 -279z" />
    <glyph glyph-name="Oslash" unicode="&#xd8;" horiz-adv-x="1005" 
d="M60 -96l-83 48l134 213q-19 47 -29 107.5t-10 134.5q0 109 16 230t48.5 242t81.5 229.5t115 193t149.5 133t183.5 48.5q72 0 126.5 -24t91.5 -74l102 165l85 -52l-130 -206q17 -43 24 -98.5t7 -120.5q0 -96 -14.5 -213t-44.5 -240t-77 -237t-112 -205t-149.5 -144.5
t-190.5 -53.5q-70 0 -124 23.5t-90 70.5zM395 118q68 0 125 43.5t102.5 117.5t79.5 168t57.5 196t36.5 200.5t15 180.5q2 21 2 40t-2 35l-555 -882q20 -51 55 -75t84 -24zM234 353l561 889q-21 53 -56.5 78.5t-88.5 25.5q-73 0 -132 -46.5t-104.5 -124.5t-78.5 -174
t-55 -196.5t-33.5 -192t-13.5 -158.5q-1 -28 -1 -53t2 -48z" />
    <glyph glyph-name="Ugrave" unicode="&#xd9;" horiz-adv-x="956" 
d="M355 -20q-90 0 -154.5 35.5t-99 103t-34.5 163.5q0 37 5.5 82t15.5 92l214 1006h152l-216 -1014q-8 -40 -12.5 -78t-4.5 -70q0 -92 40 -137t113 -45t122.5 37.5t84 116t61.5 200.5l214 990h152l-218 -1005q-31 -146 -83 -253.5t-136.5 -165.5t-215.5 -58zM687 1621
q-27 37 -62.5 92.5t-66.5 114t-46 102.5v17h169q13 -49 28 -99.5t32.5 -101.5t39.5 -105l-3 -20h-91z" />
    <glyph glyph-name="Uacute" unicode="&#xda;" horiz-adv-x="956" 
d="M355 -20q-90 0 -154.5 35.5t-99 103t-34.5 163.5q0 37 5.5 82t15.5 92l214 1006h152l-216 -1014q-8 -40 -12.5 -78t-4.5 -70q0 -92 40 -137t113 -45t122.5 37.5t84 116t61.5 200.5l214 990h152l-218 -1005q-31 -146 -83 -253.5t-136.5 -165.5t-215.5 -58zM583 1618l1 19
q47 54 89.5 108t77.5 105.5t60 95.5h178l-2 -17q-21 -30 -60 -72.5t-85 -88.5t-89.5 -86t-74.5 -64h-95z" />
    <glyph glyph-name="Ucircumflex" unicode="&#xdb;" horiz-adv-x="956" 
d="M355 -20q-90 0 -154.5 35.5t-99 103t-34.5 163.5q0 37 5.5 82t15.5 92l214 1006h152l-216 -1014q-8 -40 -12.5 -78t-4.5 -70q0 -92 40 -137t113 -45t122.5 37.5t84 116t61.5 200.5l214 990h152l-218 -1005q-31 -146 -83 -253.5t-136.5 -165.5t-215.5 -58zM425 1579l4 20
q47 50 90.5 102.5t82.5 105t69 100.5h130q8 -37 28 -96t43.5 -117.5t40.5 -94.5l-4 -20h-81q-18 26 -38 57.5t-39.5 66.5t-38.5 73q-54 -58 -105 -108.5t-96 -88.5h-86z" />
    <glyph glyph-name="Udieresis" unicode="&#xdc;" horiz-adv-x="956" 
d="M355 -20q-90 0 -154.5 35.5t-99 103t-34.5 163.5q0 37 5.5 82t15.5 92l214 1006h152l-216 -1014q-8 -40 -12.5 -78t-4.5 -70q0 -92 40 -137t113 -45t122.5 37.5t84 116t61.5 200.5l214 990h152l-218 -1005q-31 -146 -83 -253.5t-136.5 -165.5t-215.5 -58zM821 1634
q-33 0 -50.5 18t-17.5 54q0 50 27.5 89t75.5 39q31 0 48 -17t17 -51q0 -56 -28 -94t-72 -38zM520 1634q-32 0 -49.5 18t-17.5 54q0 50 27 89t76 39q20 0 33.5 -7.5t21 -22.5t7.5 -38q0 -56 -27 -94t-71 -38z" />
    <glyph glyph-name="Yacute" unicode="&#xdd;" horiz-adv-x="714" 
d="M148 0l118 564l-93 898h158l53 -692l344 692h162l-470 -895l-121 -567h-151zM465 1618l1 19q47 54 89.5 108t77.5 105.5t60 95.5h178l-2 -17q-21 -30 -60 -72.5t-85 -88.5t-89.5 -86t-74.5 -64h-95z" />
    <glyph glyph-name="Thorn" unicode="&#xde;" horiz-adv-x="808" 
d="M0 0l310 1462h152l-54 -256h56q109 0 183 -38.5t112.5 -109t38.5 -167.5q0 -120 -33 -223.5t-96 -181t-153 -120.5t-204 -43h-94l-66 -323h-152zM249 458h63q108 0 181 52.5t110 145.5t37 214q0 99 -47.5 149t-148.5 50h-65z" />
    <glyph glyph-name="germandbls" unicode="&#xdf;" horiz-adv-x="825" 
d="M-174 -492q-31 0 -55.5 4t-47.5 11v133q17 -6 40 -10t46 -4q67 0 97 58.5t55 178.5l280 1313q26 123 71.5 206.5t114 126t162.5 42.5q119 0 182.5 -64.5t63.5 -166.5q0 -63 -17 -115t-50.5 -100t-81.5 -100q-58 -62 -91 -112t-33 -116q0 -30 9.5 -61.5t26 -65.5t35.5 -71
q32 -55 57.5 -118.5t25.5 -145.5q0 -103 -39.5 -182.5t-113 -124t-176.5 -44.5q-54 0 -102 13t-80 35l18 142q41 -31 84 -45t85 -14q80 0 125.5 56t45.5 149q0 38 -8.5 73.5t-25 72.5t-40.5 80q-37 65 -58 119.5t-21 112.5q0 49 14.5 94.5t43 88.5t70.5 86q46 49 78.5 90.5
t50 86.5t17.5 102q0 55 -29 84t-77 29q-49 0 -85 -27.5t-62 -83t-45 -139.5l-282 -1317q-21 -101 -50 -182.5t-81.5 -129.5t-146.5 -48z" />
    <glyph glyph-name="agrave" unicode="&#xe0;" horiz-adv-x="856" 
d="M263 -20q-68 0 -116 35t-72.5 103.5t-24.5 166.5q0 92 17 203t51 221.5t87 202.5t124.5 148t162.5 56q47 0 83 -18.5t61 -55t37 -89.5h6l45 143h125l-233 -1096h-118l15 159h-4q-36 -56 -74 -96.5t-80 -61.5t-92 -21zM309 109q71 0 121 56t85 143t59 180q25 99 38.5 180
t13.5 151q0 79 -31.5 122.5t-87.5 43.5q-57 0 -105 -46.5t-85 -122.5t-62.5 -168t-39 -184t-13.5 -168q0 -96 27 -141.5t80 -45.5zM559 1253q-27 37 -62.5 92.5t-66.5 114t-46 102.5v17h169q13 -49 28 -99.5t32.5 -101.5t39.5 -105l-3 -20h-91z" />
    <glyph glyph-name="aacute" unicode="&#xe1;" horiz-adv-x="856" 
d="M263 -20q-68 0 -116 35t-72.5 103.5t-24.5 166.5q0 92 17 203t51 221.5t87 202.5t124.5 148t162.5 56q47 0 83 -18.5t61 -55t37 -89.5h6l45 143h125l-233 -1096h-118l15 159h-4q-36 -56 -74 -96.5t-80 -61.5t-92 -21zM309 109q71 0 121 56t85 143t59 180q25 99 38.5 180
t13.5 151q0 79 -31.5 122.5t-87.5 43.5q-57 0 -105 -46.5t-85 -122.5t-62.5 -168t-39 -184t-13.5 -168q0 -96 27 -141.5t80 -45.5zM454 1251l1 19q47 54 89.5 108t77.5 105.5t60 95.5h178l-2 -17q-21 -30 -60 -72.5t-85 -88.5t-89.5 -86t-74.5 -64h-95z" />
    <glyph glyph-name="acircumflex" unicode="&#xe2;" horiz-adv-x="856" 
d="M263 -20q-68 0 -116 35t-72.5 103.5t-24.5 166.5q0 92 17 203t51 221.5t87 202.5t124.5 148t162.5 56q47 0 83 -18.5t61 -55t37 -89.5h6l45 143h125l-233 -1096h-118l15 159h-4q-36 -56 -74 -96.5t-80 -61.5t-92 -21zM309 109q71 0 121 56t85 143t59 180q25 99 38.5 180
t13.5 151q0 79 -31.5 122.5t-87.5 43.5q-57 0 -105 -46.5t-85 -122.5t-62.5 -168t-39 -184t-13.5 -168q0 -96 27 -141.5t80 -45.5zM318 1244l4 20q47 50 90.5 102.5t82.5 105t69 100.5h130q8 -37 28 -96t43.5 -117.5t40.5 -94.5l-4 -20h-81q-18 26 -38 57.5t-39.5 66.5
t-38.5 73q-54 -58 -105 -108.5t-96 -88.5h-86z" />
    <glyph glyph-name="atilde" unicode="&#xe3;" horiz-adv-x="856" 
d="M263 -20q-68 0 -116 35t-72.5 103.5t-24.5 166.5q0 92 17 203t51 221.5t87 202.5t124.5 148t162.5 56q47 0 83 -18.5t61 -55t37 -89.5h6l45 143h125l-233 -1096h-118l15 159h-4q-36 -56 -74 -96.5t-80 -61.5t-92 -21zM309 109q71 0 121 56t85 143t59 180q25 99 38.5 180
t13.5 151q0 79 -31.5 122.5t-87.5 43.5q-57 0 -105 -46.5t-85 -122.5t-62.5 -168t-39 -184t-13.5 -168q0 -96 27 -141.5t80 -45.5zM294 1249q17 79 42.5 134.5t63 84.5t89.5 29q42 0 72.5 -18.5t55.5 -42.5t48 -42.5t49 -18.5q33 0 52.5 27t35.5 97h95q-16 -91 -43 -145.5
t-63 -78.5t-80 -24q-40 0 -70 18.5t-55.5 43.5t-49.5 43.5t-51 18.5q-37 0 -59.5 -32t-36.5 -94h-95z" />
    <glyph glyph-name="adieresis" unicode="&#xe4;" horiz-adv-x="856" 
d="M263 -20q-68 0 -116 35t-72.5 103.5t-24.5 166.5q0 92 17 203t51 221.5t87 202.5t124.5 148t162.5 56q47 0 83 -18.5t61 -55t37 -89.5h6l45 143h125l-233 -1096h-118l15 159h-4q-36 -56 -74 -96.5t-80 -61.5t-92 -21zM309 109q71 0 121 56t85 143t59 180q25 99 38.5 180
t13.5 151q0 79 -31.5 122.5t-87.5 43.5q-57 0 -105 -46.5t-85 -122.5t-62.5 -168t-39 -184t-13.5 -168q0 -96 27 -141.5t80 -45.5zM724 1299q-33 0 -50.5 18t-17.5 54q0 50 27.5 89t75.5 39q31 0 48 -17t17 -51q0 -56 -28 -94t-72 -38zM423 1299q-32 0 -49.5 18t-17.5 54
q0 50 27 89t76 39q20 0 33.5 -7.5t21 -22.5t7.5 -38q0 -56 -27 -94t-71 -38z" />
    <glyph glyph-name="aring" unicode="&#xe5;" horiz-adv-x="856" 
d="M263 -20q-68 0 -116 35t-72.5 103.5t-24.5 166.5q0 92 17 203t51 221.5t87 202.5t124.5 148t162.5 56q47 0 83 -18.5t61 -55t37 -89.5h6l45 143h125l-233 -1096h-118l15 159h-4q-36 -56 -74 -96.5t-80 -61.5t-92 -21zM309 109q71 0 121 56t85 143t59 180q25 99 38.5 180
t13.5 151q0 79 -31.5 122.5t-87.5 43.5q-57 0 -105 -46.5t-85 -122.5t-62.5 -168t-39 -184t-13.5 -168q0 -96 27 -141.5t80 -45.5zM597 1248q-96 0 -149.5 54.5t-53.5 147.5q0 89 54 144.5t149 55.5q93 0 148 -55.5t56 -141.5q0 -90 -54.5 -147.5t-149.5 -57.5zM599 1335
q52 0 82.5 31.5t30.5 83.5q0 50 -30 82t-83 32q-54 0 -83.5 -32t-29.5 -82q0 -52 28.5 -83.5t84.5 -31.5z" />
    <glyph glyph-name="ae" unicode="&#xe6;" horiz-adv-x="1249" 
d="M254 -20q-64 0 -109.5 35t-70 103.5t-24.5 166.5q0 115 20.5 233t58.5 225t92.5 191t122.5 133t148 49q42 0 76 -16.5t58.5 -50t37.5 -85.5h5l34 132h109l-28 -133q43 62 102 107.5t135 45.5q95 0 150.5 -57.5t55.5 -164.5q0 -91 -34 -164.5t-99.5 -126t-160 -80
t-214.5 -27.5h-14q-8 -40 -12.5 -82t-4.5 -84q0 -105 39 -165.5t133 -60.5q53 0 105.5 16.5t109.5 50.5l-16 -130q-54 -32 -106.5 -46.5t-120.5 -14.5q-86 0 -140.5 42.5t-72.5 120.5l-29 -143h-109l26 154h-4q-33 -55 -70.5 -94t-81.5 -59.5t-97 -20.5zM309 108
q48 0 87 29.5t70.5 81.5t55.5 119.5t42 143.5q23 98 35 183t12 159q0 77 -27 119t-77 42q-52 0 -98 -42.5t-84 -115t-65.5 -163t-42.5 -187t-15 -185.5q0 -94 27 -139t80 -45zM725 610h7q125 0 203.5 36t115 98.5t36.5 141.5q0 50 -23 78t-74 28q-57 0 -107 -49.5
t-90 -135.5t-68 -197z" />
    <glyph glyph-name="ccedilla" unicode="&#xe7;" horiz-adv-x="638" 
d="M310 -20q-84 0 -141.5 37t-87 110.5t-29.5 182.5q0 97 17 207t53 216t92 192.5t133 138.5t177 52q52 0 95.5 -11t80.5 -34l-59 -122q-26 18 -57.5 27.5t-61.5 9.5q-80 0 -140 -65t-100 -167t-60 -216t-20 -213q0 -75 16 -122.5t47.5 -70.5t77.5 -23q37 0 78 14.5t85 39.5
v-129q-38 -23 -89 -38.5t-107 -15.5zM131 -492q-37 0 -68 4t-60 11v98q17 -6 45 -10t67 -4q46 0 79 15.5t50.5 43t17.5 64.5q0 46 -35.5 71.5t-108.5 34.5l106 164h93l-74 -107q66 -14 104 -54t38 -102q0 -73 -33.5 -124t-90.5 -78t-130 -27z" />
    <glyph glyph-name="egrave" unicode="&#xe8;" horiz-adv-x="770" 
d="M331 -20q-88 0 -151 38.5t-96.5 112.5t-33.5 181q0 166 35.5 311.5t99.5 256.5t149.5 173.5t185.5 62.5q99 0 157 -56t58 -166q0 -89 -34 -162.5t-99 -126t-159.5 -81t-215.5 -28.5h-14q-7 -40 -11.5 -82t-4.5 -84q0 -118 42 -172t127 -54q55 0 101.5 14.5t103.5 47.5
v-125q-51 -32 -111 -46.5t-129 -14.5zM234 610h7q126 0 204 35.5t114.5 98t36.5 142.5q0 50 -23 78t-73 28q-55 0 -106.5 -49.5t-92.5 -135.5t-67 -197zM514 1241q-27 37 -62.5 92.5t-66.5 114t-46 102.5v17h169q13 -49 28 -99.5t32.5 -101.5t39.5 -105l-3 -20h-91z" />
    <glyph glyph-name="eacute" unicode="&#xe9;" horiz-adv-x="770" 
d="M331 -20q-88 0 -151 38.5t-96.5 112.5t-33.5 181q0 166 35.5 311.5t99.5 256.5t149.5 173.5t185.5 62.5q99 0 157 -56t58 -166q0 -89 -34 -162.5t-99 -126t-159.5 -81t-215.5 -28.5h-14q-7 -40 -11.5 -82t-4.5 -84q0 -118 42 -172t127 -54q55 0 101.5 14.5t103.5 47.5
v-125q-51 -32 -111 -46.5t-129 -14.5zM234 610h7q126 0 204 35.5t114.5 98t36.5 142.5q0 50 -23 78t-73 28q-55 0 -106.5 -49.5t-92.5 -135.5t-67 -197zM410 1238l1 19q47 54 89.5 108t77.5 105.5t60 95.5h178l-2 -17q-21 -30 -60 -72.5t-85 -88.5t-89.5 -86t-74.5 -64h-95z
" />
    <glyph glyph-name="ecircumflex" unicode="&#xea;" horiz-adv-x="770" 
d="M331 -20q-88 0 -151 38.5t-96.5 112.5t-33.5 181q0 166 35.5 311.5t99.5 256.5t149.5 173.5t185.5 62.5q99 0 157 -56t58 -166q0 -89 -34 -162.5t-99 -126t-159.5 -81t-215.5 -28.5h-14q-7 -40 -11.5 -82t-4.5 -84q0 -118 42 -172t127 -54q55 0 101.5 14.5t103.5 47.5
v-125q-51 -32 -111 -46.5t-129 -14.5zM234 610h7q126 0 204 35.5t114.5 98t36.5 142.5q0 50 -23 78t-73 28q-55 0 -106.5 -49.5t-92.5 -135.5t-67 -197zM294 1241l4 20q47 50 90.5 102.5t82.5 105t69 100.5h130q8 -37 28 -96t43.5 -117.5t40.5 -94.5l-4 -20h-81
q-18 26 -38 57.5t-39.5 66.5t-38.5 73q-54 -58 -105 -108.5t-96 -88.5h-86z" />
    <glyph glyph-name="edieresis" unicode="&#xeb;" horiz-adv-x="770" 
d="M331 -20q-88 0 -151 38.5t-96.5 112.5t-33.5 181q0 166 35.5 311.5t99.5 256.5t149.5 173.5t185.5 62.5q99 0 157 -56t58 -166q0 -89 -34 -162.5t-99 -126t-159.5 -81t-215.5 -28.5h-14q-7 -40 -11.5 -82t-4.5 -84q0 -118 42 -172t127 -54q55 0 101.5 14.5t103.5 47.5
v-125q-51 -32 -111 -46.5t-129 -14.5zM234 610h7q126 0 204 35.5t114.5 98t36.5 142.5q0 50 -23 78t-73 28q-55 0 -106.5 -49.5t-92.5 -135.5t-67 -197zM702 1296q-33 0 -50.5 18t-17.5 54q0 50 27.5 89t75.5 39q31 0 48 -17t17 -51q0 -56 -28 -94t-72 -38zM401 1296
q-32 0 -49.5 18t-17.5 54q0 50 27 89t76 39q20 0 33.5 -7.5t21 -22.5t7.5 -38q0 -56 -27 -94t-71 -38z" />
    <glyph glyph-name="igrave" unicode="&#xec;" horiz-adv-x="385" 
d="M0 0l232 1096h147l-233 -1096h-146zM323 1253q-27 37 -62.5 92.5t-66.5 114t-46 102.5v17h169q13 -49 28 -99.5t32.5 -101.5t39.5 -105l-3 -20h-91z" />
    <glyph glyph-name="iacute" unicode="&#xed;" horiz-adv-x="385" 
d="M0 0l232 1096h147l-233 -1096h-146zM220 1251l1 19q47 54 89.5 108t77.5 105.5t60 95.5h178l-2 -17q-21 -30 -60 -72.5t-85 -88.5t-89.5 -86t-74.5 -64h-95z" />
    <glyph glyph-name="icircumflex" unicode="&#xee;" horiz-adv-x="385" 
d="M0 0l232 1096h147l-233 -1096h-146zM78 1241l4 20q47 50 90.5 102.5t82.5 105t69 100.5h130q8 -37 28 -96t43.5 -117.5t40.5 -94.5l-4 -20h-81q-18 26 -38 57.5t-39.5 66.5t-38.5 73q-54 -58 -105 -108.5t-96 -88.5h-86z" />
    <glyph glyph-name="idieresis" unicode="&#xef;" horiz-adv-x="385" 
d="M0 0l232 1096h147l-233 -1096h-146zM483 1296q-33 0 -50.5 18t-17.5 54q0 50 27.5 89t75.5 39q31 0 48 -17t17 -51q0 -56 -28 -94t-72 -38zM182 1296q-32 0 -49.5 18t-17.5 54q0 50 27 89t76 39q20 0 33.5 -7.5t21 -22.5t7.5 -38q0 -56 -27 -94t-71 -38z" />
    <glyph glyph-name="eth" unicode="&#xf0;" horiz-adv-x="817" 
d="M285 -20q-84 0 -143.5 37.5t-90.5 109.5t-31 176q0 100 26 215t79 217.5t133 167.5t189 65q79 0 114.5 -50.5t51.5 -118.5h3q0 151 -25 272t-96 214l-206 -125l-48 78l204 124q-22 27 -60.5 60t-86.5 65l76 86q49 -28 93.5 -63t87.5 -79l204 124l52 -75l-199 -122
q47 -71 78 -150.5t46 -166.5t15 -183q0 -99 -14 -217t-45.5 -234.5t-85 -213t-133 -155t-188.5 -58.5zM298 108q55 0 99 34t77.5 90.5t56.5 125.5t34.5 140.5t11.5 133.5q0 49 -8.5 87.5t-24.5 65t-39.5 40t-54.5 13.5q-67 0 -119.5 -49.5t-88 -129t-54 -171.5t-18.5 -178
q0 -105 33 -153.5t95 -48.5z" />
    <glyph glyph-name="ntilde" unicode="&#xf1;" horiz-adv-x="830" 
d="M0 0l232 1096h120l-21 -149h5q30 55 67 92.5t81.5 57t94.5 19.5q55 0 98.5 -21.5t69 -66t25.5 -115.5q0 -43 -9.5 -100t-20.5 -111l-149 -702h-146l144 683q11 51 20 104.5t9 95.5q0 47 -23 72.5t-69 25.5q-62 0 -109.5 -45t-83 -132t-62.5 -214l-125 -590h-148z
M273 1249q17 79 42.5 134.5t63 84.5t89.5 29q42 0 72.5 -18.5t55.5 -42.5t48 -42.5t49 -18.5q33 0 52.5 27t35.5 97h95q-16 -91 -43 -145.5t-63 -78.5t-80 -24q-40 0 -70 18.5t-55.5 43.5t-49.5 43.5t-51 18.5q-37 0 -59.5 -32t-36.5 -94h-95z" />
    <glyph glyph-name="ograve" unicode="&#xf2;" horiz-adv-x="823" 
d="M308 -20q-81 0 -138 37t-87.5 110.5t-30.5 180.5q0 82 15.5 188t49 214.5t88 200.5t132 148.5t180.5 56.5q80 0 137 -38.5t87 -112.5t30 -182q0 -100 -17.5 -211t-53.5 -216t-91.5 -190t-130.5 -135.5t-170 -50.5zM323 109q58 0 105 45t83 119.5t60.5 164.5t37 181
t12.5 168q0 64 -13.5 109t-40.5 68.5t-68 23.5q-62 0 -110.5 -49t-84 -128t-58.5 -171t-34.5 -180.5t-11.5 -153.5q0 -96 31 -146.5t92 -50.5zM542 1241q-27 37 -62.5 92.5t-66.5 114t-46 102.5v17h169q13 -49 28 -99.5t32.5 -101.5t39.5 -105l-3 -20h-91z" />
    <glyph glyph-name="oacute" unicode="&#xf3;" horiz-adv-x="823" 
d="M308 -20q-81 0 -138 37t-87.5 110.5t-30.5 180.5q0 82 15.5 188t49 214.5t88 200.5t132 148.5t180.5 56.5q80 0 137 -38.5t87 -112.5t30 -182q0 -100 -17.5 -211t-53.5 -216t-91.5 -190t-130.5 -135.5t-170 -50.5zM323 109q58 0 105 45t83 119.5t60.5 164.5t37 181
t12.5 168q0 64 -13.5 109t-40.5 68.5t-68 23.5q-62 0 -110.5 -49t-84 -128t-58.5 -171t-34.5 -180.5t-11.5 -153.5q0 -96 31 -146.5t92 -50.5zM438 1238l1 19q47 54 89.5 108t77.5 105.5t60 95.5h178l-2 -17q-21 -30 -60 -72.5t-85 -88.5t-89.5 -86t-74.5 -64h-95z" />
    <glyph glyph-name="ocircumflex" unicode="&#xf4;" horiz-adv-x="823" 
d="M308 -20q-81 0 -138 37t-87.5 110.5t-30.5 180.5q0 82 15.5 188t49 214.5t88 200.5t132 148.5t180.5 56.5q80 0 137 -38.5t87 -112.5t30 -182q0 -100 -17.5 -211t-53.5 -216t-91.5 -190t-130.5 -135.5t-170 -50.5zM323 109q58 0 105 45t83 119.5t60.5 164.5t37 181
t12.5 168q0 64 -13.5 109t-40.5 68.5t-68 23.5q-62 0 -110.5 -49t-84 -128t-58.5 -171t-34.5 -180.5t-11.5 -153.5q0 -96 31 -146.5t92 -50.5zM292 1241l4 20q47 50 90.5 102.5t82.5 105t69 100.5h130q8 -37 28 -96t43.5 -117.5t40.5 -94.5l-4 -20h-81q-18 26 -38 57.5
t-39.5 66.5t-38.5 73q-54 -58 -105 -108.5t-96 -88.5h-86z" />
    <glyph glyph-name="otilde" unicode="&#xf5;" horiz-adv-x="823" 
d="M308 -20q-81 0 -138 37t-87.5 110.5t-30.5 180.5q0 82 15.5 188t49 214.5t88 200.5t132 148.5t180.5 56.5q80 0 137 -38.5t87 -112.5t30 -182q0 -100 -17.5 -211t-53.5 -216t-91.5 -190t-130.5 -135.5t-170 -50.5zM323 109q58 0 105 45t83 119.5t60.5 164.5t37 181
t12.5 168q0 64 -13.5 109t-40.5 68.5t-68 23.5q-62 0 -110.5 -49t-84 -128t-58.5 -171t-34.5 -180.5t-11.5 -153.5q0 -96 31 -146.5t92 -50.5zM252 1246q17 79 42.5 134.5t63 84.5t89.5 29q42 0 72.5 -18.5t55.5 -42.5t48 -42.5t49 -18.5q33 0 52.5 27t35.5 97h95
q-16 -91 -43 -145.5t-63 -78.5t-80 -24q-40 0 -70 18.5t-55.5 43.5t-49.5 43.5t-51 18.5q-37 0 -59.5 -32t-36.5 -94h-95z" />
    <glyph glyph-name="odieresis" unicode="&#xf6;" horiz-adv-x="823" 
d="M308 -20q-81 0 -138 37t-87.5 110.5t-30.5 180.5q0 82 15.5 188t49 214.5t88 200.5t132 148.5t180.5 56.5q80 0 137 -38.5t87 -112.5t30 -182q0 -100 -17.5 -211t-53.5 -216t-91.5 -190t-130.5 -135.5t-170 -50.5zM323 109q58 0 105 45t83 119.5t60.5 164.5t37 181
t12.5 168q0 64 -13.5 109t-40.5 68.5t-68 23.5q-62 0 -110.5 -49t-84 -128t-58.5 -171t-34.5 -180.5t-11.5 -153.5q0 -96 31 -146.5t92 -50.5zM694 1296q-33 0 -50.5 18t-17.5 54q0 50 27.5 89t75.5 39q31 0 48 -17t17 -51q0 -56 -28 -94t-72 -38zM393 1296q-32 0 -49.5 18
t-17.5 54q0 50 27 89t76 39q20 0 33.5 -7.5t21 -22.5t7.5 -38q0 -56 -27 -94t-71 -38z" />
    <glyph glyph-name="divide" unicode="&#xf7;" horiz-adv-x="874" 
d="M79 658v130h748v-130h-748zM457 235q-49 0 -74 31t-25 90q0 60 25 90.5t74 30.5q47 0 71 -30.5t24 -90.5q0 -61 -26 -91t-69 -30zM457 967q-49 0 -74 30.5t-25 89.5t24.5 90t74.5 31q47 0 71 -31t24 -90q0 -61 -26 -90.5t-69 -29.5z" />
    <glyph glyph-name="oslash" unicode="&#xf8;" horiz-adv-x="824" 
d="M54 -123l-80 50l117 184q-18 38 -28.5 87t-10.5 110q0 77 15 181.5t48 214t87 203t132 151.5t183 58q50 0 90 -16.5t71 -49.5l89 146l82 -49l-112 -179q17 -37 25.5 -83t8.5 -102q0 -85 -16 -191t-50 -213t-88.5 -197.5t-131 -146t-177.5 -55.5q-46 0 -85 13.5t-70 41.5z
M323 104q55 0 100.5 40t81 107t60.5 149t39.5 168t18.5 163q2 17 1 35.5t-3 33.5l-394 -641q16 -28 40.5 -41.5t55.5 -13.5zM202 275l400 651q-14 33 -40 49.5t-62 16.5q-56 0 -102.5 -43t-82 -114t-61 -157t-39.5 -174t-16 -162q0 -19 0.5 -36t2.5 -31z" />
    <glyph glyph-name="ugrave" unicode="&#xf9;" horiz-adv-x="834" 
d="M245 -20q-63 0 -106 24t-65.5 70.5t-22.5 113.5q0 38 7.5 89.5t17.5 97.5l154 721h147l-149 -704q-11 -46 -18 -90.5t-7 -84.5q0 -49 22 -76.5t68 -27.5q63 0 111 45.5t84.5 133.5t62.5 214l125 590h146l-231 -1096h-118l14 141h-6q-29 -51 -66.5 -87t-80.5 -55t-89 -19z
M546 1241q-27 37 -62.5 92.5t-66.5 114t-46 102.5v17h169q13 -49 28 -99.5t32.5 -101.5t39.5 -105l-3 -20h-91z" />
    <glyph glyph-name="uacute" unicode="&#xfa;" horiz-adv-x="834" 
d="M245 -20q-63 0 -106 24t-65.5 70.5t-22.5 113.5q0 38 7.5 89.5t17.5 97.5l154 721h147l-149 -704q-11 -46 -18 -90.5t-7 -84.5q0 -49 22 -76.5t68 -27.5q63 0 111 45.5t84.5 133.5t62.5 214l125 590h146l-231 -1096h-118l14 141h-6q-29 -51 -66.5 -87t-80.5 -55t-89 -19z
M441 1238l1 19q47 54 89.5 108t77.5 105.5t60 95.5h178l-2 -17q-21 -30 -60 -72.5t-85 -88.5t-89.5 -86t-74.5 -64h-95z" />
    <glyph glyph-name="ucircumflex" unicode="&#xfb;" horiz-adv-x="834" 
d="M245 -20q-63 0 -106 24t-65.5 70.5t-22.5 113.5q0 38 7.5 89.5t17.5 97.5l154 721h147l-149 -704q-11 -46 -18 -90.5t-7 -84.5q0 -49 22 -76.5t68 -27.5q63 0 111 45.5t84.5 133.5t62.5 214l125 590h146l-231 -1096h-118l14 141h-6q-29 -51 -66.5 -87t-80.5 -55t-89 -19z
M302 1241l4 20q47 50 90.5 102.5t82.5 105t69 100.5h130q8 -37 28 -96t43.5 -117.5t40.5 -94.5l-4 -20h-81q-18 26 -38 57.5t-39.5 66.5t-38.5 73q-54 -58 -105 -108.5t-96 -88.5h-86z" />
    <glyph glyph-name="udieresis" unicode="&#xfc;" horiz-adv-x="834" 
d="M245 -20q-63 0 -106 24t-65.5 70.5t-22.5 113.5q0 38 7.5 89.5t17.5 97.5l154 721h147l-149 -704q-11 -46 -18 -90.5t-7 -84.5q0 -49 22 -76.5t68 -27.5q63 0 111 45.5t84.5 133.5t62.5 214l125 590h146l-231 -1096h-118l14 141h-6q-29 -51 -66.5 -87t-80.5 -55t-89 -19z
M693 1296q-33 0 -50.5 18t-17.5 54q0 50 27.5 89t75.5 39q31 0 48 -17t17 -51q0 -56 -28 -94t-72 -38zM392 1296q-32 0 -49.5 18t-17.5 54q0 50 27 89t76 39q20 0 33.5 -7.5t21 -22.5t7.5 -38q0 -56 -27 -94t-71 -38z" />
    <glyph glyph-name="yacute" unicode="&#xfd;" horiz-adv-x="686" 
d="M-91 -494q-34 0 -60 6t-47 15l20 131q20 -7 40 -12t44 -5q60 0 97.5 46.5t74.5 131.5l82 188l-25 1089h146l3 -629q0 -38 -1 -78.5t-2.5 -81.5t-4.5 -82h6q13 41 27.5 80.5t29 75.5t25.5 64l276 651h152l-577 -1312q-38 -86 -79.5 -148.5t-95.5 -96t-131 -33.5zM370 1238
l1 19q47 54 89.5 108t77.5 105.5t60 95.5h178l-2 -17q-21 -30 -60 -72.5t-85 -88.5t-89.5 -86t-74.5 -64h-95z" />
    <glyph glyph-name="thorn" unicode="&#xfe;" horiz-adv-x="844" 
d="M-96 -476l429 2032h144l-113 -526q-4 -23 -9 -42.5t-10 -36.5h5q32 52 69.5 88.5t80 56.5t90.5 20q101 0 155.5 -76t54.5 -229q0 -94 -17.5 -206t-52 -222t-87.5 -201.5t-124 -146.5t-160 -55q-47 0 -84 19.5t-62 55t-36 82.5h-6q-4 -37 -11.5 -76t-12.5 -70l-100 -467
h-143zM344 109q62 0 111 50t85.5 130.5t61 174t36.5 183.5t12 156q0 96 -27 141.5t-82 45.5q-65 0 -116 -55t-88 -141t-61 -179q-25 -94 -37 -184t-12 -153q0 -82 29.5 -125.5t87.5 -43.5z" />
    <glyph glyph-name="ydieresis" unicode="&#xff;" horiz-adv-x="686" 
d="M-91 -494q-34 0 -60 6t-47 15l20 131q20 -7 40 -12t44 -5q60 0 97.5 46.5t74.5 131.5l82 188l-25 1089h146l3 -629q0 -38 -1 -78.5t-2.5 -81.5t-4.5 -82h6q13 41 27.5 80.5t29 75.5t25.5 64l276 651h152l-577 -1312q-38 -86 -79.5 -148.5t-95.5 -96t-131 -33.5zM613 1296
q-33 0 -50.5 18t-17.5 54q0 50 27.5 89t75.5 39q31 0 48 -17t17 -51q0 -56 -28 -94t-72 -38zM312 1296q-32 0 -49.5 18t-17.5 54q0 50 27 89t76 39q20 0 33.5 -7.5t21 -22.5t7.5 -38q0 -56 -27 -94t-71 -38z" />
    <glyph glyph-name="Amacron" unicode="&#x100;" horiz-adv-x="810" 
d="M-134 0l611 1468h194l5 -1468h-158l2 478h-293l-196 -478h-165zM278 616h248l8 524q0 49 2 92.5t6 79.5h-6q-10 -34 -23 -76.5t-33 -95.5zM344 1628l24 116h486l-26 -116h-484z" />
    <glyph glyph-name="amacron" unicode="&#x101;" horiz-adv-x="856" 
d="M263 -20q-68 0 -116 35t-72.5 103.5t-24.5 166.5q0 92 17 203t51 221.5t87 202.5t124.5 148t162.5 56q47 0 83 -18.5t61 -55t37 -89.5h6l45 143h125l-233 -1096h-118l15 159h-4q-36 -56 -74 -96.5t-80 -61.5t-92 -21zM309 109q71 0 121 56t85 143t59 180q25 99 38.5 180
t13.5 151q0 79 -31.5 122.5t-87.5 43.5q-57 0 -105 -46.5t-85 -122.5t-62.5 -168t-39 -184t-13.5 -168q0 -96 27 -141.5t80 -45.5zM322 1252l24 116h486l-26 -116h-484z" />
    <glyph glyph-name="Abreve" unicode="&#x102;" horiz-adv-x="810" 
d="M-134 0l611 1468h194l5 -1468h-158l2 478h-293l-196 -478h-165zM278 616h248l8 524q0 49 2 92.5t6 79.5h-6q-10 -34 -23 -76.5t-33 -95.5zM598 1620q-71 0 -116 25t-65.5 70t-20.5 104q0 19 1.5 36t4.5 31h95q0 -52 11 -85t35 -48.5t63 -15.5q61 0 97.5 34t56.5 115h99
q-22 -127 -86.5 -196.5t-174.5 -69.5z" />
    <glyph glyph-name="abreve" unicode="&#x103;" horiz-adv-x="856" 
d="M263 -20q-68 0 -116 35t-72.5 103.5t-24.5 166.5q0 92 17 203t51 221.5t87 202.5t124.5 148t162.5 56q47 0 83 -18.5t61 -55t37 -89.5h6l45 143h125l-233 -1096h-118l15 159h-4q-36 -56 -74 -96.5t-80 -61.5t-92 -21zM309 109q71 0 121 56t85 143t59 180q25 99 38.5 180
t13.5 151q0 79 -31.5 122.5t-87.5 43.5q-57 0 -105 -46.5t-85 -122.5t-62.5 -168t-39 -184t-13.5 -168q0 -96 27 -141.5t80 -45.5zM577 1244q-71 0 -116 25t-65.5 70t-20.5 104q0 19 1.5 36t4.5 31h95q0 -52 11 -85t35 -48.5t63 -15.5q61 0 97.5 34t56.5 115h99
q-22 -127 -86.5 -196.5t-174.5 -69.5z" />
    <glyph glyph-name="Aogonek" unicode="&#x104;" horiz-adv-x="810" 
d="M-134 0l611 1468h194l5 -1468h-158l2 478h-293l-196 -478h-165zM278 616h248l8 524q0 49 2 92.5t6 79.5h-6q-10 -34 -23 -76.5t-33 -95.5zM489 -457q-74 0 -112 41t-38 105q0 57 21.5 107.5t67 100.5t117.5 103h100q-61 -54 -99.5 -100.5t-55.5 -89t-17 -85.5
q0 -34 17.5 -53t51.5 -19q15 0 34.5 4t40.5 8l-22 -103q-24 -10 -50 -14.5t-56 -4.5z" />
    <glyph glyph-name="aogonek" unicode="&#x105;" horiz-adv-x="856" 
d="M263 -20q-68 0 -116 35t-72.5 103.5t-24.5 166.5q0 92 17 203t51 221.5t87 202.5t124.5 148t162.5 56q47 0 83 -18.5t61 -55t37 -89.5h6l45 143h125l-233 -1096h-118l15 159h-4q-36 -56 -74 -96.5t-80 -61.5t-92 -21zM309 109q71 0 121 56t85 143t59 180q25 99 38.5 180
t13.5 151q0 79 -31.5 122.5t-87.5 43.5q-57 0 -105 -46.5t-85 -122.5t-62.5 -168t-39 -184t-13.5 -168q0 -96 27 -141.5t80 -45.5zM447 -457q-74 0 -112 41t-38 105q0 57 21.5 107.5t67 100.5t117.5 103h100q-61 -54 -99.5 -100.5t-55.5 -89t-17 -85.5q0 -34 17.5 -53
t51.5 -19q15 0 34.5 4t40.5 8l-22 -103q-24 -10 -50 -14.5t-56 -4.5z" />
    <glyph glyph-name="Cacute" unicode="&#x106;" horiz-adv-x="780" 
d="M398 -20q-107 0 -179.5 52.5t-108.5 157.5t-36 262q0 120 24.5 260t74.5 276.5t125 249t176.5 180t228.5 67.5q69 0 126.5 -17.5t102.5 -53.5l-80 -124q-32 29 -70 42.5t-82 13.5q-96 0 -171.5 -63t-131.5 -164.5t-92.5 -220.5t-54.5 -233.5t-18 -200.5q0 -182 48 -264.5
t152 -82.5q44 0 91 12.5t99 34.5v-139q-55 -23 -112 -34t-112 -11zM517 1618l1 19q47 54 89.5 108t77.5 105.5t60 95.5h178l-2 -17q-21 -30 -60 -72.5t-85 -88.5t-89.5 -86t-74.5 -64h-95z" />
    <glyph glyph-name="cacute" unicode="&#x107;" horiz-adv-x="638" 
d="M310 -20q-84 0 -141.5 37t-87 110.5t-29.5 182.5q0 97 17 207t53 216t92 192.5t133 138.5t177 52q52 0 95.5 -11t80.5 -34l-59 -122q-26 18 -57.5 27.5t-61.5 9.5q-80 0 -140 -65t-100 -167t-60 -216t-20 -213q0 -75 16 -122.5t47.5 -70.5t77.5 -23q37 0 78 14.5t85 39.5
v-129q-38 -23 -89 -38.5t-107 -15.5zM348 1251l1 19q47 54 89.5 108t77.5 105.5t60 95.5h178l-2 -17q-21 -30 -60 -72.5t-85 -88.5t-89.5 -86t-74.5 -64h-95z" />
    <glyph glyph-name="Ccircumflex" unicode="&#x108;" horiz-adv-x="780" 
d="M398 -20q-107 0 -179.5 52.5t-108.5 157.5t-36 262q0 120 24.5 260t74.5 276.5t125 249t176.5 180t228.5 67.5q69 0 126.5 -17.5t102.5 -53.5l-80 -124q-32 29 -70 42.5t-82 13.5q-96 0 -171.5 -63t-131.5 -164.5t-92.5 -220.5t-54.5 -233.5t-18 -200.5q0 -182 48 -264.5
t152 -82.5q44 0 91 12.5t99 34.5v-139q-55 -23 -112 -34t-112 -11zM442 1579l4 20q47 50 90.5 102.5t82.5 105t69 100.5h130q8 -37 28 -96t43.5 -117.5t40.5 -94.5l-4 -20h-81q-18 26 -38 57.5t-39.5 66.5t-38.5 73q-54 -58 -105 -108.5t-96 -88.5h-86z" />
    <glyph glyph-name="ccircumflex" unicode="&#x109;" horiz-adv-x="638" 
d="M310 -20q-84 0 -141.5 37t-87 110.5t-29.5 182.5q0 97 17 207t53 216t92 192.5t133 138.5t177 52q52 0 95.5 -11t80.5 -34l-59 -122q-26 18 -57.5 27.5t-61.5 9.5q-80 0 -140 -65t-100 -167t-60 -216t-20 -213q0 -75 16 -122.5t47.5 -70.5t77.5 -23q37 0 78 14.5t85 39.5
v-129q-38 -23 -89 -38.5t-107 -15.5zM262 1241l4 20q47 50 90.5 102.5t82.5 105t69 100.5h130q8 -37 28 -96t43.5 -117.5t40.5 -94.5l-4 -20h-81q-18 26 -38 57.5t-39.5 66.5t-38.5 73q-54 -58 -105 -108.5t-96 -88.5h-86z" />
    <glyph glyph-name="Cdot" unicode="&#x10a;" horiz-adv-x="780" 
d="M398 -20q-107 0 -179.5 52.5t-108.5 157.5t-36 262q0 120 24.5 260t74.5 276.5t125 249t176.5 180t228.5 67.5q69 0 126.5 -17.5t102.5 -53.5l-80 -124q-32 29 -70 42.5t-82 13.5q-96 0 -171.5 -63t-131.5 -164.5t-92.5 -220.5t-54.5 -233.5t-18 -200.5q0 -182 48 -264.5
t152 -82.5q44 0 91 12.5t99 34.5v-139q-55 -23 -112 -34t-112 -11zM742 1632q-37 0 -56 21t-19 59q0 53 28.5 95t80.5 42q25 0 41.5 -8t25 -25.5t8.5 -44.5q0 -55 -28.5 -97t-80.5 -42z" />
    <glyph glyph-name="cdot" unicode="&#x10b;" horiz-adv-x="638" 
d="M310 -20q-84 0 -141.5 37t-87 110.5t-29.5 182.5q0 97 17 207t53 216t92 192.5t133 138.5t177 52q52 0 95.5 -11t80.5 -34l-59 -122q-26 18 -57.5 27.5t-61.5 9.5q-80 0 -140 -65t-100 -167t-60 -216t-20 -213q0 -75 16 -122.5t47.5 -70.5t77.5 -23q37 0 78 14.5t85 39.5
v-129q-38 -23 -89 -38.5t-107 -15.5zM562 1286q-37 0 -56 21t-19 59q0 53 28.5 95t80.5 42q25 0 41.5 -8t25 -25.5t8.5 -44.5q0 -55 -28.5 -97t-80.5 -42z" />
    <glyph glyph-name="Ccaron" unicode="&#x10c;" horiz-adv-x="780" 
d="M398 -20q-107 0 -179.5 52.5t-108.5 157.5t-36 262q0 120 24.5 260t74.5 276.5t125 249t176.5 180t228.5 67.5q69 0 126.5 -17.5t102.5 -53.5l-80 -124q-32 29 -70 42.5t-82 13.5q-96 0 -171.5 -63t-131.5 -164.5t-92.5 -220.5t-54.5 -233.5t-18 -200.5q0 -182 48 -264.5
t152 -82.5q44 0 91 12.5t99 34.5v-139q-55 -23 -112 -34t-112 -11zM653 1579q-9 36 -29.5 95.5t-43.5 118.5t-41 93l4 21h83q14 -21 32.5 -50.5t40 -66.5t43.5 -80q54 59 104.5 109.5t96.5 87.5h85l-3 -21q-33 -34 -81 -91.5t-93 -116.5t-68 -99h-130z" />
    <glyph glyph-name="ccaron" unicode="&#x10d;" horiz-adv-x="638" 
d="M310 -20q-84 0 -141.5 37t-87 110.5t-29.5 182.5q0 97 17 207t53 216t92 192.5t133 138.5t177 52q52 0 95.5 -11t80.5 -34l-59 -122q-26 18 -57.5 27.5t-61.5 9.5q-80 0 -140 -65t-100 -167t-60 -216t-20 -213q0 -75 16 -122.5t47.5 -70.5t77.5 -23q37 0 78 14.5t85 39.5
v-129q-38 -23 -89 -38.5t-107 -15.5zM464 1241q-9 36 -29.5 95.5t-43.5 118.5t-41 93l4 21h83q14 -21 32.5 -50.5t40 -66.5t43.5 -80q54 59 104.5 109.5t96.5 87.5h85l-3 -21q-33 -34 -81 -91.5t-93 -116.5t-68 -99h-130z" />
    <glyph glyph-name="Dcaron" unicode="&#x10e;" horiz-adv-x="940" 
d="M1 0l309 1462h230q179 0 274 -108t95 -323q0 -131 -23 -274t-72.5 -277.5t-128.5 -243t-190.5 -172.5t-259.5 -64h-234zM181 139h75q105 0 185.5 55.5t138.5 149t95 209t55 237.5t18 232q0 159 -56.5 230.5t-169.5 71.5h-89zM535 1579q-9 36 -29.5 95.5t-43.5 118.5
t-41 93l4 21h83q14 -21 32.5 -50.5t40 -66.5t43.5 -80q54 59 104.5 109.5t96.5 87.5h85l-3 -21q-33 -34 -81 -91.5t-93 -116.5t-68 -99h-130z" />
    <glyph glyph-name="dcaron" unicode="&#x10f;" horiz-adv-x="982" 
d="M259 -20q-67 0 -114 35t-71.5 103.5t-24.5 166.5q0 91 17 201.5t51 221.5t86 203.5t122.5 148.5t158.5 56q49 0 87 -18t64 -52t37 -82h6q6 35 12.5 69.5t13 67.5t12.5 63l82 392h146l-329 -1556h-118l15 156h-4q-37 -56 -75 -95.5t-80.5 -60t-93.5 -20.5zM308 108
q57 0 102 39t80.5 104.5t61 144.5t41.5 159.5t24 151t8 116.5q0 78 -29.5 120t-89.5 42q-59 0 -107.5 -48t-85.5 -126.5t-62 -171.5t-37.5 -184t-12.5 -163q0 -94 27 -139t80 -45zM957 1229v18q26 56 48 110.5t39 105t28 93.5h147l-1 -20q-16 -41 -46 -98.5t-64.5 -113.5
t-63.5 -95h-87z" />
    <glyph glyph-name="Dcroat" unicode="&#x110;" horiz-adv-x="941" 
d="M1 0l146 696h-100l27 126h100l136 640h230q179 0 274 -108t95 -323q0 -133 -23.5 -276.5t-73 -277.5t-129 -242t-190.5 -171.5t-258 -63.5h-234zM181 139h75q111 0 193 60t139.5 158.5t92.5 216t51 235t16 213.5q0 159 -56.5 230.5t-169.5 71.5h-89l-107 -502h177
l-27 -126h-179z" />
    <glyph glyph-name="dcroat" unicode="&#x111;" horiz-adv-x="854" 
d="M260 -20q-67 0 -114 35t-71.5 103.5t-24.5 166.5q0 91 17 201.5t51 221.5t86 203.5t122.5 148.5t158.5 56q49 0 87 -18t64 -52t37 -82h6q6 33 12 65t12 63.5t12 61.5l22 103h-197l24 115h198l37 184h146l-37 -184h119l-24 -115h-120l-267 -1257h-118l15 156h-4
q-37 -56 -75 -95.5t-80.5 -60t-93.5 -20.5zM309 108q57 0 102 39t80.5 104.5t61 144.5t41.5 159.5t24 151t8 116.5q0 78 -29.5 120t-89.5 42q-59 0 -107.5 -48t-85.5 -126.5t-62 -171.5t-37.5 -184t-12.5 -163q0 -94 27 -139t80 -45z" />
    <glyph glyph-name="Emacron" unicode="&#x112;" horiz-adv-x="744" 
d="M0 0l310 1462h523l-29 -136h-371l-104 -493h347l-31 -137h-346l-118 -559h371l-29 -137h-523zM345 1587l24 116h486l-26 -116h-484z" />
    <glyph glyph-name="emacron" unicode="&#x113;" horiz-adv-x="770" 
d="M331 -20q-88 0 -151 38.5t-96.5 112.5t-33.5 181q0 166 35.5 311.5t99.5 256.5t149.5 173.5t185.5 62.5q99 0 157 -56t58 -166q0 -89 -34 -162.5t-99 -126t-159.5 -81t-215.5 -28.5h-14q-7 -40 -11.5 -82t-4.5 -84q0 -118 42 -172t127 -54q55 0 101.5 14.5t103.5 47.5
v-125q-51 -32 -111 -46.5t-129 -14.5zM234 610h7q126 0 204 35.5t114.5 98t36.5 142.5q0 50 -23 78t-73 28q-55 0 -106.5 -49.5t-92.5 -135.5t-67 -197zM307 1249l24 116h486l-26 -116h-484z" />
    <glyph glyph-name="Ebreve" unicode="&#x114;" horiz-adv-x="744" 
d="M0 0l310 1462h523l-29 -136h-371l-104 -493h347l-31 -137h-346l-118 -559h371l-29 -137h-523zM596 1579q-71 0 -116 25t-65.5 70t-20.5 104q0 19 1.5 36t4.5 31h95q0 -52 11 -85t35 -48.5t63 -15.5q61 0 97.5 34t56.5 115h99q-22 -127 -86.5 -196.5t-174.5 -69.5z" />
    <glyph glyph-name="ebreve" unicode="&#x115;" horiz-adv-x="770" 
d="M331 -20q-88 0 -151 38.5t-96.5 112.5t-33.5 181q0 166 35.5 311.5t99.5 256.5t149.5 173.5t185.5 62.5q99 0 157 -56t58 -166q0 -89 -34 -162.5t-99 -126t-159.5 -81t-215.5 -28.5h-14q-7 -40 -11.5 -82t-4.5 -84q0 -118 42 -172t127 -54q55 0 101.5 14.5t103.5 47.5
v-125q-51 -32 -111 -46.5t-129 -14.5zM234 610h7q126 0 204 35.5t114.5 98t36.5 142.5q0 50 -23 78t-73 28q-55 0 -106.5 -49.5t-92.5 -135.5t-67 -197zM578 1241q-71 0 -116 25t-65.5 70t-20.5 104q0 19 1.5 36t4.5 31h95q0 -52 11 -85t35 -48.5t63 -15.5q61 0 97.5 34
t56.5 115h99q-22 -127 -86.5 -196.5t-174.5 -69.5z" />
    <glyph glyph-name="Edotaccent" unicode="&#x116;" horiz-adv-x="744" 
d="M0 0l310 1462h523l-29 -136h-371l-104 -493h347l-31 -137h-346l-118 -559h371l-29 -137h-523zM616 1595q-37 0 -56 21t-19 59q0 53 28.5 95t80.5 42q25 0 41.5 -8t25 -25.5t8.5 -44.5q0 -55 -28.5 -97t-80.5 -42z" />
    <glyph glyph-name="edotaccent" unicode="&#x117;" horiz-adv-x="770" 
d="M331 -20q-88 0 -151 38.5t-96.5 112.5t-33.5 181q0 166 35.5 311.5t99.5 256.5t149.5 173.5t185.5 62.5q99 0 157 -56t58 -166q0 -89 -34 -162.5t-99 -126t-159.5 -81t-215.5 -28.5h-14q-7 -40 -11.5 -82t-4.5 -84q0 -118 42 -172t127 -54q55 0 101.5 14.5t103.5 47.5
v-125q-51 -32 -111 -46.5t-129 -14.5zM234 610h7q126 0 204 35.5t114.5 98t36.5 142.5q0 50 -23 78t-73 28q-55 0 -106.5 -49.5t-92.5 -135.5t-67 -197zM595 1286q-37 0 -56 21t-19 59q0 53 28.5 95t80.5 42q25 0 41.5 -8t25 -25.5t8.5 -44.5q0 -55 -28.5 -97t-80.5 -42z
" />
    <glyph glyph-name="Eogonek" unicode="&#x118;" horiz-adv-x="744" 
d="M0 0l310 1462h523l-29 -136h-371l-104 -493h347l-31 -137h-346l-118 -559h371l-29 -137h-523zM299 -457q-74 0 -112 41t-38 105q0 57 21.5 107.5t67 100.5t117.5 103h100q-61 -54 -99.5 -100.5t-55.5 -89t-17 -85.5q0 -34 17.5 -53t51.5 -19q15 0 34.5 4t40.5 8l-22 -103
q-24 -10 -50 -14.5t-56 -4.5z" />
    <glyph glyph-name="eogonek" unicode="&#x119;" horiz-adv-x="770" 
d="M380 -427q-72 0 -108 42t-36 106q0 56 20.5 106.5t64.5 100t115 102.5l120 7q-64 -49 -104.5 -98t-60 -95.5t-20.5 -89.5q0 -34 17 -51.5t48 -17.5q15 0 34 3t38 7l-22 -104q-24 -10 -50 -14t-56 -4zM331 -20q-88 0 -151 38.5t-96.5 112.5t-33.5 181q0 166 35.5 311.5
t99.5 256.5t149.5 173.5t185.5 62.5q99 0 157 -56t58 -166q0 -89 -34 -162.5t-99 -126t-159.5 -81t-215.5 -28.5h-14q-7 -40 -11.5 -82t-4.5 -84q0 -118 42 -172t127 -54q55 0 101.5 14.5t103.5 47.5v-125q-51 -32 -111 -46.5t-129 -14.5zM234 610h7q126 0 204 35.5
t114.5 98t36.5 142.5q0 50 -23 78t-73 28q-55 0 -106.5 -49.5t-92.5 -135.5t-67 -197z" />
    <glyph glyph-name="Ecaron" unicode="&#x11a;" horiz-adv-x="744" 
d="M0 0l310 1462h523l-29 -136h-371l-104 -493h347l-31 -137h-346l-118 -559h371l-29 -137h-523zM515 1579q-9 36 -29.5 95.5t-43.5 118.5t-41 93l4 21h83q14 -21 32.5 -50.5t40 -66.5t43.5 -80q54 59 104.5 109.5t96.5 87.5h85l-3 -21q-33 -34 -81 -91.5t-93 -116.5
t-68 -99h-130z" />
    <glyph glyph-name="ecaron" unicode="&#x11b;" horiz-adv-x="770" 
d="M331 -20q-88 0 -151 38.5t-96.5 112.5t-33.5 181q0 166 35.5 311.5t99.5 256.5t149.5 173.5t185.5 62.5q99 0 157 -56t58 -166q0 -89 -34 -162.5t-99 -126t-159.5 -81t-215.5 -28.5h-14q-7 -40 -11.5 -82t-4.5 -84q0 -118 42 -172t127 -54q55 0 101.5 14.5t103.5 47.5
v-125q-51 -32 -111 -46.5t-129 -14.5zM234 610h7q126 0 204 35.5t114.5 98t36.5 142.5q0 50 -23 78t-73 28q-55 0 -106.5 -49.5t-92.5 -135.5t-67 -197zM478 1241q-9 36 -29.5 95.5t-43.5 118.5t-41 93l4 21h83q14 -21 32.5 -50.5t40 -66.5t43.5 -80q54 59 104.5 109.5
t96.5 87.5h85l-3 -21q-33 -34 -81 -91.5t-93 -116.5t-68 -99h-130z" />
    <glyph glyph-name="Gcircumflex" unicode="&#x11c;" horiz-adv-x="999" 
d="M462 -20q-196 0 -292 117.5t-96 346.5q0 171 31.5 326.5t90.5 285.5t141.5 226.5t184.5 149.5t220 53q91 0 168 -25t134 -66l-77 -132q-58 44 -115.5 64t-122.5 20q-114 0 -206 -79t-157.5 -210t-100 -289t-34.5 -316q0 -117 27.5 -191t81.5 -109t135 -35q45 0 86 6.5
t80 19.5l103 489h-183l29 134h335l-155 -725q-77 -29 -155.5 -45t-152.5 -16zM494 1579l4 20q47 50 90.5 102.5t82.5 105t69 100.5h130q8 -37 28 -96t43.5 -117.5t40.5 -94.5l-4 -20h-81q-18 26 -38 57.5t-39.5 66.5t-38.5 73q-54 -58 -105 -108.5t-96 -88.5h-86z" />
    <glyph glyph-name="gcircumflex" unicode="&#x11d;" horiz-adv-x="781" 
d="M180 -492q-151 -1 -233 62t-81 194q2 109 69 196t187 136q-31 15 -49 48t-18 74q0 52 36 104.5t114 104.5q-40 25 -64 79.5t-24 132.5q0 110 46 220.5t131 178.5q41 36 93.5 57t109.5 21q42 0 71.5 -8t47.5 -17h241l-19 -95l-130 -25q14 -23 20 -55t6 -70
q0 -85 -30.5 -176.5t-83.5 -157.5q-49 -60 -114.5 -95t-145.5 -35q-20 0 -38 -0.5t-26 -4.5q-58 -27 -85 -67t-27 -73q0 -37 30 -54q11 -5 26.5 -7.5t34.5 -3.5h149q81 0 129 -28.5t69 -79.5t21 -118q0 -109 -47.5 -198.5t-126.5 -145.5q-59 -45 -134 -69t-155 -25z
M186 -375q59 1 113.5 20t96.5 56q44 37 72 93.5t28 117.5q0 29 -6.5 52.5t-24.5 42.5q-14 14 -40.5 22t-65.5 9h-127q-50 0 -102 -39.5t-87 -100t-35 -122.5q0 -88 47 -120.5t131 -30.5zM362 493q60 0 108 49.5t78.5 130.5t35.5 176q3 44 -3 78t-24 54q-11 12 -26.5 18.5
t-37.5 6.5q-46 0 -85.5 -33t-70 -86t-49 -114t-21.5 -118q-1 -34 2.5 -63.5t13.5 -49.5q21 -49 79 -49zM315 1245l4 20q47 50 90.5 102.5t82.5 105t69 100.5h130q8 -37 28 -96t43.5 -117.5t40.5 -94.5l-4 -20h-81q-18 26 -38 57.5t-39.5 66.5t-38.5 73q-54 -58 -105 -108.5
t-96 -88.5h-86z" />
    <glyph glyph-name="Gbreve" unicode="&#x11e;" horiz-adv-x="999" 
d="M462 -20q-196 0 -292 117.5t-96 346.5q0 171 31.5 326.5t90.5 285.5t141.5 226.5t184.5 149.5t220 53q91 0 168 -25t134 -66l-77 -132q-58 44 -115.5 64t-122.5 20q-114 0 -206 -79t-157.5 -210t-100 -289t-34.5 -316q0 -117 27.5 -191t81.5 -109t135 -35q45 0 86 6.5
t80 19.5l103 489h-183l29 134h335l-155 -725q-77 -29 -155.5 -45t-152.5 -16zM764 1579q-71 0 -116 25t-65.5 70t-20.5 104q0 19 1.5 36t4.5 31h95q0 -52 11 -85t35 -48.5t63 -15.5q61 0 97.5 34t56.5 115h99q-22 -127 -86.5 -196.5t-174.5 -69.5z" />
    <glyph glyph-name="gbreve" unicode="&#x11f;" horiz-adv-x="781" 
d="M180 -492q-151 -1 -233 62t-81 194q2 109 69 196t187 136q-31 15 -49 48t-18 74q0 52 36 104.5t114 104.5q-40 25 -64 79.5t-24 132.5q0 110 46 220.5t131 178.5q41 36 93.5 57t109.5 21q42 0 71.5 -8t47.5 -17h241l-19 -95l-130 -25q14 -23 20 -55t6 -70
q0 -85 -30.5 -176.5t-83.5 -157.5q-49 -60 -114.5 -95t-145.5 -35q-20 0 -38 -0.5t-26 -4.5q-58 -27 -85 -67t-27 -73q0 -37 30 -54q11 -5 26.5 -7.5t34.5 -3.5h149q81 0 129 -28.5t69 -79.5t21 -118q0 -109 -47.5 -198.5t-126.5 -145.5q-59 -45 -134 -69t-155 -25z
M186 -375q59 1 113.5 20t96.5 56q44 37 72 93.5t28 117.5q0 29 -6.5 52.5t-24.5 42.5q-14 14 -40.5 22t-65.5 9h-127q-50 0 -102 -39.5t-87 -100t-35 -122.5q0 -88 47 -120.5t131 -30.5zM362 493q60 0 108 49.5t78.5 130.5t35.5 176q3 44 -3 78t-24 54q-11 12 -26.5 18.5
t-37.5 6.5q-46 0 -85.5 -33t-70 -86t-49 -114t-21.5 -118q-1 -34 2.5 -63.5t13.5 -49.5q21 -49 79 -49zM521 1245q-71 0 -116 25t-65.5 70t-20.5 104q0 19 1.5 36t4.5 31h95q0 -52 11 -85t35 -48.5t63 -15.5q61 0 97.5 34t56.5 115h99q-22 -127 -86.5 -196.5t-174.5 -69.5z
" />
    <glyph glyph-name="Gdot" unicode="&#x120;" horiz-adv-x="999" 
d="M462 -20q-196 0 -292 117.5t-96 346.5q0 171 31.5 326.5t90.5 285.5t141.5 226.5t184.5 149.5t220 53q91 0 168 -25t134 -66l-77 -132q-58 44 -115.5 64t-122.5 20q-114 0 -206 -79t-157.5 -210t-100 -289t-34.5 -316q0 -117 27.5 -191t81.5 -109t135 -35q45 0 86 6.5
t80 19.5l103 489h-183l29 134h335l-155 -725q-77 -29 -155.5 -45t-152.5 -16zM789 1624q-37 0 -56 21t-19 59q0 53 28.5 95t80.5 42q25 0 41.5 -8t25 -25.5t8.5 -44.5q0 -55 -28.5 -97t-80.5 -42z" />
    <glyph glyph-name="gdot" unicode="&#x121;" horiz-adv-x="781" 
d="M180 -492q-151 -1 -233 62t-81 194q2 109 69 196t187 136q-31 15 -49 48t-18 74q0 52 36 104.5t114 104.5q-40 25 -64 79.5t-24 132.5q0 110 46 220.5t131 178.5q41 36 93.5 57t109.5 21q42 0 71.5 -8t47.5 -17h241l-19 -95l-130 -25q14 -23 20 -55t6 -70
q0 -85 -30.5 -176.5t-83.5 -157.5q-49 -60 -114.5 -95t-145.5 -35q-20 0 -38 -0.5t-26 -4.5q-58 -27 -85 -67t-27 -73q0 -37 30 -54q11 -5 26.5 -7.5t34.5 -3.5h149q81 0 129 -28.5t69 -79.5t21 -118q0 -109 -47.5 -198.5t-126.5 -145.5q-59 -45 -134 -69t-155 -25z
M186 -375q59 1 113.5 20t96.5 56q44 37 72 93.5t28 117.5q0 29 -6.5 52.5t-24.5 42.5q-14 14 -40.5 22t-65.5 9h-127q-50 0 -102 -39.5t-87 -100t-35 -122.5q0 -88 47 -120.5t131 -30.5zM362 493q60 0 108 49.5t78.5 130.5t35.5 176q3 44 -3 78t-24 54q-11 12 -26.5 18.5
t-37.5 6.5q-46 0 -85.5 -33t-70 -86t-49 -114t-21.5 -118q-1 -34 2.5 -63.5t13.5 -49.5q21 -49 79 -49zM539 1290q-37 0 -56 21t-19 59q0 53 28.5 95t80.5 42q25 0 41.5 -8t25 -25.5t8.5 -44.5q0 -55 -28.5 -97t-80.5 -42z" />
    <glyph glyph-name="uni0122" unicode="&#x122;" horiz-adv-x="999" 
d="M462 -20q-196 0 -292 117.5t-96 346.5q0 171 31.5 326.5t90.5 285.5t141.5 226.5t184.5 149.5t220 53q91 0 168 -25t134 -66l-77 -132q-58 44 -115.5 64t-122.5 20q-114 0 -206 -79t-157.5 -210t-100 -289t-34.5 -316q0 -117 27.5 -191t81.5 -109t135 -35q45 0 86 6.5
t80 19.5l103 489h-183l29 134h335l-155 -725q-77 -29 -155.5 -45t-152.5 -16zM186 -453v29q23 34 52 87.5t55 111t40 100.5h144v-20q-14 -43 -50 -102t-78 -115t-77 -91h-86z" />
    <glyph glyph-name="uni0123" unicode="&#x123;" horiz-adv-x="781" 
d="M440 1241v21q19 46 53.5 103.5t74.5 112t77 91.5h85l1 -24q-22 -29 -52 -86.5t-57 -118t-39 -99.5h-143zM180 -492q-151 -1 -233 62t-81 194q2 109 69 196t187 136q-31 15 -49 48t-18 74q0 52 36 104.5t114 104.5q-40 25 -64 79.5t-24 132.5q0 110 46 220.5t131 178.5
q41 36 93.5 57t109.5 21q42 0 71.5 -8t47.5 -17h241l-19 -95l-130 -25q14 -23 20 -55t6 -70q0 -85 -30.5 -176.5t-83.5 -157.5q-49 -60 -114.5 -95t-145.5 -35q-20 0 -38 -0.5t-26 -4.5q-58 -27 -85 -67t-27 -73q0 -37 30 -54q11 -5 26.5 -7.5t34.5 -3.5h149q81 0 129 -28.5
t69 -79.5t21 -118q0 -109 -47.5 -198.5t-126.5 -145.5q-59 -45 -134 -69t-155 -25zM186 -375q59 1 113.5 20t96.5 56q44 37 72 93.5t28 117.5q0 29 -6.5 52.5t-24.5 42.5q-14 14 -40.5 22t-65.5 9h-127q-50 0 -102 -39.5t-87 -100t-35 -122.5q0 -88 47 -120.5t131 -30.5z
M362 493q60 0 108 49.5t78.5 130.5t35.5 176q3 44 -3 78t-24 54q-11 12 -26.5 18.5t-37.5 6.5q-46 0 -85.5 -33t-70 -86t-49 -114t-21.5 -118q-1 -34 2.5 -63.5t13.5 -49.5q21 -49 79 -49z" />
    <glyph glyph-name="Hcircumflex" unicode="&#x124;" horiz-adv-x="979" 
d="M0 0l310 1462h152l-133 -627h408l134 627h152l-311 -1462h-152l147 696h-408l-147 -696h-152zM432 1579l4 20q47 50 90.5 102.5t82.5 105t69 100.5h130q8 -37 28 -96t43.5 -117.5t40.5 -94.5l-4 -20h-81q-18 26 -38 57.5t-39.5 66.5t-38.5 73q-54 -58 -105 -108.5
t-96 -88.5h-86z" />
    <glyph glyph-name="hcircumflex" unicode="&#x125;" horiz-adv-x="830" 
d="M2 0l330 1556h145l-90 -417q-6 -30 -13.5 -61.5t-16 -62.5t-17.5 -61h4q29 53 65 89t80 54.5t95 18.5q58 0 100 -23t65 -68.5t23 -112.5q0 -43 -10 -105t-21 -117l-148 -690h-146l142 673q12 54 22 108.5t10 101.5t-24 72.5t-70 25.5q-58 0 -104.5 -40t-82.5 -123
t-63 -214l-129 -604h-146zM174 1700l4 20q47 50 90.5 102.5t82.5 105t69 100.5h130q8 -37 28 -96t43.5 -117.5t40.5 -94.5l-4 -20h-81q-18 26 -38 57.5t-39.5 66.5t-38.5 73q-54 -58 -105 -108.5t-96 -88.5h-86z" />
    <glyph glyph-name="Hbar" unicode="&#x126;" horiz-adv-x="974" 
d="M0 0l230 1088h-134l24 120h136l54 254h152l-55 -254h408l54 254h154l-55 -254h126l-25 -120h-126l-231 -1088h-152l147 696h-408l-147 -696h-152zM328 830h407l55 258h-408z" />
    <glyph glyph-name="hbar" unicode="&#x127;" horiz-adv-x="833" 
d="M2 0l267 1257h-126l25 115h124l40 184h145l-39 -184h193l-23 -115h-195q-20 -96 -34.5 -155t-24.5 -95.5t-18 -65.5h4q30 53 66.5 89t80 54.5t94.5 18.5q59 0 100.5 -23t64 -68.5t22.5 -112.5q0 -43 -10 -104.5t-21 -116.5l-144 -678h-146l140 659q12 55 21.5 109.5
t9.5 100.5q0 48 -24.5 73.5t-68.5 25.5q-61 0 -107.5 -40.5t-81.5 -124t-61 -211.5l-127 -592h-146z" />
    <glyph glyph-name="Itilde" unicode="&#x128;" horiz-adv-x="420" 
d="M0 0l310 1462h151l-309 -1462h-152zM159 1626q17 79 42.5 134.5t63 84.5t89.5 29q42 0 72.5 -18.5t55.5 -42.5t48 -42.5t49 -18.5q33 0 52.5 27t35.5 97h95q-16 -91 -43 -145.5t-63 -78.5t-80 -24q-40 0 -70 18.5t-55.5 43.5t-49.5 43.5t-51 18.5q-37 0 -59.5 -32
t-36.5 -94h-95z" />
    <glyph glyph-name="itilde" unicode="&#x129;" horiz-adv-x="385" 
d="M0 0l232 1096h147l-233 -1096h-146zM53 1246q17 79 42.5 134.5t63 84.5t89.5 29q42 0 72.5 -18.5t55.5 -42.5t48 -42.5t49 -18.5q33 0 52.5 27t35.5 97h95q-16 -91 -43 -145.5t-63 -78.5t-80 -24q-40 0 -70 18.5t-55.5 43.5t-49.5 43.5t-51 18.5q-37 0 -59.5 -32
t-36.5 -94h-95z" />
    <glyph glyph-name="Imacron" unicode="&#x12a;" horiz-adv-x="420" 
d="M0 0l310 1462h151l-309 -1462h-152zM173 1630l24 116h486l-26 -116h-484z" />
    <glyph glyph-name="imacron" unicode="&#x12b;" horiz-adv-x="385" 
d="M0 0l232 1096h147l-233 -1096h-146zM84 1249l24 116h486l-26 -116h-484z" />
    <glyph glyph-name="Ibreve" unicode="&#x12c;" horiz-adv-x="420" 
d="M0 0l310 1462h151l-309 -1462h-152zM432 1621q-71 0 -116 25t-65.5 70t-20.5 104q0 19 1.5 36t4.5 31h95q0 -52 11 -85t35 -48.5t63 -15.5q61 0 97.5 34t56.5 115h99q-22 -127 -86.5 -196.5t-174.5 -69.5z" />
    <glyph glyph-name="ibreve" unicode="&#x12d;" horiz-adv-x="385" 
d="M0 0l232 1096h147l-233 -1096h-146zM343 1241q-71 0 -116 25t-65.5 70t-20.5 104q0 19 1.5 36t4.5 31h95q0 -52 11 -85t35 -48.5t63 -15.5q61 0 97.5 34t56.5 115h99q-22 -127 -86.5 -196.5t-174.5 -69.5z" />
    <glyph glyph-name="Iogonek" unicode="&#x12e;" horiz-adv-x="420" 
d="M0 0l310 1462h151l-309 -1462h-152zM-6 -457q-74 0 -112 41t-38 105q0 57 21.5 107.5t67 100.5t117.5 103h100q-61 -54 -99.5 -100.5t-55.5 -89t-17 -85.5q0 -34 17.5 -53t51.5 -19q15 0 34.5 4t40.5 8l-22 -103q-24 -10 -50 -14.5t-56 -4.5z" />
    <glyph glyph-name="iogonek" unicode="&#x12f;" horiz-adv-x="385" 
d="M0 0l232 1096h147l-233 -1096h-146zM353 1286q-36 0 -54.5 19.5t-18.5 56.5q0 35 12 67t36.5 53t61.5 21q35 0 53 -17.5t18 -54.5q0 -59 -29 -102t-79 -43zM-24 -457q-74 0 -112 41t-38 105q0 57 21.5 107.5t67 100.5t117.5 103h100q-61 -54 -99.5 -100.5t-55.5 -89
t-17 -85.5q0 -34 17.5 -53t51.5 -19q15 0 34.5 4t40.5 8l-22 -103q-24 -10 -50 -14.5t-56 -4.5z" />
    <glyph glyph-name="Idotaccent" unicode="&#x130;" horiz-adv-x="420" 
d="M0 0l310 1462h151l-309 -1462h-152zM431 1666q-37 0 -56 21t-19 59q0 53 28.5 95t80.5 42q25 0 41.5 -8t25 -25.5t8.5 -44.5q0 -55 -28.5 -97t-80.5 -42z" />
    <glyph glyph-name="dotlessi" unicode="&#x131;" horiz-adv-x="385" 
d="M0 0l232 1096h147l-233 -1096h-146z" />
    <glyph glyph-name="IJ" unicode="&#x132;" horiz-adv-x="823" 
d="M0 0l310 1462h151l-309 -1462h-152zM253 -389q-43 0 -75 6.5t-58 17.5l35 137q23 -10 46.5 -17t48.5 -7q48 0 79.5 29t53 84t38.5 133l310 1468h152l-316 -1496q-26 -124 -68.5 -202.5t-103 -115.5t-142.5 -37z" />
    <glyph glyph-name="ij" unicode="&#x133;" horiz-adv-x="771" 
d="M0 0l232 1096h147l-233 -1096h-146zM353 1286q-36 0 -54.5 19.5t-18.5 56.5q0 35 12 67t36.5 53t61.5 21q35 0 53 -17.5t18 -54.5q0 -59 -29 -102t-79 -43zM220 -492q-28 0 -53 3.5t-47 10.5v134q17 -7 39.5 -10.5t44.5 -3.5q47 0 76 23.5t49 81.5t40 161l251 1188h147
l-256 -1199q-24 -117 -55.5 -204.5t-86 -136t-149.5 -48.5zM741 1286q-36 0 -54.5 19.5t-18.5 56.5q0 35 12 67t36.5 53t61.5 21q35 0 53 -17.5t18 -54.5q0 -59 -29 -102t-79 -43z" />
    <glyph glyph-name="Jcircumflex" unicode="&#x134;" horiz-adv-x="403" 
d="M-167 -389q-43 0 -75 6.5t-58 17.5l35 137q23 -10 46.5 -17t48.5 -7q48 0 79.5 29t53 84t38.5 133l310 1468h152l-316 -1496q-26 -124 -68.5 -202.5t-103 -115.5t-142.5 -37zM152 1579l4 20q47 50 90.5 102.5t82.5 105t69 100.5h130q8 -37 28 -96t43.5 -117.5t40.5 -94.5
l-4 -20h-81q-18 26 -38 57.5t-39.5 66.5t-38.5 73q-54 -58 -105 -108.5t-96 -88.5h-86z" />
    <glyph glyph-name="jcircumflex" unicode="&#x135;" horiz-adv-x="385" 
d="M-165 -492q-28 0 -53 3.5t-47 10.5v134q17 -7 39.5 -10.5t44.5 -3.5q47 0 76 23.5t49 81.5t40 161l251 1188h147l-256 -1199q-24 -117 -55.5 -204.5t-86 -136t-149.5 -48.5zM75 1241l4 20q47 50 90.5 102.5t82.5 105t69 100.5h130q8 -37 28 -96t43.5 -117.5t40.5 -94.5
l-4 -20h-81q-18 26 -38 57.5t-39.5 66.5t-38.5 73q-54 -58 -105 -108.5t-96 -88.5h-86z" />
    <glyph glyph-name="uni0136" unicode="&#x136;" horiz-adv-x="816" 
d="M0 0l310 1462h152l-156 -736l116 176l392 560h166l-462 -666l169 -796h-165l-135 679l-117 -123l-118 -556h-152zM95 -453v29q23 34 52 87.5t55 111t40 100.5h144v-20q-14 -43 -50 -102t-78 -115t-77 -91h-86z" />
    <glyph glyph-name="uni0137" unicode="&#x137;" horiz-adv-x="724" 
d="M1 0l332 1556h146l-163 -758q-6 -30 -14 -65t-18 -74.5t-22 -84.5h5l386 522h160l-328 -442l115 -654h-154l-88 531l-130 -144l-80 -387h-147zM50 -453v29q23 34 52 87.5t55 111t40 100.5h144v-20q-14 -43 -50 -102t-78 -115t-77 -91h-86z" />
    <glyph glyph-name="kgreenlandic" unicode="&#x138;" horiz-adv-x="724" 
d="M1 0l236 1096h146l-66 -300q-12 -44 -24.5 -100t-30.5 -122h5l386 522h160l-328 -442l115 -654h-154l-88 531l-130 -144l-80 -387h-147z" />
    <glyph glyph-name="Lacute" unicode="&#x139;" horiz-adv-x="682" 
d="M0 0l310 1462h152l-281 -1325h361l-27 -137h-515zM447 1618l1 19q47 54 89.5 108t77.5 105.5t60 95.5h178l-2 -17q-21 -30 -60 -72.5t-85 -88.5t-89.5 -86t-74.5 -64h-95z" />
    <glyph glyph-name="lacute" unicode="&#x13a;" horiz-adv-x="380" 
d="M1 0l332 1556h146l-331 -1556h-147zM316 1712l1 19q47 54 89.5 108t77.5 105.5t60 95.5h178l-2 -17q-21 -30 -60 -72.5t-85 -88.5t-89.5 -86t-74.5 -64h-95z" />
    <glyph glyph-name="uni013B" unicode="&#x13b;" horiz-adv-x="682" 
d="M0 0l310 1462h152l-281 -1325h361l-27 -137h-515zM26 -453v29q23 34 52 87.5t55 111t40 100.5h144v-20q-14 -43 -50 -102t-78 -115t-77 -91h-86z" />
    <glyph glyph-name="uni013C" unicode="&#x13c;" horiz-adv-x="380" 
d="M1 0l332 1556h146l-331 -1556h-147zM-124 -453v29q23 34 52 87.5t55 111t40 100.5h144v-20q-14 -43 -50 -102t-78 -115t-77 -91h-86z" />
    <glyph glyph-name="Lcaron" unicode="&#x13d;" horiz-adv-x="682" 
d="M0 0l310 1462h152l-281 -1325h361l-27 -137h-515zM532 1133v18q26 56 48 110.5t39 105t28 93.5h147l-1 -20q-16 -41 -46 -98.5t-64.5 -113.5t-63.5 -95h-87z" />
    <glyph glyph-name="lcaron" unicode="&#x13e;" horiz-adv-x="526" 
d="M1 0l332 1556h146l-331 -1556h-147zM502 1229v18q26 56 48 110.5t39 105t28 93.5h147l-1 -20q-16 -41 -46 -98.5t-64.5 -113.5t-63.5 -95h-87z" />
    <glyph glyph-name="Ldot" unicode="&#x13f;" horiz-adv-x="682" 
d="M0 0l310 1462h152l-281 -1325h361l-27 -137h-515zM537 644q-37 0 -56 21t-19 59q0 53 28.5 95t80.5 42q25 0 41.5 -8t25 -25.5t8.5 -44.5q0 -55 -28.5 -97t-80.5 -42z" />
    <glyph glyph-name="ldot" unicode="&#x140;" horiz-adv-x="578" 
d="M1 0l332 1556h146l-331 -1556h-147zM497 573q-37 0 -56 21t-19 59q0 53 28.5 95t80.5 42q25 0 41.5 -8t25 -25.5t8.5 -44.5q0 -55 -28.5 -97t-80.5 -42z" />
    <glyph glyph-name="Lslash" unicode="&#x141;" horiz-adv-x="689" 
d="M13 0l120 564l-123 -70l-56 100l213 131l156 737h151l-131 -621l195 117l60 -99l-291 -180l-113 -542h361l-27 -137h-515z" />
    <glyph glyph-name="lslash" unicode="&#x142;" horiz-adv-x="429" 
d="M15 0l142 663l-124 -70l-45 103l197 112l161 748h146l-143 -670l146 84l47 -103l-223 -125l-159 -742h-145z" />
    <glyph glyph-name="Nacute" unicode="&#x143;" horiz-adv-x="1039" 
d="M0 0l310 1462h181l196 -1184h6q12 71 25 139.5t25 127t20 98.5l173 819h148l-312 -1462h-174l-201 1203h-6q-7 -54 -17 -113.5t-21.5 -116.5t-22 -104.5t-17.5 -78.5l-166 -790h-147zM627 1618l1 19q47 54 89.5 108t77.5 105.5t60 95.5h178l-2 -17q-21 -30 -60 -72.5
t-85 -88.5t-89.5 -86t-74.5 -64h-95z" />
    <glyph glyph-name="nacute" unicode="&#x144;" horiz-adv-x="830" 
d="M0 0l232 1096h120l-21 -149h5q30 55 67 92.5t81.5 57t94.5 19.5q55 0 98.5 -21.5t69 -66t25.5 -115.5q0 -43 -9.5 -100t-20.5 -111l-149 -702h-146l144 683q11 51 20 104.5t9 95.5q0 47 -23 72.5t-69 25.5q-62 0 -109.5 -45t-83 -132t-62.5 -214l-125 -590h-148z
M445 1242l1 19q47 54 89.5 108t77.5 105.5t60 95.5h178l-2 -17q-21 -30 -60 -72.5t-85 -88.5t-89.5 -86t-74.5 -64h-95z" />
    <glyph glyph-name="uni0145" unicode="&#x145;" horiz-adv-x="1039" 
d="M0 0l310 1462h181l196 -1184h6q12 71 25 139.5t25 127t20 98.5l173 819h148l-312 -1462h-174l-201 1203h-6q-7 -54 -17 -113.5t-21.5 -116.5t-22 -104.5t-17.5 -78.5l-166 -790h-147zM206 -453v29q23 34 52 87.5t55 111t40 100.5h144v-20q-14 -43 -50 -102t-78 -115
t-77 -91h-86z" />
    <glyph glyph-name="uni0146" unicode="&#x146;" horiz-adv-x="830" 
d="M0 0l232 1096h120l-21 -149h5q30 55 67 92.5t81.5 57t94.5 19.5q55 0 98.5 -21.5t69 -66t25.5 -115.5q0 -43 -9.5 -100t-20.5 -111l-149 -702h-146l144 683q11 51 20 104.5t9 95.5q0 47 -23 72.5t-69 25.5q-62 0 -109.5 -45t-83 -132t-62.5 -214l-125 -590h-148z
M104 -453v29q23 34 52 87.5t55 111t40 100.5h144v-20q-14 -43 -50 -102t-78 -115t-77 -91h-86z" />
    <glyph glyph-name="Ncaron" unicode="&#x147;" horiz-adv-x="1039" 
d="M0 0l310 1462h181l196 -1184h6q12 71 25 139.5t25 127t20 98.5l173 819h148l-312 -1462h-174l-201 1203h-6q-7 -54 -17 -113.5t-21.5 -116.5t-22 -104.5t-17.5 -78.5l-166 -790h-147zM631 1579q-9 36 -29.5 95.5t-43.5 118.5t-41 93l4 21h83q14 -21 32.5 -50.5t40 -66.5
t43.5 -80q54 59 104.5 109.5t96.5 87.5h85l-3 -21q-33 -34 -81 -91.5t-93 -116.5t-68 -99h-130z" />
    <glyph glyph-name="ncaron" unicode="&#x148;" horiz-adv-x="830" 
d="M0 0l232 1096h120l-21 -149h5q30 55 67 92.5t81.5 57t94.5 19.5q55 0 98.5 -21.5t69 -66t25.5 -115.5q0 -43 -9.5 -100t-20.5 -111l-149 -702h-146l144 683q11 51 20 104.5t9 95.5q0 47 -23 72.5t-69 25.5q-62 0 -109.5 -45t-83 -132t-62.5 -214l-125 -590h-148z
M468 1241q-9 36 -29.5 95.5t-43.5 118.5t-41 93l4 21h83q14 -21 32.5 -50.5t40 -66.5t43.5 -80q54 59 104.5 109.5t96.5 87.5h85l-3 -21q-33 -34 -81 -91.5t-93 -116.5t-68 -99h-130z" />
    <glyph glyph-name="napostrophe" unicode="&#x149;" horiz-adv-x="908" 
d="M78 0l232 1096h120l-21 -149h5q30 55 67 92.5t81.5 57t94.5 19.5q55 0 98.5 -21.5t69 -66t25.5 -115.5q0 -43 -9.5 -100t-20.5 -111l-149 -702h-146l144 683q11 51 20 104.5t9 95.5q0 47 -23 72.5t-69 25.5q-62 0 -109.5 -45t-83 -132t-62.5 -214l-125 -590h-148zM24 969
q38 80 73 163t65 166.5t52 163.5h150l8 -22q-30 -78 -67 -158.5t-79 -159.5t-87 -153h-115z" />
    <glyph glyph-name="Eng" unicode="&#x14a;" horiz-adv-x="1038" 
d="M449 -387q-34 0 -67.5 7t-57.5 19l31 139q23 -12 48 -18.5t53 -6.5q45 0 76 25.5t51 77t33 129.5l-214 1234h-7q-4 -30 -9 -62.5t-11.5 -66.5t-13.5 -69t-15 -70l-199 -951h-147l310 1462h184l198 -1157h7q6 38 12.5 77.5t14.5 80t17 81.5l193 918h148l-308 -1455
q-27 -121 -63 -209.5t-97.5 -136.5t-166.5 -48z" />
    <glyph glyph-name="eng" unicode="&#x14b;" horiz-adv-x="828" 
d="M278 -492q-32 0 -56.5 4.5t-44.5 9.5v134q18 -7 41.5 -10.5t44.5 -3.5q45 0 73 23t49 81t43 162l163 775q11 51 20 104.5t9 95.5q0 47 -23 72.5t-69 25.5q-62 0 -109.5 -44.5t-82.5 -129t-61 -205.5l-127 -602h-148l232 1096h120l-21 -149h5q30 55 67 92.5t81.5 57
t94.5 19.5q55 0 98.5 -21.5t69 -66t25.5 -115.5q0 -43 -9.5 -100.5t-20.5 -110.5l-171 -805q-31 -143 -66 -228.5t-88 -123t-139 -37.5z" />
    <glyph glyph-name="Omacron" unicode="&#x14c;" horiz-adv-x="1004" 
d="M384 -20q-105 0 -174 46t-103.5 141t-34.5 240q0 109 16 230t48.5 242t81.5 229.5t114.5 193t148.5 133t183 48.5q156 0 232 -100.5t76 -309.5q0 -96 -14.5 -213t-44.5 -240t-77 -237t-112 -205t-149.5 -144.5t-190.5 -53.5zM395 118q71 0 130 47t106 127t82 180.5
t58 208t34.5 209.5t11.5 185q0 139 -41.5 205t-125.5 66q-76 0 -137 -50t-107.5 -133.5t-80 -186t-55 -208.5t-31.5 -201t-10 -162q0 -101 19 -164.5t56 -93t91 -29.5zM444 1587l24 116h486l-26 -116h-484z" />
    <glyph glyph-name="omacron" unicode="&#x14d;" horiz-adv-x="823" 
d="M308 -20q-81 0 -138 37t-87.5 110.5t-30.5 180.5q0 82 15.5 188t49 214.5t88 200.5t132 148.5t180.5 56.5q80 0 137 -38.5t87 -112.5t30 -182q0 -100 -17.5 -211t-53.5 -216t-91.5 -190t-130.5 -135.5t-170 -50.5zM323 109q58 0 105 45t83 119.5t60.5 164.5t37 181
t12.5 168q0 64 -13.5 109t-40.5 68.5t-68 23.5q-62 0 -110.5 -49t-84 -128t-58.5 -171t-34.5 -180.5t-11.5 -153.5q0 -96 31 -146.5t92 -50.5zM292 1249l24 116h486l-26 -116h-484z" />
    <glyph glyph-name="Obreve" unicode="&#x14e;" horiz-adv-x="1004" 
d="M384 -20q-105 0 -174 46t-103.5 141t-34.5 240q0 109 16 230t48.5 242t81.5 229.5t114.5 193t148.5 133t183 48.5q156 0 232 -100.5t76 -309.5q0 -96 -14.5 -213t-44.5 -240t-77 -237t-112 -205t-149.5 -144.5t-190.5 -53.5zM395 118q71 0 130 47t106 127t82 180.5
t58 208t34.5 209.5t11.5 185q0 139 -41.5 205t-125.5 66q-76 0 -137 -50t-107.5 -133.5t-80 -186t-55 -208.5t-31.5 -201t-10 -162q0 -101 19 -164.5t56 -93t91 -29.5zM701 1579q-71 0 -116 25t-65.5 70t-20.5 104q0 19 1.5 36t4.5 31h95q0 -52 11 -85t35 -48.5t63 -15.5
q61 0 97.5 34t56.5 115h99q-22 -127 -86.5 -196.5t-174.5 -69.5z" />
    <glyph glyph-name="obreve" unicode="&#x14f;" horiz-adv-x="823" 
d="M308 -20q-81 0 -138 37t-87.5 110.5t-30.5 180.5q0 82 15.5 188t49 214.5t88 200.5t132 148.5t180.5 56.5q80 0 137 -38.5t87 -112.5t30 -182q0 -100 -17.5 -211t-53.5 -216t-91.5 -190t-130.5 -135.5t-170 -50.5zM323 109q58 0 105 45t83 119.5t60.5 164.5t37 181
t12.5 168q0 64 -13.5 109t-40.5 68.5t-68 23.5q-62 0 -110.5 -49t-84 -128t-58.5 -171t-34.5 -180.5t-11.5 -153.5q0 -96 31 -146.5t92 -50.5zM562 1241q-71 0 -116 25t-65.5 70t-20.5 104q0 19 1.5 36t4.5 31h95q0 -52 11 -85t35 -48.5t63 -15.5q61 0 97.5 34t56.5 115h99
q-22 -127 -86.5 -196.5t-174.5 -69.5z" />
    <glyph glyph-name="Ohungarumlaut" unicode="&#x150;" horiz-adv-x="1004" 
d="M384 -20q-105 0 -174 46t-103.5 141t-34.5 240q0 109 16 230t48.5 242t81.5 229.5t114.5 193t148.5 133t183 48.5q156 0 232 -100.5t76 -309.5q0 -96 -14.5 -213t-44.5 -240t-77 -237t-112 -205t-149.5 -144.5t-190.5 -53.5zM395 118q71 0 130 47t106 127t82 180.5
t58 208t34.5 209.5t11.5 185q0 139 -41.5 205t-125.5 66q-76 0 -137 -50t-107.5 -133.5t-80 -186t-55 -208.5t-31.5 -201t-10 -162q0 -101 19 -164.5t56 -93t91 -29.5zM755 1579l4 20q49 60 91.5 116t75.5 105t53 87h161l-2 -17q-22 -31 -58.5 -73t-80 -86.5t-87.5 -84
t-80 -67.5h-77zM455 1579l3 20q50 60 92 116.5t75 105.5t55 86h160l-2 -17q-21 -33 -57 -74.5t-80 -84.5t-89 -82.5t-84 -69.5h-73z" />
    <glyph glyph-name="ohungarumlaut" unicode="&#x151;" horiz-adv-x="823" 
d="M308 -20q-81 0 -138 37t-87.5 110.5t-30.5 180.5q0 82 15.5 188t49 214.5t88 200.5t132 148.5t180.5 56.5q80 0 137 -38.5t87 -112.5t30 -182q0 -100 -17.5 -211t-53.5 -216t-91.5 -190t-130.5 -135.5t-170 -50.5zM323 109q58 0 105 45t83 119.5t60.5 164.5t37 181
t12.5 168q0 64 -13.5 109t-40.5 68.5t-68 23.5q-62 0 -110.5 -49t-84 -128t-58.5 -171t-34.5 -180.5t-11.5 -153.5q0 -96 31 -146.5t92 -50.5zM632 1241l4 20q49 60 91.5 116t75.5 105t53 87h161l-2 -17q-22 -31 -58.5 -73t-80 -86.5t-87.5 -84t-80 -67.5h-77zM332 1241
l3 20q50 60 92 116.5t75 105.5t55 86h160l-2 -17q-21 -33 -57 -74.5t-80 -84.5t-89 -82.5t-84 -69.5h-73z" />
    <glyph glyph-name="OE" unicode="&#x152;" horiz-adv-x="1174" 
d="M387 -9q-106 0 -176 49t-104.5 141t-34.5 220q0 121 19.5 264.5t62 285.5t111 260t165.5 189.5t227 71.5q45 0 87 -3t68 -7h458l-29 -136h-370l-105 -493h347l-28 -137h-347l-120 -559h371l-28 -137h-450q-19 -3 -51.5 -6t-72.5 -3zM418 129q17 0 30 1.5t20 2.5l253 1193
q-12 2 -28 5.5t-42 3.5q-85 0 -153 -62t-118.5 -164t-84 -225t-50 -246t-16.5 -225q0 -96 19 -159t61 -94t109 -31z" />
    <glyph glyph-name="oe" unicode="&#x153;" horiz-adv-x="1280" 
d="M299 -20q-115 0 -181 84t-66 249q0 74 14.5 177t47 211.5t85.5 203t130.5 153t182.5 58.5q98 0 149.5 -60t61.5 -178q59 111 140.5 174.5t172.5 63.5q99 0 157.5 -56t58.5 -166q0 -89 -34 -162.5t-99.5 -126t-159.5 -81t-215 -28.5h-17q-7 -41 -10.5 -83t-3.5 -83
q0 -118 42 -172t128 -54q55 0 105.5 16t100.5 46v-121q-52 -31 -113 -48t-129 -17q-70 0 -120 26t-81 78t-43 130q-52 -109 -128 -171.5t-176 -62.5zM324 108q57 0 104 46t83 121.5t60.5 166.5t37 183t12.5 168q0 98 -30 145.5t-92 47.5q-60 0 -107.5 -46.5t-83.5 -123
t-60 -167.5t-36 -181t-12 -163q0 -101 31.5 -149t92.5 -48zM750 610h9q126 0 203.5 36t113.5 98.5t36 141.5q0 50 -23 78t-73 28q-61 0 -115 -57.5t-93.5 -145t-57.5 -179.5z" />
    <glyph glyph-name="Racute" unicode="&#x154;" horiz-adv-x="842" 
d="M1 0l309 1462h213q159 0 244.5 -82t85.5 -233q0 -121 -36.5 -226.5t-104.5 -177.5t-162 -96l129 -647h-164l-111 617h-121l-130 -617h-152zM312 747h96q75 0 129 32.5t88.5 87t51.5 122.5t17 139q0 99 -49.5 149t-144.5 50h-67zM527 1618l1 19q47 54 89.5 108t77.5 105.5
t60 95.5h178l-2 -17q-21 -30 -60 -72.5t-85 -88.5t-89.5 -86t-74.5 -64h-95z" />
    <glyph glyph-name="racute" unicode="&#x155;" horiz-adv-x="555" 
d="M1 0l231 1096h114l-23 -181h6q30 67 66 111.5t80 67t98 22.5q20 0 38.5 -3t37.5 -9l-43 -155q-16 7 -33.5 10t-38.5 3q-55 0 -98 -35t-75.5 -92t-55 -125.5t-36.5 -135.5l-121 -574h-147zM304 1238l1 19q47 54 89.5 108t77.5 105.5t60 95.5h178l-2 -17q-21 -30 -60 -72.5
t-85 -88.5t-89.5 -86t-74.5 -64h-95z" />
    <glyph glyph-name="uni0156" unicode="&#x156;" horiz-adv-x="842" 
d="M1 0l309 1462h213q159 0 244.5 -82t85.5 -233q0 -121 -36.5 -226.5t-104.5 -177.5t-162 -96l129 -647h-164l-111 617h-121l-130 -617h-152zM312 747h96q75 0 129 32.5t88.5 87t51.5 122.5t17 139q0 99 -49.5 149t-144.5 50h-67zM107 -453v29q23 34 52 87.5t55 111
t40 100.5h144v-20q-14 -43 -50 -102t-78 -115t-77 -91h-86z" />
    <glyph glyph-name="uni0157" unicode="&#x157;" horiz-adv-x="555" 
d="M1 0l231 1096h114l-23 -181h6q30 67 66 111.5t80 67t98 22.5q20 0 38.5 -3t37.5 -9l-43 -155q-16 7 -33.5 10t-38.5 3q-55 0 -98 -35t-75.5 -92t-55 -125.5t-36.5 -135.5l-121 -574h-147zM-36 -453v29q23 34 52 87.5t55 111t40 100.5h144v-20q-14 -43 -50 -102t-78 -115
t-77 -91h-86z" />
    <glyph glyph-name="Rcaron" unicode="&#x158;" horiz-adv-x="842" 
d="M1 0l309 1462h213q159 0 244.5 -82t85.5 -233q0 -121 -36.5 -226.5t-104.5 -177.5t-162 -96l129 -647h-164l-111 617h-121l-130 -617h-152zM312 747h96q75 0 129 32.5t88.5 87t51.5 122.5t17 139q0 99 -49.5 149t-144.5 50h-67zM522 1579q-9 36 -29.5 95.5t-43.5 118.5
t-41 93l4 21h83q14 -21 32.5 -50.5t40 -66.5t43.5 -80q54 59 104.5 109.5t96.5 87.5h85l-3 -21q-33 -34 -81 -91.5t-93 -116.5t-68 -99h-130z" />
    <glyph glyph-name="rcaron" unicode="&#x159;" horiz-adv-x="555" 
d="M1 0l231 1096h114l-23 -181h6q30 67 66 111.5t80 67t98 22.5q20 0 38.5 -3t37.5 -9l-43 -155q-16 7 -33.5 10t-38.5 3q-55 0 -98 -35t-75.5 -92t-55 -125.5t-36.5 -135.5l-121 -574h-147zM387 1241q-9 36 -29.5 95.5t-43.5 118.5t-41 93l4 21h83q14 -21 32.5 -50.5
t40 -66.5t43.5 -80q54 59 104.5 109.5t96.5 87.5h85l-3 -21q-33 -34 -81 -91.5t-93 -116.5t-68 -99h-130z" />
    <glyph glyph-name="Sacute" unicode="&#x15a;" horiz-adv-x="762" 
d="M228 -20q-88 0 -158.5 17t-117.5 48l19 160q53 -35 121 -58t141 -23q57 0 104 18.5t80.5 53.5t52 86.5t18.5 117.5q0 56 -13 99.5t-46.5 90.5t-96.5 112q-54 56 -93.5 109t-61 115t-21.5 143q0 95 29 171.5t83 130.5t130 83t169 29q72 0 147 -21.5t120 -53.5l-73 -139
q-46 32 -98 51.5t-108 19.5q-51 0 -94.5 -17t-76 -50t-51 -80t-18.5 -107t19 -107t58 -94t98 -108q53 -53 87.5 -107t52 -116.5t17.5 -140.5q0 -96 -27.5 -175t-81 -137t-131.5 -89.5t-179 -31.5zM488 1618l1 19q47 54 89.5 108t77.5 105.5t60 95.5h178l-2 -17
q-21 -30 -60 -72.5t-85 -88.5t-89.5 -86t-74.5 -64h-95z" />
    <glyph glyph-name="sacute" unicode="&#x15b;" horiz-adv-x="638" 
d="M200 -20q-71 0 -131 14.5t-93 35.5v152q37 -28 95.5 -49.5t113.5 -21.5q58 0 98 21.5t61.5 63.5t21.5 102q0 41 -10 73.5t-35.5 68.5t-71.5 84q-43 45 -73.5 88t-46.5 91t-16 107q0 86 36.5 155t105 110t164.5 41q77 0 139.5 -19.5t105.5 -50.5l-66 -118
q-37 29 -82.5 45.5t-93.5 16.5q-73 0 -116 -44t-43 -116q0 -38 9 -69.5t32 -64t63 -74.5q53 -56 86.5 -100.5t49.5 -92.5t16 -116q0 -101 -37.5 -176t-108.5 -116t-173 -41zM345 1238l1 19q47 54 89.5 108t77.5 105.5t60 95.5h178l-2 -17q-21 -30 -60 -72.5t-85 -88.5
t-89.5 -86t-74.5 -64h-95z" />
    <glyph glyph-name="Scircumflex" unicode="&#x15c;" horiz-adv-x="762" 
d="M228 -20q-88 0 -158.5 17t-117.5 48l19 160q53 -35 121 -58t141 -23q57 0 104 18.5t80.5 53.5t52 86.5t18.5 117.5q0 56 -13 99.5t-46.5 90.5t-96.5 112q-54 56 -93.5 109t-61 115t-21.5 143q0 95 29 171.5t83 130.5t130 83t169 29q72 0 147 -21.5t120 -53.5l-73 -139
q-46 32 -98 51.5t-108 19.5q-51 0 -94.5 -17t-76 -50t-51 -80t-18.5 -107t19 -107t58 -94t98 -108q53 -53 87.5 -107t52 -116.5t17.5 -140.5q0 -96 -27.5 -175t-81 -137t-131.5 -89.5t-179 -31.5zM324 1579l4 20q47 50 90.5 102.5t82.5 105t69 100.5h130q8 -37 28 -96
t43.5 -117.5t40.5 -94.5l-4 -20h-81q-18 26 -38 57.5t-39.5 66.5t-38.5 73q-54 -58 -105 -108.5t-96 -88.5h-86z" />
    <glyph glyph-name="scircumflex" unicode="&#x15d;" horiz-adv-x="638" 
d="M200 -20q-71 0 -131 14.5t-93 35.5v152q37 -28 95.5 -49.5t113.5 -21.5q58 0 98 21.5t61.5 63.5t21.5 102q0 41 -10 73.5t-35.5 68.5t-71.5 84q-43 45 -73.5 88t-46.5 91t-16 107q0 86 36.5 155t105 110t164.5 41q77 0 139.5 -19.5t105.5 -50.5l-66 -118
q-37 29 -82.5 45.5t-93.5 16.5q-73 0 -116 -44t-43 -116q0 -38 9 -69.5t32 -64t63 -74.5q53 -56 86.5 -100.5t49.5 -92.5t16 -116q0 -101 -37.5 -176t-108.5 -116t-173 -41zM198 1241l4 20q47 50 90.5 102.5t82.5 105t69 100.5h130q8 -37 28 -96t43.5 -117.5t40.5 -94.5
l-4 -20h-81q-18 26 -38 57.5t-39.5 66.5t-38.5 73q-54 -58 -105 -108.5t-96 -88.5h-86z" />
    <glyph glyph-name="Scedilla" unicode="&#x15e;" horiz-adv-x="762" 
d="M228 -20q-88 0 -158.5 17t-117.5 48l19 160q53 -35 121 -58t141 -23q57 0 104 18.5t80.5 53.5t52 86.5t18.5 117.5q0 56 -13 99.5t-46.5 90.5t-96.5 112q-54 56 -93.5 109t-61 115t-21.5 143q0 95 29 171.5t83 130.5t130 83t169 29q72 0 147 -21.5t120 -53.5l-73 -139
q-46 32 -98 51.5t-108 19.5q-51 0 -94.5 -17t-76 -50t-51 -80t-18.5 -107t19 -107t58 -94t98 -108q53 -53 87.5 -107t52 -116.5t17.5 -140.5q0 -96 -27.5 -175t-81 -137t-131.5 -89.5t-179 -31.5zM109 -492q-37 0 -68 4t-60 11v98q17 -6 45 -10t67 -4q46 0 79 15.5t50.5 43
t17.5 64.5q0 46 -35.5 71.5t-108.5 34.5l106 164h93l-74 -107q66 -14 104 -54t38 -102q0 -73 -33.5 -124t-90.5 -78t-130 -27z" />
    <glyph glyph-name="scedilla" unicode="&#x15f;" horiz-adv-x="638" 
d="M200 -20q-71 0 -131 14.5t-93 35.5v152q37 -28 95.5 -49.5t113.5 -21.5q58 0 98 21.5t61.5 63.5t21.5 102q0 41 -10 73.5t-35.5 68.5t-71.5 84q-43 45 -73.5 88t-46.5 91t-16 107q0 86 36.5 155t105 110t164.5 41q77 0 139.5 -19.5t105.5 -50.5l-66 -118
q-37 29 -82.5 45.5t-93.5 16.5q-73 0 -116 -44t-43 -116q0 -38 9 -69.5t32 -64t63 -74.5q53 -56 86.5 -100.5t49.5 -92.5t16 -116q0 -101 -37.5 -176t-108.5 -116t-173 -41zM54 -492q-37 0 -68 4t-60 11v98q17 -6 45 -10t67 -4q46 0 79 15.5t50.5 43t17.5 64.5
q0 46 -35.5 71.5t-108.5 34.5l106 164h93l-74 -107q66 -14 104 -54t38 -102q0 -73 -33.5 -124t-90.5 -78t-130 -27z" />
    <glyph glyph-name="Scaron" unicode="&#x160;" horiz-adv-x="762" 
d="M228 -20q-88 0 -158.5 17t-117.5 48l19 160q53 -35 121 -58t141 -23q57 0 104 18.5t80.5 53.5t52 86.5t18.5 117.5q0 56 -13 99.5t-46.5 90.5t-96.5 112q-54 56 -93.5 109t-61 115t-21.5 143q0 95 29 171.5t83 130.5t130 83t169 29q72 0 147 -21.5t120 -53.5l-73 -139
q-46 32 -98 51.5t-108 19.5q-51 0 -94.5 -17t-76 -50t-51 -80t-18.5 -107t19 -107t58 -94t98 -108q53 -53 87.5 -107t52 -116.5t17.5 -140.5q0 -96 -27.5 -175t-81 -137t-131.5 -89.5t-179 -31.5zM522 1579q-9 36 -29.5 95.5t-43.5 118.5t-41 93l4 21h83q14 -21 32.5 -50.5
t40 -66.5t43.5 -80q54 59 104.5 109.5t96.5 87.5h85l-3 -21q-33 -34 -81 -91.5t-93 -116.5t-68 -99h-130z" />
    <glyph glyph-name="scaron" unicode="&#x161;" horiz-adv-x="638" 
d="M200 -20q-71 0 -131 14.5t-93 35.5v152q37 -28 95.5 -49.5t113.5 -21.5q58 0 98 21.5t61.5 63.5t21.5 102q0 41 -10 73.5t-35.5 68.5t-71.5 84q-43 45 -73.5 88t-46.5 91t-16 107q0 86 36.5 155t105 110t164.5 41q77 0 139.5 -19.5t105.5 -50.5l-66 -118
q-37 29 -82.5 45.5t-93.5 16.5q-73 0 -116 -44t-43 -116q0 -38 9 -69.5t32 -64t63 -74.5q53 -56 86.5 -100.5t49.5 -92.5t16 -116q0 -101 -37.5 -176t-108.5 -116t-173 -41zM387 1241q-9 36 -29.5 95.5t-43.5 118.5t-41 93l4 21h83q14 -21 32.5 -50.5t40 -66.5t43.5 -80
q54 59 104.5 109.5t96.5 87.5h85l-3 -21q-33 -34 -81 -91.5t-93 -116.5t-68 -99h-130z" />
    <glyph glyph-name="uni0162" unicode="&#x162;" horiz-adv-x="694" 
d="M135 0l281 1324h-253l31 138h657l-31 -138h-252l-281 -1324h-152zM81 -492q-37 0 -68 4t-60 11v98q17 -6 45 -10t67 -4q46 0 79 15.5t50.5 43t17.5 64.5q0 46 -35.5 71.5t-108.5 34.5l106 164h93l-74 -107q66 -14 104 -54t38 -102q0 -73 -33.5 -124t-90.5 -78t-130 -27z
" />
    <glyph glyph-name="uni0163" unicode="&#x163;" horiz-adv-x="474" 
d="M203 -20q-82 0 -119 47t-37 131q0 29 5 67t15 81l141 664h-98l17 85l115 39l86 253h106l-53 -251h153l-27 -126h-153l-143 -673q-7 -34 -12 -64t-5 -51q0 -36 14 -53.5t48 -17.5q20 0 44 4.5t44 13.5v-121q-31 -13 -70 -20.5t-71 -7.5zM77 -492q-37 0 -68 4t-60 11v98
q17 -6 45 -10t67 -4q46 0 79 15.5t50.5 43t17.5 64.5q0 46 -35.5 71.5t-108.5 34.5l106 164h93l-74 -107q66 -14 104 -54t38 -102q0 -73 -33.5 -124t-90.5 -78t-130 -27z" />
    <glyph glyph-name="Tcaron" unicode="&#x164;" horiz-adv-x="694" 
d="M135 0l281 1324h-253l31 138h657l-31 -138h-252l-281 -1324h-152zM466 1579q-9 36 -29.5 95.5t-43.5 118.5t-41 93l4 21h83q14 -21 32.5 -50.5t40 -66.5t43.5 -80q54 59 104.5 109.5t96.5 87.5h85l-3 -21q-33 -34 -81 -91.5t-93 -116.5t-68 -99h-130z" />
    <glyph glyph-name="tcaron" unicode="&#x165;" horiz-adv-x="492" 
d="M203 -20q-82 0 -119 47t-37 131q0 29 5 67t15 81l141 664h-98l17 85l115 39l86 253h106l-53 -251h153l-27 -126h-153l-143 -673q-7 -34 -12 -64t-5 -51q0 -36 14 -53.5t48 -17.5q20 0 44 4.5t44 13.5v-121q-31 -13 -70 -20.5t-71 -7.5zM482 1205v18q26 56 48 110.5
t39 105t28 93.5h147l-1 -20q-16 -41 -46 -98.5t-64.5 -113.5t-63.5 -95h-87z" />
    <glyph glyph-name="Tbar" unicode="&#x166;" horiz-adv-x="690" 
d="M135 0l147 690h-184l25 119h184l109 515h-251l29 138h657l-31 -138h-252l-110 -515h194l-24 -119h-195l-145 -690h-153z" />
    <glyph glyph-name="tbar" unicode="&#x167;" horiz-adv-x="468" 
d="M201 -20q-80 0 -118 47t-38 129q0 27 5 63.5t15 79.5l58 273h-107l25 117h107l60 281h-98l17 85l115 39l86 253h104l-53 -251h155l-27 -126h-155l-60 -281h164l-25 -117h-162l-60 -275q-7 -34 -11 -61.5t-4 -47.5q0 -40 16 -58.5t51 -18.5q18 0 39.5 4.5t43.5 13.5v-121
q-31 -13 -70 -20.5t-73 -7.5z" />
    <glyph glyph-name="Utilde" unicode="&#x168;" horiz-adv-x="956" 
d="M355 -20q-90 0 -154.5 35.5t-99 103t-34.5 163.5q0 37 5.5 82t15.5 92l214 1006h152l-216 -1014q-8 -40 -12.5 -78t-4.5 -70q0 -92 40 -137t113 -45t122.5 37.5t84 116t61.5 200.5l214 990h152l-218 -1005q-31 -146 -83 -253.5t-136.5 -165.5t-215.5 -58zM395 1584
q17 79 42.5 134.5t63 84.5t89.5 29q42 0 72.5 -18.5t55.5 -42.5t48 -42.5t49 -18.5q33 0 52.5 27t35.5 97h95q-16 -91 -43 -145.5t-63 -78.5t-80 -24q-40 0 -70 18.5t-55.5 43.5t-49.5 43.5t-51 18.5q-37 0 -59.5 -32t-36.5 -94h-95z" />
    <glyph glyph-name="utilde" unicode="&#x169;" horiz-adv-x="834" 
d="M245 -20q-63 0 -106 24t-65.5 70.5t-22.5 113.5q0 38 7.5 89.5t17.5 97.5l154 721h147l-149 -704q-11 -46 -18 -90.5t-7 -84.5q0 -49 22 -76.5t68 -27.5q63 0 111 45.5t84.5 133.5t62.5 214l125 590h146l-231 -1096h-118l14 141h-6q-29 -51 -66.5 -87t-80.5 -55t-89 -19z
M282 1246q17 79 42.5 134.5t63 84.5t89.5 29q42 0 72.5 -18.5t55.5 -42.5t48 -42.5t49 -18.5q33 0 52.5 27t35.5 97h95q-16 -91 -43 -145.5t-63 -78.5t-80 -24q-40 0 -70 18.5t-55.5 43.5t-49.5 43.5t-51 18.5q-37 0 -59.5 -32t-36.5 -94h-95z" />
    <glyph glyph-name="Umacron" unicode="&#x16a;" horiz-adv-x="956" 
d="M355 -20q-90 0 -154.5 35.5t-99 103t-34.5 163.5q0 37 5.5 82t15.5 92l214 1006h152l-216 -1014q-8 -40 -12.5 -78t-4.5 -70q0 -92 40 -137t113 -45t122.5 37.5t84 116t61.5 200.5l214 990h152l-218 -1005q-31 -146 -83 -253.5t-136.5 -165.5t-215.5 -58zM425 1587
l24 116h486l-26 -116h-484z" />
    <glyph glyph-name="umacron" unicode="&#x16b;" horiz-adv-x="834" 
d="M245 -20q-63 0 -106 24t-65.5 70.5t-22.5 113.5q0 38 7.5 89.5t17.5 97.5l154 721h147l-149 -704q-11 -46 -18 -90.5t-7 -84.5q0 -49 22 -76.5t68 -27.5q63 0 111 45.5t84.5 133.5t62.5 214l125 590h146l-231 -1096h-118l14 141h-6q-29 -51 -66.5 -87t-80.5 -55t-89 -19z
M304 1249l24 116h486l-26 -116h-484z" />
    <glyph glyph-name="Ubreve" unicode="&#x16c;" horiz-adv-x="956" 
d="M355 -20q-90 0 -154.5 35.5t-99 103t-34.5 163.5q0 37 5.5 82t15.5 92l214 1006h152l-216 -1014q-8 -40 -12.5 -78t-4.5 -70q0 -92 40 -137t113 -45t122.5 37.5t84 116t61.5 200.5l214 990h152l-218 -1005q-31 -146 -83 -253.5t-136.5 -165.5t-215.5 -58zM673 1579
q-71 0 -116 25t-65.5 70t-20.5 104q0 19 1.5 36t4.5 31h95q0 -52 11 -85t35 -48.5t63 -15.5q61 0 97.5 34t56.5 115h99q-22 -127 -86.5 -196.5t-174.5 -69.5z" />
    <glyph glyph-name="ubreve" unicode="&#x16d;" horiz-adv-x="834" 
d="M245 -20q-63 0 -106 24t-65.5 70.5t-22.5 113.5q0 38 7.5 89.5t17.5 97.5l154 721h147l-149 -704q-11 -46 -18 -90.5t-7 -84.5q0 -49 22 -76.5t68 -27.5q63 0 111 45.5t84.5 133.5t62.5 214l125 590h146l-231 -1096h-118l14 141h-6q-29 -51 -66.5 -87t-80.5 -55t-89 -19z
M558 1241q-71 0 -116 25t-65.5 70t-20.5 104q0 19 1.5 36t4.5 31h95q0 -52 11 -85t35 -48.5t63 -15.5q61 0 97.5 34t56.5 115h99q-22 -127 -86.5 -196.5t-174.5 -69.5z" />
    <glyph glyph-name="Uring" unicode="&#x16e;" horiz-adv-x="956" 
d="M355 -20q-90 0 -154.5 35.5t-99 103t-34.5 163.5q0 37 5.5 82t15.5 92l214 1006h152l-216 -1014q-8 -40 -12.5 -78t-4.5 -70q0 -92 40 -137t113 -45t122.5 37.5t84 116t61.5 200.5l214 990h152l-218 -1005q-31 -146 -83 -253.5t-136.5 -165.5t-215.5 -58zM693 1586
q-96 0 -149.5 54.5t-53.5 147.5q0 89 54 144.5t149 55.5q93 0 148 -55.5t56 -141.5q0 -90 -54.5 -147.5t-149.5 -57.5zM695 1673q52 0 82.5 31.5t30.5 83.5q0 50 -30 82t-83 32q-54 0 -83.5 -32t-29.5 -82q0 -52 28.5 -83.5t84.5 -31.5z" />
    <glyph glyph-name="uring" unicode="&#x16f;" horiz-adv-x="834" 
d="M245 -20q-63 0 -106 24t-65.5 70.5t-22.5 113.5q0 38 7.5 89.5t17.5 97.5l154 721h147l-149 -704q-11 -46 -18 -90.5t-7 -84.5q0 -49 22 -76.5t68 -27.5q63 0 111 45.5t84.5 133.5t62.5 214l125 590h146l-231 -1096h-118l14 141h-6q-29 -51 -66.5 -87t-80.5 -55t-89 -19z
M576 1248q-96 0 -149.5 54.5t-53.5 147.5q0 89 54 144.5t149 55.5q93 0 148 -55.5t56 -141.5q0 -90 -54.5 -147.5t-149.5 -57.5zM578 1335q52 0 82.5 31.5t30.5 83.5q0 50 -30 82t-83 32q-54 0 -83.5 -32t-29.5 -82q0 -52 28.5 -83.5t84.5 -31.5z" />
    <glyph glyph-name="Uhungarumlaut" unicode="&#x170;" horiz-adv-x="956" 
d="M355 -20q-90 0 -154.5 35.5t-99 103t-34.5 163.5q0 37 5.5 82t15.5 92l214 1006h152l-216 -1014q-8 -40 -12.5 -78t-4.5 -70q0 -92 40 -137t113 -45t122.5 37.5t84 116t61.5 200.5l214 990h152l-218 -1005q-31 -146 -83 -253.5t-136.5 -165.5t-215.5 -58zM751 1579l4 20
q49 60 91.5 116t75.5 105t53 87h161l-2 -17q-22 -31 -58.5 -73t-80 -86.5t-87.5 -84t-80 -67.5h-77zM451 1579l3 20q50 60 92 116.5t75 105.5t55 86h160l-2 -17q-21 -33 -57 -74.5t-80 -84.5t-89 -82.5t-84 -69.5h-73z" />
    <glyph glyph-name="uhungarumlaut" unicode="&#x171;" horiz-adv-x="834" 
d="M245 -20q-63 0 -106 24t-65.5 70.5t-22.5 113.5q0 38 7.5 89.5t17.5 97.5l154 721h147l-149 -704q-11 -46 -18 -90.5t-7 -84.5q0 -49 22 -76.5t68 -27.5q63 0 111 45.5t84.5 133.5t62.5 214l125 590h146l-231 -1096h-118l14 141h-6q-29 -51 -66.5 -87t-80.5 -55t-89 -19z
M625 1241l4 20q49 60 91.5 116t75.5 105t53 87h161l-2 -17q-22 -31 -58.5 -73t-80 -86.5t-87.5 -84t-80 -67.5h-77zM325 1241l3 20q50 60 92 116.5t75 105.5t55 86h160l-2 -17q-21 -33 -57 -74.5t-80 -84.5t-89 -82.5t-84 -69.5h-73z" />
    <glyph glyph-name="Uogonek" unicode="&#x172;" horiz-adv-x="956" 
d="M355 -20q-90 0 -154.5 35.5t-99 103t-34.5 163.5q0 37 5.5 82t15.5 92l214 1006h152l-216 -1014q-8 -40 -12.5 -78t-4.5 -70q0 -92 40 -137t113 -45t122.5 37.5t84 116t61.5 200.5l214 990h152l-218 -1005q-31 -146 -83 -253.5t-136.5 -165.5t-215.5 -58zM314 -457
q-74 0 -112 41t-38 105q0 57 21.5 107.5t67 100.5t117.5 103h100q-61 -54 -99.5 -100.5t-55.5 -89t-17 -85.5q0 -34 17.5 -53t51.5 -19q15 0 34.5 4t40.5 8l-22 -103q-24 -10 -50 -14.5t-56 -4.5z" />
    <glyph glyph-name="uogonek" unicode="&#x173;" horiz-adv-x="834" 
d="M245 -20q-63 0 -106 24t-65.5 70.5t-22.5 113.5q0 38 7.5 89.5t17.5 97.5l154 721h147l-149 -704q-11 -46 -18 -90.5t-7 -84.5q0 -49 22 -76.5t68 -27.5q63 0 111 45.5t84.5 133.5t62.5 214l125 590h146l-231 -1096h-118l14 141h-6q-29 -51 -66.5 -87t-80.5 -55t-89 -19z
M435 -457q-74 0 -112 41t-38 105q0 57 21.5 107.5t67 100.5t117.5 103h100q-61 -54 -99.5 -100.5t-55.5 -89t-17 -85.5q0 -34 17.5 -53t51.5 -19q15 0 34.5 4t40.5 8l-22 -103q-24 -10 -50 -14.5t-56 -4.5z" />
    <glyph glyph-name="Wcircumflex" unicode="&#x174;" horiz-adv-x="1325" 
d="M144 0l33 1462h149l-26 -945q-3 -89 -7 -158t-8 -122h4q25 71 51.5 142t53.5 140l368 943h139l-31 -913q-3 -96 -8 -170t-10 -143h4q20 57 38.5 107t37 98t36.5 97l361 924h156l-580 -1462h-182l35 952q1 31 3 65.5t5 70.5t6 73h-4q-16 -49 -33.5 -99t-36.5 -97
l-374 -965h-180zM587 1579l4 20q47 50 90.5 102.5t82.5 105t69 100.5h130q8 -37 28 -96t43.5 -117.5t40.5 -94.5l-4 -20h-81q-18 26 -38 57.5t-39.5 66.5t-38.5 73q-54 -58 -105 -108.5t-96 -88.5h-86z" />
    <glyph glyph-name="wcircumflex" unicode="&#x175;" horiz-adv-x="1093" 
d="M110 0l19 1096h143l-18 -641q-1 -61 -4.5 -118t-8.5 -109h4q10 33 22.5 70t26 72.5t25.5 65.5l260 660h164l-20 -636q-1 -54 -5.5 -117t-7.5 -122h4q15 44 29.5 86t30 85t32.5 87l237 617h148l-438 -1096h-170l25 693q1 32 2.5 65t4 67t5.5 67h-4q-8 -28 -17.5 -55
t-19 -53.5t-20.5 -53.5l-282 -730h-167zM430 1241l4 20q47 50 90.5 102.5t82.5 105t69 100.5h130q8 -37 28 -96t43.5 -117.5t40.5 -94.5l-4 -20h-81q-18 26 -38 57.5t-39.5 66.5t-38.5 73q-54 -58 -105 -108.5t-96 -88.5h-86z" />
    <glyph glyph-name="Ycircumflex" unicode="&#x176;" horiz-adv-x="714" 
d="M148 0l118 564l-93 898h158l53 -692l344 692h162l-470 -895l-121 -567h-151zM293 1579l4 20q47 50 90.5 102.5t82.5 105t69 100.5h130q8 -37 28 -96t43.5 -117.5t40.5 -94.5l-4 -20h-81q-18 26 -38 57.5t-39.5 66.5t-38.5 73q-54 -58 -105 -108.5t-96 -88.5h-86z" />
    <glyph glyph-name="ycircumflex" unicode="&#x177;" horiz-adv-x="686" 
d="M-91 -494q-34 0 -60 6t-47 15l20 131q20 -7 40 -12t44 -5q60 0 97.5 46.5t74.5 131.5l82 188l-25 1089h146l3 -629q0 -38 -1 -78.5t-2.5 -81.5t-4.5 -82h6q13 41 27.5 80.5t29 75.5t25.5 64l276 651h152l-577 -1312q-38 -86 -79.5 -148.5t-95.5 -96t-131 -33.5zM216 1241
l4 20q47 50 90.5 102.5t82.5 105t69 100.5h130q8 -37 28 -96t43.5 -117.5t40.5 -94.5l-4 -20h-81q-18 26 -38 57.5t-39.5 66.5t-38.5 73q-54 -58 -105 -108.5t-96 -88.5h-86z" />
    <glyph glyph-name="Ydieresis" unicode="&#x178;" horiz-adv-x="714" 
d="M148 0l118 564l-93 898h158l53 -692l344 692h162l-470 -895l-121 -567h-151zM690 1634q-33 0 -50.5 18t-17.5 54q0 50 27.5 89t75.5 39q31 0 48 -17t17 -51q0 -56 -28 -94t-72 -38zM389 1634q-32 0 -49.5 18t-17.5 54q0 50 27 89t76 39q20 0 33.5 -7.5t21 -22.5t7.5 -38
q0 -56 -27 -94t-71 -38z" />
    <glyph glyph-name="Zacute" unicode="&#x179;" horiz-adv-x="679" 
d="M-84 0l25 118l665 1207h-397l29 137h568l-26 -120l-668 -1205h425l-28 -137h-593zM446 1618l1 19q47 54 89.5 108t77.5 105.5t60 95.5h178l-2 -17q-21 -30 -60 -72.5t-85 -88.5t-89.5 -86t-74.5 -64h-95z" />
    <glyph glyph-name="zacute" unicode="&#x17a;" horiz-adv-x="568" 
d="M-73 0l21 100l492 870h-287l26 126h451l-24 -106l-486 -862h317l-29 -128h-481zM310 1238l1 19q47 54 89.5 108t77.5 105.5t60 95.5h178l-2 -17q-21 -30 -60 -72.5t-85 -88.5t-89.5 -86t-74.5 -64h-95z" />
    <glyph glyph-name="Zdotaccent" unicode="&#x17b;" horiz-adv-x="679" 
d="M-84 0l25 118l665 1207h-397l29 137h568l-26 -120l-668 -1205h425l-28 -137h-593zM542 1624q-37 0 -56 21t-19 59q0 53 28.5 95t80.5 42q25 0 41.5 -8t25 -25.5t8.5 -44.5q0 -55 -28.5 -97t-80.5 -42z" />
    <glyph glyph-name="zdotaccent" unicode="&#x17c;" horiz-adv-x="568" 
d="M-73 0l21 100l492 870h-287l26 126h451l-24 -106l-486 -862h317l-29 -128h-481zM437 1286q-37 0 -56 21t-19 59q0 53 28.5 95t80.5 42q25 0 41.5 -8t25 -25.5t8.5 -44.5q0 -55 -28.5 -97t-80.5 -42z" />
    <glyph glyph-name="Zcaron" unicode="&#x17d;" horiz-adv-x="679" 
d="M-84 0l25 118l665 1207h-397l29 137h568l-26 -120l-668 -1205h425l-28 -137h-593zM465 1579q-9 36 -29.5 95.5t-43.5 118.5t-41 93l4 21h83q14 -21 32.5 -50.5t40 -66.5t43.5 -80q54 59 104.5 109.5t96.5 87.5h85l-3 -21q-33 -34 -81 -91.5t-93 -116.5t-68 -99h-130z" />
    <glyph glyph-name="zcaron" unicode="&#x17e;" horiz-adv-x="568" 
d="M-73 0l21 100l492 870h-287l26 126h451l-24 -106l-486 -862h317l-29 -128h-481zM346 1241q-9 36 -29.5 95.5t-43.5 118.5t-41 93l4 21h83q14 -21 32.5 -50.5t40 -66.5t43.5 -80q54 59 104.5 109.5t96.5 87.5h85l-3 -21q-33 -34 -81 -91.5t-93 -116.5t-68 -99h-130z" />
    <glyph glyph-name="longs" unicode="&#x17f;" horiz-adv-x="401" 
d="M-170 -492q-29 0 -53.5 4t-47.5 11v133q17 -7 40 -10.5t47 -3.5q73 0 101 61t52 173l287 1347q21 98 51.5 176t85 123t145.5 45q38 0 75 -8t68 -24l-55 -120q-19 11 -40.5 15.5t-41.5 4.5q-47 0 -74 -33t-43 -87.5t-30 -119.5l-285 -1330q-22 -100 -52 -181t-83.5 -128.5
t-146.5 -47.5z" />
    <glyph glyph-name="florin" unicode="&#x192;" horiz-adv-x="789" 
d="M11 -492q-36 0 -63 6t-50 16v130q26 -10 55 -15.5t51 -5.5q63 0 91.5 52t56.5 176l204 962h-140l17 81l150 47l42 185q28 126 63.5 200.5t88.5 107.5t133 33q39 0 75.5 -10.5t76.5 -28.5l-59 -120q-28 14 -50 20t-46 6q-58 0 -87 -55t-54 -168l-35 -172h171l-27 -126
h-171l-208 -962q-26 -124 -60.5 -203.5t-87.5 -117.5t-137 -38z" />
    <glyph glyph-name="Ohorn" unicode="&#x1a0;" horiz-adv-x="1015" 
d="M384 -20q-105 0 -174 46t-103.5 141t-34.5 240q0 111 16.5 232.5t49 242.5t82 229t115 192t148 132t181.5 48q109 0 178.5 -51.5t99.5 -158.5q69 31 110.5 102t59.5 181h131l8 -21q-27 -145 -94.5 -239.5t-188.5 -138.5q2 -20 3 -40.5t1 -43.5q0 -114 -16.5 -238.5
t-49.5 -247t-82.5 -232t-114.5 -194t-146.5 -133t-178.5 -48.5zM395 118q71 0 129.5 47.5t105.5 128t82 181t58.5 208t35 209.5t11.5 183q0 139 -41.5 205t-125.5 66q-70 0 -128 -46t-105 -124.5t-82 -176.5t-58.5 -204t-35.5 -207t-12 -183q0 -101 19 -164.5t56 -93
t91 -29.5z" />
    <glyph glyph-name="ohorn" unicode="&#x1a1;" horiz-adv-x="852" 
d="M299 -20q-81 0 -138 37.5t-87.5 111t-30.5 179.5q0 101 18.5 212.5t55.5 217t93 191t130.5 136.5t167.5 51q79 0 134.5 -37.5t84.5 -111.5q43 21 74 60.5t51.5 97t32.5 132.5h132l6 -22q-18 -98 -52.5 -172t-87 -123.5t-127.5 -74.5q3 -23 4.5 -43.5t1.5 -38.5
q0 -104 -19 -215.5t-56.5 -216t-93.5 -188.5t-129.5 -133.5t-164.5 -49.5zM314 108q58 0 105.5 47t83 123.5t60 168t36.5 182.5t12 164q0 65 -13.5 108t-40 64t-67.5 21q-59 0 -106.5 -49t-83.5 -128t-60 -171.5t-36.5 -181.5t-12.5 -157q0 -96 31 -143.5t92 -47.5z" />
    <glyph glyph-name="Uhorn" unicode="&#x1af;" horiz-adv-x="1033" 
d="M355 -20q-90 0 -154.5 35.5t-99 103t-34.5 163.5q0 37 5.5 82t15.5 92l214 1006h152l-216 -1014q-8 -40 -12.5 -78t-4.5 -70q0 -92 40 -137t113 -45t122.5 37.5t84 116t61.5 200.5l214 990h152l-47 -210q51 14 87.5 53t61.5 102.5t40 148.5h132l6 -21q-16 -85 -45 -153.5
t-72 -118.5t-101.5 -80.5t-132.5 -40.5l-147 -685q-31 -147 -83.5 -254t-137.5 -165t-214 -58z" />
    <glyph glyph-name="uhorn" unicode="&#x1b0;" horiz-adv-x="916" 
d="M236 -20q-60 0 -102 24t-64 70.5t-22 113.5q0 41 7.5 92t18.5 100l152 716h147l-152 -704q-9 -46 -16 -90t-7 -80q0 -52 23 -79.5t67 -27.5q62 0 110.5 45t84.5 132.5t62 213.5l127 590h146l-30 -141q51 12 87 51t60 102.5t39 148.5h131l8 -22q-15 -82 -43 -150
t-70.5 -119t-101 -82.5t-134.5 -40.5l-179 -843h-116l12 141h-4q-30 -51 -68 -87t-81 -55t-92 -19z" />
    <glyph glyph-name="uni01EA" unicode="&#x1ea;" horiz-adv-x="1004" 
d="M384 -20q-105 0 -174 46t-103.5 141t-34.5 240q0 109 16 230t48.5 242t81.5 229.5t114.5 193t148.5 133t183 48.5q156 0 232 -100.5t76 -309.5q0 -96 -14.5 -213t-44.5 -240t-77 -237t-112 -205t-149.5 -144.5t-190.5 -53.5zM395 118q71 0 130 47t106 127t82 180.5
t58 208t34.5 209.5t11.5 185q0 139 -41.5 205t-125.5 66q-76 0 -137 -50t-107.5 -133.5t-80 -186t-55 -208.5t-31.5 -201t-10 -162q0 -101 19 -164.5t56 -93t91 -29.5zM324 -457q-74 0 -112 41t-38 105q0 57 21.5 107.5t67 100.5t117.5 103h100q-61 -54 -99.5 -100.5
t-55.5 -89t-17 -85.5q0 -34 17.5 -53t51.5 -19q15 0 34.5 4t40.5 8l-22 -103q-24 -10 -50 -14.5t-56 -4.5z" />
    <glyph glyph-name="uni01EB" unicode="&#x1eb;" horiz-adv-x="823" 
d="M308 -20q-81 0 -138 37t-87.5 110.5t-30.5 180.5q0 82 15.5 188t49 214.5t88 200.5t132 148.5t180.5 56.5q80 0 137 -38.5t87 -112.5t30 -182q0 -100 -17.5 -211t-53.5 -216t-91.5 -190t-130.5 -135.5t-170 -50.5zM323 109q58 0 105 45t83 119.5t60.5 164.5t37 181
t12.5 168q0 64 -13.5 109t-40.5 68.5t-68 23.5q-62 0 -110.5 -49t-84 -128t-58.5 -171t-34.5 -180.5t-11.5 -153.5q0 -96 31 -146.5t92 -50.5zM237 -457q-74 0 -112 41t-38 105q0 57 21.5 107.5t67 100.5t117.5 103h100q-61 -54 -99.5 -100.5t-55.5 -89t-17 -85.5
q0 -34 17.5 -53t51.5 -19q15 0 34.5 4t40.5 8l-22 -103q-24 -10 -50 -14.5t-56 -4.5z" />
    <glyph glyph-name="uni01EC" unicode="&#x1ec;" horiz-adv-x="1004" 
d="M384 -20q-105 0 -174 46t-103.5 141t-34.5 240q0 109 16 230t48.5 242t81.5 229.5t114.5 193t148.5 133t183 48.5q156 0 232 -100.5t76 -309.5q0 -96 -14.5 -213t-44.5 -240t-77 -237t-112 -205t-149.5 -144.5t-190.5 -53.5zM395 118q71 0 130 47t106 127t82 180.5
t58 208t34.5 209.5t11.5 185q0 139 -41.5 205t-125.5 66q-76 0 -137 -50t-107.5 -133.5t-80 -186t-55 -208.5t-31.5 -201t-10 -162q0 -101 19 -164.5t56 -93t91 -29.5zM454 1614l24 116h486l-26 -116h-484zM324 -457q-74 0 -112 41t-38 105q0 57 21.5 107.5t67 100.5
t117.5 103h100q-61 -54 -99.5 -100.5t-55.5 -89t-17 -85.5q0 -34 17.5 -53t51.5 -19q15 0 34.5 4t40.5 8l-22 -103q-24 -10 -50 -14.5t-56 -4.5z" />
    <glyph glyph-name="uni01ED" unicode="&#x1ed;" horiz-adv-x="823" 
d="M308 -20q-81 0 -138 37t-87.5 110.5t-30.5 180.5q0 82 15.5 188t49 214.5t88 200.5t132 148.5t180.5 56.5q80 0 137 -38.5t87 -112.5t30 -182q0 -100 -17.5 -211t-53.5 -216t-91.5 -190t-130.5 -135.5t-170 -50.5zM323 109q58 0 105 45t83 119.5t60.5 164.5t37 181
t12.5 168q0 64 -13.5 109t-40.5 68.5t-68 23.5q-62 0 -110.5 -49t-84 -128t-58.5 -171t-34.5 -180.5t-11.5 -153.5q0 -96 31 -146.5t92 -50.5zM303 1249l24 116h486l-26 -116h-484zM237 -457q-74 0 -112 41t-38 105q0 57 21.5 107.5t67 100.5t117.5 103h100
q-61 -54 -99.5 -100.5t-55.5 -89t-17 -85.5q0 -34 17.5 -53t51.5 -19q15 0 34.5 4t40.5 8l-22 -103q-24 -10 -50 -14.5t-56 -4.5z" />
    <glyph glyph-name="uni01F0" unicode="&#x1f0;" horiz-adv-x="385" 
d="M-165 -492q-28 0 -53 3.5t-47 10.5v134q17 -7 39.5 -10.5t44.5 -3.5q47 0 76 23.5t49 81.5t40 161l251 1188h147l-256 -1199q-24 -117 -55.5 -204.5t-86 -136t-149.5 -48.5zM261 1241q-9 36 -29.5 95.5t-43.5 118.5t-41 93l4 21h83q14 -21 32.5 -50.5t40 -66.5t43.5 -80
q54 59 104.5 109.5t96.5 87.5h85l-3 -21q-33 -34 -81 -91.5t-93 -116.5t-68 -99h-130z" />
    <glyph glyph-name="Aringacute" unicode="&#x1fa;" horiz-adv-x="809" 
d="M-130 0l547 1271q-35 20 -54.5 57t-19.5 87q0 91 54.5 145.5t151.5 54.5q92 0 147.5 -56.5t55.5 -139.5q0 -64 -29 -107.5t-79 -61.5l35 -1250h-157l-10 457h-285l-192 -457h-165zM280 596h239l-4 452q0 36 -0.5 74t2.5 72h-6q-7 -33 -20 -70t-27 -74zM548 1303
q50 0 81.5 30.5t31.5 79.5q0 50 -30 82t-83 32q-51 0 -80 -32t-29 -82q0 -49 25.5 -79.5t83.5 -30.5zM502 1671v16q37 40 73.5 83t70 88t60.5 91h183v-16q-32 -38 -82 -87.5t-104 -96.5t-98 -78h-103z" />
    <glyph glyph-name="aringacute" unicode="&#x1fb;" horiz-adv-x="857" 
d="M266 -20q-71 0 -119 33.5t-72 99.5t-24 163q0 91 16.5 203t50.5 224t87 205.5t125 150.5t165 57q44 0 79 -16.5t61 -49.5t41 -85h6l42 131h125l-233 -1096h-117l13 151h-6q-37 -55 -76 -93t-79.5 -58t-84.5 -20zM306 110q71 0 122 55.5t87.5 142.5t62.5 180
q24 99 36 178.5t12 152.5q0 79 -31.5 122t-87.5 43q-57 0 -105 -47t-84.5 -124.5t-62.5 -171t-39 -188t-13 -174.5q0 -85 23 -127t80 -42zM576 1193q-94 0 -149 54t-55 146q0 91 55 146.5t149 55.5q91 0 147.5 -54t58.5 -142q0 -94 -55.5 -150t-150.5 -56zM576 1281
q50 0 82 30t32 82q0 51 -30.5 83.5t-83.5 32.5q-52 0 -82 -32.5t-30 -83.5q0 -56 27 -84t85 -28zM557 1667l2 17q31 37 64.5 78t67 87t63.5 97h192v-15q-29 -35 -78 -82.5t-104.5 -95.5t-106.5 -86h-100z" />
    <glyph glyph-name="AEacute" unicode="&#x1fc;" horiz-adv-x="1118" 
d="M-138 0l692 1462h655l-29 -136h-371l-104 -493h349l-31 -137h-348l-118 -559h371l-28 -137h-523l102 480h-233l-223 -480h-161zM309 618h201l150 706h-28zM665 1618l1 19q47 54 89.5 108t77.5 105.5t60 95.5h178l-2 -17q-21 -30 -60 -72.5t-85 -88.5t-89.5 -86t-74.5 -64
h-95z" />
    <glyph glyph-name="aeacute" unicode="&#x1fd;" horiz-adv-x="1249" 
d="M254 -20q-64 0 -109.5 35t-70 103.5t-24.5 166.5q0 115 20.5 233t58.5 225t92.5 191t122.5 133t148 49q42 0 76 -16.5t58.5 -50t37.5 -85.5h5l34 132h109l-28 -133q43 62 102 107.5t135 45.5q95 0 150.5 -57.5t55.5 -164.5q0 -91 -34 -164.5t-99.5 -126t-160 -80
t-214.5 -27.5h-14q-8 -40 -12.5 -82t-4.5 -84q0 -105 39 -165.5t133 -60.5q53 0 105.5 16.5t109.5 50.5l-16 -130q-54 -32 -106.5 -46.5t-120.5 -14.5q-86 0 -140.5 42.5t-72.5 120.5l-29 -143h-109l26 154h-4q-33 -55 -70.5 -94t-81.5 -59.5t-97 -20.5zM309 108
q48 0 87 29.5t70.5 81.5t55.5 119.5t42 143.5q23 98 35 183t12 159q0 77 -27 119t-77 42q-52 0 -98 -42.5t-84 -115t-65.5 -163t-42.5 -187t-15 -185.5q0 -94 27 -139t80 -45zM725 610h7q125 0 203.5 36t115 98.5t36.5 141.5q0 50 -23 78t-74 28q-57 0 -107 -49.5
t-90 -135.5t-68 -197zM650 1238l1 19q47 54 89.5 108t77.5 105.5t60 95.5h178l-2 -17q-21 -30 -60 -72.5t-85 -88.5t-89.5 -86t-74.5 -64h-95z" />
    <glyph glyph-name="Oslashacute" unicode="&#x1fe;" horiz-adv-x="1005" 
d="M60 -96l-83 48l134 213q-19 47 -29 107.5t-10 134.5q0 109 16 230t48.5 242t81.5 229.5t115 193t149.5 133t183.5 48.5q72 0 126.5 -24t91.5 -74l102 165l85 -52l-130 -206q17 -43 24 -98.5t7 -120.5q0 -96 -14.5 -213t-44.5 -240t-77 -237t-112 -205t-149.5 -144.5
t-190.5 -53.5q-70 0 -124 23.5t-90 70.5zM395 118q68 0 125 43.5t102.5 117.5t79.5 168t57.5 196t36.5 200.5t15 180.5q2 21 2 40t-2 35l-555 -882q20 -51 55 -75t84 -24zM234 353l561 889q-21 53 -56.5 78.5t-88.5 25.5q-73 0 -132 -46.5t-104.5 -124.5t-78.5 -174
t-55 -196.5t-33.5 -192t-13.5 -158.5q-1 -28 -1 -53t2 -48zM608 1618l1 19q47 54 89.5 108t77.5 105.5t60 95.5h178l-2 -17q-21 -30 -60 -72.5t-85 -88.5t-89.5 -86t-74.5 -64h-95z" />
    <glyph glyph-name="oslashacute" unicode="&#x1ff;" horiz-adv-x="824" 
d="M54 -123l-80 50l117 184q-18 38 -28.5 87t-10.5 110q0 77 15 181.5t48 214t87 203t132 151.5t183 58q50 0 90 -16.5t71 -49.5l89 146l82 -49l-112 -179q17 -37 25.5 -83t8.5 -102q0 -85 -16 -191t-50 -213t-88.5 -197.5t-131 -146t-177.5 -55.5q-46 0 -85 13.5t-70 41.5z
M323 104q55 0 100.5 40t81 107t60.5 149t39.5 168t18.5 163q2 17 1 35.5t-3 33.5l-394 -641q16 -28 40.5 -41.5t55.5 -13.5zM202 275l400 651q-14 33 -40 49.5t-62 16.5q-56 0 -102.5 -43t-82 -114t-61 -157t-39.5 -174t-16 -162q0 -19 0.5 -36t2.5 -31zM438 1238l1 19
q47 54 89.5 108t77.5 105.5t60 95.5h178l-2 -17q-21 -30 -60 -72.5t-85 -88.5t-89.5 -86t-74.5 -64h-95z" />
    <glyph glyph-name="uni0218" unicode="&#x218;" horiz-adv-x="762" 
d="M228 -20q-88 0 -158.5 17t-117.5 48l19 160q53 -35 121 -58t141 -23q57 0 104 18.5t80.5 53.5t52 86.5t18.5 117.5q0 56 -13 99.5t-46.5 90.5t-96.5 112q-54 56 -93.5 109t-61 115t-21.5 143q0 95 29 171.5t83 130.5t130 83t169 29q72 0 147 -21.5t120 -53.5l-73 -139
q-46 32 -98 51.5t-108 19.5q-51 0 -94.5 -17t-76 -50t-51 -80t-18.5 -107t19 -107t58 -94t98 -108q53 -53 87.5 -107t52 -116.5t17.5 -140.5q0 -96 -27.5 -175t-81 -137t-131.5 -89.5t-179 -31.5zM69 -453v29q23 34 52 87.5t55 111t40 100.5h144v-20q-14 -43 -50 -102
t-78 -115t-77 -91h-86z" />
    <glyph glyph-name="uni0219" unicode="&#x219;" horiz-adv-x="638" 
d="M200 -20q-71 0 -131 14.5t-93 35.5v152q37 -28 95.5 -49.5t113.5 -21.5q58 0 98 21.5t61.5 63.5t21.5 102q0 41 -10 73.5t-35.5 68.5t-71.5 84q-43 45 -73.5 88t-46.5 91t-16 107q0 86 36.5 155t105 110t164.5 41q77 0 139.5 -19.5t105.5 -50.5l-66 -118
q-37 29 -82.5 45.5t-93.5 16.5q-73 0 -116 -44t-43 -116q0 -38 9 -69.5t32 -64t63 -74.5q53 -56 86.5 -100.5t49.5 -92.5t16 -116q0 -101 -37.5 -176t-108.5 -116t-173 -41zM5 -453v29q23 34 52 87.5t55 111t40 100.5h144v-20q-14 -43 -50 -102t-78 -115t-77 -91h-86z" />
    <glyph glyph-name="uni021A" unicode="&#x21a;" horiz-adv-x="694" 
d="M135 0l281 1324h-253l31 138h657l-31 -138h-252l-281 -1324h-152zM32 -453v29q23 34 52 87.5t55 111t40 100.5h144v-20q-14 -43 -50 -102t-78 -115t-77 -91h-86z" />
    <glyph glyph-name="uni021B" unicode="&#x21b;" horiz-adv-x="474" 
d="M203 -20q-82 0 -119 47t-37 131q0 29 5 67t15 81l141 664h-98l17 85l115 39l86 253h106l-53 -251h153l-27 -126h-153l-143 -673q-7 -34 -12 -64t-5 -51q0 -36 14 -53.5t48 -17.5q20 0 44 4.5t44 13.5v-121q-31 -13 -70 -20.5t-71 -7.5zM-76 -453v29q23 34 52 87.5t55 111
t40 100.5h144v-20q-14 -43 -50 -102t-78 -115t-77 -91h-86z" />
    <glyph glyph-name="uni0237" unicode="&#x237;" horiz-adv-x="385" 
d="M-165 -492q-28 0 -53 3.5t-47 10.5v134q17 -7 39.5 -10.5t44.5 -3.5q47 0 76 23.5t49 81.5t40 161l251 1188h147l-256 -1199q-24 -117 -55.5 -204.5t-86 -136t-149.5 -48.5z" />
    <glyph glyph-name="uni0259" unicode="&#x259;" horiz-adv-x="770" 
d="M229 -20q-98 0 -156.5 55.5t-58.5 164.5q0 90 34 163.5t99 126.5t159.5 81.5t215.5 28.5h16q8 41 11.5 82t3.5 83q0 116 -42 171.5t-128 55.5q-55 0 -104.5 -16.5t-109.5 -51.5l16 134q50 29 107.5 43.5t128.5 14.5q88 0 150.5 -39t95.5 -113.5t33 -181.5
q0 -166 -36 -311.5t-100.5 -255.5t-150 -172.5t-184.5 -62.5zM251 102q55 0 106 49.5t92.5 136t65.5 196.5h-11q-125 0 -202 -35.5t-112.5 -97.5t-35.5 -142q0 -52 24.5 -79.5t72.5 -27.5z" />
    <glyph glyph-name="uni02BC" unicode="&#x2bc;" horiz-adv-x="340" 
d="M110 969q38 80 73 163t65 166.5t52 163.5h150l8 -22q-30 -78 -67 -158.5t-79 -159.5t-87 -153h-115z" />
    <glyph glyph-name="circumflex" unicode="&#x2c6;" horiz-adv-x="647" 
d="M229 1241l4 20q47 50 90.5 102.5t82.5 105t69 100.5h130q8 -37 28 -96t43.5 -117.5t40.5 -94.5l-4 -20h-81q-18 26 -38 57.5t-39.5 66.5t-38.5 73q-54 -58 -105 -108.5t-96 -88.5h-86z" />
    <glyph glyph-name="caron" unicode="&#x2c7;" horiz-adv-x="649" 
d="M409 1241q-9 36 -29.5 95.5t-43.5 118.5t-41 93l4 21h83q14 -21 32.5 -50.5t40 -66.5t43.5 -80q54 59 104.5 109.5t96.5 87.5h85l-3 -21q-33 -34 -81 -91.5t-93 -116.5t-68 -99h-130z" />
    <glyph glyph-name="macron" unicode="&#x2c9;" horiz-adv-x="649" 
d="M231 1249l24 116h486l-26 -116h-484z" />
    <glyph glyph-name="breve" unicode="&#x2d8;" horiz-adv-x="621" 
d="M482 1241q-71 0 -116 25t-65.5 70t-20.5 104q0 19 1.5 36t4.5 31h95q0 -52 11 -85t35 -48.5t63 -15.5q61 0 97.5 34t56.5 115h99q-22 -127 -86.5 -196.5t-174.5 -69.5z" />
    <glyph glyph-name="dotaccent" unicode="&#x2d9;" horiz-adv-x="343" 
d="M335 1286q-37 0 -56 21t-19 59q0 53 28.5 95t80.5 42q25 0 41.5 -8t25 -25.5t8.5 -44.5q0 -55 -28.5 -97t-80.5 -42z" />
    <glyph glyph-name="ring" unicode="&#x2da;" horiz-adv-x="583" 
d="M483 1248q-96 0 -149.5 54.5t-53.5 147.5q0 89 54 144.5t149 55.5q93 0 148 -55.5t56 -141.5q0 -90 -54.5 -147.5t-149.5 -57.5zM485 1335q52 0 82.5 31.5t30.5 83.5q0 50 -30 82t-83 32q-54 0 -83.5 -32t-29.5 -82q0 -52 28.5 -83.5t84.5 -31.5z" />
    <glyph glyph-name="ogonek" unicode="&#x2db;" horiz-adv-x="454" 
d="M56 -457q-74 0 -112 41t-38 105q0 57 21.5 107.5t67 100.5t117.5 103h100q-61 -54 -99.5 -100.5t-55.5 -89t-17 -85.5q0 -34 17.5 -53t51.5 -19q15 0 34.5 4t40.5 8l-22 -103q-24 -10 -50 -14.5t-56 -4.5z" />
    <glyph glyph-name="tilde" unicode="&#x2dc;" horiz-adv-x="714" 
d="M230 1246q17 79 42.5 134.5t63 84.5t89.5 29q42 0 72.5 -18.5t55.5 -42.5t48 -42.5t49 -18.5q33 0 52.5 27t35.5 97h95q-16 -91 -43 -145.5t-63 -78.5t-80 -24q-40 0 -70 18.5t-55.5 43.5t-49.5 43.5t-51 18.5q-37 0 -59.5 -32t-36.5 -94h-95z" />
    <glyph glyph-name="hungarumlaut" unicode="&#x2dd;" horiz-adv-x="782" 
d="M530 1241l4 20q49 60 91.5 116t75.5 105t53 87h161l-2 -17q-22 -31 -58.5 -73t-80 -86.5t-87.5 -84t-80 -67.5h-77zM230 1241l3 20q50 60 92 116.5t75 105.5t55 86h160l-2 -17q-21 -33 -57 -74.5t-80 -84.5t-89 -82.5t-84 -69.5h-73z" />
    <glyph glyph-name="uni02F3" unicode="&#x2f3;" horiz-adv-x="655" 
d="M181 -524q-95 0 -149 54.5t-54 145.5q0 90 56 145t147 55q88 0 146 -54.5t58 -142.5q0 -89 -55 -146t-149 -57zM179 -438q55 0 85 31.5t30 82.5q0 50 -30 82t-85 32q-54 0 -82.5 -32t-28.5 -82q0 -52 28 -83t83 -31z" />
    <glyph glyph-name="gravecomb" unicode="&#x300;" 
d="M-393 1241q-27 37 -62.5 92.5t-66.5 114t-46 102.5v17h169q13 -49 28 -99.5t32.5 -101.5t39.5 -105l-3 -20h-91z" />
    <glyph glyph-name="acutecomb" unicode="&#x301;" 
d="M-488 1241l1 19q47 54 89.5 108t77.5 105.5t60 95.5h178l-2 -17q-21 -30 -60 -72.5t-85 -88.5t-89.5 -86t-74.5 -64h-95z" />
    <glyph glyph-name="uni0302" unicode="&#x302;" 
d="M-106 1241l4 20q47 50 90.5 102.5t82.5 105t69 100.5h130q8 -37 28 -96t43.5 -117.5t40.5 -94.5l-4 -20h-81q-18 26 -38 57.5t-39.5 66.5t-38.5 73q-54 -58 -105 -108.5t-96 -88.5h-86z" />
    <glyph glyph-name="tildecomb" unicode="&#x303;" 
d="M-688 1246q17 79 42.5 134.5t63 84.5t89.5 29q42 0 72.5 -18.5t55.5 -42.5t48 -42.5t49 -18.5q33 0 52.5 27t35.5 97h95q-16 -91 -43 -145.5t-63 -78.5t-80 -24q-40 0 -70 18.5t-55.5 43.5t-49.5 43.5t-51 18.5q-37 0 -59.5 -32t-36.5 -94h-95z" />
    <glyph glyph-name="uni0304" unicode="&#x304;" 
d="M-90 1249l24 116h486l-26 -116h-484z" />
    <glyph glyph-name="uni0306" unicode="&#x306;" 
d="M163 1241q-71 0 -116 25t-65.5 70t-20.5 104q0 19 1.5 36t4.5 31h95q0 -52 11 -85t35 -48.5t63 -15.5q61 0 97.5 34t56.5 115h99q-22 -127 -86.5 -196.5t-174.5 -69.5z" />
    <glyph glyph-name="uni0307" unicode="&#x307;" 
d="M173 1286q-37 0 -56 21t-19 59q0 53 28.5 95t80.5 42q25 0 41.5 -8t25 -25.5t8.5 -44.5q0 -55 -28.5 -97t-80.5 -42z" />
    <glyph glyph-name="uni0308" unicode="&#x308;" 
d="M311 1296q-33 0 -50.5 18t-17.5 54q0 50 27.5 89t75.5 39q31 0 48 -17t17 -51q0 -56 -28 -94t-72 -38zM10 1296q-32 0 -49.5 18t-17.5 54q0 50 27 89t76 39q20 0 33.5 -7.5t21 -22.5t7.5 -38q0 -56 -27 -94t-71 -38z" />
    <glyph glyph-name="hookabovecomb" unicode="&#x309;" 
d="M-420 1211l30 167q49 3 82.5 17t51.5 40.5t18 64.5q0 40 -24.5 60t-61.5 20q-25 0 -46 -3t-39 -9v96q28 8 58.5 14t64.5 6q79 0 126.5 -44.5t47.5 -118.5q0 -83 -50.5 -135.5t-139.5 -66.5l-31 -108h-87z" />
    <glyph glyph-name="uni030A" unicode="&#x30a;" 
d="M188 1248q-96 0 -149.5 54.5t-53.5 147.5q0 89 54 144.5t149 55.5q93 0 148 -55.5t56 -141.5q0 -90 -54.5 -147.5t-149.5 -57.5zM190 1335q52 0 82.5 31.5t30.5 83.5q0 50 -30 82t-83 32q-54 0 -83.5 -32t-29.5 -82q0 -52 28.5 -83.5t84.5 -31.5z" />
    <glyph glyph-name="uni030B" unicode="&#x30b;" 
d="M148 1241l4 20q49 60 91.5 116t75.5 105t53 87h161l-2 -17q-22 -31 -58.5 -73t-80 -86.5t-87.5 -84t-80 -67.5h-77zM-152 1241l3 20q50 60 92 116.5t75 105.5t55 86h160l-2 -17q-21 -33 -57 -74.5t-80 -84.5t-89 -82.5t-84 -69.5h-73z" />
    <glyph glyph-name="uni030C" unicode="&#x30c;" 
d="M84 1241q-9 36 -29.5 95.5t-43.5 118.5t-41 93l4 21h83q14 -21 32.5 -50.5t40 -66.5t43.5 -80q54 59 104.5 109.5t96.5 87.5h85l-3 -21q-33 -34 -81 -91.5t-93 -116.5t-68 -99h-130z" />
    <glyph glyph-name="uni030F" unicode="&#x30f;" 
d="M-320 1241q-34 42 -67.5 96t-59.5 110t-40 103l1 17h145q14 -53 29 -104t32 -101t36 -99l-5 -22h-71zM-588 1241q-31 40 -64 95t-60 111.5t-40 102.5l1 17h147q12 -48 27 -102.5t33 -107t37 -94.5l-6 -22h-75z" />
    <glyph glyph-name="uni0312" unicode="&#x312;" 
d="M-5 969l-8 22q32 82 69.5 163.5t79 160t85.5 147.5h116q-24 -48 -51 -111t-54 -131.5t-50 -134t-37 -116.5h-150z" />
    <glyph glyph-name="dotbelowcomb" unicode="&#x323;" 
d="M-653 -352q-38 0 -57 20.5t-19 59.5q0 52 28 94.5t80 42.5q26 0 42.5 -8.5t25 -26t8.5 -43.5q0 -55 -29 -97t-79 -42z" />
    <glyph glyph-name="uni0326" unicode="&#x326;" 
d="M162 -453v29q23 34 52 87.5t55 111t40 100.5h144v-20q-14 -43 -50 -102t-78 -115t-77 -91h-86z" />
    <glyph glyph-name="uni0327" unicode="&#x327;" 
d="M-269 -492q-37 0 -68 4t-60 11v98q17 -6 45 -10t67 -4q46 0 79 15.5t50.5 43t17.5 64.5q0 46 -35.5 71.5t-108.5 34.5l106 164h93l-74 -107q66 -14 104 -54t38 -102q0 -73 -33.5 -124t-90.5 -78t-130 -27z" />
    <glyph glyph-name="uni0328" unicode="&#x328;" 
d="M-171 -457q-74 0 -112 41t-38 105q0 57 21.5 107.5t67 100.5t117.5 103h100q-61 -54 -99.5 -100.5t-55.5 -89t-17 -85.5q0 -34 17.5 -53t51.5 -19q15 0 34.5 4t40.5 8l-22 -103q-24 -10 -50 -14.5t-56 -4.5z" />
    <glyph glyph-name="tonos" unicode="&#x384;" horiz-adv-x="1002" 
d="M492 1241l5 23q17 29 39.5 73t45.5 93t43 94t32 75h151l-4 -20q-14 -26 -43 -71.5t-63.5 -97.5t-65.5 -97.5t-50 -71.5h-90z" />
    <glyph glyph-name="dieresistonos" unicode="&#x385;" horiz-adv-x="1011" 
d="M538 1395v20q20 37 46 94.5t49.5 114.5t34.5 92h136l-2 -18q-16 -36 -51.5 -96t-74 -118t-65.5 -89h-73zM389 1296q-32 0 -48.5 18t-16.5 54q0 50 26.5 89t73.5 39q29 0 44.5 -17t15.5 -51q0 -56 -27 -94t-68 -38zM773 1296q-31 0 -47 18t-16 54q0 50 26 89t72 39
q28 0 44.5 -17t16.5 -51q0 -56 -27 -94t-69 -38z" />
    <glyph glyph-name="Alphatonos" unicode="&#x386;" horiz-adv-x="822" 
d="M-123 0l611 1468h194l5 -1468h-158l2 478h-293l-196 -478h-165zM289 616h248l8 524q0 49 2 92.5t6 79.5h-6q-10 -34 -23 -76.5t-33 -95.5zM67 1104l5 23q17 29 39.5 73t45.5 93t43 94t32 75h151l-4 -20q-14 -26 -43 -71.5t-63.5 -97.5t-65.5 -97.5t-50 -71.5h-90z" />
    <glyph glyph-name="anoteleia" unicode="&#x387;" horiz-adv-x="412" 
d="M273 862q-37 0 -59 21t-22 62q0 61 32 108.5t93 47.5q36 0 56.5 -23t20.5 -63q0 -64 -35.5 -108.5t-85.5 -44.5z" />
    <glyph glyph-name="Epsilontonos" unicode="&#x388;" horiz-adv-x="924" 
d="M180 0l310 1462h523l-29 -136h-371l-104 -493h347l-31 -137h-346l-118 -559h371l-29 -137h-523zM82 1104l5 23q17 29 39.5 73t45.5 93t43 94t32 75h151l-4 -20q-14 -26 -43 -71.5t-63.5 -97.5t-65.5 -97.5t-50 -71.5h-90z" />
    <glyph glyph-name="Etatonos" unicode="&#x389;" horiz-adv-x="1161" 
d="M180 0l310 1462h152l-133 -627h408l134 627h152l-311 -1462h-152l147 696h-408l-147 -696h-152zM82 1104l5 23q17 29 39.5 73t45.5 93t43 94t32 75h151l-4 -20q-14 -26 -43 -71.5t-63.5 -97.5t-65.5 -97.5t-50 -71.5h-90z" />
    <glyph glyph-name="Iotatonos" unicode="&#x38a;" horiz-adv-x="599" 
d="M178 0l310 1462h151l-309 -1462h-152zM82 1104l5 23q17 29 39.5 73t45.5 93t43 94t32 75h151l-4 -20q-14 -26 -43 -71.5t-63.5 -97.5t-65.5 -97.5t-50 -71.5h-90z" />
    <glyph glyph-name="Omicrontonos" unicode="&#x38c;" horiz-adv-x="1096" 
d="M476 -20q-105 0 -174 46t-103.5 141t-34.5 240q0 109 16 230t48.5 242t81.5 229.5t114.5 193t148.5 133t183 48.5q156 0 232 -100.5t76 -309.5q0 -96 -14.5 -213t-44.5 -240t-77 -237t-112 -205t-149.5 -144.5t-190.5 -53.5zM487 118q71 0 130 47t106 127t82 180.5
t58 208t34.5 209.5t11.5 185q0 139 -41.5 205t-125.5 66q-76 0 -137 -50t-107.5 -133.5t-80 -186t-55 -208.5t-31.5 -201t-10 -162q0 -101 19 -164.5t56 -93t91 -29.5zM82 1104l5 23q17 29 39.5 73t45.5 93t43 94t32 75h151l-4 -20q-14 -26 -43 -71.5t-63.5 -97.5
t-65.5 -97.5t-50 -71.5h-90z" />
    <glyph glyph-name="Upsilontonos" unicode="&#x38e;" horiz-adv-x="966" 
d="M400 0l118 564l-93 898h158l53 -692l344 692h162l-470 -895l-121 -567h-151zM69 1104l5 23q17 29 39.5 73t45.5 93t43 94t32 75h151l-4 -20q-14 -26 -43 -71.5t-63.5 -97.5t-65.5 -97.5t-50 -71.5h-90z" />
    <glyph glyph-name="Omegatonos" unicode="&#x38f;" horiz-adv-x="1129" 
d="M82 1104l5 23q17 29 39.5 73t45.5 93t43 94t32 75h151l-4 -20q-14 -26 -43 -71.5t-63.5 -97.5t-65.5 -97.5t-50 -71.5h-90zM34 0l28 137h246q-34 46 -58.5 109.5t-37 139t-12.5 155.5q0 125 23.5 257t70 254t116 219.5t161 154.5t204.5 57q111 0 182.5 -49t106.5 -138
t35 -209q0 -140 -26 -277t-75.5 -262.5t-119 -230t-155.5 -180.5h251l-31 -137h-395l27 127q85 74 152.5 180.5t115 233.5t72.5 262t25 265q0 92 -20 154t-60 93t-101 31q-85 0 -151.5 -59t-115.5 -154.5t-81 -208.5t-47.5 -223t-15.5 -196q0 -118 23 -210.5t72 -167.5
l-27 -127h-382z" />
    <glyph glyph-name="iotadieresistonos" unicode="&#x390;" horiz-adv-x="464" 
d="M196 -20q-76 0 -114.5 41.5t-38.5 117.5q0 23 5 58t13 72l176 827h146l-179 -838q-7 -26 -10 -47t-3 -40q0 -28 13 -44t38 -16q20 0 42 5.5t44 13.5v-120q-31 -14 -65.5 -22t-66.5 -8zM300 1395v20q20 37 46 94.5t49.5 114.5t34.5 92h136l-2 -18q-16 -36 -51.5 -96
t-74 -118t-65.5 -89h-73zM151 1296q-32 0 -48.5 18t-16.5 54q0 50 26.5 89t73.5 39q29 0 44.5 -17t15.5 -51q0 -56 -27 -94t-68 -38zM535 1296q-31 0 -47 18t-16 54q0 50 26 89t72 39q28 0 44.5 -17t16.5 -51q0 -56 -27 -94t-69 -38z" />
    <glyph glyph-name="Alpha" unicode="&#x391;" horiz-adv-x="810" 
d="M-134 0l611 1468h194l5 -1468h-158l2 478h-293l-196 -478h-165zM278 616h248l8 524q0 49 2 92.5t6 79.5h-6q-10 -34 -23 -76.5t-33 -95.5z" />
    <glyph glyph-name="Beta" unicode="&#x392;" horiz-adv-x="868" 
d="M1 0l309 1462h262q90 0 160 -31.5t110 -94t40 -156.5q0 -92 -29.5 -177t-91 -147.5t-158.5 -87.5v-6q79 -22 120.5 -96t41.5 -172q0 -136 -51.5 -248.5t-152.5 -179t-250 -66.5h-310zM182 135h130q104 0 169 50t95.5 132.5t30.5 179.5q0 102 -48.5 152t-133.5 50h-124z
M328 830h119q89 0 150 46t92.5 121t31.5 160q0 86 -44 129t-136 43h-108z" />
    <glyph glyph-name="Gamma" unicode="&#x393;" horiz-adv-x="652" 
d="M0 0l310 1462h492l-29 -138h-342l-279 -1324h-152z" />
    <glyph glyph-name="uni0394" unicode="&#x394;" horiz-adv-x="803" 
d="M-88 0l3 112l579 1354h190l13 -1356l-20 -110h-765zM85 141h458l4 909q0 30 0.5 59.5t1 60t1 65t1.5 74.5q-9 -28 -23 -70t-32 -92.5t-41 -104.5z" />
    <glyph glyph-name="Epsilon" unicode="&#x395;" horiz-adv-x="744" 
d="M0 0l310 1462h523l-29 -136h-371l-104 -493h347l-31 -137h-346l-118 -559h371l-29 -137h-523z" />
    <glyph glyph-name="Zeta" unicode="&#x396;" horiz-adv-x="679" 
d="M-84 0l25 118l665 1207h-397l29 137h568l-26 -120l-668 -1205h425l-28 -137h-593z" />
    <glyph glyph-name="Eta" unicode="&#x397;" horiz-adv-x="979" 
d="M0 0l310 1462h152l-133 -627h408l134 627h152l-311 -1462h-152l147 696h-408l-147 -696h-152z" />
    <glyph glyph-name="Theta" unicode="&#x398;" horiz-adv-x="1038" 
d="M391 -20q-107 0 -178 46t-106 141t-35 240q0 94 15 209.5t46 236.5t80 233t116 202t154 142.5t195 52.5q153 0 235.5 -99t82.5 -311q0 -115 -17 -240t-51.5 -247.5t-85 -231.5t-118 -193t-151 -132.5t-182.5 -48.5zM403 118q74 0 135 49t110 131.5t85.5 184.5t60.5 209.5
t36 207t12 175.5q0 139 -43.5 205t-131.5 66q-78 0 -141.5 -50t-112 -134t-84 -186t-58 -208t-33.5 -201t-11 -162q0 -101 20 -164.5t59.5 -93t96.5 -29.5zM400 684l30 135h243l-31 -135h-242z" />
    <glyph glyph-name="Iota" unicode="&#x399;" horiz-adv-x="420" 
d="M0 0l310 1462h151l-309 -1462h-152z" />
    <glyph glyph-name="Kappa" unicode="&#x39a;" horiz-adv-x="816" 
d="M0 0l310 1462h152l-156 -736l116 176l392 560h166l-462 -666l169 -796h-165l-135 679l-117 -123l-118 -556h-152z" />
    <glyph glyph-name="Lambda" unicode="&#x39b;" horiz-adv-x="804" 
d="M-136 0l622 1466h182l7 -1466h-157l5 995q0 62 2.5 128t6.5 131q-24 -73 -56.5 -155t-71.5 -180l-379 -919h-161z" />
    <glyph glyph-name="Mu" unicode="&#x39c;" horiz-adv-x="1312" 
d="M0 0l310 1462h213l47 -1218h4l552 1218h229l-311 -1462h-150l215 1011q7 31 14 61.5t15 62.5t16 65h-4l-550 -1200h-154l-49 1199h-4q-8 -42 -14.5 -79t-12.5 -71.5t-13 -69.5l-208 -979h-145z" />
    <glyph glyph-name="Nu" unicode="&#x39d;" horiz-adv-x="1039" 
d="M0 0l310 1462h181l196 -1184h6q12 71 25 139.5t25 127t20 98.5l173 819h148l-312 -1462h-174l-201 1203h-6q-7 -54 -17 -113.5t-21.5 -116.5t-22 -104.5t-17.5 -78.5l-166 -790h-147z" />
    <glyph glyph-name="Xi" unicode="&#x39e;" horiz-adv-x="734" 
d="M-47 0l29 137h575l-28 -137h-576zM154 698l27 137h473l-30 -137h-470zM250 1326l29 136h544l-28 -136h-545z" />
    <glyph glyph-name="Omicron" unicode="&#x39f;" horiz-adv-x="1004" 
d="M384 -20q-105 0 -174 46t-103.5 141t-34.5 240q0 109 16 230t48.5 242t81.5 229.5t114.5 193t148.5 133t183 48.5q156 0 232 -100.5t76 -309.5q0 -96 -14.5 -213t-44.5 -240t-77 -237t-112 -205t-149.5 -144.5t-190.5 -53.5zM395 118q71 0 130 47t106 127t82 180.5
t58 208t34.5 209.5t11.5 185q0 139 -41.5 205t-125.5 66q-76 0 -137 -50t-107.5 -133.5t-80 -186t-55 -208.5t-31.5 -201t-10 -162q0 -101 19 -164.5t56 -93t91 -29.5z" />
    <glyph glyph-name="Pi" unicode="&#x3a0;" horiz-adv-x="969" 
d="M0 0l310 1462h704l-310 -1462h-151l280 1324h-402l-279 -1324h-152z" />
    <glyph glyph-name="Rho" unicode="&#x3a1;" horiz-adv-x="815" 
d="M1 0l309 1462h211q109 0 182.5 -39t111 -110t37.5 -168q0 -121 -32.5 -225t-94.5 -180.5t-152 -119.5t-205 -43h-93l-122 -577h-152zM303 715h62q109 0 182 52.5t110 145t37 213.5q0 98 -49 149t-148 51h-64z" />
    <glyph glyph-name="Sigma" unicode="&#x3a3;" horiz-adv-x="731" 
d="M-75 0l24 125l440 641l-172 568l27 128h588l-27 -136h-421l168 -565l-428 -624h455l-26 -137h-628z" />
    <glyph glyph-name="Tau" unicode="&#x3a4;" horiz-adv-x="694" 
d="M135 0l281 1324h-253l31 138h657l-31 -138h-252l-281 -1324h-152z" />
    <glyph glyph-name="Upsilon" unicode="&#x3a5;" horiz-adv-x="714" 
d="M148 0l118 564l-93 898h158l53 -692l344 692h162l-470 -895l-121 -567h-151z" />
    <glyph glyph-name="Phi" unicode="&#x3a6;" horiz-adv-x="1155" 
d="M357 -20l49 225q-100 8 -172 53t-110 129.5t-38 210.5q0 148 38 275t110 222t174.5 149.5t230.5 58.5l37 180h149l-37 -180q99 -7 170.5 -53t110 -130t38.5 -206q0 -150 -40 -278t-113.5 -224t-175 -150.5t-224.5 -56.5l-49 -225h-148zM432 338l179 831
q-97 -2 -167.5 -53.5t-115.5 -135.5t-66.5 -183t-21.5 -197q0 -86 22.5 -143t65.5 -86t104 -33zM581 338q89 2 158 51t116 131t71.5 183.5t24.5 207.5q0 87 -23.5 143.5t-66.5 85t-104 29.5z" />
    <glyph glyph-name="Chi" unicode="&#x3a7;" horiz-adv-x="745" 
d="M-121 0l440 771l-97 691h157l62 -549l288 549h161l-396 -712l97 -750h-161l-57 601l-332 -601h-162z" />
    <glyph glyph-name="Psi" unicode="&#x3a8;" horiz-adv-x="1137" 
d="M354 0l94 439h-2q-92 5 -158 38.5t-101 100.5t-35 172q0 52 7.5 114t22.5 131l99 467h151l-101 -477q-14 -68 -21 -122t-7 -97q0 -72 22.5 -113t61 -58t86.5 -17h4l187 884h150l-188 -884h4q101 0 159 48.5t90.5 134.5t56.5 198l108 503h151l-109 -524
q-24 -110 -58 -201.5t-88 -158t-136 -103t-203 -36.5h-4l-92 -439h-151z" />
    <glyph glyph-name="uni03A9" unicode="&#x3a9;" horiz-adv-x="1018" 
d="M-77 0l28 137h246q-34 46 -58.5 109.5t-37 139t-12.5 155.5q0 125 23.5 257t70 254t116 219.5t161 154.5t204.5 57q111 0 182.5 -49t106.5 -138t35 -209q0 -140 -26 -277t-75.5 -262.5t-119 -230t-155.5 -180.5h251l-31 -137h-395l27 127q85 74 152.5 180.5t115 233.5
t72.5 262t25 265q0 92 -20 154t-60 93t-101 31q-85 0 -151.5 -59t-115.5 -154.5t-81 -208.5t-47.5 -223t-15.5 -196q0 -118 23 -210.5t72 -167.5l-27 -127h-382z" />
    <glyph glyph-name="Iotadieresis" unicode="&#x3aa;" horiz-adv-x="420" 
d="M0 0l310 1462h151l-309 -1462h-152zM580 1676q-33 0 -50.5 18t-17.5 54q0 50 27.5 89t75.5 39q31 0 48 -17t17 -51q0 -56 -28 -94t-72 -38zM279 1676q-32 0 -49.5 18t-17.5 54q0 50 27 89t76 39q20 0 33.5 -7.5t21 -22.5t7.5 -38q0 -56 -27 -94t-71 -38z" />
    <glyph glyph-name="Upsilondieresis" unicode="&#x3ab;" horiz-adv-x="714" 
d="M148 0l118 564l-93 898h158l53 -692l344 692h162l-470 -895l-121 -567h-151zM690 1634q-33 0 -50.5 18t-17.5 54q0 50 27.5 89t75.5 39q31 0 48 -17t17 -51q0 -56 -28 -94t-72 -38zM389 1634q-32 0 -49.5 18t-17.5 54q0 50 27 89t76 39q20 0 33.5 -7.5t21 -22.5t7.5 -38
q0 -56 -27 -94t-71 -38z" />
    <glyph glyph-name="alphatonos" unicode="&#x3ac;" horiz-adv-x="884" 
d="M266 -20q-102 0 -157.5 78.5t-55.5 224.5q0 109 19 225t56 224.5t91 195t123 137.5t152 51q79 0 129.5 -46t68.5 -128h6q11 29 23.5 57.5t26.5 53.5t27 43h120q-23 -45 -44 -102t-39.5 -125t-35.5 -148l-90 -423q-8 -38 -13 -71.5t-5 -62.5q0 -31 12 -43.5t34 -12.5
q12 0 25.5 3t26.5 8v-116q-19 -10 -47 -16.5t-51 -6.5q-66 0 -97 27.5t-39 69t-4 81.5h-6q-37 -59 -76 -98.5t-83 -59.5t-97 -20zM312 108q70 0 121.5 58t87.5 145.5t57 174.5q24 97 37 178.5t13 149.5q0 86 -31 128.5t-92 42.5q-59 0 -107 -49.5t-84.5 -130t-61 -173
t-37 -181t-12.5 -152.5q0 -98 26.5 -144.5t82.5 -46.5zM494 1241l5 23q17 29 39.5 73t45.5 93t43 94t32 75h151l-4 -20q-14 -26 -43 -71.5t-63.5 -97.5t-65.5 -97.5t-50 -71.5h-90z" />
    <glyph glyph-name="epsilontonos" unicode="&#x3ad;" horiz-adv-x="641" 
d="M265 -20q-86 0 -145 32t-88.5 91t-29.5 141q0 85 29 156t85.5 119t136.5 65l2 7q-47 26 -73 78.5t-26 124.5q0 90 37 163t107 116t169 43q64 0 119 -16t100 -51l-71 -113q-29 26 -67 39t-78 13q-81 0 -128 -57.5t-47 -146.5q0 -73 31.5 -110t98.5 -37h52l-25 -119h-67
q-75 0 -127 -34t-78.5 -91t-26.5 -126q0 -76 35 -117t108 -41q51 0 96.5 14t96.5 44v-130q-49 -28 -106.5 -42.5t-119.5 -14.5zM414 1241l5 23q17 29 39.5 73t45.5 93t43 94t32 75h151l-4 -20q-14 -26 -43 -71.5t-63.5 -97.5t-65.5 -97.5t-50 -71.5h-90z" />
    <glyph glyph-name="etatonos" unicode="&#x3ae;" horiz-adv-x="831" 
d="M340 -492l251 1175q11 51 20 104.5t9 95.5q0 47 -23 72.5t-69 25.5q-62 0 -109.5 -45t-83 -132t-62.5 -214l-125 -590h-148l232 1096h120l-21 -149h5q30 55 67 92.5t81.5 57t94.5 19.5q55 0 98.5 -21.5t69 -66t25.5 -115.5q0 -43 -9.5 -100t-20.5 -111l-255 -1194h-147z
M498 1241l5 23q17 29 39.5 73t45.5 93t43 94t32 75h151l-4 -20q-14 -26 -43 -71.5t-63.5 -97.5t-65.5 -97.5t-50 -71.5h-90z" />
    <glyph glyph-name="iotatonos" unicode="&#x3af;" horiz-adv-x="455" 
d="M196 -20q-76 0 -114.5 41.5t-38.5 117.5q0 23 5 58t13 72l176 827h146l-179 -838q-7 -26 -10 -47t-3 -40q0 -28 13 -44t38 -16q20 0 42 5.5t44 13.5v-120q-31 -14 -65.5 -22t-66.5 -8zM275 1241l5 23q17 29 39.5 73t45.5 93t43 94t32 75h151l-4 -20q-14 -26 -43 -71.5
t-63.5 -97.5t-65.5 -97.5t-50 -71.5h-90z" />
    <glyph glyph-name="upsilondieresistonos" unicode="&#x3b0;" horiz-adv-x="830" 
d="M292 -18q-120 0 -177.5 63t-57.5 178q0 47 10 111t23 137l136 625h147l-138 -643q-13 -58 -22.5 -113t-9.5 -100q0 -61 27.5 -94t76.5 -33q62 0 110.5 48t84.5 130t61 184.5t40.5 213t23.5 216t9 191.5h145q-2 -148 -16.5 -304t-47.5 -300.5t-88.5 -259.5t-138 -182.5
t-198.5 -67.5zM496 1395v20q20 37 46 94.5t49.5 114.5t34.5 92h136l-2 -18q-16 -36 -51.5 -96t-74 -118t-65.5 -89h-73zM347 1296q-32 0 -48.5 18t-16.5 54q0 50 26.5 89t73.5 39q29 0 44.5 -17t15.5 -51q0 -56 -27 -94t-68 -38zM731 1296q-31 0 -47 18t-16 54q0 50 26 89
t72 39q28 0 44.5 -17t16.5 -51q0 -56 -27 -94t-69 -38z" />
    <glyph glyph-name="alpha" unicode="&#x3b1;" horiz-adv-x="884" 
d="M266 -20q-102 0 -157.5 78.5t-55.5 224.5q0 109 19 225t56 224.5t91 195t123 137.5t152 51q79 0 129.5 -46t68.5 -128h6q11 29 23.5 57.5t26.5 53.5t27 43h120q-23 -45 -44 -102t-39.5 -125t-35.5 -148l-90 -423q-8 -38 -13 -71.5t-5 -62.5q0 -31 12 -43.5t34 -12.5
q12 0 25.5 3t26.5 8v-116q-19 -10 -47 -16.5t-51 -6.5q-66 0 -97 27.5t-39 69t-4 81.5h-6q-37 -59 -76 -98.5t-83 -59.5t-97 -20zM312 108q70 0 121.5 58t87.5 145.5t57 174.5q24 97 37 178.5t13 149.5q0 86 -31 128.5t-92 42.5q-59 0 -107 -49.5t-84.5 -130t-61 -173
t-37 -181t-12.5 -152.5q0 -98 26.5 -144.5t82.5 -46.5z" />
    <glyph glyph-name="beta" unicode="&#x3b2;" horiz-adv-x="851" 
d="M-103 -492l356 1679q26 120 67.5 205t111.5 130t179 45q80 0 138 -33.5t89 -95.5t31 -147q0 -114 -31.5 -213.5t-96 -168t-163.5 -88.5q88 -17 135.5 -102t47.5 -196q0 -93 -23.5 -188.5t-72 -176t-123.5 -129.5t-179 -49q-63 0 -117.5 19t-89.5 50l-119 -541h-140z
M345 113q75 0 126.5 39t82 101t44 133t13.5 134q0 110 -42.5 170.5t-119.5 60.5h-37l29 130h27q66 0 113 36t77 95t44.5 129t14.5 139q0 77 -32 117t-95 40q-51 0 -87.5 -27t-61.5 -81.5t-43 -136.5l-213 -1007q28 -33 71.5 -52.5t88.5 -19.5z" />
    <glyph glyph-name="gamma" unicode="&#x3b3;" horiz-adv-x="673" 
d="M-16 -492q17 81 40.5 161.5t52 161.5t59.5 162l-13 1103h148l-2 -581q0 -30 -0.5 -67t-2 -77t-4 -80t-6.5 -76h8q26 81 52.5 152.5t63.5 156.5l238 572h156l-449 -1030q-44 -100 -81.5 -202t-65 -194t-42.5 -162h-152z" />
    <glyph glyph-name="delta" unicode="&#x3b4;" horiz-adv-x="849" 
d="M337 -20q-94 0 -158.5 40t-98 113t-33.5 173q0 142 49 265.5t141 218t219 148.5q-53 77 -85.5 150t-32.5 159q0 94 41 164.5t114.5 109.5t171.5 39q90 0 156.5 -24.5t101.5 -53.5l-74 -120q-41 32 -87 50t-103 18q-81 0 -127 -47.5t-46 -126.5q0 -51 19.5 -97.5t51 -92.5
t65.5 -96q46 -68 75 -136t42.5 -140.5t13.5 -154.5q0 -109 -25 -209t-76 -179t-129.5 -125t-185.5 -46zM350 108q70 0 118.5 42.5t78 108.5t42.5 139t13 134q0 96 -21.5 175.5t-68.5 147.5q-73 -33 -131 -90.5t-99 -131t-63 -156t-22 -165.5q0 -91 39.5 -147.5t113.5 -56.5z
" />
    <glyph glyph-name="epsilon" unicode="&#x3b5;" horiz-adv-x="641" 
d="M265 -20q-86 0 -145 32t-88.5 91t-29.5 141q0 85 29 156t85.5 119t136.5 65l2 7q-47 26 -73 78.5t-26 124.5q0 90 37 163t107 116t169 43q64 0 119 -16t100 -51l-71 -113q-29 26 -67 39t-78 13q-81 0 -128 -57.5t-47 -146.5q0 -73 31.5 -110t98.5 -37h52l-25 -119h-67
q-75 0 -127 -34t-78.5 -91t-26.5 -126q0 -76 35 -117t108 -41q51 0 96.5 14t96.5 44v-130q-49 -28 -106.5 -42.5t-119.5 -14.5z" />
    <glyph glyph-name="zeta" unicode="&#x3b6;" horiz-adv-x="616" 
d="M128 -409q36 39 73.5 88t63.5 102.5t26 103.5q0 45 -30 77.5t-74 65.5q-48 36 -83.5 73.5t-55 89t-19.5 127.5q0 141 48 285.5t130 287.5t186 280.5t215 264.5q-31 -4 -68.5 -6t-83.5 -2h-159l27 128h479l-23 -107q-111 -125 -217 -264.5t-191.5 -283t-136 -281.5
t-50.5 -260q0 -58 18 -98t50.5 -72.5t75.5 -68.5q34 -24 61.5 -52t43.5 -62.5t16 -80.5q0 -59 -22 -117t-59 -112.5t-84 -105.5h-157z" />
    <glyph glyph-name="eta" unicode="&#x3b7;" horiz-adv-x="831" 
d="M340 -492l251 1175q11 51 20 104.5t9 95.5q0 47 -23 72.5t-69 25.5q-62 0 -109.5 -45t-83 -132t-62.5 -214l-125 -590h-148l232 1096h120l-21 -149h5q30 55 67 92.5t81.5 57t94.5 19.5q55 0 98.5 -21.5t69 -66t25.5 -115.5q0 -43 -9.5 -100t-20.5 -111l-255 -1194h-147z
" />
    <glyph glyph-name="theta" unicode="&#x3b8;" horiz-adv-x="843" 
d="M308 -21q-81 0 -136 40.5t-83 124t-28 212.5q0 69 7.5 150t22.5 170.5t36 183.5q30 130 73.5 257.5t102.5 232t136 167t174 62.5q79 0 133.5 -38.5t83 -120t28.5 -211.5q0 -102 -17 -232.5t-47.5 -264.5t-72.5 -245q-37 -108 -80.5 -197.5t-94.5 -154.5t-110 -100.5
t-128 -35.5zM317 105q54 0 101.5 48t88.5 134t76 200.5t65 247.5h-396q-25 -127 -37 -227t-12 -166q0 -127 29.5 -182t84.5 -55zM279 859h394q18 112 28.5 205.5t10.5 161.5q0 118 -26.5 172.5t-85.5 54.5q-51 0 -96.5 -43.5t-85.5 -123t-74.5 -188.5t-64.5 -239z" />
    <glyph glyph-name="iota" unicode="&#x3b9;" horiz-adv-x="455" 
d="M196 -20q-76 0 -114.5 41.5t-38.5 117.5q0 23 5 58t13 72l176 827h146l-179 -838q-7 -26 -10 -47t-3 -40q0 -28 13 -44t38 -16q20 0 42 5.5t44 13.5v-120q-31 -14 -65.5 -22t-66.5 -8z" />
    <glyph glyph-name="kappa" unicode="&#x3ba;" horiz-adv-x="724" 
d="M1 0l236 1096h146l-66 -300q-12 -44 -24.5 -100t-30.5 -122h5l386 522h160l-328 -442l115 -654h-154l-88 531l-130 -144l-80 -387h-147z" />
    <glyph glyph-name="lambda" unicode="&#x3bb;" horiz-adv-x="723" 
d="M559 -20q-64 0 -100.5 26.5t-51.5 78.5t-15 128l5 434q2 51 2.5 98.5t2.5 97.5q-6 -17 -12 -35t-12 -35.5t-13 -34.5l-14 -34l-304 -704h-151l492 1091l3 233q0 65 -18 92t-59 27q-15 0 -29 -3t-31 -10v125q19 6 48 11t57 5q68 0 106.5 -29.5t55 -85t16.5 -133.5
l-4 -1090q0 -43 6 -69.5t19 -38.5t34 -12q16 0 29 2t28 8v-129q-17 -6 -43.5 -10t-46.5 -4z" />
    <glyph glyph-name="uni03BC" unicode="&#x3bc;" horiz-adv-x="831" 
d="M-104 -492l335 1588h146l-148 -704q-10 -46 -16 -84t-6 -70q0 -60 23.5 -91.5t69.5 -31.5q60 0 105.5 40t81 125t63.5 219l128 597h145l-231 -1096h-116l9 128h-4q-28 -51 -60.5 -84t-69 -48.5t-77.5 -15.5q-46 0 -75.5 22t-46.5 60h-4q-1 -23 -3.5 -45.5t-6.5 -44.5
t-9 -46l-89 -418h-144z" />
    <glyph glyph-name="nu" unicode="&#x3bd;" horiz-adv-x="720" 
d="M124 0l9 1096h149l-10 -664q-1 -64 -3 -127.5t-4 -120.5q81 116 151.5 262t126.5 311t92 339h150q-41 -202 -110 -391t-166.5 -365.5t-227.5 -339.5h-157z" />
    <glyph glyph-name="xi" unicode="&#x3be;" horiz-adv-x="640" 
d="M126 -409q38 41 78.5 92.5t68 106t25.5 103.5q-1 46 -26 75.5t-70 59.5q-55 36 -93 78t-58 100t-20 142q0 108 35.5 208t106.5 172t179 96l1 6q-70 32 -100 85.5t-30 131.5q0 63 18 124t52 113.5t84.5 92t114.5 59.5q-35 -4 -65 -6t-57 -2h-89l28 128h476l-27 -123h-49
q-63 0 -115 -21.5t-93 -58.5t-69.5 -85t-43 -102t-14.5 -109q0 -88 41.5 -130t127.5 -42h67l-27 -131h-78q-102 0 -173.5 -50t-109 -137t-37.5 -198q0 -63 14.5 -102.5t45 -69t77.5 -62.5q39 -26 68 -53t44.5 -62.5t15.5 -87.5q0 -58 -20.5 -115.5t-58 -113.5t-88.5 -112
h-157z" />
    <glyph glyph-name="omicron" unicode="&#x3bf;" horiz-adv-x="823" 
d="M308 -20q-81 0 -138 37t-87.5 110.5t-30.5 180.5q0 82 15.5 188t49 214.5t88 200.5t132 148.5t180.5 56.5q80 0 137 -38.5t87 -112.5t30 -182q0 -100 -17.5 -211t-53.5 -216t-91.5 -190t-130.5 -135.5t-170 -50.5zM323 109q58 0 105 45t83 119.5t60.5 164.5t37 181
t12.5 168q0 64 -13.5 109t-40.5 68.5t-68 23.5q-62 0 -110.5 -49t-84 -128t-58.5 -171t-34.5 -180.5t-11.5 -153.5q0 -96 31 -146.5t92 -50.5z" />
    <glyph glyph-name="pi" unicode="&#x3c0;" horiz-adv-x="866" 
d="M611 -13q-71 0 -112 39.5t-41 124.5q0 26 5 61.5t12 73.5l146 684h-246l-207 -970h-146l208 970h-142l13 63l104 63h722l-24 -126h-136l-149 -697q-5 -25 -8 -48t-3 -45q0 -31 14.5 -45.5t42.5 -14.5q16 0 32 4.5t27 8.5v-120q-24 -13 -53.5 -19.5t-58.5 -6.5z" />
    <glyph glyph-name="rho" unicode="&#x3c1;" horiz-adv-x="840" 
d="M-101 -492l235 1124q35 163 84.5 270t125 160.5t186.5 53.5q87 0 146 -38.5t89.5 -111t30.5 -174.5q0 -91 -16.5 -200t-50.5 -217t-86 -197.5t-123.5 -143.5t-163.5 -54q-69 0 -119 23.5t-81 63.5q-3 -31 -10.5 -67.5t-15.5 -75.5l-87 -416h-144zM338 109
q63 0 112.5 46.5t85.5 122t60 166t35.5 181t11.5 163.5q0 96 -32 147t-97 51q-60 0 -103.5 -40.5t-76.5 -127t-61 -225.5l-82 -394q20 -39 58 -64.5t89 -25.5z" />
    <glyph glyph-name="uni03C2" unicode="&#x3c2;" horiz-adv-x="634" 
d="M153 -409q51 58 86.5 108.5t54 95t18.5 83.5q0 31 -10.5 56t-32 48t-53.5 46q-61 46 -97 90.5t-52.5 104t-17.5 149.5q0 92 18.5 194t56.5 199.5t95 177t133.5 126.5t172.5 47q54 0 99.5 -11.5t80.5 -33.5l-57 -120q-27 15 -57.5 24.5t-61.5 9.5q-64 0 -116 -42.5
t-91 -111t-65.5 -148.5t-40 -158t-13.5 -137q0 -65 14 -109t42.5 -77t70.5 -67q42 -30 73 -61.5t48.5 -70.5t17.5 -95q0 -48 -19 -100.5t-54 -107t-84 -109.5h-159z" />
    <glyph glyph-name="sigma" unicode="&#x3c3;" horiz-adv-x="847" 
d="M309 -20q-120 0 -188.5 86.5t-68.5 243.5q0 99 18 208t56.5 211.5t99.5 185.5t147.5 132t199.5 49h346l-26 -128h-170q14 -43 22.5 -95t8.5 -114q0 -96 -16.5 -203t-50.5 -209.5t-86.5 -185t-125 -132t-166.5 -49.5zM326 108q61 0 107.5 44.5t79.5 119t54.5 165.5
t31.5 186t10 180q0 50 -2.5 92t-7.5 73h-44q-93 0 -160 -62.5t-109.5 -162.5t-62.5 -214t-20 -217q0 -102 30 -153t93 -51z" />
    <glyph glyph-name="tau" unicode="&#x3c4;" horiz-adv-x="558" 
d="M278 -23q-85 0 -133 46t-48 137q0 32 5 71.5t18 91.5l138 645h-180l13 65l104 63h450l-26 -128h-215l-139 -665q-8 -34 -13 -60t-5 -52q0 -41 21 -61.5t58 -20.5q23 0 45.5 6t43.5 13v-120q-30 -16 -66 -23.5t-71 -7.5z" />
    <glyph glyph-name="upsilon" unicode="&#x3c5;" horiz-adv-x="830" 
d="M292 -18q-120 0 -177.5 63t-57.5 178q0 47 10 111t23 137l136 625h147l-138 -643q-13 -58 -22.5 -113t-9.5 -100q0 -61 27.5 -94t76.5 -33q62 0 110.5 48t84.5 130t61 184.5t40.5 213t23.5 216t9 191.5h145q-2 -148 -16.5 -304t-47.5 -300.5t-88.5 -259.5t-138 -182.5
t-198.5 -67.5z" />
    <glyph glyph-name="phi" unicode="&#x3c6;" horiz-adv-x="1078" 
d="M238 -492l100 475q-83 11 -147 56t-100 127t-36 203q0 134 36.5 265.5t105.5 252.5t168 223l102 -77q-78 -87 -137 -191.5t-92 -222.5t-33 -248q0 -80 19.5 -135t56 -86t85.5 -39l144 691q31 143 98 229.5t188 86.5q107 0 168.5 -78.5t61.5 -233.5q0 -107 -21 -220.5
t-64 -219t-108 -190.5t-153 -137.5t-199 -57.5l-99 -473h-144zM510 109q83 10 144.5 61t104 128t68.5 167t37.5 179.5t11.5 162.5q0 91 -23.5 136.5t-67.5 45.5q-47 0 -78 -44t-54 -162z" />
    <glyph glyph-name="chi" unicode="&#x3c7;" horiz-adv-x="698" 
d="M-243 -492l465 852l-4 488q0 65 -12.5 98.5t-47.5 33.5q-16 0 -31.5 -3.5t-29.5 -8.5l13 128q17 7 43.5 10t54.5 3q85 0 117.5 -54.5t35.5 -155.5l-3 -331l263 528h158l-412 -765l6 -564q0 -66 13 -96.5t47 -30.5q14 0 31 4t30 11v-124q-25 -10 -54 -16.5t-57 -6.5
q-52 0 -85 23.5t-49 74t-18 131.5l1 392l-317 -621h-158z" />
    <glyph glyph-name="psi" unicode="&#x3c8;" horiz-adv-x="1012" 
d="M207 -492l102 473q-124 14 -189.5 90.5t-65.5 215.5q0 50 9 111.5t23 133.5l121 564h147l-123 -581q-15 -61 -23.5 -116t-8.5 -105q0 -90 34.5 -132t102.5 -50l307 1448h143l-305 -1446q82 0 141.5 66t99.5 174.5t63.5 239t34 262t11.5 240.5h144q-2 -145 -16 -300.5
t-47.5 -300.5t-92 -261t-149 -184.5t-218.5 -70.5l-100 -471h-145z" />
    <glyph glyph-name="omega" unicode="&#x3c9;" horiz-adv-x="997" 
d="M206 -20q-85 0 -130.5 69t-45.5 200t33 279.5t89 295t124 272.5h148q-69 -133 -125 -282t-89 -295t-33 -272q0 -68 18.5 -99.5t49.5 -31.5q59 0 92 79.5t69 253.5l53 254h145l-56 -254q-11 -56 -19 -99t-11.5 -76.5t-3.5 -62.5q0 -48 15 -71.5t43 -23.5q45 0 82 55.5
t65.5 145t48 195t29.5 207.5t10 179q0 58 -2.5 108t-5.5 90h146q3 -36 6 -86.5t3 -113.5q0 -104 -13.5 -227t-42 -244.5t-74 -222t-109.5 -161.5t-149 -61q-55 0 -88.5 21.5t-49 59.5t-15.5 86q-35 -82 -85.5 -124.5t-121.5 -42.5z" />
    <glyph glyph-name="iotadieresis" unicode="&#x3ca;" horiz-adv-x="455" 
d="M196 -20q-76 0 -114.5 41.5t-38.5 117.5q0 23 5 58t13 72l176 827h146l-179 -838q-7 -26 -10 -47t-3 -40q0 -28 13 -44t38 -16q20 0 42 5.5t44 13.5v-120q-31 -14 -65.5 -22t-66.5 -8zM487 1296q-33 0 -50.5 18t-17.5 54q0 50 27.5 89t75.5 39q31 0 48 -17t17 -51
q0 -56 -28 -94t-72 -38zM186 1296q-32 0 -49.5 18t-17.5 54q0 50 27 89t76 39q20 0 33.5 -7.5t21 -22.5t7.5 -38q0 -56 -27 -94t-71 -38z" />
    <glyph glyph-name="upsilondieresis" unicode="&#x3cb;" horiz-adv-x="830" 
d="M292 -18q-120 0 -177.5 63t-57.5 178q0 47 10 111t23 137l136 625h147l-138 -643q-13 -58 -22.5 -113t-9.5 -100q0 -61 27.5 -94t76.5 -33q62 0 110.5 48t84.5 130t61 184.5t40.5 213t23.5 216t9 191.5h145q-2 -148 -16.5 -304t-47.5 -300.5t-88.5 -259.5t-138 -182.5
t-198.5 -67.5zM676 1296q-33 0 -50.5 18t-17.5 54q0 50 27.5 89t75.5 39q31 0 48 -17t17 -51q0 -56 -28 -94t-72 -38zM375 1296q-32 0 -49.5 18t-17.5 54q0 50 27 89t76 39q20 0 33.5 -7.5t21 -22.5t7.5 -38q0 -56 -27 -94t-71 -38z" />
    <glyph glyph-name="omicrontonos" unicode="&#x3cc;" horiz-adv-x="823" 
d="M308 -20q-81 0 -138 37t-87.5 110.5t-30.5 180.5q0 82 15.5 188t49 214.5t88 200.5t132 148.5t180.5 56.5q80 0 137 -38.5t87 -112.5t30 -182q0 -100 -17.5 -211t-53.5 -216t-91.5 -190t-130.5 -135.5t-170 -50.5zM323 109q58 0 105 45t83 119.5t60.5 164.5t37 181
t12.5 168q0 64 -13.5 109t-40.5 68.5t-68 23.5q-62 0 -110.5 -49t-84 -128t-58.5 -171t-34.5 -180.5t-11.5 -153.5q0 -96 31 -146.5t92 -50.5zM440 1241l5 23q17 29 39.5 73t45.5 93t43 94t32 75h151l-4 -20q-14 -26 -43 -71.5t-63.5 -97.5t-65.5 -97.5t-50 -71.5h-90z" />
    <glyph glyph-name="upsilontonos" unicode="&#x3cd;" horiz-adv-x="830" 
d="M292 -18q-120 0 -177.5 63t-57.5 178q0 47 10 111t23 137l136 625h147l-138 -643q-13 -58 -22.5 -113t-9.5 -100q0 -61 27.5 -94t76.5 -33q62 0 110.5 48t84.5 130t61 184.5t40.5 213t23.5 216t9 191.5h145q-2 -148 -16.5 -304t-47.5 -300.5t-88.5 -259.5t-138 -182.5
t-198.5 -67.5zM458 1241l5 23q17 29 39.5 73t45.5 93t43 94t32 75h151l-4 -20q-14 -26 -43 -71.5t-63.5 -97.5t-65.5 -97.5t-50 -71.5h-90z" />
    <glyph glyph-name="omegatonos" unicode="&#x3ce;" horiz-adv-x="997" 
d="M206 -20q-85 0 -130.5 69t-45.5 200t33 279.5t89 295t124 272.5h148q-69 -133 -125 -282t-89 -295t-33 -272q0 -68 18.5 -99.5t49.5 -31.5q59 0 92 79.5t69 253.5l53 254h145l-56 -254q-11 -56 -19 -99t-11.5 -76.5t-3.5 -62.5q0 -48 15 -71.5t43 -23.5q45 0 82 55.5
t65.5 145t48 195t29.5 207.5t10 179q0 58 -2.5 108t-5.5 90h146q3 -36 6 -86.5t3 -113.5q0 -104 -13.5 -227t-42 -244.5t-74 -222t-109.5 -161.5t-149 -61q-55 0 -88.5 21.5t-49 59.5t-15.5 86q-35 -82 -85.5 -124.5t-121.5 -42.5zM545 1241l5 23q17 29 39.5 73t45.5 93
t43 94t32 75h151l-4 -20q-14 -26 -43 -71.5t-63.5 -97.5t-65.5 -97.5t-50 -71.5h-90z" />
    <glyph glyph-name="uni03D1" unicode="&#x3d1;" horiz-adv-x="928" 
d="M296 -20q-67 0 -120.5 22t-85 70.5t-31.5 127.5q0 70 18 139t39 136q18 58 33 107t15 86q0 28 -11.5 42.5t-33.5 14.5q-17 0 -36 -5.5t-39 -16.5v128q25 11 59.5 19t70.5 8q62 0 101 -38t39 -114q0 -44 -15.5 -100t-36.5 -118q-21 -68 -37 -136.5t-16 -130.5
q0 -54 24 -84.5t76 -30.5q47 0 90 28.5t82 86.5t74.5 144.5t66.5 203t58 262.5q-118 0 -205.5 43t-135.5 124.5t-48 197.5q0 99 36.5 186.5t105.5 142t168 54.5q95 0 153.5 -42t85.5 -125.5t27 -206.5q0 -59 -4 -119t-12 -127h118l-27 -130h-115q-31 -169 -69 -305
t-85 -237.5t-104 -170t-125 -102.5t-148 -34zM703 959q9 70 13.5 129t4.5 111q0 115 -26.5 184.5t-97.5 69.5q-50 0 -85 -37.5t-53.5 -95.5t-18.5 -120q0 -83 32.5 -136t91.5 -78.5t139 -26.5z" />
    <glyph glyph-name="uni03D2" unicode="&#x3d2;" horiz-adv-x="702" 
d="M148 0l118 564l-93 898h156l53 -692q41 94 80 179.5t74.5 160t67 135t57.5 103.5q36 65 72 96t96 31q25 0 45 -5t34 -13l-21 -129q-10 5 -20.5 7.5t-22.5 2.5q-31 0 -56 -28.5t-62 -96.5q-34 -66 -70 -140.5t-75 -157.5t-79.5 -172.5t-83.5 -185.5l-119 -557h-151z" />
    <glyph glyph-name="uni03D6" unicode="&#x3d6;" horiz-adv-x="1043" 
d="M225 -20q-85 0 -130.5 69t-45.5 200q0 112 26 238t68.5 250.5t93.5 230.5h-149l14 65l108 63h922l-29 -128h-139q2 -26 3 -55.5t1 -62.5q0 -100 -14.5 -217.5t-44 -232.5t-75 -210t-107.5 -152.5t-141 -57.5q-76 0 -113 44.5t-37 134.5q-39 -91 -86.5 -135t-124.5 -44z
M264 116q44 0 72 44.5t48.5 120t40.5 168.5l46 217h143l-44 -217q-12 -56 -20.5 -99t-12.5 -76.5t-4 -62.5q0 -48 15.5 -71.5t43.5 -23.5q44 0 80.5 52.5t64.5 137.5t47.5 184t29.5 194.5t10 167.5q0 29 -1 58.5t-3 57.5h-433q-53 -113 -96 -238t-68 -249t-25 -234
q0 -68 17.5 -99.5t48.5 -31.5z" />
    <glyph glyph-name="uni0400" unicode="&#x400;" horiz-adv-x="744" 
d="M0 0l310 1462h523l-29 -136h-371l-104 -493h347l-31 -137h-346l-118 -559h371l-29 -137h-523zM583 1621q-27 37 -62.5 92.5t-66.5 114t-46 102.5v17h169q13 -49 28 -99.5t32.5 -101.5t39.5 -105l-3 -20h-91z" />
    <glyph glyph-name="uni0401" unicode="&#x401;" horiz-adv-x="744" 
d="M0 0l310 1462h523l-29 -136h-371l-104 -493h347l-31 -137h-346l-118 -559h371l-29 -137h-523zM742 1634q-33 0 -50.5 18t-17.5 54q0 50 27.5 89t75.5 39q31 0 48 -17t17 -51q0 -56 -28 -94t-72 -38zM441 1634q-32 0 -49.5 18t-17.5 54q0 50 27 89t76 39q20 0 33.5 -7.5
t21 -22.5t7.5 -38q0 -56 -27 -94t-71 -38z" />
    <glyph glyph-name="uni0402" unicode="&#x402;" horiz-adv-x="915" 
d="M468 -20q-33 0 -66.5 6t-62.5 16l28 135q20 -10 42 -15t47 -5q49 0 78 26t45.5 70.5t27.5 98.5l52 233q5 23 8 48t3 47q0 56 -32.5 85t-111.5 29h-115l-162 -754h-152l282 1324h-215l30 138h611l-31 -138h-243l-92 -431h110q140 0 206.5 -57.5t66.5 -167.5
q0 -28 -4.5 -61.5t-12.5 -69.5l-55 -268q-19 -91 -53.5 -155.5t-89.5 -99t-139 -34.5z" />
    <glyph glyph-name="uni0403" unicode="&#x403;" horiz-adv-x="652" 
d="M0 0l310 1462h492l-29 -138h-342l-279 -1324h-152zM431 1618l1 19q47 54 89.5 108t77.5 105.5t60 95.5h178l-2 -17q-21 -30 -60 -72.5t-85 -88.5t-89.5 -86t-74.5 -64h-95z" />
    <glyph glyph-name="uni0404" unicode="&#x404;" horiz-adv-x="825" 
d="M410 -20q-113 0 -187.5 52.5t-110.5 158.5t-36 266q0 134 27 277t79.5 277t129 241t176 170t220.5 63q75 0 134.5 -18t102.5 -53l-81 -124q-33 29 -71.5 42.5t-83.5 13.5q-82 0 -149.5 -45.5t-120 -121t-90.5 -166.5t-62 -181h398l-30 -137h-400q-10 -61 -16 -120
t-6 -111q0 -111 19 -188.5t64.5 -118t122.5 -40.5q31 0 63.5 6.5t66.5 18t67 25.5v-137q-33 -15 -73 -26.5t-79.5 -17.5t-73.5 -6z" />
    <glyph glyph-name="uni0405" unicode="&#x405;" horiz-adv-x="762" 
d="M228 -20q-88 0 -158.5 17t-117.5 48l19 160q53 -35 121 -58t141 -23q57 0 104 18.5t80.5 53.5t52 86.5t18.5 117.5q0 56 -13 99.5t-46.5 90.5t-96.5 112q-54 56 -93.5 109t-61 115t-21.5 143q0 95 29 171.5t83 130.5t130 83t169 29q72 0 147 -21.5t120 -53.5l-73 -139
q-46 32 -98 51.5t-108 19.5q-51 0 -94.5 -17t-76 -50t-51 -80t-18.5 -107t19 -107t58 -94t98 -108q53 -53 87.5 -107t52 -116.5t17.5 -140.5q0 -96 -27.5 -175t-81 -137t-131.5 -89.5t-179 -31.5z" />
    <glyph glyph-name="uni0406" unicode="&#x406;" horiz-adv-x="420" 
d="M0 0l310 1462h151l-309 -1462h-152z" />
    <glyph glyph-name="uni0407" unicode="&#x407;" horiz-adv-x="420" 
d="M0 0l310 1462h151l-309 -1462h-152zM580 1676q-33 0 -50.5 18t-17.5 54q0 50 27.5 89t75.5 39q31 0 48 -17t17 -51q0 -56 -28 -94t-72 -38zM279 1676q-32 0 -49.5 18t-17.5 54q0 50 27 89t76 39q20 0 33.5 -7.5t21 -22.5t7.5 -38q0 -56 -27 -94t-71 -38z" />
    <glyph glyph-name="uni0408" unicode="&#x408;" horiz-adv-x="403" 
d="M-167 -389q-43 0 -75 6.5t-58 17.5l35 137q23 -10 46.5 -17t48.5 -7q48 0 79.5 29t53 84t38.5 133l310 1468h152l-316 -1496q-26 -124 -68.5 -202.5t-103 -115.5t-142.5 -37z" />
    <glyph glyph-name="uni0409" unicode="&#x409;" horiz-adv-x="1296" 
d="M-34 -12q-22 0 -45 3.5t-43 10.5v138q18 -8 36 -12.5t36 -4.5q36 0 63 16.5t54 66t60 147.5q26 69 62 181t80 257.5t94 315.5t104 355h482l-131 -621h51q109 0 183 -36t112 -106.5t38 -175.5q0 -99 -26.5 -192.5t-82.5 -168t-146 -118.5t-216 -44h-242l278 1318h-197
q-40 -145 -85 -298t-88 -294t-80 -252.5t-61 -175.5q-41 -119 -82 -186.5t-90.5 -95.5t-117.5 -28zM668 135h86q78 0 133 30.5t90.5 83.5t52 121t16.5 144q0 101 -51 146.5t-155 45.5h-50z" />
    <glyph glyph-name="uni040A" unicode="&#x40a;" horiz-adv-x="1281" 
d="M1 0l309 1462h152l-133 -624h325l133 624h151l-130 -621h40q110 0 185.5 -37t114 -108.5t38.5 -177.5q0 -114 -31 -209t-91.5 -164t-149 -107t-203.5 -38h-231l146 702h-325l-148 -702h-152zM660 135h82q92 0 156 46.5t98 131t34 198.5q0 101 -53.5 148t-162.5 47h-32z
" />
    <glyph glyph-name="uni040B" unicode="&#x40b;" horiz-adv-x="931" 
d="M107 0l281 1324h-215l28 138h611l-28 -138h-244l-92 -431h110q137 0 200.5 -59t63.5 -163q0 -37 -5.5 -74t-11.5 -70l-113 -527h-151l117 545q6 26 8 51t2 47q0 59 -32.5 85t-105.5 26h-111l-161 -754h-151z" />
    <glyph glyph-name="uni040C" unicode="&#x40c;" horiz-adv-x="802" 
d="M1 0l309 1462h152l-149 -704l491 704h168l-510 -714l216 -748h-163l-204 745l-158 -745h-152zM509 1618l1 19q47 54 89.5 108t77.5 105.5t60 95.5h178l-2 -17q-21 -30 -60 -72.5t-85 -88.5t-89.5 -86t-74.5 -64h-95z" />
    <glyph glyph-name="uni040D" unicode="&#x40d;" horiz-adv-x="1043" 
d="M0 0l310 1462h148l-139 -660q-18 -83 -36.5 -169t-37.5 -170.5t-41 -164.5h6l701 1164h179l-310 -1462h-148l135 645q21 92 42 189.5t42 186t40 151.5h-6l-703 -1172h-182zM733 1621q-27 37 -62.5 92.5t-66.5 114t-46 102.5v17h169q13 -49 28 -99.5t32.5 -101.5
t39.5 -105l-3 -20h-91z" />
    <glyph glyph-name="uni040E" unicode="&#x40e;" horiz-adv-x="705" 
d="M26 -18q-37 0 -63.5 5.5t-46.5 15.5v138q20 -13 46 -18.5t50 -5.5q32 0 57.5 13t50 47t55 94.5t72.5 155.5l-73 1035h154l32 -616q2 -34 4 -75.5t4 -79.5t2 -63q19 50 40.5 105.5t47.5 112.5l276 616h159l-541 -1163q-44 -98 -91 -169t-103.5 -109.5t-131.5 -38.5z
M572 1611q-76 0 -127 26.5t-76.5 76t-25.5 116.5q0 17 2 38.5t6 40.5h121q-1 -16 -3.5 -35.5t-2.5 -39.5q0 -59 28 -90.5t86 -31.5q72 0 112.5 50.5t60.5 146.5h125q-21 -102 -62 -168t-101.5 -98t-142.5 -32z" />
    <glyph glyph-name="uni040F" unicode="&#x40f;" horiz-adv-x="969" 
d="M199 -387l81 387h-277l311 1462h152l-283 -1325h400l282 1325h152l-311 -1462h-277l-83 -387h-147z" />
    <glyph glyph-name="uni0410" unicode="&#x410;" horiz-adv-x="810" 
d="M-134 0l611 1468h194l5 -1468h-158l2 478h-293l-196 -478h-165zM278 616h248l8 524q0 49 2 92.5t6 79.5h-6q-10 -34 -23 -76.5t-33 -95.5z" />
    <glyph glyph-name="uni0411" unicode="&#x411;" horiz-adv-x="824" 
d="M1 0l309 1462h561l-29 -139h-409l-102 -482h71q110 0 184.5 -36.5t112.5 -108t38 -178.5q0 -113 -30.5 -207.5t-91 -164t-149.5 -108t-206 -38.5h-259zM181 135h112q91 0 155 46.5t98 131t34 198.5q0 102 -55 148.5t-162 46.5h-61z" />
    <glyph glyph-name="uni0412" unicode="&#x412;" horiz-adv-x="868" 
d="M1 0l309 1462h262q90 0 160 -31.5t110 -94t40 -156.5q0 -92 -29.5 -177t-91 -147.5t-158.5 -87.5v-6q79 -22 120.5 -96t41.5 -172q0 -136 -51.5 -248.5t-152.5 -179t-250 -66.5h-310zM182 135h130q104 0 169 50t95.5 132.5t30.5 179.5q0 102 -48.5 152t-133.5 50h-124z
M328 830h119q89 0 150 46t92.5 121t31.5 160q0 86 -44 129t-136 43h-108z" />
    <glyph glyph-name="uni0413" unicode="&#x413;" horiz-adv-x="652" 
d="M0 0l310 1462h492l-29 -138h-342l-279 -1324h-152z" />
    <glyph glyph-name="uni0414" unicode="&#x414;" horiz-adv-x="933" 
d="M-191 -387l112 524h80q73 131 142.5 284.5t132.5 323.5t116.5 351t93.5 366h487l-283 -1325h119l-111 -524h-150l83 387h-591l-81 -387h-150zM162 137h378l255 1190h-195q-39 -167 -90.5 -334t-109.5 -323.5t-119 -292t-119 -240.5z" />
    <glyph glyph-name="uni0415" unicode="&#x415;" horiz-adv-x="744" 
d="M0 0l310 1462h523l-29 -136h-371l-104 -493h347l-31 -137h-346l-118 -559h371l-29 -137h-523z" />
    <glyph glyph-name="uni0416" unicode="&#x416;" horiz-adv-x="1131" 
d="M-137 0l506 763l-193 699h156l185 -704l150 704h149l-150 -702l472 702h165l-491 -712l188 -750h-159l-177 748l-158 -748h-148l157 748l-483 -748h-169z" />
    <glyph glyph-name="uni0417" unicode="&#x417;" horiz-adv-x="786" 
d="M209 -20q-88 0 -150.5 13.5t-108.5 38.5v160q47 -35 109.5 -55.5t137.5 -20.5q80 0 138.5 27t96.5 75t56.5 110.5t18.5 133.5q0 119 -57.5 174t-161.5 55h-109l29 138h110q103 0 175 46.5t109.5 124.5t37.5 171q0 82 -42 128.5t-127 46.5q-70 0 -121.5 -25t-101.5 -65
l-61 115q68 53 144 82.5t170 29.5q93 0 158.5 -35.5t100 -100.5t34.5 -155q0 -106 -38 -195.5t-108 -150t-167 -81.5l-2 -6q54 -16 95.5 -53.5t65 -97.5t23.5 -145q0 -100 -30.5 -187.5t-89 -154t-143 -104t-191.5 -37.5z" />
    <glyph glyph-name="uni0418" unicode="&#x418;" horiz-adv-x="1043" 
d="M0 0l310 1462h148l-139 -660q-18 -83 -36.5 -169t-37.5 -170.5t-41 -164.5h6l701 1164h179l-310 -1462h-148l135 645q21 92 42 189.5t42 186t40 151.5h-6l-703 -1172h-182z" />
    <glyph glyph-name="uni0419" unicode="&#x419;" horiz-adv-x="1043" 
d="M0 0l310 1462h148l-139 -660q-18 -83 -36.5 -169t-37.5 -170.5t-41 -164.5h6l701 1164h179l-310 -1462h-148l135 645q21 92 42 189.5t42 186t40 151.5h-6l-703 -1172h-182zM740 1611q-76 0 -127 26.5t-76.5 76t-25.5 116.5q0 17 2 38.5t6 40.5h121q-1 -16 -3.5 -35.5
t-2.5 -39.5q0 -59 28 -90.5t86 -31.5q72 0 112.5 50.5t60.5 146.5h125q-21 -102 -62 -168t-101.5 -98t-142.5 -32z" />
    <glyph glyph-name="uni041A" unicode="&#x41a;" horiz-adv-x="802" 
d="M1 0l309 1462h152l-149 -704l491 704h168l-510 -714l216 -748h-163l-204 745l-158 -745h-152z" />
    <glyph glyph-name="uni041B" unicode="&#x41b;" horiz-adv-x="919" 
d="M-21 -12q-24 0 -49 3.5t-45 10.5v138q18 -8 37.5 -12.5t41.5 -4.5q29 0 54 15t47.5 48.5t42.5 88.5q30 80 72 210t91.5 291.5t102 337.5t102.5 348h513l-311 -1462h-152l282 1318h-231q-31 -109 -67 -234.5t-74 -253t-75 -246t-70 -216t-58 -160.5q-33 -76 -68.5 -125
t-80 -72t-105.5 -23z" />
    <glyph glyph-name="uni041C" unicode="&#x41c;" horiz-adv-x="1312" 
d="M0 0l310 1462h213l47 -1218h4l552 1218h229l-311 -1462h-150l215 1011q7 31 14 61.5t15 62.5t16 65h-4l-550 -1200h-154l-49 1199h-4q-8 -42 -14.5 -79t-12.5 -71.5t-13 -69.5l-208 -979h-145z" />
    <glyph glyph-name="uni041D" unicode="&#x41d;" horiz-adv-x="979" 
d="M0 0l310 1462h152l-133 -627h408l134 627h152l-311 -1462h-152l147 696h-408l-147 -696h-152z" />
    <glyph glyph-name="uni041E" unicode="&#x41e;" horiz-adv-x="1004" 
d="M384 -20q-105 0 -174 46t-103.5 141t-34.5 240q0 109 16 230t48.5 242t81.5 229.5t114.5 193t148.5 133t183 48.5q156 0 232 -100.5t76 -309.5q0 -96 -14.5 -213t-44.5 -240t-77 -237t-112 -205t-149.5 -144.5t-190.5 -53.5zM395 118q71 0 130 47t106 127t82 180.5
t58 208t34.5 209.5t11.5 185q0 139 -41.5 205t-125.5 66q-76 0 -137 -50t-107.5 -133.5t-80 -186t-55 -208.5t-31.5 -201t-10 -162q0 -101 19 -164.5t56 -93t91 -29.5z" />
    <glyph glyph-name="uni041F" unicode="&#x41f;" horiz-adv-x="969" 
d="M0 0l310 1462h704l-310 -1462h-151l280 1324h-402l-279 -1324h-152z" />
    <glyph glyph-name="uni0420" unicode="&#x420;" horiz-adv-x="815" 
d="M1 0l309 1462h211q109 0 182.5 -39t111 -110t37.5 -168q0 -121 -32.5 -225t-94.5 -180.5t-152 -119.5t-205 -43h-93l-122 -577h-152zM303 715h62q109 0 182 52.5t110 145t37 213.5q0 98 -49 149t-148 51h-64z" />
    <glyph glyph-name="uni0421" unicode="&#x421;" horiz-adv-x="780" 
d="M398 -20q-107 0 -179.5 52.5t-108.5 157.5t-36 262q0 120 24.5 260t74.5 276.5t125 249t176.5 180t228.5 67.5q69 0 126.5 -17.5t102.5 -53.5l-80 -124q-32 29 -70 42.5t-82 13.5q-96 0 -171.5 -63t-131.5 -164.5t-92.5 -220.5t-54.5 -233.5t-18 -200.5q0 -182 48 -264.5
t152 -82.5q44 0 91 12.5t99 34.5v-139q-55 -23 -112 -34t-112 -11z" />
    <glyph glyph-name="uni0422" unicode="&#x422;" horiz-adv-x="694" 
d="M135 0l281 1324h-253l31 138h657l-31 -138h-252l-281 -1324h-152z" />
    <glyph glyph-name="uni0423" unicode="&#x423;" horiz-adv-x="705" 
d="M26 -18q-37 0 -63.5 5.5t-46.5 15.5v138q20 -13 46 -18.5t50 -5.5q32 0 57.5 13t50 47t55 94.5t72.5 155.5l-73 1035h154l32 -616q2 -34 4 -75.5t4 -79.5t2 -63q19 50 40.5 105.5t47.5 112.5l276 616h159l-541 -1163q-44 -98 -91 -169t-103.5 -109.5t-131.5 -38.5z" />
    <glyph glyph-name="uni0424" unicode="&#x424;" horiz-adv-x="1155" 
d="M357 -20l49 225q-100 8 -172 53t-110 129.5t-38 210.5q0 148 38 275t110 222t174.5 149.5t230.5 58.5l37 180h149l-37 -180q99 -7 170.5 -53t110 -130t38.5 -206q0 -150 -40 -278t-113.5 -224t-175 -150.5t-224.5 -56.5l-49 -225h-148zM432 338l179 831
q-97 -2 -167.5 -53.5t-115.5 -135.5t-66.5 -183t-21.5 -197q0 -86 22.5 -143t65.5 -86t104 -33zM581 338q89 2 158 51t116 131t71.5 183.5t24.5 207.5q0 87 -23.5 143.5t-66.5 85t-104 29.5z" />
    <glyph glyph-name="uni0425" unicode="&#x425;" horiz-adv-x="745" 
d="M-121 0l440 771l-97 691h157l62 -549l288 549h161l-396 -712l97 -750h-161l-57 601l-332 -601h-162z" />
    <glyph glyph-name="uni0426" unicode="&#x426;" horiz-adv-x="1009" 
d="M601 -387l83 387h-675l311 1462h152l-282 -1325h400l280 1325h152l-280 -1325h121l-114 -524h-148z" />
    <glyph glyph-name="uni0427" unicode="&#x427;" horiz-adv-x="940" 
d="M511 0l128 603q-62 -37 -131.5 -62t-131.5 -25q-76 0 -128.5 28.5t-79 82.5t-26.5 130q0 35 5 73t13 73l120 559h151l-116 -545q-8 -37 -11.5 -65t-3.5 -56q0 -72 33.5 -106.5t98.5 -34.5q62 0 121 23.5t113 56.5l154 727h152l-309 -1462h-152z" />
    <glyph glyph-name="uni0428" unicode="&#x428;" horiz-adv-x="1354" 
d="M0 0l310 1462h152l-283 -1325h324l281 1325h152l-281 -1325h322l282 1325h151l-310 -1462h-1100z" />
    <glyph glyph-name="uni0429" unicode="&#x429;" horiz-adv-x="1387" 
d="M990 -387l83 387h-1073l310 1462h152l-283 -1325h324l281 1325h152l-281 -1325h322l283 1325h152l-283 -1325h123l-114 -524h-148z" />
    <glyph glyph-name="uni042A" unicode="&#x42a;" horiz-adv-x="955" 
d="M123 0l279 1321h-256l31 141h407l-130 -621h71q110 0 184 -36t112 -107.5t38 -179.5q0 -111 -30.5 -205.5t-89.5 -164.5t-145 -109t-198 -39h-273zM303 135h111q93 0 157.5 46.5t98 131t33.5 198.5q0 102 -53 148.5t-151 46.5h-74z" />
    <glyph glyph-name="uni042B" unicode="&#x42b;" horiz-adv-x="1235" 
d="M1 0l308 1462h152l-130 -621h76q109 0 182.5 -35.5t111 -106t37.5 -176.5q0 -101 -27.5 -194.5t-84.5 -167.5t-146 -117.5t-212 -43.5h-267zM181 135h107q78 0 133.5 30.5t91 83.5t52.5 121t17 144q0 101 -52.5 146.5t-159.5 45.5h-68zM812 0l312 1462h151l-311 -1462
h-152z" />
    <glyph glyph-name="uni042C" unicode="&#x42c;" horiz-adv-x="830" 
d="M1 0l307 1462h152l-129 -621h74q109 0 183 -36t112 -106.5t38 -175.5q0 -101 -27.5 -194.5t-84.5 -167.5t-146 -117.5t-212 -43.5h-267zM181 135h107q78 0 133.5 30.5t91 83.5t52.5 121t17 144q0 101 -53.5 146.5t-151.5 45.5h-75z" />
    <glyph glyph-name="uni042D" unicode="&#x42d;" horiz-adv-x="832" 
d="M177 -20q-68 0 -120.5 11.5t-97.5 33.5v143q35 -17 71 -28t73 -16.5t72 -5.5q103 0 184.5 65t140.5 192.5t93 316.5h-405l31 138h396q7 47 11 96t4 96q0 108 -23 180t-67.5 108t-108.5 36q-48 0 -95.5 -14t-97.5 -44l-45 123q59 35 124.5 54.5t138.5 19.5q105 0 179 -52
t112.5 -155t38.5 -257q0 -133 -20.5 -278t-65 -280.5t-116 -244.5t-172.5 -173.5t-235 -64.5z" />
    <glyph glyph-name="uni042E" unicode="&#x42e;" horiz-adv-x="1310" 
d="M728 -20q-92 0 -154 41.5t-92.5 129t-30.5 224.5q0 63 9 145t28 176h-189l-147 -696h-152l310 1462h152l-133 -629h185q30 124 73.5 240t103.5 208.5t139 147t180 54.5q134 0 204.5 -94t70.5 -289q0 -92 -14.5 -210t-44 -244t-74.5 -244.5t-107 -213.5t-141 -151.5
t-176 -56.5zM736 118q66 0 120.5 54.5t98 144.5t76 199t54 220.5t32.5 209t11 161.5q0 120 -33 179.5t-103 59.5q-64 0 -118.5 -53t-97.5 -141.5t-76 -196t-55 -217.5t-33 -206t-11 -161q0 -91 15.5 -147t45.5 -81t74 -25z" />
    <glyph glyph-name="uni042F" unicode="&#x42f;" horiz-adv-x="844" 
d="M-112 0l430 655q-73 34 -114.5 109.5t-41.5 189.5q0 104 29.5 195.5t89.5 162t149.5 110.5t209.5 40h245l-309 -1462h-152l130 617h-100l-392 -617h-174zM506 748h77l122 581h-87q-78 0 -134.5 -30t-92.5 -81.5t-53.5 -117t-17.5 -135.5q0 -108 47.5 -162.5t138.5 -54.5z
" />
    <glyph glyph-name="uni0430" unicode="&#x430;" horiz-adv-x="856" 
d="M263 -20q-68 0 -116 35t-72.5 103.5t-24.5 166.5q0 92 17 203t51 221.5t87 202.5t124.5 148t162.5 56q47 0 83 -18.5t61 -55t37 -89.5h6l45 143h125l-233 -1096h-118l15 159h-4q-36 -56 -74 -96.5t-80 -61.5t-92 -21zM309 109q71 0 121 56t85 143t59 180q25 99 38.5 180
t13.5 151q0 79 -31.5 122.5t-87.5 43.5q-57 0 -105 -46.5t-85 -122.5t-62.5 -168t-39 -184t-13.5 -168q0 -96 27 -141.5t80 -45.5z" />
    <glyph glyph-name="uni0431" unicode="&#x431;" horiz-adv-x="813" 
d="M302 -20q-75 0 -131.5 34t-88 109t-31.5 197q0 106 17 244.5t54.5 285t99 280t151 233t209.5 140.5q30 11 66 20t77 17t88.5 14.5t99.5 11.5v-135q-56 -5 -107 -11.5t-99 -17t-97 -27.5q-80 -29 -141 -99.5t-106 -171.5t-79 -220h8q42 62 102 97.5t124 35.5q74 0 124 -35
t75.5 -104t25.5 -170q0 -121 -28.5 -248.5t-84.5 -236.5t-138 -176t-190 -67zM310 109q55 0 99.5 39.5t78 104.5t57 143t35 157t11.5 145q0 77 -24 135t-95 58q-40 0 -81 -23t-78 -65.5t-65 -101.5q-23 -109 -37 -206.5t-14 -180.5q0 -69 13.5 -114.5t38.5 -68t61 -22.5z
" />
    <glyph glyph-name="uni0432" unicode="&#x432;" horiz-adv-x="849" 
d="M343 -20q-90 0 -156 36t-102 110.5t-36 189.5q0 95 16 203.5t51.5 214t94 192t142.5 138.5t197 52q79 0 136.5 -28t89 -81.5t31.5 -130.5q0 -83 -30.5 -147t-87.5 -105.5t-137 -58.5l-2 -6q70 -15 113 -73.5t43 -157.5q0 -94 -42 -173t-123 -127t-198 -48zM361 100
q63 0 108 31.5t69 83.5t24 113q0 55 -19.5 94.5t-59.5 61.5t-101 22h-166q-6 -40 -11 -87.5t-5 -97.5q0 -124 42.5 -172.5t118.5 -48.5zM240 622h164q73 0 129.5 28.5t89 83t32.5 131.5q0 63 -31 96.5t-92 33.5q-68 0 -123 -43t-97 -126t-72 -204z" />
    <glyph glyph-name="uni0433" unicode="&#x433;" horiz-adv-x="639" 
d="M260 -20q-77 0 -136 26.5t-92.5 81t-34.5 139.5q0 75 19 133.5t54.5 104.5t84.5 84t109 72q61 37 110 73t78 81t29 108q0 53 -31 79t-83 26q-51 0 -93 -16.5t-80 -38.5l-39 113q56 35 114.5 52.5t119.5 17.5q77 0 130.5 -27t81.5 -78t28 -124q0 -68 -19.5 -121.5
t-54.5 -95.5t-81.5 -77t-100.5 -67q-84 -50 -133 -92t-70 -88.5t-21 -108.5q0 -64 37.5 -96t100.5 -32q38 0 72 8.5t65.5 23t60.5 31.5v-134q-51 -28 -108.5 -43t-116.5 -15z" />
    <glyph glyph-name="uni0434" unicode="&#x434;" horiz-adv-x="841" 
d="M323 -20q-90 0 -150 39t-90.5 112.5t-30.5 175.5q0 81 14 179.5t44 197.5t79.5 181.5t119.5 133t164 50.5q44 0 80 -13t63 -34.5t45 -45.5h4q2 32 2.5 70.5t0.5 68.5q0 179 -47.5 265.5t-148.5 86.5q-40 0 -81 -12t-82 -35l-37 120q50 27 107.5 41t115.5 14
q115 0 185.5 -60.5t103 -172t32.5 -264.5q0 -101 -9.5 -220.5t-31 -243t-58 -237t-91 -203t-129.5 -142t-174 -52.5zM330 106q59 0 107 44t84.5 118t62 166t41 189.5t21.5 186.5q-14 35 -38.5 60.5t-55.5 39.5t-68 14q-60 0 -106 -42.5t-79 -111.5t-54.5 -151.5t-31.5 -164
t-10 -146.5q0 -108 31.5 -155t95.5 -47z" />
    <glyph glyph-name="uni0435" unicode="&#x435;" horiz-adv-x="770" 
d="M331 -20q-88 0 -151 38.5t-96.5 112.5t-33.5 181q0 166 35.5 311.5t99.5 256.5t149.5 173.5t185.5 62.5q99 0 157 -56t58 -166q0 -89 -34 -162.5t-99 -126t-159.5 -81t-215.5 -28.5h-14q-7 -40 -11.5 -82t-4.5 -84q0 -118 42 -172t127 -54q55 0 101.5 14.5t103.5 47.5
v-125q-51 -32 -111 -46.5t-129 -14.5zM234 610h7q126 0 204 35.5t114.5 98t36.5 142.5q0 50 -23 78t-73 28q-55 0 -106.5 -49.5t-92.5 -135.5t-67 -197z" />
    <glyph glyph-name="uni0436" unicode="&#x436;" horiz-adv-x="1229" 
d="M-22 -16q-19 0 -38 2t-37 6l34 128q8 -4 18.5 -5.5t27.5 -1.5q65 0 115.5 47.5t87 125t60 168t34.5 178t11 153.5q0 106 -33 153t-96 47q-10 0 -21.5 -1.5t-22.5 -4.5v124q14 5 33.5 7t40.5 2q118 0 180.5 -77.5t62.5 -234.5q0 -42 -3 -88t-11 -95h133l104 479h140
l-103 -479h131q22 96 57.5 185t86.5 158.5t120 110.5t157 41q17 0 34 -1.5t33 -4.5l-33 -128q-7 4 -16 4.5t-24 0.5q-62 0 -112 -45t-87 -119.5t-62 -163.5t-37.5 -179.5t-12.5 -165.5q0 -103 33 -151t99 -48q12 0 24 1.5t23 4.5v-124q-16 -4 -35.5 -6.5t-40.5 -2.5
q-80 0 -135.5 34.5t-84 104t-28.5 173.5q0 45 5 95.5t12 103.5h-134l-103 -495h-143l106 495h-128q-27 -119 -67.5 -213.5t-94 -161t-118.5 -101.5t-142 -35z" />
    <glyph glyph-name="uni0437" unicode="&#x437;" horiz-adv-x="635" 
d="M177 -20q-69 0 -126 14.5t-98 41.5v143q49 -35 102 -53.5t108 -18.5q71 0 117.5 31.5t69 87.5t22.5 128q0 80 -38 122t-107 42h-82l27 119h72q62 0 108 31t71.5 82t25.5 110q0 65 -29.5 97.5t-86.5 32.5q-38 0 -75 -11.5t-73 -32.5l-40 113q54 32 107.5 44.5t112.5 12.5
q75 0 126.5 -27.5t77.5 -79t26 -125.5q0 -73 -25.5 -133.5t-71.5 -103t-108 -62.5l-2 -8q62 -19 97.5 -77.5t35.5 -148.5q0 -103 -40.5 -187t-117.5 -134t-186 -50z" />
    <glyph glyph-name="uni0438" unicode="&#x438;" horiz-adv-x="834" 
d="M245 -20q-63 0 -106 24t-65.5 70.5t-22.5 113.5q0 38 7.5 89.5t17.5 97.5l154 721h147l-149 -704q-11 -46 -18 -90.5t-7 -84.5q0 -49 22 -76.5t68 -27.5q63 0 111 45.5t84.5 133.5t62.5 214l125 590h146l-231 -1096h-118l14 141h-6q-29 -51 -66.5 -87t-80.5 -55t-89 -19z
" />
    <glyph glyph-name="uni0439" unicode="&#x439;" horiz-adv-x="834" 
d="M245 -20q-63 0 -106 24t-65.5 70.5t-22.5 113.5q0 38 7.5 89.5t17.5 97.5l154 721h147l-149 -704q-11 -46 -18 -90.5t-7 -84.5q0 -49 22 -76.5t68 -27.5q63 0 111 45.5t84.5 133.5t62.5 214l125 590h146l-231 -1096h-118l14 141h-6q-29 -51 -66.5 -87t-80.5 -55t-89 -19z
M553 1232q-76 0 -127 26.5t-76.5 76t-25.5 116.5q0 17 2 38.5t6 40.5h121q-1 -16 -3.5 -35.5t-2.5 -39.5q0 -59 28 -90.5t86 -31.5q72 0 112.5 50.5t60.5 146.5h125q-21 -102 -62 -168t-101.5 -98t-142.5 -32z" />
    <glyph glyph-name="uni043A" unicode="&#x43a;" horiz-adv-x="710" 
d="M2 0l232 1096h147l-110 -515l371 515h164l-391 -528l177 -568h-157l-169 564l-118 -564h-146z" />
    <glyph glyph-name="uni043B" unicode="&#x43b;" horiz-adv-x="777" 
d="M-25 -12q-25 0 -42 4t-33 10v129q12 -5 26 -8t31 -3q33 1 61.5 20t53.5 65.5t49 129t49 210.5q28 140 62.5 244.5t83 174.5t118.5 104.5t169 34.5q53 0 99.5 -4t98.5 -12l-230 -1087h-147l206 967q-13 2 -26.5 3.5t-30.5 1.5q-71 0 -118 -48.5t-81.5 -151t-70.5 -266.5
q-29 -138 -59.5 -236t-67.5 -160t-86 -91.5t-115 -30.5z" />
    <glyph glyph-name="uni043C" unicode="&#x43c;" horiz-adv-x="1029" 
d="M1 0l236 1096h197l2 -878h4l377 878h205l-233 -1096h-142l132 607q14 65 27 124t29 121h-4l-374 -852h-126l-10 852h-2q-11 -56 -21 -108t-22 -108l-136 -636h-139z" />
    <glyph glyph-name="uni043D" unicode="&#x43d;" horiz-adv-x="842" 
d="M2 0l232 1096h147l-97 -462h304l96 462h147l-233 -1096h-146l109 506h-306l-107 -506h-146z" />
    <glyph glyph-name="uni043E" unicode="&#x43e;" horiz-adv-x="823" 
d="M308 -20q-81 0 -138 37t-87.5 110.5t-30.5 180.5q0 82 15.5 188t49 214.5t88 200.5t132 148.5t180.5 56.5q80 0 137 -38.5t87 -112.5t30 -182q0 -100 -17.5 -211t-53.5 -216t-91.5 -190t-130.5 -135.5t-170 -50.5zM323 109q58 0 105 45t83 119.5t60.5 164.5t37 181
t12.5 168q0 64 -13.5 109t-40.5 68.5t-68 23.5q-62 0 -110.5 -49t-84 -128t-58.5 -171t-34.5 -180.5t-11.5 -153.5q0 -96 31 -146.5t92 -50.5z" />
    <glyph glyph-name="uni043F" unicode="&#x43f;" horiz-adv-x="830" 
d="M0 0l232 1096h120l-21 -149h5q30 55 67 92.5t81.5 57t94.5 19.5q55 0 98.5 -21.5t69 -66t25.5 -115.5q0 -43 -9.5 -100t-20.5 -111l-149 -702h-146l144 683q11 51 20 104.5t9 95.5q0 47 -23 72.5t-69 25.5q-62 0 -109.5 -45t-83 -132t-62.5 -214l-125 -590h-148z" />
    <glyph glyph-name="uni0440" unicode="&#x440;" horiz-adv-x="844" 
d="M-96 -476l330 1572h122l-22 -162h6q37 60 76 100.5t82 61t92 20.5q68 0 114.5 -33.5t71 -101.5t24.5 -170q0 -94 -17.5 -206t-52 -222t-87.5 -201.5t-124 -146.5t-160 -55q-47 0 -84 19.5t-62 54.5t-36 81h-6q-7 -52 -16 -104t-20 -97l-88 -410h-143zM344 109
q57 0 105 46.5t85 123.5t63 169t39.5 185t13.5 170q0 96 -27 141.5t-82 45.5q-52 0 -95.5 -37t-78 -99t-61 -138.5t-44 -157t-26.5 -153.5t-9 -127q0 -82 29.5 -125.5t87.5 -43.5z" />
    <glyph glyph-name="uni0441" unicode="&#x441;" horiz-adv-x="638" 
d="M310 -20q-84 0 -141.5 37t-87 110.5t-29.5 182.5q0 97 17 207t53 216t92 192.5t133 138.5t177 52q52 0 95.5 -11t80.5 -34l-59 -122q-26 18 -57.5 27.5t-61.5 9.5q-80 0 -140 -65t-100 -167t-60 -216t-20 -213q0 -75 16 -122.5t47.5 -70.5t77.5 -23q37 0 78 14.5t85 39.5
v-129q-38 -23 -89 -38.5t-107 -15.5z" />
    <glyph glyph-name="uni0442" unicode="&#x442;" horiz-adv-x="1240" 
d="M0 0l232 1096h120l-21 -144h6q30 53 66 89.5t79.5 55.5t92.5 19q78 0 123 -35t59 -107h4q30 45 66 77t79 48.5t93 16.5q86 0 135.5 -51.5t49.5 -153.5q0 -30 -5 -67.5t-13 -73.5l-163 -770h-146l157 743q8 38 13 73t5 56q0 55 -24 83t-69 28q-43 0 -76.5 -22.5
t-58.5 -60.5t-42.5 -85.5t-28.5 -96.5l-153 -718h-146l162 762q8 32 10.5 61.5t2.5 50.5q0 53 -22 81t-68 28q-53 0 -92.5 -31.5t-68 -85.5t-48.5 -123.5t-35 -144.5l-127 -598h-148z" />
    <glyph glyph-name="uni0443" unicode="&#x443;" horiz-adv-x="686" 
d="M-91 -494q-34 0 -60 6t-47 15l20 131q20 -7 40 -12t44 -5q60 0 97.5 46.5t74.5 131.5l82 188l-25 1089h146l3 -629q0 -38 -1 -78.5t-2.5 -81.5t-4.5 -82h6q13 41 27.5 80.5t29 75.5t25.5 64l276 651h152l-577 -1312q-38 -86 -79.5 -148.5t-95.5 -96t-131 -33.5z" />
    </font>
</defs>
</svg>
