<?xml version="1.0" standalone="no"?>
<!DOCTYPE svg PUBLIC "-//W3C//DTD SVG 1.1//EN" "http://www.w3.org/Graphics/SVG/1.1/DTD/svg11.dtd" >
<svg xmlns="http://www.w3.org/2000/svg" xmlns:xlink="http://www.w3.org/1999/xlink" version="1.1">
<metadata>
Created by FontForge 20170731 at Wed Feb 10 17:54:38 2021
 By Aleksey,,,
Copyright 2020 The Open Sans Project Authors (https://github.com/googlefonts/opensans)
</metadata>
<defs>
<font id="OpenSansCondensed-Light" horiz-adv-x="0" >
  <font-face 
    font-family="Open Sans Condensed Light"
    font-weight="300"
    font-stretch="condensed"
    units-per-em="2048"
    panose-1="0 0 0 0 0 0 0 0 0 0"
    ascent="1638"
    descent="-410"
    x-height="1087"
    cap-height="1462"
    bbox="-1035 -516 1984 2113"
    underline-thickness="50"
    underline-position="-175"
    unicode-range="U+000D-FFFD"
  />
<missing-glyph horiz-adv-x="1229" 
 />
    <glyph glyph-name="f_f" unicode="ff" horiz-adv-x="929" 
d="M419 1003h-165v-1003h-95v1003h-140v60l140 27v123q0 118 20 196.5t68 118t131 39.5q40 0 73.5 -8t62.5 -21l-29 -78q-24 11 -50 16.5t-51 5.5q-73 0 -101 -62t-29 -214v-119h165v-84zM884 1003h-165v-1003h-95v1003h-140v60l140 27v123q0 118 20 196.5t68 118t131 39.5
q40 0 73.5 -8t62.5 -21l-29 -78q-24 11 -50 16.5t-51 5.5q-73 0 -101 -62t-29 -214v-119h165v-84z" />
    <glyph glyph-name="fi" unicode="fi" horiz-adv-x="840" 
d="M419 1003h-165v-1003h-95v1003h-140v60l140 27v123q0 118 20 196.5t68 118t131 39.5q40 0 73.5 -8t62.5 -21l-29 -78q-24 11 -50 16.5t-51 5.5q-73 0 -101 -62t-29 -214v-119h165v-84zM696 1087v-1087h-94v1087h94zM652 1494q35 0 51.5 -25t16.5 -62q0 -40 -18.5 -64
t-51.5 -24q-32 0 -50.5 24.5t-18.5 62.5t17 63t54 25z" />
    <glyph glyph-name="fl" unicode="fl" horiz-adv-x="828" 
d="M419 1003h-165v-1003h-95v1003h-140v60l140 27v123q0 118 20 196.5t68 118t131 39.5q40 0 73.5 -8t62.5 -21l-29 -78q-24 11 -50 16.5t-51 5.5q-73 0 -101 -62t-29 -214v-119h165v-84zM690 0h-97v1556h97v-1556z" />
    <glyph glyph-name="f_f_i" unicode="ffi" horiz-adv-x="1295" 
d="M419 1003h-165v-1003h-95v1003h-140v60l140 27v123q0 118 20 196.5t68 118t131 39.5q40 0 73.5 -8t62.5 -21l-29 -78q-24 11 -50 16.5t-51 5.5q-73 0 -101 -62t-29 -214v-119h165v-84zM872 1003h-165v-1003h-95v1003h-140v60l140 27v123q0 118 20 196.5t68 118t131 39.5
q40 0 73.5 -8t62.5 -21l-29 -78q-24 11 -50 16.5t-51 5.5q-73 0 -101 -62t-29 -214v-119h165v-84zM1149 1087v-1087h-94v1087h94zM1105 1494q35 0 51.5 -25t16.5 -62q0 -40 -18.5 -64t-51.5 -24q-32 0 -50.5 24.5t-18.5 62.5t17 63t54 25z" />
    <glyph glyph-name="f_f_l" unicode="ffl" horiz-adv-x="1281" 
d="M419 1003h-165v-1003h-95v1003h-140v60l140 27v123q0 118 20 196.5t68 118t131 39.5q40 0 73.5 -8t62.5 -21l-29 -78q-24 11 -50 16.5t-51 5.5q-73 0 -101 -62t-29 -214v-119h165v-84zM872 1003h-165v-1003h-95v1003h-140v60l140 27v123q0 118 20 196.5t68 118t131 39.5
q40 0 73.5 -8t62.5 -21l-29 -78q-24 11 -50 16.5t-51 5.5q-73 0 -101 -62t-29 -214v-119h165v-84zM1143 0h-97v1556h97v-1556z" />
    <glyph glyph-name=".notdef" horiz-adv-x="1229" 
 />
    <glyph glyph-name=".null" 
 />
    <glyph glyph-name="nonmarkingreturn" horiz-adv-x="682" 
 />
    <glyph glyph-name="NULL" 
 />
    <glyph glyph-name="NULL" 
 />
    <glyph glyph-name="CR" unicode="&#xd;" horiz-adv-x="383" 
 />
    <glyph glyph-name="space" unicode=" " horiz-adv-x="383" 
 />
    <glyph glyph-name="exclam" unicode="!" horiz-adv-x="428" 
d="M253 372h-77l-19 1090h116zM141 80q0 43 17 68.5t57 25.5q37 0 55.5 -22.5t18.5 -71.5q0 -47 -19.5 -70.5t-54.5 -23.5q-40 0 -57 25t-17 69z" />
    <glyph glyph-name="quotedbl" unicode="&#x22;" horiz-adv-x="666" 
d="M241 1462l-19 -528h-75l-19 528h113zM539 1462l-19 -528h-74l-20 528h113z" />
    <glyph glyph-name="numbersign" unicode="#" horiz-adv-x="896" 
d="M673 958l-46 -410h181v-82h-189l-58 -466h-80l58 466h-245l-56 -466h-77l54 466h-177v82h186l47 410h-186v80h197l49 424h78l-48 -424h242l49 424h76l-47 -424h177v-80h-185zM303 548h245l47 410h-243z" />
    <glyph glyph-name="dollar" unicode="$" horiz-adv-x="834" 
d="M372 -119v186q-85 2 -164.5 21.5t-133.5 46.5v96q55 -30 138.5 -54t159.5 -24v557q-98 45 -165 94.5t-102 116.5t-35 160q0 99 39 173t107 117.5t156 50.5v134h69v-131q76 -3 144 -20.5t130 -51.5l-34 -82q-54 31 -113 48.5t-127 18.5v-562q110 -49 181 -100t106.5 -114
t35.5 -151q0 -139 -83 -230t-240 -110v-190h-69zM441 157q107 11 171 76.5t64 172.5q0 65 -25 111.5t-77 85t-133 78.5v-524zM372 807v529q-62 -7 -110 -39t-75 -87t-27 -129q0 -70 24.5 -118.5t71.5 -85t116 -70.5z" />
    <glyph glyph-name="percent" unicode="%" horiz-adv-x="1242" 
d="M300 1483q105 0 160 -114.5t55 -342.5q0 -223 -54.5 -342t-158.5 -119q-106 0 -159.5 119.5t-53.5 342.5q0 220 52 338t159 118zM300 1410q-63 0 -95.5 -95.5t-32.5 -288.5q0 -191 32.5 -287t97.5 -96q64 0 96.5 96.5t32.5 286.5q0 191 -33 287.5t-98 96.5zM907 1462
l-490 -1462h-83l490 1462h83zM941 899q102 0 157.5 -114t55.5 -343q0 -235 -56.5 -347.5t-155.5 -112.5q-98 0 -155.5 112t-57.5 349q0 229 54.5 342.5t157.5 113.5zM940 826q-64 0 -96.5 -95.5t-32.5 -289.5q0 -188 32 -285.5t99 -97.5t97.5 100.5t30.5 282.5
q0 189 -33 287t-97 98z" />
    <glyph glyph-name="ampersand" unicode="&#x26;" horiz-adv-x="859" 
d="M384 1483q64 0 111 -33.5t72.5 -99.5t25.5 -165q0 -136 -47 -236.5t-138 -173.5l246 -435q29 58 48.5 143t18.5 168h95q-2 -95 -31 -207t-73 -191l150 -253h-109l-98 177q-36 -56 -81 -101t-100.5 -70.5t-124.5 -25.5q-92 0 -155.5 48t-97 134t-33.5 198q0 90 23.5 166
t74.5 142.5t132 127.5q-38 70 -64.5 133t-40.5 127.5t-14 138.5q0 90 25.5 154.5t73 99t111.5 34.5zM337 726q-67 -52 -106 -108.5t-55 -119t-16 -135.5q0 -137 52.5 -215.5t145.5 -78.5q78 0 138.5 51t107.5 138zM383 1402q-58 0 -88.5 -56t-30.5 -153q0 -92 29.5 -182.5
t71.5 -163.5q79 60 109.5 148.5t30.5 190.5q0 103 -30 159.5t-92 56.5z" />
    <glyph glyph-name="quotesingle" unicode="'" horiz-adv-x="366" 
d="M241 1462l-18 -528h-75l-20 528h113z" />
    <glyph glyph-name="parenleft" unicode="(" horiz-adv-x="561" 
d="M102 568q0 172 34 332.5t99.5 304.5t160.5 262h91q-136 -185 -211.5 -413.5t-75.5 -484.5q0 -174 36 -335t100.5 -301.5t149.5 -256.5h-91q-90 110 -155.5 248.5t-101.5 300.5t-36 343z" />
    <glyph glyph-name="parenright" unicode=")" horiz-adv-x="561" 
d="M457 575q0 -168 -34 -333t-99.5 -311t-158.5 -255h-91q88 115 152 261.5t99 310t35 326.5q0 170 -35.5 329t-100.5 302t-150 262h91q92 -115 157.5 -257t100 -303.5t34.5 -331.5z" />
    <glyph glyph-name="asterisk" unicode="*" horiz-adv-x="739" 
d="M419 1558l-17 -262l232 85l18 -84l-230 -60l169 -215l-73 -48l-146 227l-152 -227l-71 47l171 216l-235 59l21 82l235 -82l-14 262h92z" />
    <glyph glyph-name="plus" unicode="+" horiz-adv-x="841" 
d="M463 762h316v-84h-316v-429h-84v429h-319v84h319v436h84v-436z" />
    <glyph glyph-name="comma" unicode="," horiz-adv-x="398" 
d="M277 217l10 -25q-14 -72 -34 -150t-45 -156.5t-56 -151.5h-76q26 89 45.5 171.5t33.5 160.5t21 151h101z" />
    <glyph glyph-name="hyphen" unicode="-" horiz-adv-x="547" 
d="M54 507v98h439v-98h-439z" />
    <glyph glyph-name="period" unicode="." horiz-adv-x="405" 
d="M128 80q0 43 17 68.5t57 25.5q38 0 56.5 -22.5t18.5 -71.5q0 -47 -19.5 -70.5t-55.5 -23.5q-39 0 -56.5 25t-17.5 69z" />
    <glyph glyph-name="slash" unicode="/" horiz-adv-x="705" 
d="M671 1464l-529 -1466h-96l534 1466h91z" />
    <glyph glyph-name="zero" unicode="0" horiz-adv-x="834" 
d="M742 732q0 -170 -17.5 -307.5t-55 -236t-98.5 -151t-149 -52.5q-113 0 -186 82.5t-109 247.5t-36 413q0 235 34 404t107 260t190 91q116 0 186.5 -92t102 -260t31.5 -399zM192 732q0 -203 23 -350t74 -227t134 -80q82 0 129.5 80.5t69 228t21.5 347.5q0 201 -21.5 349.5
t-70 230t-129.5 81.5q-83 0 -133.5 -80t-73.5 -227.5t-23 -352.5z" />
    <glyph glyph-name="one" unicode="1" horiz-adv-x="834" 
d="M532 0h-99v1094q0 43 0.5 83t1.5 81t3 87q-16 -24 -36.5 -44.5t-49.5 -46.5l-147 -137l-59 63l303 282h83v-1462z" />
    <glyph glyph-name="two" unicode="2" horiz-adv-x="834" 
d="M737 0h-660v72l296 434q76 112 128 208t78.5 190t26.5 201q0 146 -61.5 217t-164.5 71q-65 0 -122 -23t-106 -64l-53 71q41 33 85.5 56.5t94.5 36.5t106 13q100 0 171.5 -44t110 -128t38.5 -203q0 -122 -30.5 -227t-86.5 -204.5t-132 -207.5l-259 -374v-5h540v-90z" />
    <glyph glyph-name="three" unicode="3" horiz-adv-x="834" 
d="M712 1132q0 -97 -32 -170.5t-86 -122t-121 -73.5v-7q119 -28 190 -122t71 -252q0 -120 -42.5 -211.5t-125.5 -142.5t-208 -51q-77 0 -146 15t-130 44v99q56 -30 126.5 -50.5t143.5 -20.5q137 0 208.5 87t71.5 235q0 116 -41.5 187.5t-113.5 104.5t-165 33h-81v87h87
q85 0 151.5 39.5t105.5 112t39 171.5q0 129 -65.5 200t-176.5 71q-51 0 -93 -13t-79.5 -37t-73.5 -56l-52 69q63 59 137 92t169 33q152 0 242 -93.5t90 -257.5z" />
    <glyph glyph-name="four" unicode="4" horiz-adv-x="834" 
d="M810 344h-172v-344h-97v344h-510v85l503 1043h104v-1041h172v-87zM541 431v741q0 22 0.5 42.5t1.5 41.5t1.5 41t1.5 38h-4q-18 -50 -39.5 -100t-42.5 -94l-337 -710h418z" />
    <glyph glyph-name="five" unicode="5" horiz-adv-x="834" 
d="M395 881q119 0 196 -53.5t115 -148t38 -219.5q0 -137 -44 -245.5t-132 -171t-222 -62.5q-75 0 -138.5 16t-108.5 42v102q47 -29 109.5 -51t132.5 -22q105 0 172 53.5t99 141.5t32 196q0 157 -64.5 246t-208.5 89q-59 0 -114 -12t-99 -29l-45 44l47 665h507v-91h-423
l-38 -518q37 11 86.5 19.5t102.5 8.5z" />
    <glyph glyph-name="six" unicode="6" horiz-adv-x="834" 
d="M96 626q0 184 19.5 323.5t55.5 240t89 164.5t121.5 94t148.5 30q41 0 81 -7t68 -18v-88q-30 10 -68.5 16.5t-77.5 6.5q-108 0 -183.5 -77t-115 -227t-41.5 -371h4q14 42 44.5 86.5t82 75t126.5 30.5q102 0 167 -58.5t97 -161t32 -234.5q0 -144 -36.5 -251t-107 -166.5
t-171.5 -59.5q-86 0 -149.5 41t-104.5 123.5t-61 204t-20 283.5zM428 64q107 0 163.5 97.5t56.5 291.5q0 168 -49 265.5t-166 97.5q-75 0 -127.5 -40t-79.5 -111.5t-27 -165.5q0 -59 9.5 -133.5t34 -143t69.5 -113.5t116 -45z" />
    <glyph glyph-name="seven" unicode="7" horiz-adv-x="834" 
d="M203 0l438 1371h-561v91h659v-76l-434 -1386h-102z" />
    <glyph glyph-name="eight" unicode="8" horiz-adv-x="834" 
d="M421 1482q95 0 164.5 -41.5t106.5 -116t37 -173.5q0 -92 -30.5 -161t-85.5 -122t-129 -98q79 -51 141.5 -110t99 -132.5t36.5 -168.5q0 -109 -41 -194.5t-117.5 -135t-183.5 -49.5t-184.5 47t-120 131t-42.5 194q0 100 33.5 176.5t93.5 135.5t138 107q-71 50 -122.5 107
t-79.5 125t-28 149q0 97 38 171t109 116.5t167 42.5zM170 351q0 -129 68 -207t178 -78q119 0 183 83.5t64 206.5q0 63 -21.5 122t-70.5 115t-129 108l-33 23q-73 -44 -126.5 -96t-83 -119t-29.5 -158zM420 1396q-101 0 -159 -67.5t-58 -181.5q0 -71 25 -129t72.5 -106
t114.5 -91q67 41 115.5 86t75 102t26.5 136q0 118 -56.5 184.5t-155.5 66.5z" />
    <glyph glyph-name="nine" unicode="9" horiz-adv-x="834" 
d="M729 836q0 -184 -19.5 -325t-56.5 -242t-90 -164.5t-120.5 -94t-148.5 -30.5q-39 0 -82 7t-70 17v90q31 -11 70 -18.5t81 -7.5q115 0 189.5 84t111.5 236t39 356h-4q-13 -41 -43.5 -85.5t-81.5 -75.5t-126 -31q-102 0 -168.5 58.5t-98 161t-31.5 234.5q0 145 37 252
t108 166t174 59q84 0 146 -41t102.5 -122.5t61 -202t20.5 -281.5zM401 1393q-110 0 -166 -98.5t-56 -288.5q0 -168 49 -266.5t166 -98.5q75 0 127 41.5t79 114.5t27 167q0 57 -8.5 130t-32 141.5t-68.5 113t-117 44.5z" />
    <glyph glyph-name="colon" unicode=":" horiz-adv-x="406" 
d="M129 82q0 42 16.5 67.5t57.5 25.5q40 0 57.5 -24.5t17.5 -68.5t-18 -69.5t-57 -25.5q-43 0 -58.5 26.5t-15.5 68.5zM129 1000q0 44 17 69.5t58 25.5q38 0 56 -23t18 -70t-19.5 -71.5t-55.5 -24.5q-40 0 -57 25.5t-17 68.5z" />
    <glyph glyph-name="semicolon" unicode=";" horiz-adv-x="402" 
d="M278 217l11 -25q-15 -72 -35 -150t-46 -156.5t-57 -151.5h-74q30 106 48 185.5t30.5 149.5t21.5 148h101zM135 1002q0 42 17 67.5t57 25.5q39 0 57 -23.5t18 -69.5q0 -47 -19.5 -71.5t-55.5 -24.5q-40 0 -57 26t-17 70z" />
    <glyph glyph-name="less" unicode="&#x3c;" horiz-adv-x="841" 
d="M780 291l-721 418v65l721 385v-97l-612 -321l612 -355v-95z" />
    <glyph glyph-name="equal" unicode="=" horiz-adv-x="841" 
d="M60 898v87h718v-87h-718zM60 459v85h718v-85h-718z" />
    <glyph glyph-name="greater" unicode="&#x3e;" horiz-adv-x="841" 
d="M60 386l615 354l-615 322v97l720 -385v-65l-720 -418v95z" />
    <glyph glyph-name="question" unicode="?" horiz-adv-x="581" 
d="M184 372v51q0 78 9.5 136.5t33 110t65.5 110.5q47 65 79.5 120t49.5 114.5t17 136.5q0 123 -48.5 183t-135.5 60q-50 0 -95 -16.5t-88 -45.5l-40 76q46 33 104.5 54t123.5 21q127 0 201.5 -82.5t74.5 -247.5q0 -94 -21.5 -162.5t-58.5 -127t-83 -124.5q-46 -63 -69 -113
t-30.5 -98.5t-7.5 -112.5v-43h-81zM152 79q0 44 17.5 69.5t57.5 25.5q36 0 55 -22t19 -70t-20 -72t-55 -24q-39 0 -56.5 25t-17.5 68z" />
    <glyph glyph-name="at" unicode="@" horiz-adv-x="1272" 
d="M1173 714q0 -118 -15 -208.5t-45.5 -152t-74.5 -92.5t-102 -31q-81 0 -119 56t-41 151h-7q-22 -111 -65.5 -159t-102.5 -48q-91 0 -143 92.5t-52 271.5q0 152 34.5 256t97 157t148.5 53q44 0 88 -10t74 -22l-16 -398q-1 -31 -3.5 -71.5t-2.5 -65.5q0 -88 28 -135.5
t81 -47.5q47 0 81 42t53 131.5t19 232.5q0 209 -52 361.5t-147 235.5t-225 82q-117 0 -205 -61t-148 -170t-90 -253.5t-30 -310.5q0 -210 47.5 -369t142 -247t236.5 -88q68 0 137.5 19t113.5 48v-83q-49 -30 -112 -46.5t-138 -16.5q-169 0 -283 94.5t-171.5 269.5t-57.5 415
q0 204 40 366.5t114 276t177 174t229 59.5q160 0 274 -97.5t173.5 -268t59.5 -392.5zM491 593q0 -136 31 -209.5t88 -73.5q52 0 87.5 84.5t45.5 280.5l16 298q-16 6 -36 9.5t-41 3.5q-55 0 -98.5 -45t-68 -132.5t-24.5 -215.5z" />
    <glyph glyph-name="A" unicode="A" horiz-adv-x="829" 
d="M727 0l-126 531h-371l-128 -531h-102l350 1462h126l353 -1462h-102zM581 623l-130 571q-8 35 -14.5 66t-12 60t-11.5 59q-5 -30 -10.5 -58.5t-11.5 -59.5t-15 -66l-128 -572h333z" />
    <glyph glyph-name="B" unicode="B" horiz-adv-x="918" 
d="M156 1462h299q176 0 263.5 -85t87.5 -257q0 -94 -24 -167t-70.5 -119t-114.5 -61v-5q83 -20 136 -66.5t78.5 -120t25.5 -172.5q0 -125 -41 -217t-119.5 -142t-192.5 -50h-328v1462zM254 811h192q131 0 195.5 75t64.5 228q0 131 -61.5 196t-207.5 65h-183v-564zM254 724
v-636h214q127 0 197 81t70 246q0 111 -35 179t-98.5 99t-146.5 31h-201z" />
    <glyph glyph-name="C" unicode="C" horiz-adv-x="874" 
d="M589 1393q-103 0 -175.5 -54.5t-117.5 -148.5t-66 -213t-21 -246q0 -199 47.5 -348t135 -231t206.5 -82q66 0 120 17.5t92 38.5v-92q-43 -25 -99.5 -39.5t-120.5 -14.5q-146 0 -255 91t-168.5 260t-59.5 402q0 150 27.5 285t85.5 240t149 165.5t218 60.5q64 0 123 -16.5
t115 -47.5l-40 -84q-48 30 -98.5 43.5t-97.5 13.5z" />
    <glyph glyph-name="D" unicode="D" horiz-adv-x="1001" 
d="M894 747q0 -246 -52.5 -412.5t-160 -250.5t-272.5 -84h-253v1462h259q163 0 268.5 -80.5t158 -239.5t52.5 -395zM791 741q0 203 -38 344.5t-122 214t-221 72.5h-156v-1282h150q204 0 295.5 165t91.5 486z" />
    <glyph glyph-name="E" unicode="E" horiz-adv-x="796" 
d="M700 0h-544v1462h544v-90h-446v-560h420v-91h-420v-630h446v-91z" />
    <glyph glyph-name="F" unicode="F" horiz-adv-x="743" 
d="M254 0h-98v1462h545v-90h-447v-627h423v-90h-423v-655z" />
    <glyph glyph-name="G" unicode="G" horiz-adv-x="1084" 
d="M618 739h353v-689q-81 -35 -170.5 -52.5t-172.5 -17.5q-180 0 -295 97t-170.5 266.5t-55.5 385.5q0 223 59.5 393t179 265.5t301.5 95.5q82 0 158 -21.5t151 -70.5l-41 -83q-69 47 -135 66t-131 19q-150 0 -247.5 -82.5t-145 -232t-47.5 -351.5q0 -189 44 -337.5
t138 -234t244 -85.5q64 0 126.5 12.5t115.5 31.5v535h-259v90z" />
    <glyph glyph-name="H" unicode="H" horiz-adv-x="1031" 
d="M877 0h-99v721h-524v-721h-98v1462h98v-649h524v649h99v-1462z" />
    <glyph glyph-name="I" unicode="I" horiz-adv-x="408" 
d="M156 0v1462h97v-1462h-97z" />
    <glyph glyph-name="J" unicode="J" horiz-adv-x="410" 
d="M29 -372q-33 0 -65 5.5t-59 18.5v89q27 -9 56.5 -15t60.5 -6q54 0 84.5 28.5t42.5 85t12 141.5v1487h98v-1501q0 -117 -24.5 -190.5t-75 -108t-130.5 -34.5z" />
    <glyph glyph-name="K" unicode="K" horiz-adv-x="828" 
d="M833 0h-108l-354 734l-117 -165v-569h-98v1462h98v-782q12 28 41.5 79t72.5 124l337 579h107l-375 -643z" />
    <glyph glyph-name="L" unicode="L" horiz-adv-x="721" 
d="M156 0v1462h98v-1371h430v-91h-528z" />
    <glyph glyph-name="M" unicode="M" horiz-adv-x="1386" 
d="M638 0l-389 1315h-5q3 -64 4.5 -108t2 -71.5t0.5 -42.5v-1093h-95v1462h140l394 -1321h6l394 1321h143v-1462h-97v1087q0 16 0.5 44.5t1.5 73t2 109.5h-5l-389 -1314h-108z" />
    <glyph glyph-name="N" unicode="N" horiz-adv-x="1082" 
d="M928 0h-117l-561 1296h-5q2 -37 3 -77t2 -85t1 -96v-1038h-95v1462h117l561 -1284h5q-1 52 -2.5 102t-2.5 94t-1 77v1011h95v-1462z" />
    <glyph glyph-name="O" unicode="O" horiz-adv-x="1077" 
d="M970 733q0 -152 -21.5 -288t-70 -240.5t-131.5 -164.5t-206 -60q-124 0 -208 62t-133 168t-71 241.5t-22 282.5q0 250 50 416t146.5 249.5t237.5 83.5q156 0 250 -98t136.5 -268t42.5 -384zM208 733q0 -212 38 -360t113 -225.5t181 -77.5q110 0 183 75t109 223t36 365
q0 322 -81.5 490.5t-245.5 168.5q-112 0 -186 -76.5t-110.5 -223.5t-36.5 -359z" />
    <glyph glyph-name="P" unicode="P" horiz-adv-x="845" 
d="M377 1462q205 0 304 -95t99 -316q0 -116 -24.5 -200t-74 -138.5t-126 -81t-179.5 -26.5h-122v-605h-98v1462h221zM374 1373h-120v-679h124q104 0 170.5 36.5t99 115t32.5 205.5q0 176 -75 249t-231 73z" />
    <glyph glyph-name="Q" unicode="Q" horiz-adv-x="1077" 
d="M970 733q0 -207 -33 -355.5t-97 -240t-157 -129.5l190 -356h-114l-169 332q-14 -2 -28.5 -3t-27.5 -1q-116 0 -197.5 59t-132 163t-74 240.5t-23.5 292.5q0 249 50 415t147.5 249.5t241.5 83.5q132 0 227 -80.5t146 -246.5t51 -423zM208 734q0 -213 37.5 -361.5
t112 -225.5t181.5 -77q111 0 184 75.5t109 223.5t36 364q0 325 -81.5 492t-240.5 167q-116 0 -191 -76.5t-111 -223.5t-36 -358z" />
    <glyph glyph-name="R" unicode="R" horiz-adv-x="871" 
d="M369 1462q135 0 227.5 -39t139 -126t46.5 -231q0 -107 -27.5 -187.5t-82 -133t-139.5 -79.5l303 -666h-110l-284 641h-188v-641h-98v1462h213zM366 1372h-112v-643h150q128 0 203.5 79.5t75.5 256.5q0 163 -73.5 235t-243.5 72z" />
    <glyph glyph-name="S" unicode="S" horiz-adv-x="816" 
d="M731 387q0 -127 -44 -218t-126 -140t-197 -49q-46 0 -95.5 6t-97 18.5t-88.5 31.5v104q60 -31 136 -49t142 -18q91 0 150.5 39t89.5 109t30 160q0 88 -26.5 143t-81.5 96.5t-143 87.5q-60 34 -112.5 68t-92 78t-61 106t-21.5 149q-1 119 45 202.5t128 127.5t188 44
q74 0 144 -18.5t117 -44.5l-35 -88q-60 32 -119.5 45t-105.5 13q-84 0 -142.5 -34.5t-89 -96.5t-30.5 -147q0 -90 30 -147t85.5 -98t131.5 -81q94 -51 159 -101t98.5 -119.5t33.5 -178.5z" />
    <glyph glyph-name="T" unicode="T" horiz-adv-x="723" 
d="M409 0h-99v1372h-294v90h688v-90h-295v-1372z" />
    <glyph glyph-name="U" unicode="U" horiz-adv-x="1023" 
d="M880 1462v-1013q0 -174 -46.5 -276.5t-129 -147.5t-191.5 -45q-180 0 -275 113t-95 356v1013h98v-1008q0 -208 71.5 -296t199.5 -88q82 0 142.5 36t93.5 120t33 229v1007h99z" />
    <glyph glyph-name="V" unicode="V" horiz-adv-x="808" 
d="M808 1462l-348 -1462h-117l-343 1462h99l255 -1110q9 -40 17.5 -79.5t16 -79t13.5 -81.5q7 42 14.5 81.5t16.5 79.5l18 80l256 1109h102z" />
    <glyph glyph-name="W" unicode="W" horiz-adv-x="1381" 
d="M1371 1462l-313 -1462h-122l-212 1067q-5 25 -9 49.5t-8 52t-9 61t-10 73.5q-4 -34 -7.5 -63.5t-8 -57t-9.5 -55.5t-10 -58l-211 -1069h-125l-308 1462h100l221 -1057q10 -51 18.5 -94.5t14.5 -81t11 -66.5t7 -51q6 38 13 79.5t14 81t13 73t11 57.5l210 1059h93
l210 -1058q7 -38 13 -72.5t11.5 -69t11.5 -72.5t12 -83q9 56 17.5 106.5t18 98.5t18.5 93l223 1057h101z" />
    <glyph glyph-name="X" unicode="X" horiz-adv-x="731" 
d="M713 0h-105l-229 666l-258 -666h-103l307 764l-262 698h103l216 -605l222 605h104l-270 -703z" />
    <glyph glyph-name="Y" unicode="Y" horiz-adv-x="705" 
d="M353 694l249 768h103l-303 -893v-569h-99v568l-303 894h102z" />
    <glyph glyph-name="Z" unicode="Z" horiz-adv-x="691" 
d="M650 0h-594v80l476 1291h-458v91h562v-82l-475 -1289h489v-91z" />
    <glyph glyph-name="bracketleft" unicode="[" horiz-adv-x="631" 
d="M561 -326h-398v1793h398v-83h-307v-1627h307v-83z" />
    <glyph glyph-name="backslash" unicode="\" horiz-adv-x="704" 
d="M138 1464l531 -1466h-95l-529 1466h93z" />
    <glyph glyph-name="bracketright" unicode="]" horiz-adv-x="631" 
d="M70 -243h307v1627h-307v83h399v-1793h-399v83z" />
    <glyph glyph-name="asciicircum" unicode="^" horiz-adv-x="846" 
d="M35 732l363 728h68l347 -728h-102l-280 608l-297 -608h-99z" />
    <glyph glyph-name="underscore" unicode="_" horiz-adv-x="837" 
d="M841 -262h-845v82h845v-82z" />
    <glyph glyph-name="grave" unicode="`" horiz-adv-x="492" 
d="M196 1565q30 -53 66.5 -106t74 -102t74.5 -93v-23h-62q-30 28 -66 66t-73.5 80t-70.5 83.5t-57 78.5v16h114z" />
    <glyph glyph-name="a" unicode="a" horiz-adv-x="788" 
d="M390 1108q139 0 200 -89t61 -283v-736h-74l-11 175h-4q-18 -53 -48 -97.5t-77 -71t-118 -26.5q-86 0 -139.5 42.5t-79 111t-25.5 146.5q0 162 92.5 247.5t262.5 99.5l126 12v92q0 162 -41 227.5t-135 65.5q-41 0 -90.5 -14t-107.5 -49l-34 75q55 35 117.5 53.5
t124.5 18.5zM558 563l-118 -10q-137 -13 -202.5 -79.5t-65.5 -191.5q0 -110 45 -167t124 -57q113 0 165 106t52 281v118z" />
    <glyph glyph-name="b" unicode="b" horiz-adv-x="897" 
d="M236 1556v-523v-70.5t-2 -70.5h4q28 100 94.5 157.5t162.5 57.5q157 0 235.5 -141.5t78.5 -414.5q0 -188 -36.5 -315t-107 -191.5t-173.5 -64.5q-94 0 -155 52t-97 144h-7l-15 -176h-78v1556h96zM482 1021q-89 0 -143 -55t-78.5 -152t-24.5 -226v-85q0 -226 65 -331
t176 -105q114 0 174.5 118t60.5 367q0 231 -54.5 350t-175.5 119z" />
    <glyph glyph-name="c" unicode="c" horiz-adv-x="667" 
d="M441 -20q-117 0 -194.5 65t-115.5 188.5t-38 297.5q0 186 42 314.5t122.5 195.5t196.5 67q51 0 93 -11t79 -32l-32 -81q-32 19 -65.5 27.5t-68.5 8.5q-85 0 -145 -54t-92.5 -162.5t-32.5 -270.5q0 -144 27.5 -248.5t85.5 -161.5t149 -57q41 0 83.5 10.5t83.5 30.5v-86
q-37 -19 -86 -30t-92 -11z" />
    <glyph glyph-name="d" unicode="d" horiz-adv-x="897" 
d="M403 -20q-154 0 -233 141.5t-79 411.5q0 280 82 427.5t232 147.5q67 0 118.5 -28.5t86.5 -73.5t53 -98h5q-2 41 -3.5 76.5t-1.5 67.5v504h95v-1556h-75l-13 188h-7q-18 -54 -52 -102t-85 -77t-123 -29zM419 65q119 0 182 108t63 298v142q0 193 -62.5 300t-179.5 107
q-115 0 -174 -124t-59 -363q0 -224 54.5 -346t175.5 -122z" />
    <glyph glyph-name="e" unicode="e" horiz-adv-x="808" 
d="M415 1107q110 0 176.5 -68t96.5 -178t30 -239v-79h-530q0 -234 67.5 -356.5t204.5 -122.5q56 0 111 19t111 57v-93q-49 -32 -106 -49.5t-123 -17.5q-126 0 -206 70.5t-117 197t-37 294.5q0 175 35.5 301.5t107 195t179.5 68.5zM415 1024q-99 0 -157.5 -98.5t-66.5 -301.5
h438q0 108 -22 199.5t-69 146t-123 54.5z" />
    <glyph glyph-name="f" unicode="f" horiz-adv-x="465" 
d="M419 1003h-165v-1003h-95v1003h-140v60l140 27v123q0 118 20 196.5t68 118t131 39.5q40 0 73.5 -8t62.5 -21l-29 -78q-24 11 -50 16.5t-51 5.5q-73 0 -101 -62t-29 -214v-119h165v-84z" />
    <glyph glyph-name="g" unicode="g" horiz-adv-x="715" 
d="M325 -492q-142 0 -225.5 79t-83.5 220q0 120 52 193t132 96q-38 20 -61.5 59t-23.5 93q0 53 24.5 101t72.5 89q-65 36 -101 118.5t-36 193.5q0 108 33 188t94 125t145 45q27 0 47.5 -2.5t37.5 -7t31 -12.5h245v-68l-155 -13q34 -48 49 -114t15 -130q0 -164 -71.5 -259
t-200.5 -95q-39 0 -68 9q-33 -30 -56.5 -68t-23.5 -92q0 -33 14 -57t40 -38t63 -14h144q118 0 181.5 -69.5t63.5 -209.5q0 -170 -98 -265t-280 -95zM333 -410q91 0 152.5 30.5t93 92t31.5 154.5q0 75 -24 116.5t-65.5 56.5t-93.5 15h-124q-52 0 -97 -23t-71 -74.5
t-26 -139.5q0 -113 60.5 -170.5t163.5 -57.5zM347 485q82 0 128 68.5t46 200.5q0 139 -47.5 208t-128.5 69q-80 0 -126.5 -74.5t-46.5 -206.5q0 -126 44 -195.5t131 -69.5z" />
    <glyph glyph-name="h" unicode="h" horiz-adv-x="873" 
d="M236 1556v-507q0 -47 -1 -81t-5 -68h6q18 53 50.5 100.5t82.5 77.5t118 30q84 0 138.5 -40.5t82.5 -120t28 -199.5v-748h-96v728q0 160 -44 226t-123 66q-68 0 -121.5 -44.5t-84.5 -139t-31 -241.5v-595h-96v1556h96z" />
    <glyph glyph-name="i" unicode="i" horiz-adv-x="388" 
d="M243 1087v-1087h-94v1087h94zM199 1494q35 0 51.5 -25t16.5 -62q0 -40 -18.5 -64t-51.5 -24q-32 0 -50.5 24.5t-18.5 62.5t17 63t54 25z" />
    <glyph glyph-name="j" unicode="j" horiz-adv-x="388" 
d="M62 -494q-24 0 -42.5 4.5t-31.5 10.5v89q13 -7 29.5 -10.5t32.5 -3.5q54 0 74.5 46.5t20.5 143.5v1301h95v-1310q0 -99 -22 -158.5t-61.5 -86t-94.5 -26.5zM127 1406q0 38 17 63t53 25t52 -25t16 -62q0 -40 -18 -64t-51 -24t-51 24.5t-18 62.5z" />
    <glyph glyph-name="k" unicode="k" horiz-adv-x="721" 
d="M237 1556v-800q0 -66 -1.5 -124.5t-4.5 -121.5h5q18 34 32.5 59.5t32.5 54.5l282 463h103l-254 -412l278 -675h-101l-241 593l-131 -188v-405h-97v1556h97z" />
    <glyph glyph-name="l" unicode="l" horiz-adv-x="375" 
d="M237 0h-97v1556h97v-1556z" />
    <glyph glyph-name="m" unicode="m" horiz-adv-x="1302" 
d="M928 1108q115 0 176 -86t61 -267v-755h-95v742q0 152 -44.5 216t-116.5 64q-99 0 -153 -96t-54 -262v-664h-95v722q0 115 -20.5 180t-56 92.5t-83.5 27.5q-77 0 -123 -53t-67 -138.5t-21 -183.5v-647h-96v1087h75l11 -182h6q18 51 46.5 97t74 76t114.5 30
q100 0 149.5 -60.5t62.5 -141.5h9q33 92 87.5 147t152.5 55z" />
    <glyph glyph-name="n" unicode="n" horiz-adv-x="873" 
d="M490 1108q119 0 182.5 -84.5t63.5 -264.5v-759h-96v735q0 151 -42.5 219t-121.5 68q-107 0 -173.5 -100.5t-66.5 -309.5v-612h-96v1087h76l8 -200h7q18 59 51.5 109t85 81t122.5 31z" />
    <glyph glyph-name="o" unicode="o" horiz-adv-x="858" 
d="M766 545q0 -138 -20.5 -243.5t-62 -177t-104.5 -108t-148 -36.5q-84 0 -147.5 37t-106.5 109t-64.5 178t-21.5 243q0 182 37 307t112 189.5t190 64.5q117 0 191 -66.5t109.5 -192.5t35.5 -304zM188 547q0 -158 25.5 -264.5t80 -161t138.5 -54.5q82 0 134.5 51.5t78 158.5
t25.5 269q0 151 -23.5 257t-76.5 162t-140 56q-128 0 -185 -121.5t-57 -352.5z" />
    <glyph glyph-name="p" unicode="p" horiz-adv-x="896" 
d="M494 1108q153 0 233 -138t80 -418q0 -192 -38 -319t-108 -190t-168 -63q-69 0 -120 30.5t-84.5 79t-50.5 102.5h-6q2 -27 3.5 -64.5t1.5 -80.5v-528h-97v1568h75l9 -213h7q22 65 55.5 118.5t84 84.5t123.5 31zM478 1022q-77 0 -131.5 -53.5t-82 -149.5t-27.5 -226v-109
q0 -131 29.5 -225t84 -143t128.5 -49q67 0 119.5 47.5t82.5 154t30 282.5q0 229 -55.5 350t-177.5 121z" />
    <glyph glyph-name="q" unicode="q" horiz-adv-x="895" 
d="M661 -481v505q0 27 2 75.5t4 98.5h-7q-34 -99 -96.5 -158.5t-159.5 -59.5q-151 0 -232 141t-81 415q0 184 37 311.5t109.5 194t175.5 66.5q98 0 159 -56t89 -148h7l10 183h78v-1568h-95zM422 66q74 0 127 49t82.5 137.5t29.5 208.5v160q0 192 -61 295t-174 103
q-119 0 -179 -126.5t-60 -357.5q0 -243 64 -356t171 -113z" />
    <glyph glyph-name="r" unicode="r" horiz-adv-x="569" 
d="M458 1105q21 0 45 -4.5t48 -15.5l-20 -94q-15 6 -35.5 11t-42.5 5q-51 0 -91.5 -38t-68.5 -101.5t-42.5 -141t-13.5 -156.5v-570h-97v1087h74l16 -222h7q17 59 46 113.5t72 90.5t103 36z" />
    <glyph glyph-name="s" unicode="s" horiz-adv-x="660" 
d="M592 268q0 -89 -33 -154t-96 -99.5t-157 -34.5q-75 0 -135.5 19t-98.5 43v104q44 -34 105.5 -56t127.5 -22q95 0 142.5 52.5t47.5 147.5q0 61 -20.5 101.5t-61 72.5t-100.5 69q-69 43 -122.5 86t-84 99t-30.5 138q0 117 74 195.5t214 78.5q64 0 120 -16t103 -46l-39 -80
q-38 27 -86 42t-98 15q-88 0 -141.5 -49t-53.5 -139q0 -53 20 -92.5t62 -74t107 -74.5q67 -43 120 -84.5t83.5 -98t30.5 -143.5z" />
    <glyph glyph-name="t" unicode="t" horiz-adv-x="466" 
d="M339 66q26 0 51.5 6t43.5 15v-82q-24 -11 -52.5 -18t-63.5 -7q-67 0 -105 30t-54.5 89t-16.5 146v759h-102v57l103 25l25 259h70v-258h195v-83h-195v-756q0 -93 20.5 -137.5t80.5 -44.5z" />
    <glyph glyph-name="u" unicode="u" horiz-adv-x="873" 
d="M732 1087v-1087h-76l-8 198h-7q-18 -57 -50 -106.5t-82.5 -80.5t-124.5 -31q-87 0 -141.5 41.5t-80.5 124t-26 201.5v740h96v-718q0 -158 42 -229.5t124 -71.5q78 0 130.5 44.5t80 137.5t27.5 235v602h96z" />
    <glyph glyph-name="v" unicode="v" horiz-adv-x="660" 
d="M273 0l-264 1087h99l167 -726q14 -57 26.5 -118t22.5 -127h7q9 53 20.5 110.5t25.5 118.5l174 742h99l-268 -1087h-109z" />
    <glyph glyph-name="w" unicode="w" horiz-adv-x="1120" 
d="M755 0l-152 750q-6 25 -10.5 52t-9 53t-8.5 51.5t-9 50.5h-3q-4 -25 -8.5 -51t-9 -53t-9.5 -52.5t-10 -51.5l-158 -749h-109l-240 1087h95l148 -679q9 -46 18 -91.5t17 -90.5t17 -90h4q4 27 9.5 59.5t11.5 69t13.5 74t15.5 74.5l143 674h106l144 -684q9 -38 17 -81
t15 -89.5t15 -97.5h5q7 48 12.5 82t11.5 66.5t15 71.5l155 732h93l-239 -1087h-106z" />
    <glyph glyph-name="x" unicode="x" horiz-adv-x="688" 
d="M292 561l-240 526h103l193 -447l197 447h102l-242 -532l252 -555h-104l-207 475l-211 -475h-102z" />
    <glyph glyph-name="y" unicode="y" horiz-adv-x="689" 
d="M32 1087h98l179 -729q14 -55 21 -89t11 -58.5t7 -49.5h7q10 60 20 106.5t22 93.5l178 726h98l-331 -1309q-26 -98 -59.5 -158.5t-77 -87t-98.5 -26.5q-22 0 -41.5 5t-42.5 12v91q18 -8 38 -13.5t37 -5.5q32 0 58.5 17.5t49.5 60.5t41 120l57 226z" />
    <glyph glyph-name="z" unicode="z" horiz-adv-x="563" 
d="M517 0h-461v73l350 929h-324v85h426v-75l-348 -927h357v-85z" />
    <glyph glyph-name="braceleft" unicode="{" horiz-adv-x="721" 
d="M623 -326q-109 2 -180.5 31.5t-105.5 95t-34 174.5v329q0 89 -20 138t-65.5 68t-119.5 20v79q71 0 116.5 18t67 66t21.5 138v336q0 107 33.5 171t104.5 94t182 32v-82q-80 -1 -130 -22t-73 -71t-23 -135v-340q0 -113 -36.5 -169.5t-120.5 -73.5v-5q87 -16 122 -74
t35 -171v-334q0 -85 22 -135.5t71.5 -72t132.5 -22.5v-83z" />
    <glyph glyph-name="bar" unicode="|" horiz-adv-x="794" 
d="M352 1560h91v-2051h-91v2051z" />
    <glyph glyph-name="braceright" unicode="}" horiz-adv-x="721" 
d="M95 -326v83q83 0 133 22t71.5 72t21.5 135v335q0 115 36.5 171.5t120.5 73.5v5q-83 17 -120 73.5t-37 169.5v339q0 86 -23 136t-72.5 71t-130.5 22v82q110 -1 181 -30.5t106 -94t35 -172.5v-336q0 -86 19.5 -134t64.5 -68t119 -20v-79q-72 -1 -117 -19.5t-65.5 -67
t-20.5 -139.5v-329q0 -107 -34 -173t-105 -96t-183 -32z" />
    <glyph glyph-name="asciitilde" unicode="~" horiz-adv-x="841" 
d="M416 680q-42 26 -82 43t-83 17q-49 0 -97 -28.5t-94 -85.5v103q39 42 86 69t110 27q53 0 95 -17.5t88 -43.5q44 -25 79 -40.5t75 -15.5q49 0 99.5 28.5t88.5 79.5v-102q-34 -40 -82.5 -65t-107.5 -25q-54 0 -93 16.5t-82 39.5z" />
    <glyph glyph-name="uni00A0" unicode="&#xa0;" horiz-adv-x="383" 
 />
    <glyph glyph-name="exclamdown" unicode="&#xa1;" horiz-adv-x="428" 
d="M174 701h77l19 -1093h-114zM290 997q0 -49 -18 -73t-56 -24q-39 0 -56.5 23.5t-17.5 73.5q0 41 16 67t59 26q37 0 55 -23t18 -70z" />
    <glyph glyph-name="cent" unicode="&#xa2;" horiz-adv-x="856" 
d="M555 1483v-173q43 -3 79.5 -13.5t67.5 -27.5l-32 -82q-32 17 -67.5 25.5t-66.5 8.5q-98 0 -158.5 -58t-89.5 -166.5t-29 -258.5q0 -154 31 -257t93 -155.5t155 -52.5q43 0 82.5 11t79.5 28v-88q-24 -12 -59.5 -22.5t-78.5 -15.5v-206h-72v205q-111 12 -184 79.5
t-108.5 186t-35.5 286.5q0 172 36 294.5t107.5 192.5t177.5 84v175h72z" />
    <glyph glyph-name="sterling" unicode="&#xa3;" horiz-adv-x="824" 
d="M517 1483q64 0 115 -19.5t97 -59.5l-45 -75q-47 38 -86.5 51t-77.5 13q-96 0 -139.5 -69t-43.5 -219v-336h249v-83h-249v-298q0 -74 -15 -133t-44.5 -100t-71.5 -64h538v-91h-659v84q51 20 86 59.5t52.5 101.5t17.5 150v291h-160v83h160v344q0 113 26.5 195.5t87 128.5
t162.5 46z" />
    <glyph glyph-name="currency" unicode="&#xa4;" horiz-adv-x="1144" 
d="M178 723q0 71 22.5 136t65.5 116l-146 148l52 51l145 -147q56 46 119 69t134 23q65 0 130.5 -21t121.5 -68l146 142l54 -49l-145 -147q45 -53 68 -117.5t23 -134.5q0 -64 -21 -132t-69 -125l145 -145l-53 -51l-146 144q-54 -45 -121 -65.5t-132 -20.5q-70 0 -135 21.5
t-118 68.5l-145 -146l-51 53l144 145q-45 56 -66.5 120.5t-21.5 131.5zM252 723q0 -96 42.5 -169t116 -113.5t163.5 -40.5t163 41.5t115.5 114t42.5 164.5q0 96 -44.5 170.5t-118 117t-161.5 42.5q-85 0 -158 -41t-117 -114.5t-44 -171.5z" />
    <glyph glyph-name="yen" unicode="&#xa5;" horiz-adv-x="834" 
d="M415 725l223 737h97l-257 -802h224v-77h-239v-208h239v-77h-239v-298h-98v298h-235v77h235v208h-235v77h220l-257 802h99z" />
    <glyph glyph-name="brokenbar" unicode="&#xa6;" horiz-adv-x="794" 
d="M352 1557h91v-793h-91v793zM352 301h91v-795h-91v795z" />
    <glyph glyph-name="section" unicode="&#xa7;" horiz-adv-x="707" 
d="M92 845q0 88 51 146t121 86q-69 50 -113.5 108t-44.5 140q0 102 70 166.5t195 64.5q63 0 116.5 -14.5t99.5 -42.5l-37 -69q-36 21 -80.5 36.5t-98.5 15.5q-79 0 -128 -40t-49 -115q0 -53 23 -91.5t65 -70.5t98 -68q71 -41 121.5 -80.5t77.5 -88.5t27 -120q0 -83 -34 -140
t-86 -93q60 -47 91 -100t31 -125q0 -120 -79 -194t-217 -74q-66 0 -127.5 16t-102.5 42v89q28 -19 65.5 -35.5t79.5 -25.5t84 -9q97 0 151.5 52t54.5 136q0 67 -30.5 108t-83.5 72.5t-123 70.5q-59 34 -101 67.5t-64.5 77t-22.5 102.5zM177 854q0 -45 18.5 -77t51.5 -57.5
t79 -51.5l99 -53q38 21 68 65t30 114q0 51 -18 88.5t-61 74t-118 79.5q-58 -20 -103.5 -63.5t-45.5 -118.5z" />
    <glyph glyph-name="dieresis" unicode="&#xa8;" horiz-adv-x="1078" 
d="M320 1362q0 36 18 58t47 22q28 0 45.5 -21.5t17.5 -58.5q0 -39 -17.5 -60t-45.5 -21q-29 0 -47 22t-18 59zM626 1363q0 36 18.5 57.5t46.5 21.5q27 0 46 -21t19 -58q0 -39 -18.5 -60.5t-46.5 -21.5q-29 0 -47 22t-18 60z" />
    <glyph glyph-name="copyright" unicode="&#xa9;" horiz-adv-x="1700" 
d="M846 -18q-172 0 -309.5 57t-235 159.5t-150 238.5t-52.5 294q0 168 57.5 306t160 237.5t239 153t295.5 53.5q169 0 307 -57.5t237 -159.5t152 -239.5t53 -295.5q0 -161 -54.5 -298t-155 -237t-239 -156t-305.5 -56zM890 286q-194 0 -306.5 113t-112.5 330q0 139 48.5 239
t142 154t225.5 54q68 0 132 -13.5t120 -40.5l-34 -71q-49 23 -105 34.5t-113 11.5q-159 0 -242 -96t-83 -269q0 -187 87.5 -278t250.5 -91q51 0 105 10.5t113 34.5v-77q-52 -22 -109.5 -33.5t-118.5 -11.5zM846 55q153 0 277.5 51.5t214 144t137.5 215t48 265.5
q0 144 -49 267t-138.5 214.5t-213 143t-273.5 51.5t-273 -50t-212.5 -141.5t-138.5 -215.5t-49 -269q0 -147 48.5 -270.5t137.5 -214.5t212 -141t272 -50z" />
    <glyph glyph-name="ordfeminine" unicode="&#xaa;" horiz-adv-x="569" 
d="M288 1479q94 0 133 -53t39 -150v-463h-55l-12 110q-27 -60 -71.5 -89.5t-101.5 -29.5q-50 0 -87.5 22.5t-57.5 64t-20 98.5q0 68 27.5 109.5t81.5 62.5t131 28l88 7v73q0 78 -24.5 110t-81.5 32q-37 0 -72 -12t-67 -31l-24 62q38 21 81 35t93 14zM383 1137l-67 -6
q-94 -8 -139.5 -37.5t-45.5 -103.5q0 -60 28 -90.5t78 -30.5q69 0 107.5 56t38.5 148v64z" />
    <glyph glyph-name="guillemotleft" unicode="&#xab;" horiz-adv-x="876" 
d="M78 572l292 372l65 -34l-239 -351l240 -348l-66 -37l-292 370v28zM441 572l292 372l65 -34l-239 -351l240 -348l-66 -37l-292 370v28z" />
    <glyph glyph-name="logicalnot" unicode="&#xac;" horiz-adv-x="841" 
d="M759 762v-516h-87v431h-605v85h692z" />
    <glyph glyph-name="uni00AD" unicode="&#xad;" horiz-adv-x="547" 
d="M54 507v98h439v-98h-439z" />
    <glyph glyph-name="registered" unicode="&#xae;" horiz-adv-x="1700" 
d="M596 294v875h242q137 0 218.5 -60t81.5 -191q0 -102 -48.5 -158.5t-125.5 -82.5l197 -383h-98l-182 363h-198v-363h-87zM682 729h148q94 0 155.5 44t61.5 144q0 93 -57.5 134.5t-157.5 41.5h-150v-364zM846 -18q-172 0 -309.5 57t-235 159.5t-150 238.5t-52.5 294
q0 168 57.5 306t160 237.5t239 153t295.5 53.5q169 0 307 -57.5t237 -159.5t152 -239.5t53 -295.5q0 -161 -54.5 -298t-155 -237t-239 -156t-305.5 -56zM846 55q153 0 277.5 51.5t214 144t137.5 215t48 265.5q0 144 -49 267t-138.5 214.5t-213 143t-273.5 51.5t-273 -50
t-212.5 -141.5t-138.5 -215.5t-49 -269q0 -147 48.5 -270.5t137.5 -214.5t212 -141t272 -50z" />
    <glyph glyph-name="overscore" unicode="&#xaf;" horiz-adv-x="832" 
d="M839 1556h-847v83h847v-83z" />
    <glyph glyph-name="degree" unicode="&#xb0;" horiz-adv-x="738" 
d="M369 962q-74 0 -133.5 31.5t-93.5 90.5t-34 139t34.5 138t94 89t131.5 31q73 0 132 -31t94 -89t35 -139q0 -79 -34.5 -137.5t-93 -90.5t-132.5 -32zM369 1031q81 0 133 53.5t52 138.5t-51.5 137.5t-135.5 52.5q-86 0 -135 -54t-49 -136q0 -88 53.5 -140t132.5 -52z" />
    <glyph glyph-name="plusminus" unicode="&#xb1;" horiz-adv-x="841" 
d="M69 1v85h702v-85h-702zM463 776h316v-83h-316v-430h-84v430h-319v83h319v435h84v-435z" />
    <glyph glyph-name="uni00B2" unicode="&#xb2;" horiz-adv-x="608" 
d="M533 849h-480v71l182 233q56 70 99 129t68 115.5t25 117.5q0 66 -38.5 111.5t-115.5 45.5q-48 0 -90 -20.5t-81 -60.5l-46 56q45 45 99.5 72.5t122.5 27.5q113 0 173.5 -63.5t60.5 -164.5q0 -67 -25 -127.5t-75 -128.5t-123 -160l-143 -181h387v-73z" />
    <glyph glyph-name="uni00B3" unicode="&#xb3;" horiz-adv-x="608" 
d="M280 1743q105 0 166 -56t61 -159q0 -83 -40.5 -136t-104.5 -77v-4q81 -24 125 -80t44 -147q0 -117 -76 -181.5t-204 -64.5q-51 0 -98.5 10t-88.5 29v85q44 -25 90 -37.5t96 -12.5q100 0 149.5 48.5t49.5 127.5q0 83 -51 132t-152 49h-69v72h67q86 0 134 50t48 131
q0 70 -39 108t-112 38q-50 0 -91.5 -18.5t-79.5 -53.5l-42 60q46 40 99.5 63.5t118.5 23.5z" />
    <glyph glyph-name="acute" unicode="&#xb4;" horiz-adv-x="487" 
d="M406 1565v-16q-23 -35 -55.5 -77t-70 -84.5t-73.5 -80t-67 -66.5h-58v24q43 55 80 104t68.5 97.5t61.5 98.5h114z" />
    <glyph glyph-name="uni00B5" unicode="&#xb5;" horiz-adv-x="877" 
d="M736 1087v-1087h-75l-11 200h-6q-16 -55 -46.5 -105.5t-78 -82.5t-116.5 -32q-61 0 -103.5 25.5t-67.5 82.5h-6q5 -41 6.5 -76t2 -66t0.5 -60v-367h-95v1568h96v-724q0 -153 42 -224t124 -71q78 0 130.5 46t80 140t27.5 236v597h96z" />
    <glyph glyph-name="paragraph" unicode="&#xb6;" horiz-adv-x="909" 
d="M721 -260h-75v1738h-170v-1738h-74v924q-18 -9 -33 -13.5t-37 -4.5q-65 0 -108 56t-64.5 158t-21.5 240q0 146 25 248t79 155t139 53h340v-1816z" />
    <glyph glyph-name="periodcentered" unicode="&#xb7;" horiz-adv-x="405" 
d="M128 698q0 43 17 68.5t57 25.5q38 0 56.5 -22.5t18.5 -71.5q0 -47 -19.5 -70.5t-55.5 -23.5q-39 0 -56.5 25t-17.5 69z" />
    <glyph glyph-name="cedilla" unicode="&#xb8;" horiz-adv-x="443" 
d="M377 -291q0 -94 -61.5 -147.5t-169.5 -53.5q-26 0 -53.5 3.5t-49.5 9.5v72q21 -6 46 -9.5t47 -3.5q70 0 113.5 33.5t43.5 95.5q0 66 -49.5 93t-128.5 34l70 164h71l-50 -118q55 -8 93.5 -31.5t58 -59.5t19.5 -82z" />
    <glyph glyph-name="uni00B9" unicode="&#xb9;" horiz-adv-x="608" 
d="M389 1725v-876h-82v593q0 30 1 63.5t2 65.5t4 60q-17 -16 -31.5 -26t-25.5 -18l-135 -93l-42 57l244 174h65z" />
    <glyph glyph-name="ordmasculine" unicode="&#xba;" horiz-adv-x="614" 
d="M546 1143q0 -154 -59 -248.5t-180 -94.5q-119 0 -180 92.5t-61 249.5q0 158 65 248.5t181 90.5q78 0 130 -41t78 -117t26 -180zM148 1139q0 -132 38.5 -201.5t119.5 -69.5q85 0 123 72t38 199q0 129 -36.5 201t-120.5 72q-75 0 -118.5 -68t-43.5 -205z" />
    <glyph glyph-name="guillemotright" unicode="&#xbb;" horiz-adv-x="862" 
d="M786 544l-293 -370l-66 37l241 347l-241 352l66 34l293 -372v-28zM438 544l-294 -370l-65 37l238 347l-238 352l65 34l294 -372v-28z" />
    <glyph glyph-name="onequarter" unicode="&#xbc;" horiz-adv-x="1353" 
d="M285 0l730 1462h89l-731 -1462h-88zM280 586v593v64.5t2 65.5t5 60q-18 -16 -32.5 -26.5t-25.5 -19.5l-135 -91l-41 56l243 174h67v-876h-83zM1129 0v221h-334v61l339 600h74v-588h116v-73h-116v-221h-79zM879 294h250v341v73t1 49q-6 -18 -16 -38t-25 -47z" />
    <glyph glyph-name="onehalf" unicode="&#xbd;" horiz-adv-x="1477" 
d="M267 0l730 1462h90l-731 -1462h-89zM280 586v593v47.5t1 49.5t2 48.5t3 44.5q-17 -16 -31.5 -26.5t-25.5 -19.5l-135 -91l-41 56l244 174h65v-876h-82zM923 0v72l181 232q57 70 100.5 129t68.5 115.5t25 116.5q0 68 -39 113t-115 45q-48 0 -90.5 -20.5t-82.5 -60.5
l-45 56q44 46 99 73t123 27q113 0 173 -63.5t60 -164.5q0 -67 -24.5 -126.5t-71 -124.5t-112.5 -149l-157 -196h387v-74h-480z" />
    <glyph glyph-name="threequarters" unicode="&#xbe;" horiz-adv-x="1375" 
d="M322 0l732 1462h89l-731 -1462h-90zM237 576q-50 0 -98 10.5t-88 29.5v85q43 -25 89 -37.5t97 -12.5q100 0 149 48.5t49 126.5q0 84 -50.5 133t-151.5 49h-69v72h68q84 0 132.5 50t48.5 131q0 70 -38.5 108.5t-112.5 38.5q-50 0 -91 -19.5t-79 -53.5l-43 60
q46 40 100 63.5t119 23.5q103 0 164 -56.5t61 -158.5q0 -83 -40.5 -136.5t-102.5 -77.5v-4q81 -23 124.5 -79t43.5 -147q0 -118 -76 -182.5t-205 -64.5zM1149 0v221h-333v61l338 600h75v-588h116v-73h-116v-221h-80zM900 294h249v341q0 46 0.5 73t1.5 49q-6 -18 -15.5 -38
t-25.5 -47z" />
    <glyph glyph-name="questiondown" unicode="&#xbf;" horiz-adv-x="581" 
d="M397 705v-51q0 -79 -9.5 -137t-33 -109.5t-66.5 -110.5q-46 -65 -78.5 -120t-49.5 -115t-17 -136q0 -124 48 -183.5t136 -59.5q51 0 96 16.5t87 45.5l40 -76q-46 -33 -104.5 -54t-123.5 -21q-127 0 -201.5 82.5t-74.5 246.5q0 96 21.5 164t58.5 127t84 124
q46 64 68.5 113.5t30.5 98.5t8 112v43h80zM429 998q0 -44 -17.5 -69.5t-57.5 -25.5q-37 0 -55 22.5t-18 69.5q0 49 19 72.5t55 23.5q39 0 56.5 -25t17.5 -68z" />
    <glyph glyph-name="Agrave" unicode="&#xc0;" horiz-adv-x="829" 
d="M727 0l-126 531h-371l-128 -531h-102l350 1462h126l353 -1462h-102zM581 623l-130 571q-8 35 -14.5 66t-12 60t-11.5 59q-5 -30 -10.5 -58.5t-11.5 -59.5t-15 -66l-128 -572h333zM235 1906q30 -53 66.5 -106t74 -102t74.5 -93v-23h-62q-30 28 -66 66t-73.5 80t-70.5 83.5
t-57 78.5v16h114z" />
    <glyph glyph-name="Aacute" unicode="&#xc1;" horiz-adv-x="829" 
d="M727 0l-126 531h-371l-128 -531h-102l350 1462h126l353 -1462h-102zM581 623l-130 571q-8 35 -14.5 66t-12 60t-11.5 59q-5 -30 -10.5 -58.5t-11.5 -59.5t-15 -66l-128 -572h333zM649 1906v-16q-23 -35 -55.5 -77t-70 -84.5t-73.5 -80t-67 -66.5h-58v24q43 55 80 104
t68.5 97.5t61.5 98.5h114z" />
    <glyph glyph-name="Acircumflex" unicode="&#xc2;" horiz-adv-x="829" 
d="M727 0l-126 531h-371l-128 -531h-102l350 1462h126l353 -1462h-102zM581 623l-130 571q-8 35 -14.5 66t-12 60t-11.5 59q-5 -30 -10.5 -58.5t-11.5 -59.5t-15 -66l-128 -572h333zM460 1906q25 -47 60.5 -107.5t70.5 -115.5t54 -85v-16h-53q-43 48 -90.5 112t-89.5 123
q-42 -56 -90.5 -123t-88.5 -112h-55v16q28 39 62 94t67 112.5t55 101.5h98z" />
    <glyph glyph-name="Atilde" unicode="&#xc3;" horiz-adv-x="829" 
d="M727 0l-126 531h-371l-128 -531h-102l350 1462h126l353 -1462h-102zM581 623l-130 571q-8 35 -14.5 66t-12 60t-11.5 59q-5 -30 -10.5 -58.5t-11.5 -59.5t-15 -66l-128 -572h333zM135 1596q5 48 16.5 86.5t30.5 65t45.5 40.5t59.5 14q40 0 73 -19t62 -44.5t57.5 -45
t60.5 -19.5q37 0 59 34.5t28 95.5h67q-3 -104 -46.5 -155.5t-104.5 -51.5q-40 0 -74 19t-63.5 44t-57.5 45t-57 20q-33 0 -57.5 -32t-30.5 -97h-68z" />
    <glyph glyph-name="Adieresis" unicode="&#xc4;" horiz-adv-x="829" 
d="M727 0l-126 531h-371l-128 -531h-102l350 1462h126l353 -1462h-102zM581 623l-130 571q-8 35 -14.5 66t-12 60t-11.5 59q-5 -30 -10.5 -58.5t-11.5 -59.5t-15 -66l-128 -572h333zM195 1703q0 36 18 58t47 22q28 0 45.5 -21.5t17.5 -58.5q0 -39 -17.5 -60t-45.5 -21
q-29 0 -47 22t-18 59zM501 1704q0 36 18.5 57.5t46.5 21.5q27 0 46 -21t19 -58q0 -39 -18.5 -60.5t-46.5 -21.5q-29 0 -47 22t-18 60z" />
    <glyph glyph-name="Aring" unicode="&#xc5;" horiz-adv-x="829" 
d="M727 0l-126 531h-371l-128 -531h-102l350 1462h126l353 -1462h-102zM581 623l-130 571q-8 35 -14.5 66t-12 60t-11.5 59q-5 -30 -10.5 -58.5t-11.5 -59.5t-15 -66l-128 -572h333zM415 1408q-83 0 -138 50t-55 138q0 87 53.5 137t137.5 50t138 -51t54 -136t-52.5 -136.5
t-137.5 -51.5zM416 1475q55 0 88 33t33 86q0 56 -32.5 90t-90.5 34t-90.5 -34t-32.5 -88q0 -51 31.5 -86t93.5 -35z" />
    <glyph glyph-name="AE" unicode="&#xc6;" horiz-adv-x="1203" 
d="M1105 0h-595v530h-255l-149 -530h-108l424 1462h683v-90h-497v-560h471v-91h-471v-630h497v-91zM276 622h235v747h-22z" />
    <glyph glyph-name="Ccedilla" unicode="&#xc7;" horiz-adv-x="874" 
d="M589 1393q-103 0 -175.5 -54.5t-117.5 -148.5t-66 -213t-21 -246q0 -199 47.5 -348t135 -231t206.5 -82q66 0 120 17.5t92 38.5v-92q-43 -25 -99.5 -39.5t-120.5 -14.5q-146 0 -255 91t-168.5 260t-59.5 402q0 150 27.5 285t85.5 240t149 165.5t218 60.5q64 0 123 -16.5
t115 -47.5l-40 -84q-48 30 -98.5 43.5t-97.5 13.5zM722 -291q0 -94 -61.5 -147.5t-169.5 -53.5q-26 0 -53.5 3.5t-49.5 9.5v72q21 -6 46 -9.5t47 -3.5q70 0 113.5 33.5t43.5 95.5q0 66 -49.5 93t-128.5 34l70 164h71l-50 -118q55 -8 93.5 -31.5t58 -59.5t19.5 -82z" />
    <glyph glyph-name="Egrave" unicode="&#xc8;" horiz-adv-x="796" 
d="M700 0h-544v1462h544v-90h-446v-560h420v-91h-420v-630h446v-91zM283 1906q30 -53 66.5 -106t74 -102t74.5 -93v-23h-62q-30 28 -66 66t-73.5 80t-70.5 83.5t-57 78.5v16h114z" />
    <glyph glyph-name="Eacute" unicode="&#xc9;" horiz-adv-x="796" 
d="M700 0h-544v1462h544v-90h-446v-560h420v-91h-420v-630h446v-91zM654 1906v-16q-23 -35 -55.5 -77t-70 -84.5t-73.5 -80t-67 -66.5h-58v24q43 55 80 104t68.5 97.5t61.5 98.5h114z" />
    <glyph glyph-name="Ecircumflex" unicode="&#xca;" horiz-adv-x="796" 
d="M700 0h-544v1462h544v-90h-446v-560h420v-91h-420v-630h446v-91zM481 1906q25 -47 60.5 -107.5t70.5 -115.5t54 -85v-16h-53q-43 48 -90.5 112t-89.5 123q-42 -56 -90.5 -123t-88.5 -112h-55v16q28 39 62 94t67 112.5t55 101.5h98z" />
    <glyph glyph-name="Edieresis" unicode="&#xcb;" horiz-adv-x="796" 
d="M700 0h-544v1462h544v-90h-446v-560h420v-91h-420v-630h446v-91zM207 1703q0 36 18 58t47 22q28 0 45.5 -21.5t17.5 -58.5q0 -39 -17.5 -60t-45.5 -21q-29 0 -47 22t-18 59zM513 1704q0 36 18.5 57.5t46.5 21.5q27 0 46 -21t19 -58q0 -39 -18.5 -60.5t-46.5 -21.5
q-29 0 -47 22t-18 60z" />
    <glyph glyph-name="Igrave" unicode="&#xcc;" horiz-adv-x="408" 
d="M156 0v1462h97v-1462h-97zM72 1932q30 -53 66.5 -106t74 -102t74.5 -93v-23h-62q-30 28 -66 66t-73.5 80t-70.5 83.5t-57 78.5v16h114z" />
    <glyph glyph-name="Iacute" unicode="&#xcd;" horiz-adv-x="408" 
d="M156 0v1462h97v-1462h-97zM433 1932v-16q-23 -35 -55.5 -77t-70 -84.5t-73.5 -80t-67 -66.5h-58v24q43 55 80 104t68.5 97.5t61.5 98.5h114z" />
    <glyph glyph-name="Icircumflex" unicode="&#xce;" horiz-adv-x="408" 
d="M156 0v1462h97v-1462h-97zM252 1909q25 -47 60.5 -107.5t70.5 -115.5t54 -85v-16h-53q-43 48 -90.5 112t-89.5 123q-42 -56 -90.5 -123t-88.5 -112h-55v16q28 39 62 94t67 112.5t55 101.5h98z" />
    <glyph glyph-name="Idieresis" unicode="&#xcf;" horiz-adv-x="408" 
d="M156 0v1462h97v-1462h-97zM-15 1709q0 36 18 58t47 22q28 0 45.5 -21.5t17.5 -58.5q0 -39 -17.5 -60t-45.5 -21q-29 0 -47 22t-18 59zM291 1710q0 36 18.5 57.5t46.5 21.5q27 0 46 -21t19 -58q0 -39 -18.5 -60.5t-46.5 -21.5q-29 0 -47 22t-18 60z" />
    <glyph glyph-name="Eth" unicode="&#xd0;" horiz-adv-x="1010" 
d="M423 1462q162 0 268 -80.5t158.5 -239.5t52.5 -395q0 -246 -52.5 -412.5t-160 -250.5t-272.5 -84h-253v720h-109v84h109v658h259zM418 1372h-155v-568h251v-84h-251v-630h150q203 0 295 165t92 486q0 203 -38 344.5t-122 214t-222 72.5z" />
    <glyph glyph-name="Ntilde" unicode="&#xd1;" horiz-adv-x="1082" 
d="M928 0h-117l-561 1296h-5q2 -37 3 -77t2 -85t1 -96v-1038h-95v1462h117l561 -1284h5q-1 52 -2.5 102t-2.5 94t-1 77v1011h95v-1462zM270 1596q5 48 16.5 86.5t30.5 65t45.5 40.5t59.5 14q40 0 73 -19t62 -44.5t57.5 -45t60.5 -19.5q37 0 59 34.5t28 95.5h67
q-3 -104 -46.5 -155.5t-104.5 -51.5q-40 0 -74 19t-63.5 44t-57.5 45t-57 20q-33 0 -57.5 -32t-30.5 -97h-68z" />
    <glyph glyph-name="Ograve" unicode="&#xd2;" horiz-adv-x="1077" 
d="M970 733q0 -152 -21.5 -288t-70 -240.5t-131.5 -164.5t-206 -60q-124 0 -208 62t-133 168t-71 241.5t-22 282.5q0 250 50 416t146.5 249.5t237.5 83.5q156 0 250 -98t136.5 -268t42.5 -384zM208 733q0 -212 38 -360t113 -225.5t181 -77.5q110 0 183 75t109 223t36 365
q0 322 -81.5 490.5t-245.5 168.5q-112 0 -186 -76.5t-110.5 -223.5t-36.5 -359zM365 1906q30 -53 66.5 -106t74 -102t74.5 -93v-23h-62q-30 28 -66 66t-73.5 80t-70.5 83.5t-57 78.5v16h114z" />
    <glyph glyph-name="Oacute" unicode="&#xd3;" horiz-adv-x="1077" 
d="M970 733q0 -152 -21.5 -288t-70 -240.5t-131.5 -164.5t-206 -60q-124 0 -208 62t-133 168t-71 241.5t-22 282.5q0 250 50 416t146.5 249.5t237.5 83.5q156 0 250 -98t136.5 -268t42.5 -384zM208 733q0 -212 38 -360t113 -225.5t181 -77.5q110 0 183 75t109 223t36 365
q0 322 -81.5 490.5t-245.5 168.5q-112 0 -186 -76.5t-110.5 -223.5t-36.5 -359zM783 1906v-16q-23 -35 -55.5 -77t-70 -84.5t-73.5 -80t-67 -66.5h-58v24q43 55 80 104t68.5 97.5t61.5 98.5h114z" />
    <glyph glyph-name="Ocircumflex" unicode="&#xd4;" horiz-adv-x="1077" 
d="M970 733q0 -152 -21.5 -288t-70 -240.5t-131.5 -164.5t-206 -60q-124 0 -208 62t-133 168t-71 241.5t-22 282.5q0 250 50 416t146.5 249.5t237.5 83.5q156 0 250 -98t136.5 -268t42.5 -384zM208 733q0 -212 38 -360t113 -225.5t181 -77.5q110 0 183 75t109 223t36 365
q0 322 -81.5 490.5t-245.5 168.5q-112 0 -186 -76.5t-110.5 -223.5t-36.5 -359zM586 1906q25 -47 60.5 -107.5t70.5 -115.5t54 -85v-16h-53q-43 48 -90.5 112t-89.5 123q-42 -56 -90.5 -123t-88.5 -112h-55v16q28 39 62 94t67 112.5t55 101.5h98z" />
    <glyph glyph-name="Otilde" unicode="&#xd5;" horiz-adv-x="1077" 
d="M970 733q0 -152 -21.5 -288t-70 -240.5t-131.5 -164.5t-206 -60q-124 0 -208 62t-133 168t-71 241.5t-22 282.5q0 250 50 416t146.5 249.5t237.5 83.5q156 0 250 -98t136.5 -268t42.5 -384zM208 733q0 -212 38 -360t113 -225.5t181 -77.5q110 0 183 75t109 223t36 365
q0 322 -81.5 490.5t-245.5 168.5q-112 0 -186 -76.5t-110.5 -223.5t-36.5 -359zM261 1596q5 48 16.5 86.5t30.5 65t45.5 40.5t59.5 14q40 0 73 -19t62 -44.5t57.5 -45t60.5 -19.5q37 0 59 34.5t28 95.5h67q-3 -104 -46.5 -155.5t-104.5 -51.5q-40 0 -74 19t-63.5 44
t-57.5 45t-57 20q-33 0 -57.5 -32t-30.5 -97h-68z" />
    <glyph glyph-name="Odieresis" unicode="&#xd6;" horiz-adv-x="1077" 
d="M970 733q0 -152 -21.5 -288t-70 -240.5t-131.5 -164.5t-206 -60q-124 0 -208 62t-133 168t-71 241.5t-22 282.5q0 250 50 416t146.5 249.5t237.5 83.5q156 0 250 -98t136.5 -268t42.5 -384zM208 733q0 -212 38 -360t113 -225.5t181 -77.5q110 0 183 75t109 223t36 365
q0 322 -81.5 490.5t-245.5 168.5q-112 0 -186 -76.5t-110.5 -223.5t-36.5 -359zM322 1703q0 36 18 58t47 22q28 0 45.5 -21.5t17.5 -58.5q0 -39 -17.5 -60t-45.5 -21q-29 0 -47 22t-18 59zM628 1704q0 36 18.5 57.5t46.5 21.5q27 0 46 -21t19 -58q0 -39 -18.5 -60.5
t-46.5 -21.5q-29 0 -47 22t-18 60z" />
    <glyph glyph-name="multiply" unicode="&#xd7;" horiz-adv-x="841" 
d="M708 1070l58 -54l-290 -292l285 -289l-56 -55l-286 288l-289 -290l-54 56l288 290l-286 288l57 57l286 -289z" />
    <glyph glyph-name="Oslash" unicode="&#xd8;" horiz-adv-x="1111" 
d="M999 733q0 -161 -23 -298.5t-73 -239t-132 -158.5t-201 -57q-90 0 -158.5 35.5t-117.5 97.5l-120 -229l-68 33l138 265q-58 106 -82.5 247.5t-24.5 304.5q0 250 50 416t146 249.5t237 83.5q88 0 157.5 -35.5t119.5 -100.5l103 195l68 -34l-121 -231q52 -99 77 -237
t25 -307zM899 733q0 134 -15 243t-44 190l-500 -957q43 -70 100 -105t129 -35q111 0 184.5 75.5t109.5 223.5t36 365zM237 733q0 -139 16 -249t49 -190l500 959q-41 70 -98.5 105t-133.5 35q-111 0 -185.5 -76.5t-111 -224t-36.5 -359.5z" />
    <glyph glyph-name="Ugrave" unicode="&#xd9;" horiz-adv-x="1023" 
d="M880 1462v-1013q0 -174 -46.5 -276.5t-129 -147.5t-191.5 -45q-180 0 -275 113t-95 356v1013h98v-1008q0 -208 71.5 -296t199.5 -88q82 0 142.5 36t93.5 120t33 229v1007h99zM355 1906q30 -53 66.5 -106t74 -102t74.5 -93v-23h-62q-30 28 -66 66t-73.5 80t-70.5 83.5
t-57 78.5v16h114z" />
    <glyph glyph-name="Uacute" unicode="&#xda;" horiz-adv-x="1023" 
d="M880 1462v-1013q0 -174 -46.5 -276.5t-129 -147.5t-191.5 -45q-180 0 -275 113t-95 356v1013h98v-1008q0 -208 71.5 -296t199.5 -88q82 0 142.5 36t93.5 120t33 229v1007h99zM753 1906v-16q-23 -35 -55.5 -77t-70 -84.5t-73.5 -80t-67 -66.5h-58v24q43 55 80 104
t68.5 97.5t61.5 98.5h114z" />
    <glyph glyph-name="Ucircumflex" unicode="&#xdb;" horiz-adv-x="1023" 
d="M880 1462v-1013q0 -174 -46.5 -276.5t-129 -147.5t-191.5 -45q-180 0 -275 113t-95 356v1013h98v-1008q0 -208 71.5 -296t199.5 -88q82 0 142.5 36t93.5 120t33 229v1007h99zM560 1906q25 -47 60.5 -107.5t70.5 -115.5t54 -85v-16h-53q-43 48 -90.5 112t-89.5 123
q-42 -56 -90.5 -123t-88.5 -112h-55v16q28 39 62 94t67 112.5t55 101.5h98z" />
    <glyph glyph-name="Udieresis" unicode="&#xdc;" horiz-adv-x="1023" 
d="M880 1462v-1013q0 -174 -46.5 -276.5t-129 -147.5t-191.5 -45q-180 0 -275 113t-95 356v1013h98v-1008q0 -208 71.5 -296t199.5 -88q82 0 142.5 36t93.5 120t33 229v1007h99zM293 1699q0 36 18 58t47 22q28 0 45.5 -21.5t17.5 -58.5q0 -39 -17.5 -60t-45.5 -21
q-29 0 -47 22t-18 59zM599 1700q0 36 18.5 57.5t46.5 21.5q27 0 46 -21t19 -58q0 -39 -18.5 -60.5t-46.5 -21.5q-29 0 -47 22t-18 60z" />
    <glyph glyph-name="Yacute" unicode="&#xdd;" horiz-adv-x="705" 
d="M353 694l249 768h103l-303 -893v-569h-99v568l-303 894h102zM572 1906v-16q-23 -35 -55.5 -77t-70 -84.5t-73.5 -80t-67 -66.5h-58v24q43 55 80 104t68.5 97.5t61.5 98.5h114z" />
    <glyph glyph-name="Thorn" unicode="&#xde;" horiz-adv-x="842" 
d="M782 786q0 -109 -23.5 -193t-71.5 -141.5t-123.5 -86.5t-178.5 -29h-131v-336h-98v1462h98v-267h142q197 0 291.5 -96t94.5 -313zM254 425h118q112 0 180 39.5t99 119.5t31 199q0 173 -68.5 247.5t-224.5 74.5h-135v-680z" />
    <glyph glyph-name="germandbls" unicode="&#xdf;" horiz-adv-x="831" 
d="M670 1303q0 -66 -19 -115.5t-46.5 -89t-55 -74.5t-46.5 -73t-19 -88q0 -49 16.5 -88t45.5 -76t64 -82q51 -60 85 -110t51.5 -101.5t17.5 -116.5q0 -88 -30 -158t-89.5 -110.5t-151.5 -40.5q-47 0 -93.5 12t-81.5 38v95q26 -18 53.5 -30.5t56.5 -20t59 -7.5
q87 0 133.5 61.5t46.5 155.5q0 57 -16.5 101.5t-46.5 86.5t-71 88q-47 53 -79 101t-48.5 97t-16.5 102q0 59 18 102t45.5 79.5l55 73t46.5 82t19 105.5q0 79 -37.5 128.5t-114.5 49.5q-64 0 -105 -36.5t-60.5 -104.5t-19.5 -160v-1179h-96v1184q0 121 32.5 207t95 131
t155.5 45q79 0 134.5 -33.5t84 -92.5t28.5 -138z" />
    <glyph glyph-name="agrave" unicode="&#xe0;" horiz-adv-x="788" 
d="M390 1108q139 0 200 -89t61 -283v-736h-74l-11 175h-4q-18 -53 -48 -97.5t-77 -71t-118 -26.5q-86 0 -139.5 42.5t-79 111t-25.5 146.5q0 162 92.5 247.5t262.5 99.5l126 12v92q0 162 -41 227.5t-135 65.5q-41 0 -90.5 -14t-107.5 -49l-34 75q55 35 117.5 53.5
t124.5 18.5zM558 563l-118 -10q-137 -13 -202.5 -79.5t-65.5 -191.5q0 -110 45 -167t124 -57q113 0 165 106t52 281v118zM296 1565q30 -53 66.5 -106t74 -102t74.5 -93v-23h-62q-30 28 -66 66t-73.5 80t-70.5 83.5t-57 78.5v16h114z" />
    <glyph glyph-name="aacute" unicode="&#xe1;" horiz-adv-x="788" 
d="M390 1108q139 0 200 -89t61 -283v-736h-74l-11 175h-4q-18 -53 -48 -97.5t-77 -71t-118 -26.5q-86 0 -139.5 42.5t-79 111t-25.5 146.5q0 162 92.5 247.5t262.5 99.5l126 12v92q0 162 -41 227.5t-135 65.5q-41 0 -90.5 -14t-107.5 -49l-34 75q55 35 117.5 53.5
t124.5 18.5zM558 563l-118 -10q-137 -13 -202.5 -79.5t-65.5 -191.5q0 -110 45 -167t124 -57q113 0 165 106t52 281v118zM590 1565v-16q-23 -35 -55.5 -77t-70 -84.5t-73.5 -80t-67 -66.5h-58v24q43 55 80 104t68.5 97.5t61.5 98.5h114z" />
    <glyph glyph-name="acircumflex" unicode="&#xe2;" horiz-adv-x="788" 
d="M390 1108q139 0 200 -89t61 -283v-736h-74l-11 175h-4q-18 -53 -48 -97.5t-77 -71t-118 -26.5q-86 0 -139.5 42.5t-79 111t-25.5 146.5q0 162 92.5 247.5t262.5 99.5l126 12v92q0 162 -41 227.5t-135 65.5q-41 0 -90.5 -14t-107.5 -49l-34 75q55 35 117.5 53.5
t124.5 18.5zM558 563l-118 -10q-137 -13 -202.5 -79.5t-65.5 -191.5q0 -110 45 -167t124 -57q113 0 165 106t52 281v118zM449 1565q25 -47 60.5 -107.5t70.5 -115.5t54 -85v-16h-53q-43 48 -90.5 112t-89.5 123q-42 -56 -90.5 -123t-88.5 -112h-55v16q28 39 62 94t67 112.5
t55 101.5h98z" />
    <glyph glyph-name="atilde" unicode="&#xe3;" horiz-adv-x="788" 
d="M390 1108q139 0 200 -89t61 -283v-736h-74l-11 175h-4q-18 -53 -48 -97.5t-77 -71t-118 -26.5q-86 0 -139.5 42.5t-79 111t-25.5 146.5q0 162 92.5 247.5t262.5 99.5l126 12v92q0 162 -41 227.5t-135 65.5q-41 0 -90.5 -14t-107.5 -49l-34 75q55 35 117.5 53.5
t124.5 18.5zM558 563l-118 -10q-137 -13 -202.5 -79.5t-65.5 -191.5q0 -110 45 -167t124 -57q113 0 165 106t52 281v118zM121 1262q5 48 16.5 86.5t30.5 65t45.5 40.5t59.5 14q40 0 73 -19t62 -44.5t57.5 -45t60.5 -19.5q37 0 59 34.5t28 95.5h67q-3 -104 -46.5 -155.5
t-104.5 -51.5q-40 0 -74 19t-63.5 44t-57.5 45t-57 20q-33 0 -57.5 -32t-30.5 -97h-68z" />
    <glyph glyph-name="adieresis" unicode="&#xe4;" horiz-adv-x="788" 
d="M390 1108q139 0 200 -89t61 -283v-736h-74l-11 175h-4q-18 -53 -48 -97.5t-77 -71t-118 -26.5q-86 0 -139.5 42.5t-79 111t-25.5 146.5q0 162 92.5 247.5t262.5 99.5l126 12v92q0 162 -41 227.5t-135 65.5q-41 0 -90.5 -14t-107.5 -49l-34 75q55 35 117.5 53.5
t124.5 18.5zM558 563l-118 -10q-137 -13 -202.5 -79.5t-65.5 -191.5q0 -110 45 -167t124 -57q113 0 165 106t52 281v118zM177 1362q0 36 18 58t47 22q28 0 45.5 -21.5t17.5 -58.5q0 -39 -17.5 -60t-45.5 -21q-29 0 -47 22t-18 59zM483 1363q0 36 18.5 57.5t46.5 21.5
q27 0 46 -21t19 -58q0 -39 -18.5 -60.5t-46.5 -21.5q-29 0 -47 22t-18 60z" />
    <glyph glyph-name="aring" unicode="&#xe5;" horiz-adv-x="788" 
d="M390 1108q139 0 200 -89t61 -283v-736h-74l-11 175h-4q-18 -53 -48 -97.5t-77 -71t-118 -26.5q-86 0 -139.5 42.5t-79 111t-25.5 146.5q0 162 92.5 247.5t262.5 99.5l126 12v92q0 162 -41 227.5t-135 65.5q-41 0 -90.5 -14t-107.5 -49l-34 75q55 35 117.5 53.5
t124.5 18.5zM558 563l-118 -10q-137 -13 -202.5 -79.5t-65.5 -191.5q0 -110 45 -167t124 -57q113 0 165 106t52 281v118zM402 1257q-83 0 -138 50t-55 138q0 87 53.5 137t137.5 50t138 -51t54 -136t-52.5 -136.5t-137.5 -51.5zM403 1324q55 0 88 33t33 86q0 56 -32.5 90
t-90.5 34t-90.5 -34t-32.5 -88q0 -51 31.5 -86t93.5 -35z" />
    <glyph glyph-name="ae" unicode="&#xe6;" horiz-adv-x="1276" 
d="M883 1107q108 0 174 -66.5t96 -176t31 -238.5v-81h-532q2 -238 71.5 -359.5t197.5 -121.5q52 0 112 17t115 54v-90q-48 -31 -108 -48t-124 -17q-84 0 -146.5 36t-103.5 97t-61 137q-19 -86 -57.5 -146.5t-95.5 -92t-130 -31.5q-84 0 -139 40.5t-81.5 109t-26.5 152.5
q0 109 43.5 183t124.5 114t193 46l121 7v130q0 132 -43.5 197t-125.5 65q-39 0 -91.5 -14.5t-110.5 -48.5l-34 77q48 31 110.5 50.5t129.5 19.5q98 0 155.5 -56t74.5 -170q30 97 95 161t166 64zM558 556l-112 -6q-143 -10 -208 -77.5t-65 -189.5q0 -102 41 -161.5t126 -59.5
q71 0 120 44t73.5 118.5t24.5 167.5v164zM882 1023q-98 0 -161 -100t-68 -297h441q1 113 -21.5 202.5t-69.5 142t-121 52.5z" />
    <glyph glyph-name="ccedilla" unicode="&#xe7;" horiz-adv-x="667" 
d="M441 -20q-117 0 -194.5 65t-115.5 188.5t-38 297.5q0 186 42 314.5t122.5 195.5t196.5 67q51 0 93 -11t79 -32l-32 -81q-32 19 -65.5 27.5t-68.5 8.5q-85 0 -145 -54t-92.5 -162.5t-32.5 -270.5q0 -144 27.5 -248.5t85.5 -161.5t149 -57q41 0 83.5 10.5t83.5 30.5v-86
q-37 -19 -86 -30t-92 -11zM598 -291q0 -94 -61.5 -147.5t-169.5 -53.5q-26 0 -53.5 3.5t-49.5 9.5v72q21 -6 46 -9.5t47 -3.5q70 0 113.5 33.5t43.5 95.5q0 66 -49.5 93t-128.5 34l70 164h71l-50 -118q55 -8 93.5 -31.5t58 -59.5t19.5 -82z" />
    <glyph glyph-name="egrave" unicode="&#xe8;" horiz-adv-x="808" 
d="M415 1107q110 0 176.5 -68t96.5 -178t30 -239v-79h-530q0 -234 67.5 -356.5t204.5 -122.5q56 0 111 19t111 57v-93q-49 -32 -106 -49.5t-123 -17.5q-126 0 -206 70.5t-117 197t-37 294.5q0 175 35.5 301.5t107 195t179.5 68.5zM415 1024q-99 0 -157.5 -98.5t-66.5 -301.5
h438q0 108 -22 199.5t-69 146t-123 54.5zM304 1565q30 -53 66.5 -106t74 -102t74.5 -93v-23h-62q-30 28 -66 66t-73.5 80t-70.5 83.5t-57 78.5v16h114z" />
    <glyph glyph-name="eacute" unicode="&#xe9;" horiz-adv-x="808" 
d="M415 1107q110 0 176.5 -68t96.5 -178t30 -239v-79h-530q0 -234 67.5 -356.5t204.5 -122.5q56 0 111 19t111 57v-93q-49 -32 -106 -49.5t-123 -17.5q-126 0 -206 70.5t-117 197t-37 294.5q0 175 35.5 301.5t107 195t179.5 68.5zM415 1024q-99 0 -157.5 -98.5t-66.5 -301.5
h438q0 108 -22 199.5t-69 146t-123 54.5zM643 1565v-16q-23 -35 -55.5 -77t-70 -84.5t-73.5 -80t-67 -66.5h-58v24q43 55 80 104t68.5 97.5t61.5 98.5h114z" />
    <glyph glyph-name="ecircumflex" unicode="&#xea;" horiz-adv-x="808" 
d="M415 1107q110 0 176.5 -68t96.5 -178t30 -239v-79h-530q0 -234 67.5 -356.5t204.5 -122.5q56 0 111 19t111 57v-93q-49 -32 -106 -49.5t-123 -17.5q-126 0 -206 70.5t-117 197t-37 294.5q0 175 35.5 301.5t107 195t179.5 68.5zM415 1024q-99 0 -157.5 -98.5t-66.5 -301.5
h438q0 108 -22 199.5t-69 146t-123 54.5zM456 1565q25 -47 60.5 -107.5t70.5 -115.5t54 -85v-16h-53q-43 48 -90.5 112t-89.5 123q-42 -56 -90.5 -123t-88.5 -112h-55v16q28 39 62 94t67 112.5t55 101.5h98z" />
    <glyph glyph-name="edieresis" unicode="&#xeb;" horiz-adv-x="808" 
d="M415 1107q110 0 176.5 -68t96.5 -178t30 -239v-79h-530q0 -234 67.5 -356.5t204.5 -122.5q56 0 111 19t111 57v-93q-49 -32 -106 -49.5t-123 -17.5q-126 0 -206 70.5t-117 197t-37 294.5q0 175 35.5 301.5t107 195t179.5 68.5zM415 1024q-99 0 -157.5 -98.5t-66.5 -301.5
h438q0 108 -22 199.5t-69 146t-123 54.5zM188 1362q0 36 18 58t47 22q28 0 45.5 -21.5t17.5 -58.5q0 -39 -17.5 -60t-45.5 -21q-29 0 -47 22t-18 59zM494 1363q0 36 18.5 57.5t46.5 21.5q27 0 46 -21t19 -58q0 -39 -18.5 -60.5t-46.5 -21.5q-29 0 -47 22t-18 60z" />
    <glyph glyph-name="igrave" unicode="&#xec;" horiz-adv-x="374" 
d="M235 0h-95v1087h95v-1087zM78 1565q30 -53 66.5 -106t74 -102t74.5 -93v-23h-62q-30 28 -66 66t-73.5 80t-70.5 83.5t-57 78.5v16h114z" />
    <glyph glyph-name="iacute" unicode="&#xed;" horiz-adv-x="374" 
d="M235 0h-95v1087h95v-1087zM413 1565v-16q-23 -35 -55.5 -77t-70 -84.5t-73.5 -80t-67 -66.5h-58v24q43 55 80 104t68.5 97.5t61.5 98.5h114z" />
    <glyph glyph-name="icircumflex" unicode="&#xee;" horiz-adv-x="374" 
d="M235 0h-95v1087h95v-1087zM236 1565q25 -47 60.5 -107.5t70.5 -115.5t54 -85v-16h-53q-43 48 -90.5 112t-89.5 123q-42 -56 -90.5 -123t-88.5 -112h-55v16q28 39 62 94t67 112.5t55 101.5h98z" />
    <glyph glyph-name="idieresis" unicode="&#xef;" horiz-adv-x="374" 
d="M235 0h-95v1087h95v-1087zM-30 1362q0 36 18 58t47 22q28 0 45.5 -21.5t17.5 -58.5q0 -39 -17.5 -60t-45.5 -21q-29 0 -47 22t-18 59zM276 1363q0 36 18.5 57.5t46.5 21.5q27 0 46 -21t19 -58q0 -39 -18.5 -60.5t-46.5 -21.5q-29 0 -47 22t-18 60z" />
    <glyph glyph-name="eth" unicode="&#xf0;" horiz-adv-x="853" 
d="M295 1554q39 -22 74 -49.5t67 -59.5l177 110l39 -62l-166 -100q94 -108 155 -242.5t91 -291t30 -329.5q0 -188 -39 -310t-113.5 -181t-179.5 -59q-118 0 -193 69t-110.5 180.5t-35.5 237.5q0 156 43 265t117 166.5t168 57.5q57 0 99 -18.5t72.5 -48t46.5 -61.5l6 1
q-22 141 -79.5 275.5t-149.5 239.5l-163 -102l-39 60l155 96q-29 31 -61.5 56.5t-62.5 45.5zM437 870q-78 0 -133.5 -49t-86 -140t-30.5 -216q0 -113 27 -203.5t82 -143t135 -52.5q121 0 178 110.5t57 303.5q0 91 -16 164t-45.5 123.5t-72 76.5t-95.5 26z" />
    <glyph glyph-name="ntilde" unicode="&#xf1;" horiz-adv-x="873" 
d="M490 1108q119 0 182.5 -84.5t63.5 -264.5v-759h-96v735q0 151 -42.5 219t-121.5 68q-107 0 -173.5 -100.5t-66.5 -309.5v-612h-96v1087h76l8 -200h7q18 59 51.5 109t85 81t122.5 31zM165 1267q5 48 16.5 86.5t30.5 65t45.5 40.5t59.5 14q40 0 73 -19t62 -44.5t57.5 -45
t60.5 -19.5q37 0 59 34.5t28 95.5h67q-3 -104 -46.5 -155.5t-104.5 -51.5q-40 0 -74 19t-63.5 44t-57.5 45t-57 20q-33 0 -57.5 -32t-30.5 -97h-68z" />
    <glyph glyph-name="ograve" unicode="&#xf2;" horiz-adv-x="858" 
d="M766 545q0 -138 -20.5 -243.5t-62 -177t-104.5 -108t-148 -36.5q-84 0 -147.5 37t-106.5 109t-64.5 178t-21.5 243q0 182 37 307t112 189.5t190 64.5q117 0 191 -66.5t109.5 -192.5t35.5 -304zM188 547q0 -158 25.5 -264.5t80 -161t138.5 -54.5q82 0 134.5 51.5t78 158.5
t25.5 269q0 151 -23.5 257t-76.5 162t-140 56q-128 0 -185 -121.5t-57 -352.5zM318 1565q30 -53 66.5 -106t74 -102t74.5 -93v-23h-62q-30 28 -66 66t-73.5 80t-70.5 83.5t-57 78.5v16h114z" />
    <glyph glyph-name="oacute" unicode="&#xf3;" horiz-adv-x="858" 
d="M766 545q0 -138 -20.5 -243.5t-62 -177t-104.5 -108t-148 -36.5q-84 0 -147.5 37t-106.5 109t-64.5 178t-21.5 243q0 182 37 307t112 189.5t190 64.5q117 0 191 -66.5t109.5 -192.5t35.5 -304zM188 547q0 -158 25.5 -264.5t80 -161t138.5 -54.5q82 0 134.5 51.5t78 158.5
t25.5 269q0 151 -23.5 257t-76.5 162t-140 56q-128 0 -185 -121.5t-57 -352.5zM644 1565v-16q-23 -35 -55.5 -77t-70 -84.5t-73.5 -80t-67 -66.5h-58v24q43 55 80 104t68.5 97.5t61.5 98.5h114z" />
    <glyph glyph-name="ocircumflex" unicode="&#xf4;" horiz-adv-x="858" 
d="M766 545q0 -138 -20.5 -243.5t-62 -177t-104.5 -108t-148 -36.5q-84 0 -147.5 37t-106.5 109t-64.5 178t-21.5 243q0 182 37 307t112 189.5t190 64.5q117 0 191 -66.5t109.5 -192.5t35.5 -304zM188 547q0 -158 25.5 -264.5t80 -161t138.5 -54.5q82 0 134.5 51.5t78 158.5
t25.5 269q0 151 -23.5 257t-76.5 162t-140 56q-128 0 -185 -121.5t-57 -352.5zM475 1565q25 -47 60.5 -107.5t70.5 -115.5t54 -85v-16h-53q-43 48 -90.5 112t-89.5 123q-42 -56 -90.5 -123t-88.5 -112h-55v16q28 39 62 94t67 112.5t55 101.5h98z" />
    <glyph glyph-name="otilde" unicode="&#xf5;" horiz-adv-x="858" 
d="M766 545q0 -138 -20.5 -243.5t-62 -177t-104.5 -108t-148 -36.5q-84 0 -147.5 37t-106.5 109t-64.5 178t-21.5 243q0 182 37 307t112 189.5t190 64.5q117 0 191 -66.5t109.5 -192.5t35.5 -304zM188 547q0 -158 25.5 -264.5t80 -161t138.5 -54.5q82 0 134.5 51.5t78 158.5
t25.5 269q0 151 -23.5 257t-76.5 162t-140 56q-128 0 -185 -121.5t-57 -352.5zM145 1261q5 48 16.5 86.5t30.5 65t45.5 40.5t59.5 14q40 0 73 -19t62 -44.5t57.5 -45t60.5 -19.5q37 0 59 34.5t28 95.5h67q-3 -104 -46.5 -155.5t-104.5 -51.5q-40 0 -74 19t-63.5 44t-57.5 45
t-57 20q-33 0 -57.5 -32t-30.5 -97h-68z" />
    <glyph glyph-name="odieresis" unicode="&#xf6;" horiz-adv-x="858" 
d="M766 545q0 -138 -20.5 -243.5t-62 -177t-104.5 -108t-148 -36.5q-84 0 -147.5 37t-106.5 109t-64.5 178t-21.5 243q0 182 37 307t112 189.5t190 64.5q117 0 191 -66.5t109.5 -192.5t35.5 -304zM188 547q0 -158 25.5 -264.5t80 -161t138.5 -54.5q82 0 134.5 51.5t78 158.5
t25.5 269q0 151 -23.5 257t-76.5 162t-140 56q-128 0 -185 -121.5t-57 -352.5zM210 1362q0 36 18 58t47 22q28 0 45.5 -21.5t17.5 -58.5q0 -39 -17.5 -60t-45.5 -21q-29 0 -47 22t-18 59zM516 1363q0 36 18.5 57.5t46.5 21.5q27 0 46 -21t19 -58q0 -39 -18.5 -60.5
t-46.5 -21.5q-29 0 -47 22t-18 60z" />
    <glyph glyph-name="divide" unicode="&#xf7;" horiz-adv-x="841" 
d="M60 680v85h719v-85h-719zM421 265q-39 0 -55.5 25.5t-16.5 65.5q0 45 17.5 70t54.5 25q38 0 53.5 -25.5t15.5 -67.5q0 -44 -16.5 -68.5t-52.5 -24.5zM421 993q-38 0 -55 25t-17 68q0 42 17 67t55 25t53.5 -25t15.5 -68q0 -44 -16.5 -68t-52.5 -24z" />
    <glyph glyph-name="oslash" unicode="&#xf8;" horiz-adv-x="902" 
d="M800 545q0 -188 -38 -313.5t-112.5 -188.5t-185.5 -63q-64 0 -116.5 23.5t-91.5 69.5l-119 -226l-63 34l133 254q-42 73 -62 175.5t-20 236.5q0 277 84 419t255 142q64 0 114.5 -22t88.5 -65l93 177l65 -31l-107 -207q43 -74 62.5 -178.5t19.5 -236.5zM220 547
q0 -98 11 -176t30 -135l366 701q-28 42 -68.5 63.5t-94.5 21.5q-128 0 -186 -121.5t-58 -353.5zM707 546q0 97 -10.5 176t-32.5 136l-366 -701q29 -47 71 -70t95 -23q84 0 137.5 52.5t79.5 159.5t26 270z" />
    <glyph glyph-name="ugrave" unicode="&#xf9;" horiz-adv-x="873" 
d="M732 1087v-1087h-76l-8 198h-7q-18 -57 -50 -106.5t-82.5 -80.5t-124.5 -31q-87 0 -141.5 41.5t-80.5 124t-26 201.5v740h96v-718q0 -158 42 -229.5t124 -71.5q78 0 130.5 44.5t80 137.5t27.5 235v602h96zM328 1565q30 -53 66.5 -106t74 -102t74.5 -93v-23h-62
q-30 28 -66 66t-73.5 80t-70.5 83.5t-57 78.5v16h114z" />
    <glyph glyph-name="uacute" unicode="&#xfa;" horiz-adv-x="873" 
d="M732 1087v-1087h-76l-8 198h-7q-18 -57 -50 -106.5t-82.5 -80.5t-124.5 -31q-87 0 -141.5 41.5t-80.5 124t-26 201.5v740h96v-718q0 -158 42 -229.5t124 -71.5q78 0 130.5 44.5t80 137.5t27.5 235v602h96zM662 1565v-16q-23 -35 -55.5 -77t-70 -84.5t-73.5 -80t-67 -66.5
h-58v24q43 55 80 104t68.5 97.5t61.5 98.5h114z" />
    <glyph glyph-name="ucircumflex" unicode="&#xfb;" horiz-adv-x="873" 
d="M732 1087v-1087h-76l-8 198h-7q-18 -57 -50 -106.5t-82.5 -80.5t-124.5 -31q-87 0 -141.5 41.5t-80.5 124t-26 201.5v740h96v-718q0 -158 42 -229.5t124 -71.5q78 0 130.5 44.5t80 137.5t27.5 235v602h96zM484 1565q25 -47 60.5 -107.5t70.5 -115.5t54 -85v-16h-53
q-43 48 -90.5 112t-89.5 123q-42 -56 -90.5 -123t-88.5 -112h-55v16q28 39 62 94t67 112.5t55 101.5h98z" />
    <glyph glyph-name="udieresis" unicode="&#xfc;" horiz-adv-x="873" 
d="M732 1087v-1087h-76l-8 198h-7q-18 -57 -50 -106.5t-82.5 -80.5t-124.5 -31q-87 0 -141.5 41.5t-80.5 124t-26 201.5v740h96v-718q0 -158 42 -229.5t124 -71.5q78 0 130.5 44.5t80 137.5t27.5 235v602h96zM217 1362q0 36 18 58t47 22q28 0 45.5 -21.5t17.5 -58.5
q0 -39 -17.5 -60t-45.5 -21q-29 0 -47 22t-18 59zM523 1363q0 36 18.5 57.5t46.5 21.5q27 0 46 -21t19 -58q0 -39 -18.5 -60.5t-46.5 -21.5q-29 0 -47 22t-18 60z" />
    <glyph glyph-name="yacute" unicode="&#xfd;" horiz-adv-x="689" 
d="M32 1087h98l179 -729q14 -55 21 -89t11 -58.5t7 -49.5h7q10 60 20 106.5t22 93.5l178 726h98l-331 -1309q-26 -98 -59.5 -158.5t-77 -87t-98.5 -26.5q-22 0 -41.5 5t-42.5 12v91q18 -8 38 -13.5t37 -5.5q32 0 58.5 17.5t49.5 60.5t41 120l57 226zM565 1565v-16
q-23 -35 -55.5 -77t-70 -84.5t-73.5 -80t-67 -66.5h-58v24q43 55 80 104t68.5 97.5t61.5 98.5h114z" />
    <glyph glyph-name="thorn" unicode="&#xfe;" horiz-adv-x="896" 
d="M807 552q0 -192 -38 -319t-108.5 -190t-166.5 -63q-71 0 -122 30.5t-83.5 78.5t-50.5 103h-6q1 -18 2 -41t2 -49t1 -55v-528h-97v2037h97v-473q0 -46 -2.5 -101t-8.5 -108h4q23 66 56.5 119t84 84t123.5 31q153 0 233 -139t80 -417zM711 551q0 231 -56 350.5t-176 119.5
q-118 0 -180 -110.5t-63 -317.5v-109q0 -207 66 -312t177 -105q72 0 123.5 52t80 159.5t28.5 272.5z" />
    <glyph glyph-name="ydieresis" unicode="&#xff;" horiz-adv-x="689" 
d="M32 1087h98l179 -729q14 -55 21 -89t11 -58.5t7 -49.5h7q10 60 20 106.5t22 93.5l178 726h98l-331 -1309q-26 -98 -59.5 -158.5t-77 -87t-98.5 -26.5q-22 0 -41.5 5t-42.5 12v91q18 -8 38 -13.5t37 -5.5q32 0 58.5 17.5t49.5 60.5t41 120l57 226zM125 1362q0 36 18 58
t47 22q28 0 45.5 -21.5t17.5 -58.5q0 -39 -17.5 -60t-45.5 -21q-29 0 -47 22t-18 59zM431 1363q0 36 18.5 57.5t46.5 21.5q27 0 46 -21t19 -58q0 -39 -18.5 -60.5t-46.5 -21.5q-29 0 -47 22t-18 60z" />
    <glyph glyph-name="Amacron" unicode="&#x100;" horiz-adv-x="829" 
d="M727 0l-126 531h-371l-128 -531h-102l350 1462h126l353 -1462h-102zM581 623l-130 571q-8 35 -14.5 66t-12 60t-11.5 59q-5 -30 -10.5 -58.5t-11.5 -59.5t-15 -66l-128 -572h333zM635 1714v-78h-445v78h445z" />
    <glyph glyph-name="amacron" unicode="&#x101;" horiz-adv-x="788" 
d="M390 1108q139 0 200 -89t61 -283v-736h-74l-11 175h-4q-18 -53 -48 -97.5t-77 -71t-118 -26.5q-86 0 -139.5 42.5t-79 111t-25.5 146.5q0 162 92.5 247.5t262.5 99.5l126 12v92q0 162 -41 227.5t-135 65.5q-41 0 -90.5 -14t-107.5 -49l-34 75q55 35 117.5 53.5
t124.5 18.5zM558 563l-118 -10q-137 -13 -202.5 -79.5t-65.5 -191.5q0 -110 45 -167t124 -57q113 0 165 106t52 281v118zM621 1339v-78h-445v78h445z" />
    <glyph glyph-name="Abreve" unicode="&#x102;" horiz-adv-x="829" 
d="M727 0l-126 531h-371l-128 -531h-102l350 1462h126l353 -1462h-102zM581 623l-130 571q-8 35 -14.5 66t-12 60t-11.5 59q-5 -30 -10.5 -58.5t-11.5 -59.5t-15 -66l-128 -572h333zM633 1858q-2 -72 -30 -125t-77 -82t-116 -29q-94 0 -154.5 59t-64.5 177h69
q4 -50 22.5 -85.5t51.5 -54t79 -18.5q45 0 77.5 19t51 55t21.5 84h70z" />
    <glyph glyph-name="abreve" unicode="&#x103;" horiz-adv-x="788" 
d="M390 1108q139 0 200 -89t61 -283v-736h-74l-11 175h-4q-18 -53 -48 -97.5t-77 -71t-118 -26.5q-86 0 -139.5 42.5t-79 111t-25.5 146.5q0 162 92.5 247.5t262.5 99.5l126 12v92q0 162 -41 227.5t-135 65.5q-41 0 -90.5 -14t-107.5 -49l-34 75q55 35 117.5 53.5
t124.5 18.5zM558 563l-118 -10q-137 -13 -202.5 -79.5t-65.5 -191.5q0 -110 45 -167t124 -57q113 0 165 106t52 281v118zM618 1483q-2 -72 -30 -125t-77 -82t-116 -29q-94 0 -154.5 59t-64.5 177h69q4 -50 22.5 -85.5t51.5 -54t79 -18.5q45 0 77.5 19t51 55t21.5 84h70z" />
    <glyph glyph-name="Aogonek" unicode="&#x104;" horiz-adv-x="829" 
d="M727 0l-126 531h-371l-128 -531h-102l350 1462h126l353 -1462h-102zM581 623l-130 571q-8 35 -14.5 66t-12 60t-11.5 59q-5 -30 -10.5 -58.5t-11.5 -59.5t-15 -66l-128 -572h333zM661 -265q0 -54 24 -81.5t69 -27.5q20 0 39 3.5t29 6.5v-72q-14 -5 -35.5 -9.5t-46.5 -4.5
q-79 0 -121.5 44.5t-42.5 125.5q0 55 20 107t58 101t91 93l61 -21q-77 -72 -111 -134t-34 -131z" />
    <glyph glyph-name="aogonek" unicode="&#x105;" horiz-adv-x="788" 
d="M390 1108q139 0 200 -89t61 -283v-736h-74l-11 175h-4q-18 -53 -48 -97.5t-77 -71t-118 -26.5q-86 0 -139.5 42.5t-79 111t-25.5 146.5q0 162 92.5 247.5t262.5 99.5l126 12v92q0 162 -41 227.5t-135 65.5q-41 0 -90.5 -14t-107.5 -49l-34 75q55 35 117.5 53.5
t124.5 18.5zM558 563l-118 -10q-137 -13 -202.5 -79.5t-65.5 -191.5q0 -110 45 -167t124 -57q113 0 165 106t52 281v118zM502 -265q0 -54 24 -81.5t69 -27.5q20 0 39 3.5t29 6.5v-72q-14 -5 -35.5 -9.5t-46.5 -4.5q-79 0 -121.5 44.5t-42.5 125.5q0 55 20 107t58 101t91 93
l61 -21q-77 -72 -111 -134t-34 -131z" />
    <glyph glyph-name="Cacute" unicode="&#x106;" horiz-adv-x="874" 
d="M589 1393q-103 0 -175.5 -54.5t-117.5 -148.5t-66 -213t-21 -246q0 -199 47.5 -348t135 -231t206.5 -82q66 0 120 17.5t92 38.5v-92q-43 -25 -99.5 -39.5t-120.5 -14.5q-146 0 -255 91t-168.5 260t-59.5 402q0 150 27.5 285t85.5 240t149 165.5t218 60.5q64 0 123 -16.5
t115 -47.5l-40 -84q-48 30 -98.5 43.5t-97.5 13.5zM794 1940v-16q-23 -35 -55.5 -77t-70 -84.5t-73.5 -80t-67 -66.5h-58v24q43 55 80 104t68.5 97.5t61.5 98.5h114z" />
    <glyph glyph-name="cacute" unicode="&#x107;" horiz-adv-x="667" 
d="M441 -20q-117 0 -194.5 65t-115.5 188.5t-38 297.5q0 186 42 314.5t122.5 195.5t196.5 67q51 0 93 -11t79 -32l-32 -81q-32 19 -65.5 27.5t-68.5 8.5q-85 0 -145 -54t-92.5 -162.5t-32.5 -270.5q0 -144 27.5 -248.5t85.5 -161.5t149 -57q41 0 83.5 10.5t83.5 30.5v-86
q-37 -19 -86 -30t-92 -11zM633 1565v-16q-23 -35 -55.5 -77t-70 -84.5t-73.5 -80t-67 -66.5h-58v24q43 55 80 104t68.5 97.5t61.5 98.5h114z" />
    <glyph glyph-name="Ccircumflex" unicode="&#x108;" horiz-adv-x="874" 
d="M589 1393q-103 0 -175.5 -54.5t-117.5 -148.5t-66 -213t-21 -246q0 -199 47.5 -348t135 -231t206.5 -82q66 0 120 17.5t92 38.5v-92q-43 -25 -99.5 -39.5t-120.5 -14.5q-146 0 -255 91t-168.5 260t-59.5 402q0 150 27.5 285t85.5 240t149 165.5t218 60.5q64 0 123 -16.5
t115 -47.5l-40 -84q-48 30 -98.5 43.5t-97.5 13.5zM601 1940q25 -47 60.5 -107.5t70.5 -115.5t54 -85v-16h-53q-43 48 -90.5 112t-89.5 123q-42 -56 -90.5 -123t-88.5 -112h-55v16q28 39 62 94t67 112.5t55 101.5h98z" />
    <glyph glyph-name="ccircumflex" unicode="&#x109;" horiz-adv-x="667" 
d="M441 -20q-117 0 -194.5 65t-115.5 188.5t-38 297.5q0 186 42 314.5t122.5 195.5t196.5 67q51 0 93 -11t79 -32l-32 -81q-32 19 -65.5 27.5t-68.5 8.5q-85 0 -145 -54t-92.5 -162.5t-32.5 -270.5q0 -144 27.5 -248.5t85.5 -161.5t149 -57q41 0 83.5 10.5t83.5 30.5v-86
q-37 -19 -86 -30t-92 -11zM455 1565q25 -47 60.5 -107.5t70.5 -115.5t54 -85v-16h-53q-43 48 -90.5 112t-89.5 123q-42 -56 -90.5 -123t-88.5 -112h-55v16q28 39 62 94t67 112.5t55 101.5h98z" />
    <glyph glyph-name="Cdot" unicode="&#x10a;" horiz-adv-x="874" 
d="M589 1393q-103 0 -175.5 -54.5t-117.5 -148.5t-66 -213t-21 -246q0 -199 47.5 -348t135 -231t206.5 -82q66 0 120 17.5t92 38.5v-92q-43 -25 -99.5 -39.5t-120.5 -14.5q-146 0 -255 91t-168.5 260t-59.5 402q0 150 27.5 285t85.5 240t149 165.5t218 60.5q64 0 123 -16.5
t115 -47.5l-40 -84q-48 30 -98.5 43.5t-97.5 13.5zM574 1847q36 0 51.5 -25t15.5 -62q0 -40 -18 -64t-50 -24q-33 0 -51 24.5t-18 62.5t16.5 63t53.5 25z" />
    <glyph glyph-name="cdot" unicode="&#x10b;" horiz-adv-x="667" 
d="M441 -20q-117 0 -194.5 65t-115.5 188.5t-38 297.5q0 186 42 314.5t122.5 195.5t196.5 67q51 0 93 -11t79 -32l-32 -81q-32 19 -65.5 27.5t-68.5 8.5q-85 0 -145 -54t-92.5 -162.5t-32.5 -270.5q0 -144 27.5 -248.5t85.5 -161.5t149 -57q41 0 83.5 10.5t83.5 30.5v-86
q-37 -19 -86 -30t-92 -11zM417 1494q36 0 51.5 -25t15.5 -62q0 -40 -18 -64t-50 -24q-33 0 -51 24.5t-18 62.5t16.5 63t53.5 25z" />
    <glyph glyph-name="Ccaron" unicode="&#x10c;" horiz-adv-x="874" 
d="M589 1393q-103 0 -175.5 -54.5t-117.5 -148.5t-66 -213t-21 -246q0 -199 47.5 -348t135 -231t206.5 -82q66 0 120 17.5t92 38.5v-92q-43 -25 -99.5 -39.5t-120.5 -14.5q-146 0 -255 91t-168.5 260t-59.5 402q0 150 27.5 285t85.5 240t149 165.5t218 60.5q64 0 123 -16.5
t115 -47.5l-40 -84q-48 30 -98.5 43.5t-97.5 13.5zM512 1616q-25 49 -57 105.5t-65 110t-61 91.5v17h55q40 -45 86.5 -108t86.5 -126q45 66 84.5 118t91.5 116h54v-17q-29 -43 -63 -96.5t-66 -108t-57 -102.5h-89z" />
    <glyph glyph-name="ccaron" unicode="&#x10d;" horiz-adv-x="667" 
d="M441 -20q-117 0 -194.5 65t-115.5 188.5t-38 297.5q0 186 42 314.5t122.5 195.5t196.5 67q51 0 93 -11t79 -32l-32 -81q-32 19 -65.5 27.5t-68.5 8.5q-85 0 -145 -54t-92.5 -162.5t-32.5 -270.5q0 -144 27.5 -248.5t85.5 -161.5t149 -57q41 0 83.5 10.5t83.5 30.5v-86
q-37 -19 -86 -30t-92 -11zM368 1241q-25 49 -57 105.5t-65 110t-61 91.5v17h55q40 -45 86.5 -108t86.5 -126q45 66 84.5 118t91.5 116h54v-17q-29 -43 -63 -96.5t-66 -108t-57 -102.5h-89z" />
    <glyph glyph-name="Dcaron" unicode="&#x10e;" horiz-adv-x="1001" 
d="M894 747q0 -246 -52.5 -412.5t-160 -250.5t-272.5 -84h-253v1462h259q163 0 268.5 -80.5t158 -239.5t52.5 -395zM791 741q0 203 -38 344.5t-122 214t-221 72.5h-156v-1282h150q204 0 295.5 165t91.5 486zM397 1616q-25 49 -57 105.5t-65 110t-61 91.5v17h55
q40 -45 86.5 -108t86.5 -126q45 66 84.5 118t91.5 116h54v-17q-29 -43 -63 -96.5t-66 -108t-57 -102.5h-89z" />
    <glyph glyph-name="dcaron" unicode="&#x10f;" horiz-adv-x="897" 
d="M403 -20q-154 0 -233 141.5t-79 411.5q0 280 82 427.5t232 147.5q67 0 118.5 -28.5t86.5 -73.5t53 -98h5q-2 41 -3.5 76.5t-1.5 67.5v504h95v-1556h-75l-13 188h-7q-18 -54 -52 -102t-85 -77t-123 -29zM419 65q119 0 182 108t63 298v142q0 193 -62.5 300t-179.5 107
q-115 0 -174 -124t-59 -363q0 -224 54.5 -346t175.5 -122zM985 1556v-20q-8 -39 -25.5 -100.5t-38 -120.5t-41.5 -91h-50v26q5 13 12 54t15 91t14.5 94.5t7.5 66.5h106z" />
    <glyph glyph-name="Dcroat" unicode="&#x110;" horiz-adv-x="1009" 
d="M423 1462q162 0 268 -80.5t158.5 -239.5t52.5 -395q0 -246 -52.5 -412.5t-160 -250.5t-272.5 -84h-253v720h-109v84h109v658h259zM418 1372h-155v-568h251v-84h-251v-630h150q203 0 295 165t92 486q0 203 -38 344.5t-122 214t-222 72.5z" />
    <glyph glyph-name="dcroat" unicode="&#x111;" horiz-adv-x="911" 
d="M403 -20q-154 0 -233 141t-79 410q0 279 82 425t233 146q67 0 118 -28t86 -73.5t53 -97.5h5q-1 41 -3 76.5t-2 67.5v230h-246v80h246v199h95v-199h132v-80h-132v-1277h-76l-12 188h-8q-18 -55 -52 -102.5t-85 -76.5t-122 -29zM419 65q118 0 181 108t63 302v135
q0 191 -62 297.5t-179 106.5q-115 0 -173.5 -123t-58.5 -361q0 -224 54 -344.5t175 -120.5z" />
    <glyph glyph-name="Emacron" unicode="&#x112;" horiz-adv-x="796" 
d="M700 0h-544v1462h544v-90h-446v-560h420v-91h-420v-630h446v-91zM644 1714v-78h-445v78h445z" />
    <glyph glyph-name="emacron" unicode="&#x113;" horiz-adv-x="808" 
d="M415 1107q110 0 176.5 -68t96.5 -178t30 -239v-79h-530q0 -234 67.5 -356.5t204.5 -122.5q56 0 111 19t111 57v-93q-49 -32 -106 -49.5t-123 -17.5q-126 0 -206 70.5t-117 197t-37 294.5q0 175 35.5 301.5t107 195t179.5 68.5zM415 1024q-99 0 -157.5 -98.5t-66.5 -301.5
h438q0 108 -22 199.5t-69 146t-123 54.5zM620 1339v-78h-445v78h445z" />
    <glyph glyph-name="Ebreve" unicode="&#x114;" horiz-adv-x="796" 
d="M700 0h-544v1462h544v-90h-446v-560h420v-91h-420v-630h446v-91zM651 1858q-2 -72 -30 -125t-77 -82t-116 -29q-94 0 -154.5 59t-64.5 177h69q4 -50 22.5 -85.5t51.5 -54t79 -18.5q45 0 77.5 19t51 55t21.5 84h70z" />
    <glyph glyph-name="ebreve" unicode="&#x115;" horiz-adv-x="808" 
d="M415 1107q110 0 176.5 -68t96.5 -178t30 -239v-79h-530q0 -234 67.5 -356.5t204.5 -122.5q56 0 111 19t111 57v-93q-49 -32 -106 -49.5t-123 -17.5q-126 0 -206 70.5t-117 197t-37 294.5q0 175 35.5 301.5t107 195t179.5 68.5zM415 1024q-99 0 -157.5 -98.5t-66.5 -301.5
h438q0 108 -22 199.5t-69 146t-123 54.5zM637 1483q-2 -72 -30 -125t-77 -82t-116 -29q-94 0 -154.5 59t-64.5 177h69q4 -50 22.5 -85.5t51.5 -54t79 -18.5q45 0 77.5 19t51 55t21.5 84h70z" />
    <glyph glyph-name="Edotaccent" unicode="&#x116;" horiz-adv-x="796" 
d="M700 0h-544v1462h544v-90h-446v-560h420v-91h-420v-630h446v-91zM442 1854q36 0 51.5 -25t15.5 -62q0 -40 -18 -64t-50 -24q-33 0 -51 24.5t-18 62.5t16.5 63t53.5 25z" />
    <glyph glyph-name="edotaccent" unicode="&#x117;" horiz-adv-x="808" 
d="M415 1107q110 0 176.5 -68t96.5 -178t30 -239v-79h-530q0 -234 67.5 -356.5t204.5 -122.5q56 0 111 19t111 57v-93q-49 -32 -106 -49.5t-123 -17.5q-126 0 -206 70.5t-117 197t-37 294.5q0 175 35.5 301.5t107 195t179.5 68.5zM415 1024q-99 0 -157.5 -98.5t-66.5 -301.5
h438q0 108 -22 199.5t-69 146t-123 54.5zM428 1494q36 0 51.5 -25t15.5 -62q0 -40 -18 -64t-50 -24q-33 0 -51 24.5t-18 62.5t16.5 63t53.5 25z" />
    <glyph glyph-name="Eogonek" unicode="&#x118;" horiz-adv-x="796" 
d="M700 0h-544v1462h544v-90h-446v-560h420v-91h-420v-630h446v-91zM486 -265q0 -54 24 -81.5t69 -27.5q20 0 39 3.5t29 6.5v-72q-14 -5 -35.5 -9.5t-46.5 -4.5q-79 0 -121.5 44.5t-42.5 125.5q0 55 20 107t58 101t91 93l61 -21q-77 -72 -111 -134t-34 -131z" />
    <glyph glyph-name="eogonek" unicode="&#x119;" horiz-adv-x="808" 
d="M489 -269q0 -50 26.5 -76.5t76.5 -26.5q21 0 40.5 3t31.5 7v-73q-17 -6 -39 -10.5t-47 -4.5q-81 0 -127 44t-46 128q0 53 22.5 104.5t63 99.5t93.5 89l97 32q-51 -49 -95 -104t-70.5 -109.5t-26.5 -102.5zM415 1107q110 0 176.5 -68t96.5 -178t30 -239v-79h-530
q0 -234 67.5 -356.5t204.5 -122.5q56 0 111 19t111 57v-93q-49 -32 -106 -49.5t-123 -17.5q-126 0 -206 70.5t-117 197t-37 294.5q0 175 35.5 301.5t107 195t179.5 68.5zM415 1024q-99 0 -157.5 -98.5t-66.5 -301.5h438q0 108 -22 199.5t-69 146t-123 54.5z" />
    <glyph glyph-name="Ecaron" unicode="&#x11a;" horiz-adv-x="796" 
d="M700 0h-544v1462h544v-90h-446v-560h420v-91h-420v-630h446v-91zM379 1616q-25 49 -57 105.5t-65 110t-61 91.5v17h55q40 -45 86.5 -108t86.5 -126q45 66 84.5 118t91.5 116h54v-17q-29 -43 -63 -96.5t-66 -108t-57 -102.5h-89z" />
    <glyph glyph-name="ecaron" unicode="&#x11b;" horiz-adv-x="808" 
d="M415 1107q110 0 176.5 -68t96.5 -178t30 -239v-79h-530q0 -234 67.5 -356.5t204.5 -122.5q56 0 111 19t111 57v-93q-49 -32 -106 -49.5t-123 -17.5q-126 0 -206 70.5t-117 197t-37 294.5q0 175 35.5 301.5t107 195t179.5 68.5zM415 1024q-99 0 -157.5 -98.5t-66.5 -301.5
h438q0 108 -22 199.5t-69 146t-123 54.5zM355 1241q-25 49 -57 105.5t-65 110t-61 91.5v17h55q40 -45 86.5 -108t86.5 -126q45 66 84.5 118t91.5 116h54v-17q-29 -43 -63 -96.5t-66 -108t-57 -102.5h-89z" />
    <glyph glyph-name="Gcircumflex" unicode="&#x11c;" horiz-adv-x="1084" 
d="M618 739h353v-689q-81 -35 -170.5 -52.5t-172.5 -17.5q-180 0 -295 97t-170.5 266.5t-55.5 385.5q0 223 59.5 393t179 265.5t301.5 95.5q82 0 158 -21.5t151 -70.5l-41 -83q-69 47 -135 66t-131 19q-150 0 -247.5 -82.5t-145 -232t-47.5 -351.5q0 -189 44 -337.5
t138 -234t244 -85.5q64 0 126.5 12.5t115.5 31.5v535h-259v90zM657 1940q25 -47 60.5 -107.5t70.5 -115.5t54 -85v-16h-53q-43 48 -90.5 112t-89.5 123q-42 -56 -90.5 -123t-88.5 -112h-55v16q28 39 62 94t67 112.5t55 101.5h98z" />
    <glyph glyph-name="gcircumflex" unicode="&#x11d;" horiz-adv-x="715" 
d="M325 -492q-142 0 -225.5 79t-83.5 220q0 120 52 193t132 96q-38 20 -61.5 59t-23.5 93q0 53 24.5 101t72.5 89q-65 36 -101 118.5t-36 193.5q0 108 33 188t94 125t145 45q27 0 47.5 -2.5t37.5 -7t31 -12.5h245v-68l-155 -13q34 -48 49 -114t15 -130q0 -164 -71.5 -259
t-200.5 -95q-39 0 -68 9q-33 -30 -56.5 -68t-23.5 -92q0 -33 14 -57t40 -38t63 -14h144q118 0 181.5 -69.5t63.5 -209.5q0 -170 -98 -265t-280 -95zM333 -410q91 0 152.5 30.5t93 92t31.5 154.5q0 75 -24 116.5t-65.5 56.5t-93.5 15h-124q-52 0 -97 -23t-71 -74.5
t-26 -139.5q0 -113 60.5 -170.5t163.5 -57.5zM347 485q82 0 128 68.5t46 200.5q0 139 -47.5 208t-128.5 69q-80 0 -126.5 -74.5t-46.5 -206.5q0 -126 44 -195.5t131 -69.5zM389 1565q25 -47 60.5 -107.5t70.5 -115.5t54 -85v-16h-53q-43 48 -90.5 112t-89.5 123
q-42 -56 -90.5 -123t-88.5 -112h-55v16q28 39 62 94t67 112.5t55 101.5h98z" />
    <glyph glyph-name="Gbreve" unicode="&#x11e;" horiz-adv-x="1084" 
d="M618 739h353v-689q-81 -35 -170.5 -52.5t-172.5 -17.5q-180 0 -295 97t-170.5 266.5t-55.5 385.5q0 223 59.5 393t179 265.5t301.5 95.5q82 0 158 -21.5t151 -70.5l-41 -83q-69 47 -135 66t-131 19q-150 0 -247.5 -82.5t-145 -232t-47.5 -351.5q0 -189 44 -337.5
t138 -234t244 -85.5q64 0 126.5 12.5t115.5 31.5v535h-259v90zM852 1858q-2 -72 -30 -125t-77 -82t-116 -29q-94 0 -154.5 59t-64.5 177h69q4 -50 22.5 -85.5t51.5 -54t79 -18.5q45 0 77.5 19t51 55t21.5 84h70z" />
    <glyph glyph-name="gbreve" unicode="&#x11f;" horiz-adv-x="715" 
d="M325 -492q-142 0 -225.5 79t-83.5 220q0 120 52 193t132 96q-38 20 -61.5 59t-23.5 93q0 53 24.5 101t72.5 89q-65 36 -101 118.5t-36 193.5q0 108 33 188t94 125t145 45q27 0 47.5 -2.5t37.5 -7t31 -12.5h245v-68l-155 -13q34 -48 49 -114t15 -130q0 -164 -71.5 -259
t-200.5 -95q-39 0 -68 9q-33 -30 -56.5 -68t-23.5 -92q0 -33 14 -57t40 -38t63 -14h144q118 0 181.5 -69.5t63.5 -209.5q0 -170 -98 -265t-280 -95zM333 -410q91 0 152.5 30.5t93 92t31.5 154.5q0 75 -24 116.5t-65.5 56.5t-93.5 15h-124q-52 0 -97 -23t-71 -74.5
t-26 -139.5q0 -113 60.5 -170.5t163.5 -57.5zM347 485q82 0 128 68.5t46 200.5q0 139 -47.5 208t-128.5 69q-80 0 -126.5 -74.5t-46.5 -206.5q0 -126 44 -195.5t131 -69.5zM562 1483q-2 -72 -30 -125t-77 -82t-116 -29q-94 0 -154.5 59t-64.5 177h69q4 -50 22.5 -85.5
t51.5 -54t79 -18.5q45 0 77.5 19t51 55t21.5 84h70z" />
    <glyph glyph-name="Gdot" unicode="&#x120;" horiz-adv-x="1084" 
d="M618 739h353v-689q-81 -35 -170.5 -52.5t-172.5 -17.5q-180 0 -295 97t-170.5 266.5t-55.5 385.5q0 223 59.5 393t179 265.5t301.5 95.5q82 0 158 -21.5t151 -70.5l-41 -83q-69 47 -135 66t-131 19q-150 0 -247.5 -82.5t-145 -232t-47.5 -351.5q0 -189 44 -337.5
t138 -234t244 -85.5q64 0 126.5 12.5t115.5 31.5v535h-259v90zM643 1865q36 0 51.5 -25t15.5 -62q0 -40 -18 -64t-50 -24q-33 0 -51 24.5t-18 62.5t16.5 63t53.5 25z" />
    <glyph glyph-name="gdot" unicode="&#x121;" horiz-adv-x="715" 
d="M325 -492q-142 0 -225.5 79t-83.5 220q0 120 52 193t132 96q-38 20 -61.5 59t-23.5 93q0 53 24.5 101t72.5 89q-65 36 -101 118.5t-36 193.5q0 108 33 188t94 125t145 45q27 0 47.5 -2.5t37.5 -7t31 -12.5h245v-68l-155 -13q34 -48 49 -114t15 -130q0 -164 -71.5 -259
t-200.5 -95q-39 0 -68 9q-33 -30 -56.5 -68t-23.5 -92q0 -33 14 -57t40 -38t63 -14h144q118 0 181.5 -69.5t63.5 -209.5q0 -170 -98 -265t-280 -95zM333 -410q91 0 152.5 30.5t93 92t31.5 154.5q0 75 -24 116.5t-65.5 56.5t-93.5 15h-124q-52 0 -97 -23t-71 -74.5
t-26 -139.5q0 -113 60.5 -170.5t163.5 -57.5zM347 485q82 0 128 68.5t46 200.5q0 139 -47.5 208t-128.5 69q-80 0 -126.5 -74.5t-46.5 -206.5q0 -126 44 -195.5t131 -69.5zM343 1494q36 0 51.5 -25t15.5 -62q0 -40 -18 -64t-50 -24q-33 0 -51 24.5t-18 62.5t16.5 63t53.5 25
z" />
    <glyph glyph-name="uni0122" unicode="&#x122;" horiz-adv-x="1084" 
d="M618 739h353v-689q-81 -35 -170.5 -52.5t-172.5 -17.5q-180 0 -295 97t-170.5 266.5t-55.5 385.5q0 223 59.5 393t179 265.5t301.5 95.5q82 0 158 -21.5t151 -70.5l-41 -83q-69 47 -135 66t-131 19q-150 0 -247.5 -82.5t-145 -232t-47.5 -351.5q0 -189 44 -337.5
t138 -234t244 -85.5q64 0 126.5 12.5t115.5 31.5v535h-259v90zM689 -125v-20q-13 -48 -32.5 -102.5t-44 -107.5t-52.5 -98h-52v22q14 37 30.5 93t30.5 114t17 99h103z" />
    <glyph glyph-name="uni0123" unicode="&#x123;" horiz-adv-x="715" 
d="M466 1569v-22q-14 -36 -32.5 -93t-32.5 -115t-18 -98h-102v21q12 47 31 102t45 108t56 97h53zM325 -492q-142 0 -225.5 79t-83.5 220q0 120 52 193t132 96q-38 20 -61.5 59t-23.5 93q0 53 24.5 101t72.5 89q-65 36 -101 118.5t-36 193.5q0 108 33 188t94 125t145 45
q27 0 47.5 -2.5t37.5 -7t31 -12.5h245v-68l-155 -13q34 -48 49 -114t15 -130q0 -164 -71.5 -259t-200.5 -95q-39 0 -68 9q-33 -30 -56.5 -68t-23.5 -92q0 -33 14 -57t40 -38t63 -14h144q118 0 181.5 -69.5t63.5 -209.5q0 -170 -98 -265t-280 -95zM333 -410q91 0 152.5 30.5
t93 92t31.5 154.5q0 75 -24 116.5t-65.5 56.5t-93.5 15h-124q-52 0 -97 -23t-71 -74.5t-26 -139.5q0 -113 60.5 -170.5t163.5 -57.5zM347 485q82 0 128 68.5t46 200.5q0 139 -47.5 208t-128.5 69q-80 0 -126.5 -74.5t-46.5 -206.5q0 -126 44 -195.5t131 -69.5z" />
    <glyph glyph-name="Hcircumflex" unicode="&#x124;" horiz-adv-x="1031" 
d="M877 0h-99v721h-524v-721h-98v1462h98v-649h524v649h99v-1462zM566 1940q25 -47 60.5 -107.5t70.5 -115.5t54 -85v-16h-53q-43 48 -90.5 112t-89.5 123q-42 -56 -90.5 -123t-88.5 -112h-55v16q28 39 62 94t67 112.5t55 101.5h98z" />
    <glyph glyph-name="hcircumflex" unicode="&#x125;" horiz-adv-x="873" 
d="M236 1556v-507q0 -47 -1 -81t-5 -68h6q18 53 50.5 100.5t82.5 77.5t118 30q84 0 138.5 -40.5t82.5 -120t28 -199.5v-748h-96v728q0 160 -44 226t-123 66q-68 0 -121.5 -44.5t-84.5 -139t-31 -241.5v-595h-96v1556h96zM238 2034q25 -47 60.5 -107.5t70.5 -115.5t54 -85
v-16h-53q-43 48 -90.5 112t-89.5 123q-42 -56 -90.5 -123t-88.5 -112h-55v16q28 39 62 94t67 112.5t55 101.5h98z" />
    <glyph glyph-name="Hbar" unicode="&#x126;" horiz-adv-x="1037" 
d="M155 0v1106h-157v82h157v274h98v-274h524v274h99v-274h162v-82h-162v-1106h-99v720h-524v-720h-98zM254 814h524v292h-524v-292z" />
    <glyph glyph-name="hbar" unicode="&#x127;" horiz-adv-x="883" 
d="M246 1556v-199h252v-82h-252v-239q0 -43 -1 -74.5t-5 -67.5h6q19 53 51 101t82 77.5t118 29.5q83 0 138 -40t83 -120t28 -199v-743h-96v722q0 159 -44.5 225.5t-123.5 66.5q-67 0 -120.5 -43.5t-85 -137t-31.5 -243.5v-590h-94v1275h-129v82h129v199h95z" />
    <glyph glyph-name="Itilde" unicode="&#x128;" horiz-adv-x="408" 
d="M156 0v1462h97v-1462h-97zM-75 1630q5 48 16.5 86.5t30.5 65t45.5 40.5t59.5 14q40 0 73 -19t62 -44.5t57.5 -45t60.5 -19.5q37 0 59 34.5t28 95.5h67q-3 -104 -46.5 -155.5t-104.5 -51.5q-40 0 -74 19t-63.5 44t-57.5 45t-57 20q-33 0 -57.5 -32t-30.5 -97h-68z" />
    <glyph glyph-name="itilde" unicode="&#x129;" horiz-adv-x="374" 
d="M235 0h-95v1087h95v-1087zM-93 1255q5 48 16.5 86.5t30.5 65t45.5 40.5t59.5 14q40 0 73 -19t62 -44.5t57.5 -45t60.5 -19.5q37 0 59 34.5t28 95.5h67q-3 -104 -46.5 -155.5t-104.5 -51.5q-40 0 -74 19t-63.5 44t-57.5 45t-57 20q-33 0 -57.5 -32t-30.5 -97h-68z" />
    <glyph glyph-name="Imacron" unicode="&#x12a;" horiz-adv-x="408" 
d="M156 0v1462h97v-1462h-97zM426 1714v-78h-445v78h445z" />
    <glyph glyph-name="imacron" unicode="&#x12b;" horiz-adv-x="374" 
d="M235 0h-95v1087h95v-1087zM410 1339v-78h-445v78h445z" />
    <glyph glyph-name="Ibreve" unicode="&#x12c;" horiz-adv-x="408" 
d="M156 0v1462h97v-1462h-97zM426 1858q-2 -72 -30 -125t-77 -82t-116 -29q-94 0 -154.5 59t-64.5 177h69q4 -50 22.5 -85.5t51.5 -54t79 -18.5q45 0 77.5 19t51 55t21.5 84h70z" />
    <glyph glyph-name="ibreve" unicode="&#x12d;" horiz-adv-x="374" 
d="M235 0h-95v1087h95v-1087zM407 1483q-2 -72 -30 -125t-77 -82t-116 -29q-94 0 -154.5 59t-64.5 177h69q4 -50 22.5 -85.5t51.5 -54t79 -18.5q45 0 77.5 19t51 55t21.5 84h70z" />
    <glyph glyph-name="Iogonek" unicode="&#x12e;" horiz-adv-x="408" 
d="M156 0v1462h97v-1462h-97zM108 -265q0 -54 24 -81.5t69 -27.5q20 0 39 3.5t29 6.5v-72q-14 -5 -35.5 -9.5t-46.5 -4.5q-79 0 -121.5 44.5t-42.5 125.5q0 55 20 107t58 101t91 93l61 -21q-77 -72 -111 -134t-34 -131z" />
    <glyph glyph-name="iogonek" unicode="&#x12f;" horiz-adv-x="388" 
d="M243 1087v-1087h-94v1087h94zM199 1494q35 0 51.5 -25t16.5 -62q0 -40 -18.5 -64t-51.5 -24q-32 0 -50.5 24.5t-18.5 62.5t17 63t54 25zM94 -265q0 -54 24 -81.5t69 -27.5q20 0 39 3.5t29 6.5v-72q-14 -5 -35.5 -9.5t-46.5 -4.5q-79 0 -121.5 44.5t-42.5 125.5
q0 55 20 107t58 101t91 93l61 -21q-77 -72 -111 -134t-34 -131z" />
    <glyph glyph-name="Idotaccent" unicode="&#x130;" horiz-adv-x="408" 
d="M156 0v1462h97v-1462h-97zM206 1843q36 0 51.5 -25t15.5 -62q0 -40 -18 -64t-50 -24q-33 0 -51 24.5t-18 62.5t16.5 63t53.5 25z" />
    <glyph glyph-name="dotlessi" unicode="&#x131;" horiz-adv-x="374" 
d="M235 0h-95v1087h95v-1087z" />
    <glyph glyph-name="IJ" unicode="&#x132;" horiz-adv-x="818" 
d="M156 0v1462h97v-1462h-97zM437 -372q-33 0 -65 5.5t-59 18.5v89q27 -9 56.5 -15t60.5 -6q54 0 84.5 28.5t42.5 85t12 141.5v1487h98v-1501q0 -117 -24.5 -190.5t-75 -108t-130.5 -34.5z" />
    <glyph glyph-name="ij" unicode="&#x133;" horiz-adv-x="769" 
d="M243 1087v-1087h-94v1087h94zM199 1494q35 0 51.5 -25t16.5 -62q0 -40 -18.5 -64t-51.5 -24q-32 0 -50.5 24.5t-18.5 62.5t17 63t54 25zM441 -494q-24 0 -42.5 4.5t-31.5 10.5v89q13 -7 29.5 -10.5t32.5 -3.5q54 0 74.5 46.5t20.5 143.5v1301h95v-1310q0 -99 -22 -158.5
t-61.5 -86t-94.5 -26.5zM506 1406q0 38 17 63t53 25t52 -25t16 -62q0 -40 -18 -64t-51 -24t-51 24.5t-18 62.5z" />
    <glyph glyph-name="Jcircumflex" unicode="&#x134;" horiz-adv-x="410" 
d="M29 -372q-33 0 -65 5.5t-59 18.5v89q27 -9 56.5 -15t60.5 -6q54 0 84.5 28.5t42.5 85t12 141.5v1487h98v-1501q0 -117 -24.5 -190.5t-75 -108t-130.5 -34.5zM255 1927q25 -47 60.5 -107.5t70.5 -115.5t54 -85v-16h-53q-43 48 -90.5 112t-89.5 123q-42 -56 -90.5 -123
t-88.5 -112h-55v16q28 39 62 94t67 112.5t55 101.5h98z" />
    <glyph glyph-name="jcircumflex" unicode="&#x135;" horiz-adv-x="388" 
d="M62 -494q-24 0 -43.5 4.5t-30.5 10.5v89q13 -7 29.5 -10.5t32.5 -3.5q54 0 74.5 49t20.5 142v1300h95v-1310q0 -98 -22.5 -158t-62.5 -86.5t-93 -26.5zM244 1565q25 -47 60.5 -107.5t70.5 -115.5t54 -85v-16h-53q-43 48 -90.5 112t-89.5 123q-42 -56 -90.5 -123
t-88.5 -112h-55v16q28 39 62 94t67 112.5t55 101.5h98z" />
    <glyph glyph-name="uni0136" unicode="&#x136;" horiz-adv-x="828" 
d="M833 0h-108l-354 734l-117 -165v-569h-98v1462h98v-782q12 28 41.5 79t72.5 124l337 579h107l-375 -643zM539 -125v-20q-13 -48 -32.5 -102.5t-44 -107.5t-52.5 -98h-52v22q14 37 30.5 93t30.5 114t17 99h103z" />
    <glyph glyph-name="uni0137" unicode="&#x137;" horiz-adv-x="721" 
d="M237 1556v-800q0 -66 -1.5 -124.5t-4.5 -121.5h5q18 34 32.5 59.5t32.5 54.5l282 463h103l-254 -412l278 -675h-101l-241 593l-131 -188v-405h-97v1556h97zM461 -125v-20q-13 -48 -32.5 -102.5t-44 -107.5t-52.5 -98h-52v22q14 37 30.5 93t30.5 114t17 99h103z" />
    <glyph glyph-name="kgreenlandic" unicode="&#x138;" horiz-adv-x="721" 
d="M688 1087l-257 -415l279 -672h-101l-242 593l-130 -186v-407h-97v1087h97v-340q0 -57 -1.5 -117.5t-5.5 -117.5h4q17 29 31.5 56t31.5 55l287 464h104z" />
    <glyph glyph-name="Lacute" unicode="&#x139;" horiz-adv-x="721" 
d="M156 0v1462h98v-1371h430v-91h-528zM469 1940v-16q-23 -35 -55.5 -77t-70 -84.5t-73.5 -80t-67 -66.5h-58v24q43 55 80 104t68.5 97.5t61.5 98.5h114z" />
    <glyph glyph-name="lacute" unicode="&#x13a;" horiz-adv-x="375" 
d="M237 0h-97v1556h97v-1556zM443 2034v-16q-23 -35 -55.5 -77t-70 -84.5t-73.5 -80t-67 -66.5h-58v24q43 55 80 104t68.5 97.5t61.5 98.5h114z" />
    <glyph glyph-name="uni013B" unicode="&#x13b;" horiz-adv-x="721" 
d="M156 0v1462h98v-1371h430v-91h-528zM492 -125v-20q-13 -48 -32.5 -102.5t-44 -107.5t-52.5 -98h-52v22q14 37 30.5 93t30.5 114t17 99h103z" />
    <glyph glyph-name="uni013C" unicode="&#x13c;" horiz-adv-x="375" 
d="M237 0h-97v1556h97v-1556zM257 -125v-20q-13 -48 -32.5 -102.5t-44 -107.5t-52.5 -98h-52v22q14 37 30.5 93t30.5 114t17 99h103z" />
    <glyph glyph-name="Lcaron" unicode="&#x13d;" horiz-adv-x="721" 
d="M156 0v1462h98v-1371h430v-91h-528zM664 1462v-20q-8 -39 -25.5 -100.5t-38 -120.5t-41.5 -91h-50v26q5 13 12 54t15 91t14.5 94.5t7.5 66.5h106z" />
    <glyph glyph-name="lcaron" unicode="&#x13e;" horiz-adv-x="379" 
d="M237 0h-97v1556h97v-1556zM463 1556v-20q-8 -39 -25.5 -100.5t-38 -120.5t-41.5 -91h-50v26q5 13 12 54t15 91t14.5 94.5t7.5 66.5h106z" />
    <glyph glyph-name="Ldot" unicode="&#x13f;" horiz-adv-x="721" 
d="M156 0v1462h98v-1371h430v-91h-528zM556 925q36 0 51.5 -25t15.5 -62q0 -40 -18 -64t-50 -24q-33 0 -51 24.5t-18 62.5t16.5 63t53.5 25z" />
    <glyph glyph-name="ldot" unicode="&#x140;" horiz-adv-x="478" 
d="M237 0h-97v1556h97v-1556zM431 934q36 0 51.5 -25t15.5 -62q0 -40 -18 -64t-50 -24q-33 0 -51 24.5t-18 62.5t16.5 63t53.5 25z" />
    <glyph glyph-name="Lslash" unicode="&#x141;" horiz-adv-x="730" 
d="M162 0v526l-119 -75l-45 68l164 105v838h98v-774l264 166l44 -68l-308 -195v-500h428v-91h-526z" />
    <glyph glyph-name="lslash" unicode="&#x142;" horiz-adv-x="403" 
d="M153 0v705l-146 -101l-44 67l190 132v753h94v-685l153 106l47 -67l-200 -138v-772h-94z" />
    <glyph glyph-name="Nacute" unicode="&#x143;" horiz-adv-x="1082" 
d="M928 0h-117l-561 1296h-5q2 -37 3 -77t2 -85t1 -96v-1038h-95v1462h117l561 -1284h5q-1 52 -2.5 102t-2.5 94t-1 77v1011h95v-1462zM748 1940v-16q-23 -35 -55.5 -77t-70 -84.5t-73.5 -80t-67 -66.5h-58v24q43 55 80 104t68.5 97.5t61.5 98.5h114z" />
    <glyph glyph-name="nacute" unicode="&#x144;" horiz-adv-x="873" 
d="M490 1108q119 0 182.5 -84.5t63.5 -264.5v-759h-96v735q0 151 -42.5 219t-121.5 68q-107 0 -173.5 -100.5t-66.5 -309.5v-612h-96v1087h76l8 -200h7q18 59 51.5 109t85 81t122.5 31zM677 1565v-16q-23 -35 -55.5 -77t-70 -84.5t-73.5 -80t-67 -66.5h-58v24q43 55 80 104
t68.5 97.5t61.5 98.5h114z" />
    <glyph glyph-name="uni0145" unicode="&#x145;" horiz-adv-x="1082" 
d="M928 0h-117l-561 1296h-5q2 -37 3 -77t2 -85t1 -96v-1038h-95v1462h117l561 -1284h5q-1 52 -2.5 102t-2.5 94t-1 77v1011h95v-1462zM623 -125v-20q-13 -48 -32.5 -102.5t-44 -107.5t-52.5 -98h-52v22q14 37 30.5 93t30.5 114t17 99h103z" />
    <glyph glyph-name="uni0146" unicode="&#x146;" horiz-adv-x="873" 
d="M490 1108q119 0 182.5 -84.5t63.5 -264.5v-759h-96v735q0 151 -42.5 219t-121.5 68q-107 0 -173.5 -100.5t-66.5 -309.5v-612h-96v1087h76l8 -200h7q18 59 51.5 109t85 81t122.5 31zM511 -125v-20q-13 -48 -32.5 -102.5t-44 -107.5t-52.5 -98h-52v22q14 37 30.5 93
t30.5 114t17 99h103z" />
    <glyph glyph-name="Ncaron" unicode="&#x147;" horiz-adv-x="1082" 
d="M928 0h-117l-561 1296h-5q2 -37 3 -77t2 -85t1 -96v-1038h-95v1462h117l561 -1284h5q-1 52 -2.5 102t-2.5 94t-1 77v1011h95v-1462zM495 1616q-25 49 -57 105.5t-65 110t-61 91.5v17h55q40 -45 86.5 -108t86.5 -126q45 66 84.5 118t91.5 116h54v-17q-29 -43 -63 -96.5
t-66 -108t-57 -102.5h-89z" />
    <glyph glyph-name="ncaron" unicode="&#x148;" horiz-adv-x="873" 
d="M490 1108q119 0 182.5 -84.5t63.5 -264.5v-759h-96v735q0 151 -42.5 219t-121.5 68q-107 0 -173.5 -100.5t-66.5 -309.5v-612h-96v1087h76l8 -200h7q18 59 51.5 109t85 81t122.5 31zM409 1241q-25 49 -57 105.5t-65 110t-61 91.5v17h55q40 -45 86.5 -108t86.5 -126
q45 66 84.5 118t91.5 116h54v-17q-29 -43 -63 -96.5t-66 -108t-57 -102.5h-89z" />
    <glyph glyph-name="napostrophe" unicode="&#x149;" horiz-adv-x="928" 
d="M544 1108q119 0 182.5 -84.5t63.5 -264.5v-759h-96v735q0 151 -42.5 219t-121.5 68q-107 0 -173.5 -100.5t-66.5 -309.5v-612h-96v1087h76l8 -200h7q18 59 51.5 109t85 81t122.5 31zM204 1462l16 -22q-19 -74 -40.5 -148.5t-47 -149t-57.5 -149.5h-75q18 63 34 124
t28.5 119.5t23 114.5t18.5 111h100z" />
    <glyph glyph-name="Eng" unicode="&#x14a;" horiz-adv-x="1084" 
d="M703 -372q-33 0 -66.5 6.5t-56.5 16.5v91q23 -10 55 -16.5t61 -6.5q48 0 79.5 27.5t47 92t15.5 174.5l-590 1290h-4q2 -36 3 -75t2.5 -82t1.5 -95v-1051h-95v1462h115l565 -1236h5q-1 48 -2.5 91.5t-2 83.5t-0.5 75v986h95v-1468q0 -125 -25.5 -206t-76 -120.5
t-126.5 -39.5z" />
    <glyph glyph-name="eng" unicode="&#x14b;" horiz-adv-x="873" 
d="M558 -494q-22 0 -39.5 4.5t-35.5 10.5v88q18 -7 33.5 -10.5t30.5 -3.5q48 0 70.5 51t22.5 148v941q0 149 -43.5 216.5t-124.5 67.5q-66 0 -119.5 -42t-85 -130t-31.5 -229v-618h-96v1087h75l11 -200h5q19 56 52.5 106.5t85 82.5t123.5 32q81 0 135 -41t81.5 -120.5
t27.5 -197.5v-955q0 -94 -20 -159t-59 -97t-99 -32z" />
    <glyph glyph-name="Omacron" unicode="&#x14c;" horiz-adv-x="1077" 
d="M970 733q0 -152 -21.5 -288t-70 -240.5t-131.5 -164.5t-206 -60q-124 0 -208 62t-133 168t-71 241.5t-22 282.5q0 250 50 416t146.5 249.5t237.5 83.5q156 0 250 -98t136.5 -268t42.5 -384zM208 733q0 -212 38 -360t113 -225.5t181 -77.5q110 0 183 75t109 223t36 365
q0 322 -81.5 490.5t-245.5 168.5q-112 0 -186 -76.5t-110.5 -223.5t-36.5 -359zM760 1714v-78h-445v78h445z" />
    <glyph glyph-name="omacron" unicode="&#x14d;" horiz-adv-x="858" 
d="M766 545q0 -138 -20.5 -243.5t-62 -177t-104.5 -108t-148 -36.5q-84 0 -147.5 37t-106.5 109t-64.5 178t-21.5 243q0 182 37 307t112 189.5t190 64.5q117 0 191 -66.5t109.5 -192.5t35.5 -304zM188 547q0 -158 25.5 -264.5t80 -161t138.5 -54.5q82 0 134.5 51.5t78 158.5
t25.5 269q0 151 -23.5 257t-76.5 162t-140 56q-128 0 -185 -121.5t-57 -352.5zM651 1339v-78h-445v78h445z" />
    <glyph glyph-name="Obreve" unicode="&#x14e;" horiz-adv-x="1077" 
d="M970 733q0 -152 -21.5 -288t-70 -240.5t-131.5 -164.5t-206 -60q-124 0 -208 62t-133 168t-71 241.5t-22 282.5q0 250 50 416t146.5 249.5t237.5 83.5q156 0 250 -98t136.5 -268t42.5 -384zM208 733q0 -212 38 -360t113 -225.5t181 -77.5q110 0 183 75t109 223t36 365
q0 322 -81.5 490.5t-245.5 168.5q-112 0 -186 -76.5t-110.5 -223.5t-36.5 -359zM759 1858q-2 -72 -30 -125t-77 -82t-116 -29q-94 0 -154.5 59t-64.5 177h69q4 -50 22.5 -85.5t51.5 -54t79 -18.5q45 0 77.5 19t51 55t21.5 84h70z" />
    <glyph glyph-name="obreve" unicode="&#x14f;" horiz-adv-x="858" 
d="M766 545q0 -138 -20.5 -243.5t-62 -177t-104.5 -108t-148 -36.5q-84 0 -147.5 37t-106.5 109t-64.5 178t-21.5 243q0 182 37 307t112 189.5t190 64.5q117 0 191 -66.5t109.5 -192.5t35.5 -304zM188 547q0 -158 25.5 -264.5t80 -161t138.5 -54.5q82 0 134.5 51.5t78 158.5
t25.5 269q0 151 -23.5 257t-76.5 162t-140 56q-128 0 -185 -121.5t-57 -352.5zM649 1483q-2 -72 -30 -125t-77 -82t-116 -29q-94 0 -154.5 59t-64.5 177h69q4 -50 22.5 -85.5t51.5 -54t79 -18.5q45 0 77.5 19t51 55t21.5 84h70z" />
    <glyph glyph-name="Ohungarumlaut" unicode="&#x150;" horiz-adv-x="1077" 
d="M970 733q0 -152 -21.5 -288t-70 -240.5t-131.5 -164.5t-206 -60q-124 0 -208 62t-133 168t-71 241.5t-22 282.5q0 250 50 416t146.5 249.5t237.5 83.5q156 0 250 -98t136.5 -268t42.5 -384zM208 733q0 -212 38 -360t113 -225.5t181 -77.5q110 0 183 75t109 223t36 365
q0 322 -81.5 490.5t-245.5 168.5q-112 0 -186 -76.5t-110.5 -223.5t-36.5 -359zM896 1944v-17q-13 -27 -41 -67.5t-62.5 -86t-70 -87t-63.5 -70.5h-53v18q33 45 70.5 104t69.5 115.5t49 90.5h101zM645 1944v-17q-14 -28 -41 -68t-61 -84.5t-70 -86t-68 -72.5h-50v18
q34 49 71 107.5t69 113t49 89.5h101z" />
    <glyph glyph-name="ohungarumlaut" unicode="&#x151;" horiz-adv-x="858" 
d="M766 545q0 -138 -20.5 -243.5t-62 -177t-104.5 -108t-148 -36.5q-84 0 -147.5 37t-106.5 109t-64.5 178t-21.5 243q0 182 37 307t112 189.5t190 64.5q117 0 191 -66.5t109.5 -192.5t35.5 -304zM188 547q0 -158 25.5 -264.5t80 -161t138.5 -54.5q82 0 134.5 51.5t78 158.5
t25.5 269q0 151 -23.5 257t-76.5 162t-140 56q-128 0 -185 -121.5t-57 -352.5zM799 1569v-17q-13 -27 -41 -67.5t-62.5 -86t-70 -87t-63.5 -70.5h-53v18q33 45 70.5 104t69.5 115.5t49 90.5h101zM548 1569v-17q-14 -28 -41 -68t-61 -84.5t-70 -86t-68 -72.5h-50v18
q34 49 71 107.5t69 113t49 89.5h101z" />
    <glyph glyph-name="OE" unicode="&#x152;" horiz-adv-x="1269" 
d="M591 1466q40 0 65.5 -1t51.5 -3h467v-88h-474v-562h448v-91h-448v-630h474v-91h-473q-28 -1 -57.5 -3.5t-65.5 -2.5q-160 0 -264.5 85t-156 250t-51.5 406q0 224 44.5 388t150.5 253.5t289 89.5zM575 1378q-112 -1 -183.5 -49.5t-111.5 -135.5t-55.5 -203.5t-15.5 -255.5
q0 -198 37 -344t119 -225.5t217 -80.5q8 0 12 1t9 1v1287q-6 3 -12.5 4t-15.5 1z" />
    <glyph glyph-name="oe" unicode="&#x153;" horiz-adv-x="1407" 
d="M1012 1107q113 0 179 -68t94.5 -178.5t28.5 -238.5v-82h-542q-1 -239 72.5 -357.5t216.5 -118.5q54 0 107 16.5t111 54.5v-90q-49 -31 -104.5 -48t-124.5 -17q-132 0 -210 74t-113 200q-28 -122 -102.5 -198t-195.5 -76q-111 0 -186.5 65.5t-113.5 192t-38 307.5
q0 190 39.5 314.5t117 186.5t192.5 62q118 0 187.5 -73.5t98.5 -195.5q21 76 58 137t93.5 96t134.5 35zM440 1021q-133 0 -192.5 -122t-59.5 -354q0 -155 26.5 -261.5t80 -162t135.5 -55.5q88 0 142.5 57t80 164t25.5 259q0 154 -25 260t-77 160.5t-136 54.5zM1010 1023
q-97 0 -161.5 -94.5t-75.5 -306.5h450q1 111 -20 202t-68.5 145t-124.5 54z" />
    <glyph glyph-name="Racute" unicode="&#x154;" horiz-adv-x="871" 
d="M369 1462q135 0 227.5 -39t139 -126t46.5 -231q0 -107 -27.5 -187.5t-82 -133t-139.5 -79.5l303 -666h-110l-284 641h-188v-641h-98v1462h213zM366 1372h-112v-643h150q128 0 203.5 79.5t75.5 256.5q0 163 -73.5 235t-243.5 72zM680 1940v-16q-23 -35 -55.5 -77
t-70 -84.5t-73.5 -80t-67 -66.5h-58v24q43 55 80 104t68.5 97.5t61.5 98.5h114z" />
    <glyph glyph-name="racute" unicode="&#x155;" horiz-adv-x="569" 
d="M458 1105q21 0 45 -4.5t48 -15.5l-20 -94q-15 6 -35.5 11t-42.5 5q-51 0 -91.5 -38t-68.5 -101.5t-42.5 -141t-13.5 -156.5v-570h-97v1087h74l16 -222h7q17 59 46 113.5t72 90.5t103 36zM553 1565v-16q-23 -35 -55.5 -77t-70 -84.5t-73.5 -80t-67 -66.5h-58v24
q43 55 80 104t68.5 97.5t61.5 98.5h114z" />
    <glyph glyph-name="uni0156" unicode="&#x156;" horiz-adv-x="871" 
d="M369 1462q135 0 227.5 -39t139 -126t46.5 -231q0 -107 -27.5 -187.5t-82 -133t-139.5 -79.5l303 -666h-110l-284 641h-188v-641h-98v1462h213zM366 1372h-112v-643h150q128 0 203.5 79.5t75.5 256.5q0 163 -73.5 235t-243.5 72zM549 -125v-20q-13 -48 -32.5 -102.5
t-44 -107.5t-52.5 -98h-52v22q14 37 30.5 93t30.5 114t17 99h103z" />
    <glyph glyph-name="uni0157" unicode="&#x157;" horiz-adv-x="569" 
d="M458 1105q21 0 45 -4.5t48 -15.5l-20 -94q-15 6 -35.5 11t-42.5 5q-51 0 -91.5 -38t-68.5 -101.5t-42.5 -141t-13.5 -156.5v-570h-97v1087h74l16 -222h7q17 59 46 113.5t72 90.5t103 36zM263 -125v-20q-13 -48 -32.5 -102.5t-44 -107.5t-52.5 -98h-52v22q14 37 30.5 93
t30.5 114t17 99h103z" />
    <glyph glyph-name="Rcaron" unicode="&#x158;" horiz-adv-x="871" 
d="M369 1462q135 0 227.5 -39t139 -126t46.5 -231q0 -107 -27.5 -187.5t-82 -133t-139.5 -79.5l303 -666h-110l-284 641h-188v-641h-98v1462h213zM366 1372h-112v-643h150q128 0 203.5 79.5t75.5 256.5q0 163 -73.5 235t-243.5 72zM392 1616q-25 49 -57 105.5t-65 110
t-61 91.5v17h55q40 -45 86.5 -108t86.5 -126q45 66 84.5 118t91.5 116h54v-17q-29 -43 -63 -96.5t-66 -108t-57 -102.5h-89z" />
    <glyph glyph-name="rcaron" unicode="&#x159;" horiz-adv-x="569" 
d="M458 1105q21 0 45 -4.5t48 -15.5l-20 -94q-15 6 -35.5 11t-42.5 5q-51 0 -91.5 -38t-68.5 -101.5t-42.5 -141t-13.5 -156.5v-570h-97v1087h74l16 -222h7q17 59 46 113.5t72 90.5t103 36zM287 1241q-25 49 -57 105.5t-65 110t-61 91.5v17h55q40 -45 86.5 -108t86.5 -126
q45 66 84.5 118t91.5 116h54v-17q-29 -43 -63 -96.5t-66 -108t-57 -102.5h-89z" />
    <glyph glyph-name="Sacute" unicode="&#x15a;" horiz-adv-x="816" 
d="M731 387q0 -127 -44 -218t-126 -140t-197 -49q-46 0 -95.5 6t-97 18.5t-88.5 31.5v104q60 -31 136 -49t142 -18q91 0 150.5 39t89.5 109t30 160q0 88 -26.5 143t-81.5 96.5t-143 87.5q-60 34 -112.5 68t-92 78t-61 106t-21.5 149q-1 119 45 202.5t128 127.5t188 44
q74 0 144 -18.5t117 -44.5l-35 -88q-60 32 -119.5 45t-105.5 13q-84 0 -142.5 -34.5t-89 -96.5t-30.5 -147q0 -90 30 -147t85.5 -98t131.5 -81q94 -51 159 -101t98.5 -119.5t33.5 -178.5zM642 1940v-16q-23 -35 -55.5 -77t-70 -84.5t-73.5 -80t-67 -66.5h-58v24
q43 55 80 104t68.5 97.5t61.5 98.5h114z" />
    <glyph glyph-name="sacute" unicode="&#x15b;" horiz-adv-x="660" 
d="M592 268q0 -89 -33 -154t-96 -99.5t-157 -34.5q-75 0 -135.5 19t-98.5 43v104q44 -34 105.5 -56t127.5 -22q95 0 142.5 52.5t47.5 147.5q0 61 -20.5 101.5t-61 72.5t-100.5 69q-69 43 -122.5 86t-84 99t-30.5 138q0 117 74 195.5t214 78.5q64 0 120 -16t103 -46l-39 -80
q-38 27 -86 42t-98 15q-88 0 -141.5 -49t-53.5 -139q0 -53 20 -92.5t62 -74t107 -74.5q67 -43 120 -84.5t83.5 -98t30.5 -143.5zM563 1565v-16q-23 -35 -55.5 -77t-70 -84.5t-73.5 -80t-67 -66.5h-58v24q43 55 80 104t68.5 97.5t61.5 98.5h114z" />
    <glyph glyph-name="Scircumflex" unicode="&#x15c;" horiz-adv-x="816" 
d="M731 387q0 -127 -44 -218t-126 -140t-197 -49q-46 0 -95.5 6t-97 18.5t-88.5 31.5v104q60 -31 136 -49t142 -18q91 0 150.5 39t89.5 109t30 160q0 88 -26.5 143t-81.5 96.5t-143 87.5q-60 34 -112.5 68t-92 78t-61 106t-21.5 149q-1 119 45 202.5t128 127.5t188 44
q74 0 144 -18.5t117 -44.5l-35 -88q-60 32 -119.5 45t-105.5 13q-84 0 -142.5 -34.5t-89 -96.5t-30.5 -147q0 -90 30 -147t85.5 -98t131.5 -81q94 -51 159 -101t98.5 -119.5t33.5 -178.5zM472 1940q25 -47 60.5 -107.5t70.5 -115.5t54 -85v-16h-53q-43 48 -90.5 112
t-89.5 123q-42 -56 -90.5 -123t-88.5 -112h-55v16q28 39 62 94t67 112.5t55 101.5h98z" />
    <glyph glyph-name="scircumflex" unicode="&#x15d;" horiz-adv-x="660" 
d="M592 268q0 -89 -33 -154t-96 -99.5t-157 -34.5q-75 0 -135.5 19t-98.5 43v104q44 -34 105.5 -56t127.5 -22q95 0 142.5 52.5t47.5 147.5q0 61 -20.5 101.5t-61 72.5t-100.5 69q-69 43 -122.5 86t-84 99t-30.5 138q0 117 74 195.5t214 78.5q64 0 120 -16t103 -46l-39 -80
q-38 27 -86 42t-98 15q-88 0 -141.5 -49t-53.5 -139q0 -53 20 -92.5t62 -74t107 -74.5q67 -43 120 -84.5t83.5 -98t30.5 -143.5zM393 1565q25 -47 60.5 -107.5t70.5 -115.5t54 -85v-16h-53q-43 48 -90.5 112t-89.5 123q-42 -56 -90.5 -123t-88.5 -112h-55v16q28 39 62 94
t67 112.5t55 101.5h98z" />
    <glyph glyph-name="Scedilla" unicode="&#x15e;" horiz-adv-x="816" 
d="M731 387q0 -127 -44 -218t-126 -140t-197 -49q-46 0 -95.5 6t-97 18.5t-88.5 31.5v104q60 -31 136 -49t142 -18q91 0 150.5 39t89.5 109t30 160q0 88 -26.5 143t-81.5 96.5t-143 87.5q-60 34 -112.5 68t-92 78t-61 106t-21.5 149q-1 119 45 202.5t128 127.5t188 44
q74 0 144 -18.5t117 -44.5l-35 -88q-60 32 -119.5 45t-105.5 13q-84 0 -142.5 -34.5t-89 -96.5t-30.5 -147q0 -90 30 -147t85.5 -98t131.5 -81q94 -51 159 -101t98.5 -119.5t33.5 -178.5zM565 -291q0 -94 -61.5 -147.5t-169.5 -53.5q-26 0 -53.5 3.5t-49.5 9.5v72
q21 -6 46 -9.5t47 -3.5q70 0 113.5 33.5t43.5 95.5q0 66 -49.5 93t-128.5 34l70 164h71l-50 -118q55 -8 93.5 -31.5t58 -59.5t19.5 -82z" />
    <glyph glyph-name="scedilla" unicode="&#x15f;" horiz-adv-x="660" 
d="M592 268q0 -89 -33 -154t-96 -99.5t-157 -34.5q-75 0 -135.5 19t-98.5 43v104q44 -34 105.5 -56t127.5 -22q95 0 142.5 52.5t47.5 147.5q0 61 -20.5 101.5t-61 72.5t-100.5 69q-69 43 -122.5 86t-84 99t-30.5 138q0 117 74 195.5t214 78.5q64 0 120 -16t103 -46l-39 -80
q-38 27 -86 42t-98 15q-88 0 -141.5 -49t-53.5 -139q0 -53 20 -92.5t62 -74t107 -74.5q67 -43 120 -84.5t83.5 -98t30.5 -143.5zM487 -291q0 -94 -61.5 -147.5t-169.5 -53.5q-26 0 -53.5 3.5t-49.5 9.5v72q21 -6 46 -9.5t47 -3.5q70 0 113.5 33.5t43.5 95.5q0 66 -49.5 93
t-128.5 34l70 164h71l-50 -118q55 -8 93.5 -31.5t58 -59.5t19.5 -82z" />
    <glyph glyph-name="Scaron" unicode="&#x160;" horiz-adv-x="816" 
d="M731 387q0 -127 -44 -218t-126 -140t-197 -49q-46 0 -95.5 6t-97 18.5t-88.5 31.5v104q60 -31 136 -49t142 -18q91 0 150.5 39t89.5 109t30 160q0 88 -26.5 143t-81.5 96.5t-143 87.5q-60 34 -112.5 68t-92 78t-61 106t-21.5 149q-1 119 45 202.5t128 127.5t188 44
q74 0 144 -18.5t117 -44.5l-35 -88q-60 32 -119.5 45t-105.5 13q-84 0 -142.5 -34.5t-89 -96.5t-30.5 -147q0 -90 30 -147t85.5 -98t131.5 -81q94 -51 159 -101t98.5 -119.5t33.5 -178.5zM389 1616q-25 49 -57 105.5t-65 110t-61 91.5v17h55q40 -45 86.5 -108t86.5 -126
q45 66 84.5 118t91.5 116h54v-17q-29 -43 -63 -96.5t-66 -108t-57 -102.5h-89z" />
    <glyph glyph-name="scaron" unicode="&#x161;" horiz-adv-x="660" 
d="M592 268q0 -89 -33 -154t-96 -99.5t-157 -34.5q-75 0 -135.5 19t-98.5 43v104q44 -34 105.5 -56t127.5 -22q95 0 142.5 52.5t47.5 147.5q0 61 -20.5 101.5t-61 72.5t-100.5 69q-69 43 -122.5 86t-84 99t-30.5 138q0 117 74 195.5t214 78.5q64 0 120 -16t103 -46l-39 -80
q-38 27 -86 42t-98 15q-88 0 -141.5 -49t-53.5 -139q0 -53 20 -92.5t62 -74t107 -74.5q67 -43 120 -84.5t83.5 -98t30.5 -143.5zM302 1241q-25 49 -57 105.5t-65 110t-61 91.5v17h55q40 -45 86.5 -108t86.5 -126q45 66 84.5 118t91.5 116h54v-17q-29 -43 -63 -96.5t-66 -108
t-57 -102.5h-89z" />
    <glyph glyph-name="uni0162" unicode="&#x162;" horiz-adv-x="723" 
d="M409 0h-99v1372h-294v90h688v-90h-295v-1372zM516 -291q0 -94 -61.5 -147.5t-169.5 -53.5q-26 0 -53.5 3.5t-49.5 9.5v72q21 -6 46 -9.5t47 -3.5q70 0 113.5 33.5t43.5 95.5q0 66 -49.5 93t-128.5 34l70 164h71l-50 -118q55 -8 93.5 -31.5t58 -59.5t19.5 -82z" />
    <glyph glyph-name="uni0163" unicode="&#x163;" horiz-adv-x="466" 
d="M339 66q26 0 51.5 6t43.5 15v-82q-24 -11 -52.5 -18t-63.5 -7q-67 0 -105 30t-54.5 89t-16.5 146v759h-102v57l103 25l25 259h70v-258h195v-83h-195v-756q0 -93 20.5 -137.5t80.5 -44.5zM463 -291q0 -94 -61.5 -147.5t-169.5 -53.5q-26 0 -53.5 3.5t-49.5 9.5v72
q21 -6 46 -9.5t47 -3.5q70 0 113.5 33.5t43.5 95.5q0 66 -49.5 93t-128.5 34l70 164h71l-50 -118q55 -8 93.5 -31.5t58 -59.5t19.5 -82z" />
    <glyph glyph-name="Tcaron" unicode="&#x164;" horiz-adv-x="723" 
d="M409 0h-99v1372h-294v90h688v-90h-295v-1372zM315 1616q-25 49 -57 105.5t-65 110t-61 91.5v17h55q40 -45 86.5 -108t86.5 -126q45 66 84.5 118t91.5 116h54v-17q-29 -43 -63 -96.5t-66 -108t-57 -102.5h-89z" />
    <glyph glyph-name="tcaron" unicode="&#x165;" horiz-adv-x="466" 
d="M339 66q26 0 51.5 6t43.5 15v-82q-24 -11 -52.5 -18t-63.5 -7q-67 0 -105 30t-54.5 89t-16.5 146v759h-102v57l103 25l25 259h70v-258h195v-83h-195v-756q0 -93 20.5 -137.5t80.5 -44.5zM595 1556v-20q-8 -39 -25.5 -100.5t-38 -120.5t-41.5 -91h-50v26q5 13 12 54t15 91
t14.5 94.5t7.5 66.5h106z" />
    <glyph glyph-name="Tbar" unicode="&#x166;" horiz-adv-x="723" 
d="M310 0v714h-236v85h236v572h-294v91h688v-91h-296v-572h239v-85h-239v-714h-98z" />
    <glyph glyph-name="tbar" unicode="&#x167;" horiz-adv-x="466" 
d="M44 575v79h389v-79h-389zM339 66q26 0 51.5 6t43.5 15v-82q-24 -11 -52.5 -18t-63.5 -7q-67 0 -105 30t-54.5 89t-16.5 146v759h-102v57l103 25l25 259h70v-258h195v-83h-195v-756q0 -93 20.5 -137.5t80.5 -44.5z" />
    <glyph glyph-name="Utilde" unicode="&#x168;" horiz-adv-x="1023" 
d="M880 1462v-1013q0 -174 -46.5 -276.5t-129 -147.5t-191.5 -45q-180 0 -275 113t-95 356v1013h98v-1008q0 -208 71.5 -296t199.5 -88q82 0 142.5 36t93.5 120t33 229v1007h99zM232 1630q5 48 16.5 86.5t30.5 65t45.5 40.5t59.5 14q40 0 73 -19t62 -44.5t57.5 -45
t60.5 -19.5q37 0 59 34.5t28 95.5h67q-3 -104 -46.5 -155.5t-104.5 -51.5q-40 0 -74 19t-63.5 44t-57.5 45t-57 20q-33 0 -57.5 -32t-30.5 -97h-68z" />
    <glyph glyph-name="utilde" unicode="&#x169;" horiz-adv-x="873" 
d="M732 1087v-1087h-76l-8 198h-7q-18 -57 -50 -106.5t-82.5 -80.5t-124.5 -31q-87 0 -141.5 41.5t-80.5 124t-26 201.5v740h96v-718q0 -158 42 -229.5t124 -71.5q78 0 130.5 44.5t80 137.5t27.5 235v602h96zM156 1255q5 48 16.5 86.5t30.5 65t45.5 40.5t59.5 14
q40 0 73 -19t62 -44.5t57.5 -45t60.5 -19.5q37 0 59 34.5t28 95.5h67q-3 -104 -46.5 -155.5t-104.5 -51.5q-40 0 -74 19t-63.5 44t-57.5 45t-57 20q-33 0 -57.5 -32t-30.5 -97h-68z" />
    <glyph glyph-name="Umacron" unicode="&#x16a;" horiz-adv-x="1023" 
d="M880 1462v-1013q0 -174 -46.5 -276.5t-129 -147.5t-191.5 -45q-180 0 -275 113t-95 356v1013h98v-1008q0 -208 71.5 -296t199.5 -88q82 0 142.5 36t93.5 120t33 229v1007h99zM735 1714v-78h-445v78h445z" />
    <glyph glyph-name="umacron" unicode="&#x16b;" horiz-adv-x="873" 
d="M732 1087v-1087h-76l-8 198h-7q-18 -57 -50 -106.5t-82.5 -80.5t-124.5 -31q-87 0 -141.5 41.5t-80.5 124t-26 201.5v740h96v-718q0 -158 42 -229.5t124 -71.5q78 0 130.5 44.5t80 137.5t27.5 235v602h96zM659 1339v-78h-445v78h445z" />
    <glyph glyph-name="Ubreve" unicode="&#x16c;" horiz-adv-x="1023" 
d="M880 1462v-1013q0 -174 -46.5 -276.5t-129 -147.5t-191.5 -45q-180 0 -275 113t-95 356v1013h98v-1008q0 -208 71.5 -296t199.5 -88q82 0 142.5 36t93.5 120t33 229v1007h99zM731 1858q-2 -72 -30 -125t-77 -82t-116 -29q-94 0 -154.5 59t-64.5 177h69q4 -50 22.5 -85.5
t51.5 -54t79 -18.5q45 0 77.5 19t51 55t21.5 84h70z" />
    <glyph glyph-name="ubreve" unicode="&#x16d;" horiz-adv-x="873" 
d="M732 1087v-1087h-76l-8 198h-7q-18 -57 -50 -106.5t-82.5 -80.5t-124.5 -31q-87 0 -141.5 41.5t-80.5 124t-26 201.5v740h96v-718q0 -158 42 -229.5t124 -71.5q78 0 130.5 44.5t80 137.5t27.5 235v602h96zM655 1483q-2 -72 -30 -125t-77 -82t-116 -29q-94 0 -154.5 59
t-64.5 177h69q4 -50 22.5 -85.5t51.5 -54t79 -18.5q45 0 77.5 19t51 55t21.5 84h70z" />
    <glyph glyph-name="Uring" unicode="&#x16e;" horiz-adv-x="1023" 
d="M880 1462v-1013q0 -174 -46.5 -276.5t-129 -147.5t-191.5 -45q-180 0 -275 113t-95 356v1013h98v-1008q0 -208 71.5 -296t199.5 -88q82 0 142.5 36t93.5 120t33 229v1007h99zM513 1632q-83 0 -138 50t-55 138q0 87 53.5 137t137.5 50t138 -51t54 -136t-52.5 -136.5
t-137.5 -51.5zM514 1699q55 0 88 33t33 86q0 56 -32.5 90t-90.5 34t-90.5 -34t-32.5 -88q0 -51 31.5 -86t93.5 -35z" />
    <glyph glyph-name="uring" unicode="&#x16f;" horiz-adv-x="873" 
d="M732 1087v-1087h-76l-8 198h-7q-18 -57 -50 -106.5t-82.5 -80.5t-124.5 -31q-87 0 -141.5 41.5t-80.5 124t-26 201.5v740h96v-718q0 -158 42 -229.5t124 -71.5q78 0 130.5 44.5t80 137.5t27.5 235v602h96zM437 1257q-83 0 -138 50t-55 138q0 87 53.5 137t137.5 50
t138 -51t54 -136t-52.5 -136.5t-137.5 -51.5zM438 1324q55 0 88 33t33 86q0 56 -32.5 90t-90.5 34t-90.5 -34t-32.5 -88q0 -51 31.5 -86t93.5 -35z" />
    <glyph glyph-name="Uhungarumlaut" unicode="&#x170;" horiz-adv-x="1023" 
d="M880 1462v-1013q0 -174 -46.5 -276.5t-129 -147.5t-191.5 -45q-180 0 -275 113t-95 356v1013h98v-1008q0 -208 71.5 -296t199.5 -88q82 0 142.5 36t93.5 120t33 229v1007h99zM864 1944v-17q-13 -27 -41 -67.5t-62.5 -86t-70 -87t-63.5 -70.5h-53v18q33 45 70.5 104
t69.5 115.5t49 90.5h101zM613 1944v-17q-14 -28 -41 -68t-61 -84.5t-70 -86t-68 -72.5h-50v18q34 49 71 107.5t69 113t49 89.5h101z" />
    <glyph glyph-name="uhungarumlaut" unicode="&#x171;" horiz-adv-x="873" 
d="M732 1087v-1087h-76l-8 198h-7q-18 -57 -50 -106.5t-82.5 -80.5t-124.5 -31q-87 0 -141.5 41.5t-80.5 124t-26 201.5v740h96v-718q0 -158 42 -229.5t124 -71.5q78 0 130.5 44.5t80 137.5t27.5 235v602h96zM784 1569v-17q-13 -27 -41 -67.5t-62.5 -86t-70 -87t-63.5 -70.5
h-53v18q33 45 70.5 104t69.5 115.5t49 90.5h101zM533 1569v-17q-14 -28 -41 -68t-61 -84.5t-70 -86t-68 -72.5h-50v18q34 49 71 107.5t69 113t49 89.5h101z" />
    <glyph glyph-name="Uogonek" unicode="&#x172;" horiz-adv-x="1023" 
d="M558 -269q0 -52 26 -78t77 -26q21 0 40.5 3.5t29.5 6.5v-73q-15 -6 -37.5 -10t-46.5 -4q-81 0 -127.5 43t-46.5 127q0 53 21.5 105t60 102t91.5 91l110 47q-62 -60 -106 -117t-68 -110.5t-24 -106.5zM880 1462v-1013q0 -174 -46.5 -276.5t-129 -147.5t-191.5 -45
q-180 0 -275 113t-95 356v1013h98v-1008q0 -208 71.5 -296t199.5 -88q82 0 142.5 36t93.5 120t33 229v1007h99z" />
    <glyph glyph-name="uogonek" unicode="&#x173;" horiz-adv-x="873" 
d="M732 1087v-1087h-76l-8 198h-7q-18 -57 -50 -106.5t-82.5 -80.5t-124.5 -31q-87 0 -141.5 41.5t-80.5 124t-26 201.5v740h96v-718q0 -158 42 -229.5t124 -71.5q78 0 130.5 44.5t80 137.5t27.5 235v602h96zM578 -265q0 -54 24 -81.5t69 -27.5q20 0 39 3.5t29 6.5v-72
q-14 -5 -35.5 -9.5t-46.5 -4.5q-79 0 -121.5 44.5t-42.5 125.5q0 55 20 107t58 101t91 93l61 -21q-77 -72 -111 -134t-34 -131z" />
    <glyph glyph-name="Wcircumflex" unicode="&#x174;" horiz-adv-x="1381" 
d="M1371 1462l-313 -1462h-122l-212 1067q-5 25 -9 49.5t-8 52t-9 61t-10 73.5q-4 -34 -7.5 -63.5t-8 -57t-9.5 -55.5t-10 -58l-211 -1069h-125l-308 1462h100l221 -1057q10 -51 18.5 -94.5t14.5 -81t11 -66.5t7 -51q6 38 13 79.5t14 81t13 73t11 57.5l210 1059h93
l210 -1058q7 -38 13 -72.5t11.5 -69t11.5 -72.5t12 -83q9 56 17.5 106.5t18 98.5t18.5 93l223 1057h101zM742 1940q25 -47 60.5 -107.5t70.5 -115.5t54 -85v-16h-53q-43 48 -90.5 112t-89.5 123q-42 -56 -90.5 -123t-88.5 -112h-55v16q28 39 62 94t67 112.5t55 101.5h98z
" />
    <glyph glyph-name="wcircumflex" unicode="&#x175;" horiz-adv-x="1120" 
d="M755 0l-152 750q-6 25 -10.5 52t-9 53t-8.5 51.5t-9 50.5h-3q-4 -25 -8.5 -51t-9 -53t-9.5 -52.5t-10 -51.5l-158 -749h-109l-240 1087h95l148 -679q9 -46 18 -91.5t17 -90.5t17 -90h4q4 27 9.5 59.5t11.5 69t13.5 74t15.5 74.5l143 674h106l144 -684q9 -38 17 -81
t15 -89.5t15 -97.5h5q7 48 12.5 82t11.5 66.5t15 71.5l155 732h93l-239 -1087h-106zM604 1565q25 -47 60.5 -107.5t70.5 -115.5t54 -85v-16h-53q-43 48 -90.5 112t-89.5 123q-42 -56 -90.5 -123t-88.5 -112h-55v16q28 39 62 94t67 112.5t55 101.5h98z" />
    <glyph glyph-name="Ycircumflex" unicode="&#x176;" horiz-adv-x="705" 
d="M353 694l249 768h103l-303 -893v-569h-99v568l-303 894h102zM392 1940q25 -47 60.5 -107.5t70.5 -115.5t54 -85v-16h-53q-43 48 -90.5 112t-89.5 123q-42 -56 -90.5 -123t-88.5 -112h-55v16q28 39 62 94t67 112.5t55 101.5h98z" />
    <glyph glyph-name="ycircumflex" unicode="&#x177;" horiz-adv-x="689" 
d="M32 1087h98l179 -729q14 -55 21 -89t11 -58.5t7 -49.5h7q10 60 20 106.5t22 93.5l178 726h98l-331 -1309q-26 -98 -59.5 -158.5t-77 -87t-98.5 -26.5q-22 0 -41.5 5t-42.5 12v91q18 -8 38 -13.5t37 -5.5q32 0 58.5 17.5t49.5 60.5t41 120l57 226zM384 1565
q25 -47 60.5 -107.5t70.5 -115.5t54 -85v-16h-53q-43 48 -90.5 112t-89.5 123q-42 -56 -90.5 -123t-88.5 -112h-55v16q28 39 62 94t67 112.5t55 101.5h98z" />
    <glyph glyph-name="Ydieresis" unicode="&#x178;" horiz-adv-x="705" 
d="M353 694l249 768h103l-303 -893v-569h-99v568l-303 894h102zM124 1737q0 36 18 58t47 22q28 0 45.5 -21.5t17.5 -58.5q0 -39 -17.5 -60t-45.5 -21q-29 0 -47 22t-18 59zM430 1738q0 36 18.5 57.5t46.5 21.5q27 0 46 -21t19 -58q0 -39 -18.5 -60.5t-46.5 -21.5
q-29 0 -47 22t-18 60z" />
    <glyph glyph-name="Zacute" unicode="&#x179;" horiz-adv-x="691" 
d="M650 0h-594v80l476 1291h-458v91h562v-82l-475 -1289h489v-91zM571 1940v-16q-23 -35 -55.5 -77t-70 -84.5t-73.5 -80t-67 -66.5h-58v24q43 55 80 104t68.5 97.5t61.5 98.5h114z" />
    <glyph glyph-name="zacute" unicode="&#x17a;" horiz-adv-x="563" 
d="M517 0h-461v73l350 929h-324v85h426v-75l-348 -927h357v-85zM523 1565v-16q-23 -35 -55.5 -77t-70 -84.5t-73.5 -80t-67 -66.5h-58v24q43 55 80 104t68.5 97.5t61.5 98.5h114z" />
    <glyph glyph-name="Zdotaccent" unicode="&#x17b;" horiz-adv-x="691" 
d="M650 0h-594v80l476 1291h-458v91h562v-82l-475 -1289h489v-91zM358 1854q36 0 51.5 -25t15.5 -62q0 -40 -18 -64t-50 -24q-33 0 -51 24.5t-18 62.5t16.5 63t53.5 25z" />
    <glyph glyph-name="zdotaccent" unicode="&#x17c;" horiz-adv-x="563" 
d="M517 0h-461v73l350 929h-324v85h426v-75l-348 -927h357v-85zM296 1494q36 0 51.5 -25t15.5 -62q0 -40 -18 -64t-50 -24q-33 0 -51 24.5t-18 62.5t16.5 63t53.5 25z" />
    <glyph glyph-name="Zcaron" unicode="&#x17d;" horiz-adv-x="691" 
d="M650 0h-594v80l476 1291h-458v91h562v-82l-475 -1289h489v-91zM306 1616q-25 49 -57 105.5t-65 110t-61 91.5v17h55q40 -45 86.5 -108t86.5 -126q45 66 84.5 118t91.5 116h54v-17q-29 -43 -63 -96.5t-66 -108t-57 -102.5h-89z" />
    <glyph glyph-name="zcaron" unicode="&#x17e;" horiz-adv-x="563" 
d="M517 0h-461v73l350 929h-324v85h426v-75l-348 -927h357v-85zM253 1241q-25 49 -57 105.5t-65 110t-61 91.5v17h55q40 -45 86.5 -108t86.5 -126q45 66 84.5 118t91.5 116h54v-17q-29 -43 -63 -96.5t-66 -108t-57 -102.5h-89z" />
    <glyph glyph-name="longs" unicode="&#x17f;" horiz-adv-x="392" 
d="M382 1482q-75 0 -108.5 -63.5t-34.5 -233.5v-1185h-95v1186q0 124 21 208.5t71.5 128.5t137.5 44q32 0 60 -6t57 -17l-25 -79q-21 8 -42.5 12.5t-41.5 4.5z" />
    <glyph glyph-name="florin" unicode="&#x192;" horiz-adv-x="812" 
d="M575 1483q41 0 78 -8t76 -28l-31 -79q-25 16 -53.5 23t-59.5 7q-80 0 -112 -67.5t-32 -214.5v-187h193v-84h-193v-968q0 -115 -20 -197.5t-71.5 -127t-147.5 -44.5q-32 0 -62.5 5t-59.5 12v90q31 -8 59.5 -13t55.5 -5q83 0 116.5 63.5t33.5 189.5v995h-150v59l150 27v193
q0 118 23 198t73.5 120.5t133.5 40.5z" />
    <glyph glyph-name="Ohorn" unicode="&#x1a0;" horiz-adv-x="1049" 
d="M969 733q0 -152 -21 -288t-70 -240.5t-131.5 -164.5t-205.5 -60q-125 0 -208.5 62t-132.5 168t-71 241.5t-22 282.5q0 250 50 416t146 249.5t238 83.5q119 0 202.5 -59.5t134.5 -169.5q47 25 73.5 67.5t39 102.5t14.5 132h81l18 -27q-9 -127 -55 -215.5t-140 -132.5
q32 -90 46 -203.5t14 -244.5zM208 733q0 -212 38.5 -360t112.5 -225.5t181 -77.5q109 0 182.5 75t109.5 223t36 365q0 322 -81.5 490.5t-245.5 168.5q-112 0 -186 -76.5t-110.5 -223.5t-36.5 -359z" />
    <glyph glyph-name="ohorn" unicode="&#x1a1;" horiz-adv-x="869" 
d="M766 545q0 -188 -37.5 -313.5t-112 -188.5t-185.5 -63q-109 0 -185.5 63.5t-115.5 190.5t-39 313q0 277 84.5 419t254.5 142q86 0 149 -37.5t104 -110.5q46 21 74 63.5t41 104.5t15 139h82l16 -27q-6 -87 -28 -156t-63 -117t-105 -77q27 -67 39 -154t12 -191zM188 547
q0 -158 26 -265t81 -161.5t137 -54.5t134.5 52t78 159t25.5 269q0 152 -24 257.5t-76.5 161.5t-139.5 56q-129 0 -185.5 -121.5t-56.5 -352.5z" />
    <glyph glyph-name="Uhorn" unicode="&#x1af;" horiz-adv-x="1068" 
d="M880 1462v-215q53 18 83.5 61t44.5 106.5t16 141.5h81l18 -27q-6 -72 -23 -131.5t-46 -105.5t-72 -77t-102 -47v-702q0 -177 -46.5 -283.5t-128.5 -154.5t-192 -48q-179 0 -274.5 119t-95.5 366v997h98v-993q0 -212 71.5 -305.5t200.5 -93.5q82 0 142 38.5t93 126.5
t33 235v992h99z" />
    <glyph glyph-name="uhorn" unicode="&#x1b0;" horiz-adv-x="922" 
d="M949 1267l16 -28q-5 -70 -21 -128.5t-44 -103.5t-69 -76.5t-99 -48.5v-882h-75l-10 198h-8q-17 -55 -49 -104.5t-81.5 -81.5t-124.5 -32q-87 0 -141.5 43t-80.5 125.5t-26 201.5v737h96v-718q0 -158 42 -229.5t124 -71.5q113 0 175.5 100.5t62.5 321.5v597h96v-126
q50 20 78.5 62.5t41 105t14.5 138.5h83z" />
    <glyph glyph-name="uni01EA" unicode="&#x1ea;" horiz-adv-x="1077" 
d="M970 733q0 -152 -21.5 -288t-70 -240.5t-131.5 -164.5t-206 -60q-124 0 -208 62t-133 168t-71 241.5t-22 282.5q0 250 50 416t146.5 249.5t237.5 83.5q156 0 250 -98t136.5 -268t42.5 -384zM208 733q0 -212 38 -360t113 -225.5t181 -77.5q110 0 183 75t109 223t36 365
q0 322 -81.5 490.5t-245.5 168.5q-112 0 -186 -76.5t-110.5 -223.5t-36.5 -359zM491 -265q0 -54 24 -81.5t69 -27.5q20 0 39 3.5t29 6.5v-72q-14 -5 -35.5 -9.5t-46.5 -4.5q-79 0 -121.5 44.5t-42.5 125.5q0 55 20 107t58 101t91 93l61 -21q-77 -72 -111 -134t-34 -131z" />
    <glyph glyph-name="uni01EB" unicode="&#x1eb;" horiz-adv-x="858" 
d="M766 545q0 -138 -20.5 -243.5t-62 -177t-104.5 -108t-148 -36.5q-84 0 -147.5 37t-106.5 109t-64.5 178t-21.5 243q0 182 37 307t112 189.5t190 64.5q117 0 191 -66.5t109.5 -192.5t35.5 -304zM188 547q0 -158 25.5 -264.5t80 -161t138.5 -54.5q82 0 134.5 51.5t78 158.5
t25.5 269q0 151 -23.5 257t-76.5 162t-140 56q-128 0 -185 -121.5t-57 -352.5zM383 -265q0 -54 24 -81.5t69 -27.5q20 0 39 3.5t29 6.5v-72q-14 -5 -35.5 -9.5t-46.5 -4.5q-79 0 -121.5 44.5t-42.5 125.5q0 55 20 107t58 101t91 93l61 -21q-77 -72 -111 -134t-34 -131z" />
    <glyph glyph-name="uni01EC" unicode="&#x1ec;" horiz-adv-x="1077" 
d="M970 733q0 -152 -21.5 -288t-70 -240.5t-131.5 -164.5t-206 -60q-124 0 -208 62t-133 168t-71 241.5t-22 282.5q0 250 50 416t146.5 249.5t237.5 83.5q156 0 250 -98t136.5 -268t42.5 -384zM208 733q0 -212 38 -360t113 -225.5t181 -77.5q110 0 183 75t109 223t36 365
q0 322 -81.5 490.5t-245.5 168.5q-112 0 -186 -76.5t-110.5 -223.5t-36.5 -359zM760 1717v-78h-445v78h445zM484 -265q0 -54 24 -81.5t69 -27.5q20 0 39 3.5t29 6.5v-72q-14 -5 -35.5 -9.5t-46.5 -4.5q-79 0 -121.5 44.5t-42.5 125.5q0 55 20 107t58 101t91 93l61 -21
q-77 -72 -111 -134t-34 -131z" />
    <glyph glyph-name="uni01ED" unicode="&#x1ed;" horiz-adv-x="858" 
d="M766 545q0 -138 -20.5 -243.5t-62 -177t-104.5 -108t-148 -36.5q-84 0 -147.5 37t-106.5 109t-64.5 178t-21.5 243q0 182 37 307t112 189.5t190 64.5q117 0 191 -66.5t109.5 -192.5t35.5 -304zM188 547q0 -158 25.5 -264.5t80 -161t138.5 -54.5q82 0 134.5 51.5t78 158.5
t25.5 269q0 151 -23.5 257t-76.5 162t-140 56q-128 0 -185 -121.5t-57 -352.5zM651 1339v-78h-445v78h445zM374 -265q0 -54 24 -81.5t69 -27.5q20 0 39 3.5t29 6.5v-72q-14 -5 -35.5 -9.5t-46.5 -4.5q-79 0 -121.5 44.5t-42.5 125.5q0 55 20 107t58 101t91 93l61 -21
q-77 -72 -111 -134t-34 -131z" />
    <glyph glyph-name="uni01F0" unicode="&#x1f0;" horiz-adv-x="388" 
d="M62 -494q-24 0 -43.5 4.5t-30.5 10.5v89q13 -7 29.5 -10.5t32.5 -3.5q54 0 74.5 49t20.5 142v1300h95v-1310q0 -98 -22.5 -158t-62.5 -86.5t-93 -26.5zM146 1241q-25 49 -57 105.5t-65 110t-61 91.5v17h55q40 -45 86.5 -108t86.5 -126q45 66 84.5 118t91.5 116h54v-17
q-29 -43 -63 -96.5t-66 -108t-57 -102.5h-89z" />
    <glyph glyph-name="Aringacute" unicode="&#x1fa;" horiz-adv-x="830" 
d="M0 0l349 1250q-54 14 -90.5 57t-36.5 110q0 86 54 136.5t136 50.5q83 0 138 -51t55 -137q0 -65 -34.5 -108.5t-92.5 -58.5l353 -1249h-103l-120 432h-387l-117 -432h-104zM242 523h345l-140 523q-8 36 -15 64t-11 50t-6 40q-3 -14 -5 -28.5t-5.5 -30.5t-8 -34t-9.5 -40z
M415 1294q56 0 89.5 33.5t33.5 88.5q0 54 -34 89t-91 35q-58 0 -91 -35t-33 -88q0 -52 32.5 -87.5t93.5 -35.5zM321 1652v24q50 60 87 106t66 87t54 84h116v-15q-22 -33 -54 -71.5t-68 -77t-72 -73.5t-67 -64h-62z" />
    <glyph glyph-name="aringacute" unicode="&#x1fb;" horiz-adv-x="784" 
d="M390 1108q139 0 200 -89t61 -283v-736h-74l-11 175h-4q-18 -53 -48 -97.5t-77 -71t-118 -26.5q-86 0 -139.5 42.5t-79 111t-25.5 146.5q0 162 92.5 247.5t262.5 99.5l126 12v92q0 162 -41 227.5t-135 65.5q-41 0 -90.5 -14t-107.5 -49l-34 75q55 35 117.5 53.5
t124.5 18.5zM558 563l-118 -10q-137 -13 -202.5 -79.5t-65.5 -191.5q0 -110 45 -167t124 -57q113 0 165 106t52 281v118zM404 1491q-58 0 -91 -35.5t-33 -87.5t32 -88t94 -36q56 0 89 33.5t33 88.5t-33.5 90t-90.5 35zM404 1555q54 0 98 -23t69.5 -65t25.5 -100
q0 -85 -53.5 -136t-137.5 -51t-139 50t-55 138q0 86 54 136.5t138 50.5zM645 1913v-15q-32 -46 -79 -102t-96 -108t-87 -86h-62v23q46 57 82.5 104t66.5 91.5t59 92.5h116z" />
    <glyph glyph-name="AEacute" unicode="&#x1fc;" horiz-adv-x="1203" 
d="M1105 0h-595v530h-255l-149 -530h-108l424 1462h683v-90h-497v-560h471v-91h-471v-630h497v-91zM276 622h235v747h-22zM811 1940v-16q-23 -35 -55.5 -77t-70 -84.5t-73.5 -80t-67 -66.5h-58v24q43 55 80 104t68.5 97.5t61.5 98.5h114z" />
    <glyph glyph-name="aeacute" unicode="&#x1fd;" horiz-adv-x="1276" 
d="M883 1107q108 0 174 -66.5t96 -176t31 -238.5v-81h-532q2 -238 71.5 -359.5t197.5 -121.5q52 0 112 17t115 54v-90q-48 -31 -108 -48t-124 -17q-84 0 -146.5 36t-103.5 97t-61 137q-19 -86 -57.5 -146.5t-95.5 -92t-130 -31.5q-84 0 -139 40.5t-81.5 109t-26.5 152.5
q0 109 43.5 183t124.5 114t193 46l121 7v130q0 132 -43.5 197t-125.5 65q-39 0 -91.5 -14.5t-110.5 -48.5l-34 77q48 31 110.5 50.5t129.5 19.5q98 0 155.5 -56t74.5 -170q30 97 95 161t166 64zM558 556l-112 -6q-143 -10 -208 -77.5t-65 -189.5q0 -102 41 -161.5t126 -59.5
q71 0 120 44t73.5 118.5t24.5 167.5v164zM882 1023q-98 0 -161 -100t-68 -297h441q1 113 -21.5 202.5t-69.5 142t-121 52.5zM876 1565v-16q-23 -35 -55.5 -77t-70 -84.5t-73.5 -80t-67 -66.5h-58v24q43 55 80 104t68.5 97.5t61.5 98.5h114z" />
    <glyph glyph-name="Oslashacute" unicode="&#x1fe;" horiz-adv-x="1111" 
d="M999 733q0 -161 -23 -298.5t-73 -239t-132 -158.5t-201 -57q-90 0 -158.5 35.5t-117.5 97.5l-120 -229l-68 33l138 265q-58 106 -82.5 247.5t-24.5 304.5q0 250 50 416t146 249.5t237 83.5q88 0 157.5 -35.5t119.5 -100.5l103 195l68 -34l-121 -231q52 -99 77 -237
t25 -307zM899 733q0 134 -15 243t-44 190l-500 -957q43 -70 100 -105t129 -35q111 0 184.5 75.5t109.5 223.5t36 365zM237 733q0 -139 16 -249t49 -190l500 959q-41 70 -98.5 105t-133.5 35q-111 0 -185.5 -76.5t-111 -224t-36.5 -359.5zM808 1940v-16q-23 -35 -55.5 -77
t-70 -84.5t-73.5 -80t-67 -66.5h-58v24q43 55 80 104t68.5 97.5t61.5 98.5h114z" />
    <glyph glyph-name="oslashacute" unicode="&#x1ff;" horiz-adv-x="902" 
d="M800 545q0 -188 -38 -313.5t-112.5 -188.5t-185.5 -63q-64 0 -116.5 23.5t-91.5 69.5l-119 -226l-63 34l133 254q-42 73 -62 175.5t-20 236.5q0 277 84 419t255 142q64 0 114.5 -22t88.5 -65l93 177l65 -31l-107 -207q43 -74 62.5 -178.5t19.5 -236.5zM220 547
q0 -98 11 -176t30 -135l366 701q-28 42 -68.5 63.5t-94.5 21.5q-128 0 -186 -121.5t-58 -353.5zM707 546q0 97 -10.5 176t-32.5 136l-366 -701q29 -47 71 -70t95 -23q84 0 137.5 52.5t79.5 159.5t26 270zM707 1565v-16q-23 -35 -55.5 -77t-70 -84.5t-73.5 -80t-67 -66.5h-58
v24q43 55 80 104t68.5 97.5t61.5 98.5h114z" />
    <glyph glyph-name="uni0218" unicode="&#x218;" horiz-adv-x="816" 
d="M731 387q0 -127 -44 -218t-126 -140t-197 -49q-46 0 -95.5 6t-97 18.5t-88.5 31.5v104q60 -31 136 -49t142 -18q91 0 150.5 39t89.5 109t30 160q0 88 -26.5 143t-81.5 96.5t-143 87.5q-60 34 -112.5 68t-92 78t-61 106t-21.5 149q-1 119 45 202.5t128 127.5t188 44
q74 0 144 -18.5t117 -44.5l-35 -88q-60 32 -119.5 45t-105.5 13q-84 0 -142.5 -34.5t-89 -96.5t-30.5 -147q0 -90 30 -147t85.5 -98t131.5 -81q94 -51 159 -101t98.5 -119.5t33.5 -178.5zM443 -125v-20q-13 -48 -32.5 -102.5t-44 -107.5t-52.5 -98h-52v22q14 37 30.5 93
t30.5 114t17 99h103z" />
    <glyph glyph-name="uni0219" unicode="&#x219;" horiz-adv-x="660" 
d="M592 268q0 -89 -33 -154t-96 -99.5t-157 -34.5q-75 0 -135.5 19t-98.5 43v104q44 -34 105.5 -56t127.5 -22q95 0 142.5 52.5t47.5 147.5q0 61 -20.5 101.5t-61 72.5t-100.5 69q-69 43 -122.5 86t-84 99t-30.5 138q0 117 74 195.5t214 78.5q64 0 120 -16t103 -46l-39 -80
q-38 27 -86 42t-98 15q-88 0 -141.5 -49t-53.5 -139q0 -53 20 -92.5t62 -74t107 -74.5q67 -43 120 -84.5t83.5 -98t30.5 -143.5zM373 -125v-20q-13 -48 -32.5 -102.5t-44 -107.5t-52.5 -98h-52v22q14 37 30.5 93t30.5 114t17 99h103z" />
    <glyph glyph-name="uni021A" unicode="&#x21a;" horiz-adv-x="723" 
d="M409 0h-99v1372h-294v90h688v-90h-295v-1372zM415 -125v-20q-13 -48 -32.5 -102.5t-44 -107.5t-52.5 -98h-52v22q14 37 30.5 93t30.5 114t17 99h103z" />
    <glyph glyph-name="uni021B" unicode="&#x21b;" horiz-adv-x="466" 
d="M339 66q26 0 51.5 6t43.5 15v-82q-24 -11 -52.5 -18t-63.5 -7q-67 0 -105 30t-54.5 89t-16.5 146v759h-102v57l103 25l25 259h70v-258h195v-83h-195v-756q0 -93 20.5 -137.5t80.5 -44.5zM344 -125v-20q-13 -48 -32.5 -102.5t-44 -107.5t-52.5 -98h-52v22q14 37 30.5 93
t30.5 114t17 99h103z" />
    <glyph glyph-name="uni0237" unicode="&#x237;" horiz-adv-x="388" 
d="M62 -494q-24 0 -43.5 4.5t-30.5 10.5v89q13 -7 29.5 -10.5t32.5 -3.5q54 0 74.5 49t20.5 142v1300h95v-1310q0 -98 -22.5 -158t-62.5 -86.5t-93 -26.5z" />
    <glyph glyph-name="uni0259" unicode="&#x259;" horiz-adv-x="808" 
d="M357 1107q126 0 205 -70t116.5 -196.5t37.5 -294.5q0 -176 -35 -302.5t-106.5 -195t-179.5 -68.5q-109 0 -175.5 68t-97.5 178.5t-31 237.5v79h531q-1 236 -68.5 357.5t-204.5 121.5q-55 0 -110 -18.5t-112 -56.5v92q49 32 106.5 50t123.5 18zM620 463h-438
q-2 -108 20.5 -199.5t69.5 -146t123 -54.5q98 0 157.5 98.5t67.5 301.5z" />
    <glyph glyph-name="uni02BC" unicode="&#x2bc;" horiz-adv-x="315" 
d="M248 1462l16 -22q-19 -74 -40.5 -148.5t-47 -149t-57.5 -149.5h-75q18 63 34 124t28.5 119.5t23 114.5t18.5 111h100z" />
    <glyph glyph-name="circumflex" unicode="&#x2c6;" horiz-adv-x="631" 
d="M364 1565q25 -47 60.5 -107.5t70.5 -115.5t54 -85v-16h-53q-43 48 -90.5 112t-89.5 123q-42 -56 -90.5 -123t-88.5 -112h-55v16q28 39 62 94t67 112.5t55 101.5h98z" />
    <glyph glyph-name="caron" unicode="&#x2c7;" horiz-adv-x="622" 
d="M265 1241q-25 49 -57 105.5t-65 110t-61 91.5v17h55q40 -45 86.5 -108t86.5 -126q45 66 84.5 118t91.5 116h54v-17q-29 -43 -63 -96.5t-66 -108t-57 -102.5h-89z" />
    <glyph glyph-name="macron" unicode="&#x2c9;" horiz-adv-x="609" 
d="M527 1339v-78h-445v78h445z" />
    <glyph glyph-name="breve" unicode="&#x2d8;" horiz-adv-x="606" 
d="M524 1483q-2 -72 -30 -125t-77 -82t-116 -29q-94 0 -154.5 59t-64.5 177h69q4 -50 22.5 -85.5t51.5 -54t79 -18.5q45 0 77.5 19t51 55t21.5 84h70z" />
    <glyph glyph-name="dotaccent" unicode="&#x2d9;" horiz-adv-x="301" 
d="M152 1494q36 0 51.5 -25t15.5 -62q0 -40 -18 -64t-50 -24q-33 0 -51 24.5t-18 62.5t16.5 63t53.5 25z" />
    <glyph glyph-name="ring" unicode="&#x2da;" horiz-adv-x="548" 
d="M275 1257q-83 0 -138 50t-55 138q0 87 53.5 137t137.5 50t138 -51t54 -136t-52.5 -136.5t-137.5 -51.5zM276 1324q55 0 88 33t33 86q0 56 -32.5 90t-90.5 34t-90.5 -34t-32.5 -88q0 -51 31.5 -86t93.5 -35z" />
    <glyph glyph-name="ogonek" unicode="&#x2db;" horiz-adv-x="410" 
d="M167 -265q0 -54 24 -81.5t69 -27.5q20 0 39 3.5t29 6.5v-72q-14 -5 -35.5 -9.5t-46.5 -4.5q-79 0 -121.5 44.5t-42.5 125.5q0 55 20 107t58 101t91 93l61 -21q-77 -72 -111 -134t-34 -131z" />
    <glyph glyph-name="tilde" unicode="&#x2dc;" horiz-adv-x="723" 
d="M82 1255q5 48 16.5 86.5t30.5 65t45.5 40.5t59.5 14q40 0 73 -19t62 -44.5t57.5 -45t60.5 -19.5q37 0 59 34.5t28 95.5h67q-3 -104 -46.5 -155.5t-104.5 -51.5q-40 0 -74 19t-63.5 44t-57.5 45t-57 20q-33 0 -57.5 -32t-30.5 -97h-68z" />
    <glyph glyph-name="hungarumlaut" unicode="&#x2dd;" horiz-adv-x="705" 
d="M623 1569v-17q-13 -27 -41 -67.5t-62.5 -86t-70 -87t-63.5 -70.5h-53v18q33 45 70.5 104t69.5 115.5t49 90.5h101zM372 1569v-17q-14 -28 -41 -68t-61 -84.5t-70 -86t-68 -72.5h-50v18q34 49 71 107.5t69 113t49 89.5h101z" />
    <glyph glyph-name="uni02F3" unicode="&#x2f3;" horiz-adv-x="676" 
d="M339 -511q-84 0 -139 50t-55 138q0 86 54 137t137 51t138 -51t55 -138q0 -84 -52.5 -135.5t-137.5 -51.5zM339 -447q54 0 88 34.5t34 88.5q0 55 -33.5 89.5t-91.5 34.5t-90.5 -35t-32.5 -88q0 -51 31.5 -87.5t94.5 -36.5z" />
    <glyph glyph-name="gravecomb" unicode="&#x300;" 
d="M-699 1565q30 -53 66.5 -106t74 -102t74.5 -93v-23h-62q-30 28 -66 66t-73.5 80t-70.5 83.5t-57 78.5v16h114z" />
    <glyph glyph-name="acutecomb" unicode="&#x301;" 
d="M-200 1565v-16q-23 -35 -55.5 -77t-70 -84.5t-73.5 -80t-67 -66.5h-58v24q43 55 80 104t68.5 97.5t61.5 98.5h114z" />
    <glyph glyph-name="uni0302" unicode="&#x302;" 
d="M48 1565q25 -47 60.5 -107.5t70.5 -115.5t54 -85v-16h-53q-43 48 -90.5 112t-89.5 123q-42 -56 -90.5 -123t-88.5 -112h-55v16q28 39 62 94t67 112.5t55 101.5h98z" />
    <glyph glyph-name="tildecomb" unicode="&#x303;" 
d="M-832 1255q5 48 16.5 86.5t30.5 65t45.5 40.5t59.5 14q40 0 73 -19t62 -44.5t57.5 -45t60.5 -19.5q37 0 59 34.5t28 95.5h67q-3 -104 -46.5 -155.5t-104.5 -51.5q-40 0 -74 19t-63.5 44t-57.5 45t-57 20q-33 0 -57.5 -32t-30.5 -97h-68z" />
    <glyph glyph-name="uni0304" unicode="&#x304;" 
d="M210 1339v-78h-445v78h445z" />
    <glyph glyph-name="uni0306" unicode="&#x306;" 
d="M221 1483q-2 -72 -30 -125t-77 -82t-116 -29q-94 0 -154.5 59t-64.5 177h69q4 -50 22.5 -85.5t51.5 -54t79 -18.5q45 0 77.5 19t51 55t21.5 84h70z" />
    <glyph glyph-name="uni0307" unicode="&#x307;" 
d="M2 1494q36 0 51.5 -25t15.5 -62q0 -40 -18 -64t-50 -24q-33 0 -51 24.5t-18 62.5t16.5 63t53.5 25z" />
    <glyph glyph-name="uni0308" unicode="&#x308;" 
d="M-219 1362q0 36 18 58t47 22q28 0 45.5 -21.5t17.5 -58.5q0 -39 -17.5 -60t-45.5 -21q-29 0 -47 22t-18 59zM87 1363q0 36 18.5 57.5t46.5 21.5q27 0 46 -21t19 -58q0 -39 -18.5 -60.5t-46.5 -21.5q-29 0 -47 22t-18 60z" />
    <glyph glyph-name="hookabovecomb" unicode="&#x309;" 
d="M-427 1510q0 -75 -44 -118.5t-118 -57.5l-9 -121h-62l-8 169q66 3 111 33.5t45 88.5q0 47 -30.5 74.5t-98.5 27.5q-25 0 -46 -4t-44 -9v71q27 7 52.5 10.5t54.5 3.5q96 0 146.5 -44.5t50.5 -123.5z" />
    <glyph glyph-name="uni030A" unicode="&#x30a;" 
d="M1 1257q-83 0 -138 50t-55 138q0 87 53.5 137t137.5 50t138 -51t54 -136t-52.5 -136.5t-137.5 -51.5zM2 1324q55 0 88 33t33 86q0 56 -32.5 90t-90.5 34t-90.5 -34t-32.5 -88q0 -51 31.5 -86t93.5 -35z" />
    <glyph glyph-name="uni030B" unicode="&#x30b;" 
d="M348 1569v-17q-13 -27 -41 -67.5t-62.5 -86t-70 -87t-63.5 -70.5h-53v18q33 45 70.5 104t69.5 115.5t49 90.5h101zM97 1569v-17q-14 -28 -41 -68t-61 -84.5t-70 -86t-68 -72.5h-50v18q34 49 71 107.5t69 113t49 89.5h101z" />
    <glyph glyph-name="uni030C" unicode="&#x30c;" 
d="M-46 1241q-25 49 -57 105.5t-65 110t-61 91.5v17h55q40 -45 86.5 -108t86.5 -126q45 66 84.5 118t91.5 116h54v-17q-29 -43 -63 -96.5t-66 -108t-57 -102.5h-89z" />
    <glyph glyph-name="uni030F" unicode="&#x30f;" 
d="M-568 1569q17 -44 49 -105.5t66 -117.5t54 -84v-21h-46q-25 21 -58 59.5t-66.5 84.5t-62.5 90.5t-46 76.5v17h110zM-832 1569q21 -50 51.5 -110.5t63 -114t53.5 -82.5v-21h-48q-24 21 -56 59.5t-66.5 84.5t-63 90.5t-46.5 76.5v17h112z" />
    <glyph glyph-name="uni0312" unicode="&#x312;" 
d="M-85 993l-15 23q21 75 42.5 149.5t47 149t57.5 147.5h74q-24 -85 -43.5 -165t-34.5 -155t-25 -149h-103z" />
    <glyph glyph-name="dotbelowcomb" unicode="&#x323;" 
d="M-592 -312q-33 0 -51 24.5t-18 63.5q0 38 16.5 63t53.5 25q36 0 51.5 -25t15.5 -62q0 -41 -17.5 -65t-50.5 -24z" />
    <glyph glyph-name="uni0326" unicode="&#x326;" 
d="M72 -125v-20q-13 -48 -32.5 -102.5t-44 -107.5t-52.5 -98h-52v22q14 37 30.5 93t30.5 114t17 99h103z" />
    <glyph glyph-name="uni0327" unicode="&#x327;" 
d="M158 -291q0 -94 -61.5 -147.5t-169.5 -53.5q-26 0 -53.5 3.5t-49.5 9.5v72q21 -6 46 -9.5t47 -3.5q70 0 113.5 33.5t43.5 95.5q0 66 -49.5 93t-128.5 34l70 164h71l-50 -118q55 -8 93.5 -31.5t58 -59.5t19.5 -82z" />
    <glyph glyph-name="uni0328" unicode="&#x328;" 
d="M-65 -265q0 -54 24 -81.5t69 -27.5q20 0 39 3.5t29 6.5v-72q-14 -5 -35.5 -9.5t-46.5 -4.5q-79 0 -121.5 44.5t-42.5 125.5q0 55 20 107t58 101t91 93l61 -21q-77 -72 -111 -134t-34 -131z" />
    <glyph glyph-name="tonos" unicode="&#x384;" horiz-adv-x="1114" 
d="M507 1241v21q10 26 25.5 72t30.5 98t27 99t17 75h97v-22q-16 -53 -39.5 -114t-49.5 -120.5t-49 -108.5h-59z" />
    <glyph glyph-name="dieresistonos" unicode="&#x385;" horiz-adv-x="1065" 
d="M630 1592v-22q-7 -36 -20.5 -87.5t-30 -103.5t-32.5 -92h-55v22q9 37 19 89t17 104t9 90h93zM364 1383q28 0 45 -22.5t17 -60.5t-17 -59t-45 -21q-29 0 -47 22t-18 58t18 59.5t47 23.5zM700 1383q27 0 46 -21.5t19 -60.5q0 -37 -18.5 -59t-46.5 -22t-45.5 22.5
t-17.5 59.5q0 36 17.5 58.5t45.5 22.5z" />
    <glyph glyph-name="Alphatonos" unicode="&#x386;" horiz-adv-x="835" 
d="M733 0l-126 531h-371l-128 -531h-102l350 1462h126l353 -1462h-102zM587 623l-130 571q-8 35 -14.5 66t-12 60t-11.5 59q-5 -30 -10.5 -58.5t-11.5 -59.5t-15 -66l-128 -572h333zM39 1222v21q10 26 25.5 72t30.5 98t27 99t17 75h97v-22q-16 -53 -39.5 -114t-49.5 -120.5
t-49 -108.5h-59z" />
    <glyph glyph-name="anoteleia" unicode="&#x387;" horiz-adv-x="405" 
d="M128 1002q0 43 17 68.5t57 25.5q38 0 56.5 -22.5t18.5 -71.5q0 -47 -19.5 -70.5t-55.5 -23.5q-39 0 -56.5 25t-17.5 69z" />
    <glyph glyph-name="Epsilontonos" unicode="&#x388;" horiz-adv-x="907" 
d="M810 0h-544v1462h544v-90h-446v-560h420v-91h-420v-630h446v-91zM-2 1214v21q10 26 25.5 72t30.5 98t27 99t17 75h97v-22q-16 -53 -39.5 -114t-49.5 -120.5t-49 -108.5h-59z" />
    <glyph glyph-name="Etatonos" unicode="&#x389;" horiz-adv-x="1143" 
d="M990 0h-99v721h-524v-721h-98v1462h98v-649h524v649h99v-1462zM-2 1214v21q10 26 25.5 72t30.5 98t27 99t17 75h97v-22q-16 -53 -39.5 -114t-49.5 -120.5t-49 -108.5h-59z" />
    <glyph glyph-name="Iotatonos" unicode="&#x38a;" horiz-adv-x="503" 
d="M252 0v1462h97v-1462h-97zM-1 1214v21q10 26 25.5 72t30.5 98t27 99t17 75h97v-22q-16 -53 -39.5 -114t-49.5 -120.5t-49 -108.5h-59z" />
    <glyph glyph-name="Omicrontonos" unicode="&#x38c;" horiz-adv-x="1093" 
d="M987 733q0 -152 -21.5 -288t-70 -240.5t-131.5 -164.5t-206 -60q-124 0 -208 62t-133 168t-71 241.5t-22 282.5q0 250 50 416t146.5 249.5t237.5 83.5q156 0 250 -98t136.5 -268t42.5 -384zM225 733q0 -212 38 -360t113 -225.5t181 -77.5q110 0 183 75t109 223t36 365
q0 322 -81.5 490.5t-245.5 168.5q-112 0 -186 -76.5t-110.5 -223.5t-36.5 -359zM-2 1214v21q10 26 25.5 72t30.5 98t27 99t17 75h97v-22q-16 -53 -39.5 -114t-49.5 -120.5t-49 -108.5h-59z" />
    <glyph glyph-name="Upsilontonos" unicode="&#x38e;" horiz-adv-x="926" 
d="M574 694l249 768h103l-303 -893v-569h-99v568l-303 894h102zM-2 1214v21q10 26 25.5 72t30.5 98t27 99t17 75h97v-22q-16 -53 -39.5 -114t-49.5 -120.5t-49 -108.5h-59z" />
    <glyph glyph-name="Omegatonos" unicode="&#x38f;" horiz-adv-x="1113" 
d="M568 1392q-105 0 -182 -68t-118 -203t-41 -336q0 -167 32.5 -305t90 -241t128.5 -167v-72h-400v91h286q-68 66 -121.5 163t-85.5 230t-32 307q0 233 53 386.5t152 229.5t236 76q138 0 235 -76.5t148 -230t51 -388.5q0 -179 -29.5 -311.5t-82.5 -227t-125 -158.5h286v-91
h-404v72q87 69 143.5 172.5t83.5 238.5t27 300q0 202 -38.5 337t-113 203.5t-179.5 68.5zM-2 1214v21q10 26 25.5 72t30.5 98t27 99t17 75h97v-22q-16 -53 -39.5 -114t-49.5 -120.5t-49 -108.5h-59z" />
    <glyph glyph-name="iotadieresistonos" unicode="&#x390;" horiz-adv-x="443" 
d="M231 1087v-858q0 -96 24.5 -128.5t68.5 -32.5q24 0 49 6t38 12v-85q-25 -10 -50 -15.5t-54 -5.5q-56 0 -94.5 23t-57.5 76t-19 144v864h95zM292 1592v-22q-7 -36 -20.5 -87.5t-30 -103.5t-32.5 -92h-55v22q9 37 19 89t17 104t9 90h93zM26 1383q28 0 45 -22.5t17 -60.5
t-17 -59t-45 -21q-29 0 -47 22t-18 58t18 59.5t47 23.5zM362 1383q27 0 46 -21.5t19 -60.5q0 -37 -18.5 -59t-46.5 -22t-45.5 22.5t-17.5 59.5q0 36 17.5 58.5t45.5 22.5z" />
    <glyph glyph-name="Alpha" unicode="&#x391;" horiz-adv-x="829" 
d="M727 0l-126 531h-371l-128 -531h-102l350 1462h126l353 -1462h-102zM581 623l-130 571q-8 35 -14.5 66t-12 60t-11.5 59q-5 -30 -10.5 -58.5t-11.5 -59.5t-15 -66l-128 -572h333z" />
    <glyph glyph-name="Beta" unicode="&#x392;" horiz-adv-x="918" 
d="M156 1462h299q176 0 263.5 -85t87.5 -257q0 -94 -24 -167t-70.5 -119t-114.5 -61v-5q83 -20 136 -66.5t78.5 -120t25.5 -172.5q0 -125 -41 -217t-119.5 -142t-192.5 -50h-328v1462zM254 811h192q131 0 195.5 75t64.5 228q0 131 -61.5 196t-207.5 65h-183v-564zM254 724
v-636h214q127 0 197 81t70 246q0 111 -35 179t-98.5 99t-146.5 31h-201z" />
    <glyph glyph-name="Gamma" unicode="&#x393;" horiz-adv-x="705" 
d="M687 1462v-91h-433v-1371h-98v1462h531z" />
    <glyph glyph-name="uni0394" unicode="&#x394;" horiz-adv-x="799" 
d="M459 1462l318 -1387v-75h-754v79l318 1383h118zM672 91l-203 928q-13 55 -26 120t-25 125.5t-17 102.5q-9 -52 -21.5 -114.5t-26 -124t-24.5 -113.5l-202 -924h545z" />
    <glyph glyph-name="Epsilon" unicode="&#x395;" horiz-adv-x="796" 
d="M700 0h-544v1462h544v-90h-446v-560h420v-91h-420v-630h446v-91z" />
    <glyph glyph-name="Zeta" unicode="&#x396;" horiz-adv-x="691" 
d="M650 0h-594v80l476 1291h-458v91h562v-82l-475 -1289h489v-91z" />
    <glyph glyph-name="Eta" unicode="&#x397;" horiz-adv-x="1031" 
d="M877 0h-99v721h-524v-721h-98v1462h98v-649h524v649h99v-1462z" />
    <glyph glyph-name="Theta" unicode="&#x398;" horiz-adv-x="1077" 
d="M744 784v-87h-413v87h413zM970 733q0 -152 -21.5 -288t-70 -240.5t-131.5 -164.5t-206 -60q-124 0 -208 62t-133 168t-71 241.5t-22 282.5q0 250 50 416t146.5 249.5t237.5 83.5q156 0 250 -98t136.5 -268t42.5 -384zM208 733q0 -212 38 -360t113 -225.5t181 -77.5
q110 0 183 75t109 223t36 365q0 322 -81.5 490.5t-245.5 168.5q-112 0 -186 -76.5t-110.5 -223.5t-36.5 -359z" />
    <glyph glyph-name="Iota" unicode="&#x399;" horiz-adv-x="408" 
d="M156 0v1462h97v-1462h-97z" />
    <glyph glyph-name="Kappa" unicode="&#x39a;" horiz-adv-x="828" 
d="M833 0h-108l-354 734l-117 -165v-569h-98v1462h98v-782q12 28 41.5 79t72.5 124l337 579h107l-375 -643z" />
    <glyph glyph-name="Lambda" unicode="&#x39b;" horiz-adv-x="788" 
d="M450 1462l338 -1462h-102l-230 1029q-12 57 -24 117t-22 115.5t-16 95.5q-8 -49 -19 -106.5t-23 -115t-23 -108.5l-227 -1027h-102l337 1462h113z" />
    <glyph glyph-name="Mu" unicode="&#x39c;" horiz-adv-x="1386" 
d="M638 0l-389 1315h-5q3 -64 4.5 -108t2 -71.5t0.5 -42.5v-1093h-95v1462h140l394 -1321h6l394 1321h143v-1462h-97v1087q0 16 0.5 44.5t1.5 73t2 109.5h-5l-389 -1314h-108z" />
    <glyph glyph-name="Nu" unicode="&#x39d;" horiz-adv-x="1082" 
d="M928 0h-117l-561 1296h-5q2 -37 3 -77t2 -85t1 -96v-1038h-95v1462h117l561 -1284h5q-1 52 -2.5 102t-2.5 94t-1 77v1011h95v-1462z" />
    <glyph glyph-name="Xi" unicode="&#x39e;" horiz-adv-x="786" 
d="M94 0v91h599v-91h-599zM155 723v91h475v-91h-475zM116 1372v90h555v-90h-555z" />
    <glyph glyph-name="Omicron" unicode="&#x39f;" horiz-adv-x="1077" 
d="M970 733q0 -152 -21.5 -288t-70 -240.5t-131.5 -164.5t-206 -60q-124 0 -208 62t-133 168t-71 241.5t-22 282.5q0 250 50 416t146.5 249.5t237.5 83.5q156 0 250 -98t136.5 -268t42.5 -384zM208 733q0 -212 38 -360t113 -225.5t181 -77.5q110 0 183 75t109 223t36 365
q0 322 -81.5 490.5t-245.5 168.5q-112 0 -186 -76.5t-110.5 -223.5t-36.5 -359z" />
    <glyph glyph-name="Pi" unicode="&#x3a0;" horiz-adv-x="1032" 
d="M156 0v1462h721v-1462h-98v1372h-525v-1372h-98z" />
    <glyph glyph-name="Rho" unicode="&#x3a1;" horiz-adv-x="845" 
d="M377 1462q205 0 304 -95t99 -316q0 -116 -24.5 -200t-74 -138.5t-126 -81t-179.5 -26.5h-122v-605h-98v1462h221zM374 1373h-120v-679h124q104 0 170.5 36.5t99 115t32.5 205.5q0 176 -75 249t-231 73z" />
    <glyph glyph-name="Sigma" unicode="&#x3a3;" horiz-adv-x="780" 
d="M61 0v82l361 680l-347 625v75h625v-90h-388q-19 0 -40.5 0.5t-42 1.5t-43.5 2l344 -614l-365 -678q30 3 68 5t95 2h404v-91h-671z" />
    <glyph glyph-name="Tau" unicode="&#x3a4;" horiz-adv-x="723" 
d="M409 0h-99v1372h-294v90h688v-90h-295v-1372z" />
    <glyph glyph-name="Upsilon" unicode="&#x3a5;" horiz-adv-x="705" 
d="M353 694l249 768h103l-303 -893v-569h-99v568l-303 894h102z" />
    <glyph glyph-name="Phi" unicode="&#x3a6;" horiz-adv-x="1212" 
d="M653 1483v-179q137 -1 239.5 -65t159.5 -185t57 -292q0 -132 -32.5 -234.5t-92.5 -174t-144 -110t-187 -39.5v-224h-96v224q-95 -1 -177 37t-145 110.5t-98 176t-35 236.5q0 125 33.5 224t94.5 169.5t144 108t183 38.5v179h96zM557 1215q-100 -1 -181 -52.5t-128 -152
t-47 -247.5q0 -155 49.5 -259t130.5 -157.5t176 -54.5v923zM653 1215v-923q103 3 183.5 56t127 156.5t46.5 259.5q0 155 -46.5 254t-126.5 147.5t-184 49.5z" />
    <glyph glyph-name="Chi" unicode="&#x3a7;" horiz-adv-x="731" 
d="M713 0h-105l-229 666l-258 -666h-103l307 764l-262 698h103l216 -605l222 605h104l-270 -703z" />
    <glyph glyph-name="Psi" unicode="&#x3a8;" horiz-adv-x="1180" 
d="M1044 1462v-470q0 -139 -23 -240t-72 -167t-125.5 -98.5t-184.5 -34.5v-452h-96v452q-104 2 -180 32.5t-125.5 94.5t-74 167t-24.5 248v468h98v-462q0 -139 24 -241.5t89.5 -159t192.5 -59.5v922h96v-922q115 4 181.5 51t95.5 146t29 260v465h99z" />
    <glyph glyph-name="uni03A9" unicode="&#x3a9;" horiz-adv-x="1097" 
d="M553 1392q-105 0 -182 -68t-118 -203t-41 -336q0 -167 32.5 -305t90 -241t128.5 -167v-72h-400v91h286q-68 66 -121.5 163t-85.5 230t-32 307q0 233 53 386.5t152 229.5t236 76q138 0 235 -76.5t148 -230t51 -388.5q0 -179 -29.5 -311.5t-82.5 -227t-125 -158.5h286v-91
h-404v72q87 69 143.5 172.5t83.5 238.5t27 300q0 202 -38.5 337t-113 203.5t-179.5 68.5z" />
    <glyph glyph-name="Iotadieresis" unicode="&#x3aa;" horiz-adv-x="408" 
d="M156 0v1462h97v-1462h-97zM-15 1708q0 36 18 58t47 22q28 0 45.5 -21.5t17.5 -58.5q0 -39 -17.5 -60t-45.5 -21q-29 0 -47 22t-18 59zM291 1709q0 36 18.5 57.5t46.5 21.5q27 0 46 -21t19 -58q0 -39 -18.5 -60.5t-46.5 -21.5q-29 0 -47 22t-18 60z" />
    <glyph glyph-name="Upsilondieresis" unicode="&#x3ab;" horiz-adv-x="705" 
d="M353 694l249 768h103l-303 -893v-569h-99v568l-303 894h102zM135 1703q0 36 18 58t47 22q28 0 45.5 -21.5t17.5 -58.5q0 -39 -17.5 -60t-45.5 -21q-29 0 -47 22t-18 59zM441 1704q0 36 18.5 57.5t46.5 21.5q27 0 46 -21t19 -58q0 -39 -18.5 -60.5t-46.5 -21.5
q-29 0 -47 22t-18 60z" />
    <glyph glyph-name="alphatonos" unicode="&#x3ac;" horiz-adv-x="932" 
d="M419 66q83 0 137 55.5t80 150t26 209.5v132q0 199 -59 303t-175 104q-121 0 -180 -127t-59 -360q0 -238 59 -352.5t171 -114.5zM401 -20q-150 0 -229 140.5t-79 413.5q0 294 89 434t236 140q86 0 149.5 -48t95.5 -133h8q6 40 17.5 80.5t29.5 79.5h75q-11 -37 -18.5 -85
t-11.5 -112.5t-4 -151.5v-478q0 -110 21 -152.5t66 -42.5q16 0 34.5 3t33.5 9v-81q-8 -4 -21 -7.5t-28.5 -6t-33.5 -2.5q-76 0 -114 49t-47 163h-7q-19 -55 -53.5 -104t-86.5 -78.5t-122 -29.5zM395 1241v21q10 26 25.5 72t30.5 98t27 99t17 75h97v-22q-16 -53 -39.5 -114
t-49.5 -120.5t-49 -108.5h-59z" />
    <glyph glyph-name="epsilontonos" unicode="&#x3ad;" horiz-adv-x="648" 
d="M461 619v-82h-50q-74 0 -125 -27t-78 -80.5t-27 -132.5q0 -73 24 -124.5t69.5 -78.5t110.5 -27q63 0 118 19.5t88 41.5v-93q-38 -24 -89 -39.5t-125 -15.5q-151 0 -222 87t-71 225q0 118 51 190.5t136 97.5v6q-72 29 -109 95.5t-37 151.5q0 88 34.5 149t95 93.5
t141.5 32.5q58 0 106.5 -17t93.5 -46l-44 -75q-29 23 -69.5 37.5t-86.5 14.5q-83 0 -129 -51t-46 -143q0 -95 47.5 -152t147.5 -57h45zM321 1241v21q10 26 25.5 72t30.5 98t27 99t17 75h97v-22q-16 -53 -39.5 -114t-49.5 -120.5t-49 -108.5h-59z" />
    <glyph glyph-name="etatonos" unicode="&#x3ae;" horiz-adv-x="873" 
d="M492 1108q77 0 131 -37.5t83.5 -114t29.5 -197.5v-1240h-96v1216q0 151 -42.5 218.5t-122.5 67.5q-68 0 -122 -43t-85.5 -132t-31.5 -228v-618h-96v1087h75l11 -200h6q18 56 52 106.5t85 82.5t123 32zM380 1241v21q10 26 25.5 72t30.5 98t27 99t17 75h97v-22
q-16 -53 -39.5 -114t-49.5 -120.5t-49 -108.5h-59z" />
    <glyph glyph-name="iotatonos" unicode="&#x3af;" horiz-adv-x="446" 
d="M232 1087v-858q0 -96 24.5 -128.5t68.5 -32.5q24 0 49 6t38 12v-85q-25 -10 -50 -15.5t-54 -5.5q-56 0 -94.5 23t-57.5 76t-19 144v864h95zM148 1241v21q10 26 25.5 72t30.5 98t27 99t17 75h97v-22q-16 -53 -39.5 -114t-49.5 -120.5t-49 -108.5h-59z" />
    <glyph glyph-name="upsilondieresistonos" unicode="&#x3b0;" horiz-adv-x="843" 
d="M423 -19q-104 1 -166.5 47.5t-91 147.5t-29.5 264v647h96v-639q0 -190 40 -285t151 -95q126 0 182 121.5t56 354.5q0 126 -13.5 263.5t-47.5 279.5h96q20 -100 33.5 -183.5t20.5 -166.5t7 -182q0 -295 -84.5 -434.5t-249.5 -139.5zM518 1592v-22q-7 -36 -20.5 -87.5
t-30 -103.5t-32.5 -92h-55v22q9 37 19 89t17 104t9 90h93zM252 1383q28 0 45 -22.5t17 -60.5t-17 -59t-45 -21q-29 0 -47 22t-18 58t18 59.5t47 23.5zM588 1383q27 0 46 -21.5t19 -60.5q0 -37 -18.5 -59t-46.5 -22t-45.5 22.5t-17.5 59.5q0 36 17.5 58.5t45.5 22.5z" />
    <glyph glyph-name="alpha" unicode="&#x3b1;" horiz-adv-x="932" 
d="M419 66q83 0 137 55.5t80 150t26 209.5v132q0 199 -59 303t-175 104q-121 0 -180 -127t-59 -360q0 -238 59 -352.5t171 -114.5zM401 -20q-150 0 -229 140.5t-79 413.5q0 294 89 434t236 140q86 0 149.5 -48t95.5 -133h8q6 40 17.5 80.5t29.5 79.5h75q-11 -37 -18.5 -85
t-11.5 -112.5t-4 -151.5v-478q0 -110 21 -152.5t66 -42.5q16 0 34.5 3t33.5 9v-81q-8 -4 -21 -7.5t-28.5 -6t-33.5 -2.5q-76 0 -114 49t-47 163h-7q-19 -55 -53.5 -104t-86.5 -78.5t-122 -29.5z" />
    <glyph glyph-name="beta" unicode="&#x3b2;" horiz-adv-x="892" 
d="M455 1567q99 0 165 -46t98.5 -130t32.5 -199q0 -170 -55.5 -259t-148.5 -106v-7q125 -19 190.5 -120t65.5 -286q0 -131 -37.5 -229t-111 -151.5t-182.5 -53.5q-77 0 -135 23t-100 59v-543h-97v1649q0 126 37 215t107.5 136.5t170.5 47.5zM454 1480q-69 0 -118 -37
t-74 -108.5t-25 -174.5v-1007q39 -36 100 -60.5t123 -24.5q126 0 186.5 95.5t60.5 261.5q0 111 -28.5 189.5t-88.5 119.5t-159 41h-43v87h42q112 0 169 78t57 242q0 147 -52 222.5t-150 75.5z" />
    <glyph glyph-name="gamma" unicode="&#x3b3;" horiz-adv-x="656" 
d="M646 1087l-243 -990q-25 -104 -42 -207t-26 -197.5t-9 -173.5h-97q0 74 9 164t20.5 174t21.5 143l-271 1087h101l147 -609q15 -62 30 -122.5t26.5 -116.5t16.5 -106h5q6 55 16.5 107t24 111t29.5 132l142 604h99z" />
    <glyph glyph-name="delta" unicode="&#x3b4;" horiz-adv-x="867" 
d="M503 1561q72 0 135.5 -19.5t106.5 -45.5l-40 -82q-47 30 -98.5 44.5t-103.5 14.5q-92 0 -147 -47t-55 -128q0 -57 27.5 -109.5t75 -105.5t107.5 -113q78 -75 138 -152.5t93 -170t33 -216.5t-36.5 -227t-112 -163.5t-189.5 -60.5q-116 0 -192.5 62t-114.5 164.5t-38 224.5
q0 118 38.5 219.5t109 177.5t166.5 119q-56 58 -101.5 112.5t-72 113t-26.5 127.5q0 127 86 194t211 67zM462 891q-100 -43 -160 -116.5t-86 -162.5t-26 -179q0 -99 28 -183t83.5 -134t135.5 -50t133.5 46t81.5 129t28 191q0 131 -51 239.5t-167 219.5z" />
    <glyph glyph-name="epsilon" unicode="&#x3b5;" horiz-adv-x="648" 
d="M461 619v-82h-50q-74 0 -125 -27t-78 -80.5t-27 -132.5q0 -73 24 -124.5t69.5 -78.5t110.5 -27q63 0 118 19.5t88 41.5v-93q-38 -24 -89 -39.5t-125 -15.5q-151 0 -222 87t-71 225q0 118 51 190.5t136 97.5v6q-72 29 -109 95.5t-37 151.5q0 88 34.5 149t95 93.5
t141.5 32.5q58 0 106.5 -17t93.5 -46l-44 -75q-29 23 -69.5 37.5t-86.5 14.5q-83 0 -129 -51t-46 -143q0 -95 47.5 -152t147.5 -57h45z" />
    <glyph glyph-name="zeta" unicode="&#x3b6;" horiz-adv-x="654" 
d="M607 -142q0 -72 -33.5 -143.5t-81.5 -131.5h-108q31 37 60.5 82t48 91.5t19.5 87.5q-1 51 -24.5 85.5t-61 57.5t-79.5 43q-90 42 -146 95t-82 135.5t-26 214.5q0 120 23.5 235t74.5 234t132 250t195 283q-20 -2 -44 -3t-48 -2.5t-48 -1.5h-246v86h483v-75
q-102 -139 -181.5 -264t-133.5 -244t-82 -241t-28 -258q0 -89 16.5 -155t63 -117t139.5 -96q50 -23 96 -53t74 -75.5t28 -119.5z" />
    <glyph glyph-name="eta" unicode="&#x3b7;" horiz-adv-x="873" 
d="M492 1108q77 0 131 -37.5t83.5 -114t29.5 -197.5v-1240h-96v1216q0 151 -42.5 218.5t-122.5 67.5q-68 0 -122 -43t-85.5 -132t-31.5 -228v-618h-96v1087h75l11 -200h6q18 56 52 106.5t85 82.5t123 32z" />
    <glyph glyph-name="theta" unicode="&#x3b8;" horiz-adv-x="898" 
d="M809 800q0 -277 -40 -459t-119.5 -271.5t-200.5 -89.5q-178 0 -267 201.5t-89 617.5q0 263 41 434t121.5 254.5t197.5 83.5q179 0 267.5 -190.5t88.5 -580.5zM451 65q126 0 191.5 172t69.5 523h-522q5 -339 67 -517t194 -178zM452 1487q-128 0 -192.5 -161t-68.5 -479
h521q-3 303 -64.5 471.5t-195.5 168.5z" />
    <glyph glyph-name="iota" unicode="&#x3b9;" horiz-adv-x="450" 
d="M236 1087v-858q0 -96 24.5 -128.5t68.5 -32.5q24 0 49 6t38 12v-85q-25 -10 -50 -15.5t-54 -5.5q-56 0 -94.5 23t-57.5 76t-19 144v864h95z" />
    <glyph glyph-name="kappa" unicode="&#x3ba;" horiz-adv-x="721" 
d="M688 1087l-257 -415l279 -672h-101l-242 593l-130 -186v-407h-97v1087h97v-340q0 -57 -1.5 -117.5t-5.5 -117.5h4q17 29 31.5 56t31.5 55l287 464h104z" />
    <glyph glyph-name="lambda" unicode="&#x3bb;" horiz-adv-x="740" 
d="M18 0l290 1089l-48 236q-15 76 -42 117t-78 41q-20 0 -35.5 -5t-28.5 -10v84q9 5 20.5 9t25.5 6t31 2q49 0 87 -22t67 -74t48 -142l237 -1108q13 -58 28 -92.5t35.5 -48.5t49.5 -14q16 0 29 2.5t23 5.5v-86q-9 -2 -18 -4.5t-20 -4t-27 -1.5q-53 0 -89 23t-60 74t-43 135
l-108 513q-10 49 -16 78.5t-9 48.5t-6 33.5t-6 34.5h-8q-4 -28 -9 -55.5t-13 -56.5l-207 -808h-100z" />
    <glyph glyph-name="uni03BC" unicode="&#x3bc;" horiz-adv-x="877" 
d="M736 1087v-1087h-75l-11 200h-6q-16 -55 -46.5 -105.5t-78 -82.5t-116.5 -32q-61 0 -103.5 25.5t-67.5 82.5h-6q5 -41 6.5 -76t2 -66t0.5 -60v-367h-95v1568h96v-724q0 -153 42 -224t124 -71q78 0 130.5 46t80 140t27.5 236v597h96z" />
    <glyph glyph-name="nu" unicode="&#x3bd;" horiz-adv-x="739" 
d="M28 1087h98l151 -732q7 -29 15 -70.5t16 -84.5t13 -79h6q79 129 137 277t90.5 319t32.5 370h96q0 -217 -39.5 -407t-115 -358t-185.5 -322h-81z" />
    <glyph glyph-name="xi" unicode="&#x3be;" horiz-adv-x="655" 
d="M97 422q0 106 27.5 192.5t86 142.5t152.5 67v6q-64 4 -116 37.5t-82.5 101t-30.5 172.5q0 95 31 163.5t83 111.5t113 60q-34 -2 -56.5 -3.5t-40.5 -2t-42 -0.5h-123v86h492v-84h-40q-70 0 -129 -20.5t-101.5 -62t-66 -102.5t-23.5 -143q0 -150 66 -212t177 -62h75v-89
h-79q-85 0 -147 -36t-95 -114t-33 -202q0 -89 19 -147t61.5 -96.5t114.5 -72.5q67 -32 113.5 -65.5t71.5 -78t25 -109.5q0 -72 -35.5 -143t-77.5 -134h-105q41 54 67.5 101.5t40 87.5t13.5 73q0 49 -20.5 82t-57.5 58.5t-88 48.5q-74 33 -128 79t-83 120t-29 189z" />
    <glyph glyph-name="omicron" unicode="&#x3bf;" horiz-adv-x="858" 
d="M766 545q0 -138 -20.5 -243.5t-62 -177t-104.5 -108t-148 -36.5q-84 0 -147.5 37t-106.5 109t-64.5 178t-21.5 243q0 182 37 307t112 189.5t190 64.5q117 0 191 -66.5t109.5 -192.5t35.5 -304zM188 547q0 -158 25.5 -264.5t80 -161t138.5 -54.5q82 0 134.5 51.5t78 158.5
t25.5 269q0 151 -23.5 257t-76.5 162t-140 56q-128 0 -185 -121.5t-57 -352.5z" />
    <glyph glyph-name="pi" unicode="&#x3c0;" horiz-adv-x="895" 
d="M789 75q16 0 31.5 2t31.5 6v-82q-10 -5 -34.5 -9.5t-54.5 -4.5q-88 0 -130 56.5t-42 173.5v784h-329v-1001h-94v1001h-155v47l94 39h739v-86h-158v-775q0 -83 22 -117t79 -34z" />
    <glyph glyph-name="rho" unicode="&#x3c1;" horiz-adv-x="884" 
d="M795 558q0 -183 -35.5 -312t-109.5 -197.5t-188 -68.5q-71 0 -129.5 25.5t-100.5 70.5h-7q5 -77 6.5 -139.5t1.5 -116.5v-301h-96v1057q0 172 34.5 290.5t108 180t187.5 61.5q110 0 182.5 -60.5t109 -182t36.5 -307.5zM464 1021q-122 0 -177 -116.5t-55 -331.5v-409
q34 -42 93.5 -70t123.5 -28q123 0 185.5 124.5t62.5 367.5q0 227 -55 345t-178 118z" />
    <glyph glyph-name="uni03C2" unicode="&#x3c2;" horiz-adv-x="634" 
d="M440 1108q53 0 96 -11t73 -29l-28 -83q-33 18 -67 26t-68 8q-132 0 -193.5 -116t-61.5 -360q0 -122 16.5 -199.5t57.5 -128.5t116 -92q53 -27 101.5 -60t80 -81.5t31.5 -125.5q0 -74 -35 -146t-77 -127h-102q35 47 61.5 91t41 88t14.5 85q0 45 -16.5 77t-52 59t-91.5 57
q-62 31 -107.5 68.5t-76 92t-45.5 137.5t-15 206q0 193 39 318t116.5 185.5t191.5 60.5z" />
    <glyph glyph-name="sigma" unicode="&#x3c3;" horiz-adv-x="869" 
d="M759 510q0 -178 -39.5 -296t-113 -176t-176.5 -58q-110 0 -185 63t-113.5 184t-38.5 296q0 180 43.5 306.5t135.5 192t237 65.5h322v-86h-182q54 -106 82 -225.5t28 -265.5zM191 526q0 -153 27 -255.5t80.5 -153.5t131.5 -51q116 0 173.5 114t57.5 336q0 93 -10.5 174
t-32.5 158t-54 153h-59q-172 0 -243 -122.5t-71 -352.5z" />
    <glyph glyph-name="tau" unicode="&#x3c4;" horiz-adv-x="554" 
d="M522 1087v-86h-243v-694q0 -129 26.5 -185.5t95.5 -56.5q27 0 56 5.5t54 16.5v-83q-17 -9 -54 -17.5t-74 -8.5q-76 0 -119.5 35.5t-61 106.5t-17.5 177v704h-184v46l78 40h443z" />
    <glyph glyph-name="upsilon" unicode="&#x3c5;" horiz-adv-x="843" 
d="M423 -19q-104 1 -166.5 47.5t-91 147.5t-29.5 264v647h96v-639q0 -190 40 -285t151 -95q126 0 182 121.5t56 354.5q0 126 -13.5 263.5t-47.5 279.5h96q20 -100 33.5 -183.5t20.5 -166.5t7 -182q0 -295 -84.5 -434.5t-249.5 -139.5z" />
    <glyph glyph-name="phi" unicode="&#x3c6;" horiz-adv-x="1089" 
d="M298 1103l72 -52q-89 -100 -133.5 -223.5t-44.5 -281.5q0 -136 31.5 -242.5t98.5 -168.5t173 -70v720q0 156 52.5 239.5t163.5 83.5q98 0 162 -68t95 -184t31 -262q0 -160 -40.5 -296t-130 -221t-237.5 -97v-461h-96v461q-139 9 -227.5 81.5t-131.5 197t-43 287.5
q0 177 52.5 309t152.5 248zM710 1022q-73 0 -97 -69t-24 -185v-703q100 8 169.5 72.5t105.5 181t36 278.5q0 141 -25 235t-67.5 142.5t-97.5 47.5z" />
    <glyph glyph-name="chi" unicode="&#x3c7;" horiz-adv-x="701" 
d="M94 1103q44 0 76 -20t56.5 -64.5t43.5 -120.5l100 -419l199 608h98l-258 -754l148 -604q14 -52 27 -81.5t30 -42t41 -12.5q13 0 24.5 3t19.5 6v-81q-13 -5 -28 -9t-36 -4q-40 0 -69.5 16.5t-51.5 56.5t-41 109l-123 505l-208 -676h-100l270 821l-127 519
q-23 87 -44 122.5t-65 35.5q-18 0 -32.5 -3.5t-25.5 -8.5v85q11 5 32.5 9t43.5 4z" />
    <glyph glyph-name="psi" unicode="&#x3c8;" horiz-adv-x="1008" 
d="M560 1556v-1484q92 5 148.5 65.5t81 175.5t24.5 281q0 141 -17 257.5t-51 235.5h96q35 -128 52 -242.5t17 -255.5q0 -191 -37 -324t-114.5 -203.5t-199.5 -75.5v-467h-94v467q-118 3 -192.5 64.5t-109.5 177.5t-35 284v575h95v-563q0 -137 22.5 -236t75 -155t144.5 -61
v1484h94z" />
    <glyph glyph-name="omega" unicode="&#x3c9;" horiz-adv-x="1008" 
d="M809 1087q33 -98 55.5 -189t34.5 -186t12 -205q0 -159 -26.5 -278t-78.5 -184t-130 -65q-71 0 -114 50t-59 136h-2q-14 -85 -60.5 -135.5t-116.5 -50.5q-72 0 -123 60.5t-77.5 179t-26.5 287.5q0 113 11.5 208.5t34 186t55.5 185.5h97q-50 -141 -76 -279t-26 -306
q0 -204 34.5 -318t106.5 -114q43 0 70.5 39t40 115.5t12.5 187.5v284h92v-284q0 -115 12 -191t38 -113.5t69 -37.5q51 0 82.5 50.5t47.5 147.5t16 236q0 161 -24 301.5t-77 281.5h96z" />
    <glyph glyph-name="iotadieresis" unicode="&#x3ca;" horiz-adv-x="457" 
d="M243 1087v-858q0 -96 24.5 -128.5t68.5 -32.5q24 0 49 6t38 12v-85q-25 -10 -50 -15.5t-54 -5.5q-56 0 -94.5 23t-57.5 76t-19 144v864h95zM-18 1362q0 36 18 58t47 22q28 0 45.5 -21.5t17.5 -58.5q0 -39 -17.5 -60t-45.5 -21q-29 0 -47 22t-18 59zM288 1363
q0 36 18.5 57.5t46.5 21.5q27 0 46 -21t19 -58q0 -39 -18.5 -60.5t-46.5 -21.5q-29 0 -47 22t-18 60z" />
    <glyph glyph-name="upsilondieresis" unicode="&#x3cb;" horiz-adv-x="843" 
d="M423 -19q-104 1 -166.5 47.5t-91 147.5t-29.5 264v647h96v-639q0 -190 40 -285t151 -95q126 0 182 121.5t56 354.5q0 126 -13.5 263.5t-47.5 279.5h96q20 -100 33.5 -183.5t20.5 -166.5t7 -182q0 -295 -84.5 -434.5t-249.5 -139.5zM191 1362q0 36 18 58t47 22
q28 0 45.5 -21.5t17.5 -58.5q0 -39 -17.5 -60t-45.5 -21q-29 0 -47 22t-18 59zM497 1363q0 36 18.5 57.5t46.5 21.5q27 0 46 -21t19 -58q0 -39 -18.5 -60.5t-46.5 -21.5q-29 0 -47 22t-18 60z" />
    <glyph glyph-name="omicrontonos" unicode="&#x3cc;" horiz-adv-x="858" 
d="M766 545q0 -138 -20.5 -243.5t-62 -177t-104.5 -108t-148 -36.5q-84 0 -147.5 37t-106.5 109t-64.5 178t-21.5 243q0 182 37 307t112 189.5t190 64.5q117 0 191 -66.5t109.5 -192.5t35.5 -304zM188 547q0 -158 25.5 -264.5t80 -161t138.5 -54.5q82 0 134.5 51.5t78 158.5
t25.5 269q0 151 -23.5 257t-76.5 162t-140 56q-128 0 -185 -121.5t-57 -352.5zM366 1241v21q10 26 25.5 72t30.5 98t27 99t17 75h97v-22q-16 -53 -39.5 -114t-49.5 -120.5t-49 -108.5h-59z" />
    <glyph glyph-name="upsilontonos" unicode="&#x3cd;" horiz-adv-x="843" 
d="M423 -19q-104 1 -166.5 47.5t-91 147.5t-29.5 264v647h96v-639q0 -190 40 -285t151 -95q126 0 182 121.5t56 354.5q0 126 -13.5 263.5t-47.5 279.5h96q20 -100 33.5 -183.5t20.5 -166.5t7 -182q0 -295 -84.5 -434.5t-249.5 -139.5zM374 1241v21q10 26 25.5 72t30.5 98
t27 99t17 75h97v-22q-16 -53 -39.5 -114t-49.5 -120.5t-49 -108.5h-59z" />
    <glyph glyph-name="omegatonos" unicode="&#x3ce;" horiz-adv-x="1008" 
d="M809 1087q33 -98 55.5 -189t34.5 -186t12 -205q0 -159 -26.5 -278t-78.5 -184t-130 -65q-71 0 -114 50t-59 136h-2q-14 -85 -60.5 -135.5t-116.5 -50.5q-72 0 -123 60.5t-77.5 179t-26.5 287.5q0 113 11.5 208.5t34 186t55.5 185.5h97q-50 -141 -76 -279t-26 -306
q0 -204 34.5 -318t106.5 -114q43 0 70.5 39t40 115.5t12.5 187.5v284h92v-284q0 -115 12 -191t38 -113.5t69 -37.5q51 0 82.5 50.5t47.5 147.5t16 236q0 161 -24 301.5t-77 281.5h96zM447 1241v21q10 26 25.5 72t30.5 98t27 99t17 75h97v-22q-16 -53 -39.5 -114
t-49.5 -120.5t-49 -108.5h-59z" />
    <glyph glyph-name="uni03D1" unicode="&#x3d1;" horiz-adv-x="965" 
d="M448 1579q74 0 133 -38.5t102 -116t73 -196t46 -278.5h139v-87h-136q2 -27 3 -53.5t1 -67.5q-1 -190 -23 -333t-67.5 -238t-115.5 -143t-165 -48q-68 0 -119 21.5t-84.5 65t-50 108t-16.5 148.5q0 55 5 125.5t10 135t5 101.5q0 62 -18 84.5t-53 22.5q-17 0 -35 -5
t-41 -15l-26 77q25 13 56 21.5t67 8.5q77 0 111.5 -48t34.5 -145q0 -50 -5 -117t-10 -133t-5 -113q0 -121 42.5 -190t132.5 -69q92 0 152.5 77t90 227.5t30.5 371.5q0 41 -1.5 68.5t-2.5 54.5q-155 2 -267 50.5t-172 143.5t-60 229q0 81 24 147t77 106t138 40zM447 1494
q-75 0 -108 -58.5t-33 -148.5q0 -112 49 -187.5t138.5 -112t209.5 -37.5q-9 97 -25.5 193.5t-45.5 175.5t-74.5 127t-110.5 48z" />
    <glyph glyph-name="uni03D2" unicode="&#x3d2;" horiz-adv-x="695" 
d="M343 702q27 112 46 188t32 130t25.5 99t26.5 97q21 70 41.5 129t52.5 94.5t85 35.5q14 0 27 -2.5t24 -8.5v-83q-9 3 -17.5 4.5t-16.5 1.5q-34 0 -56 -40.5t-51 -129.5q-15 -47 -34 -116.5t-41.5 -155t-46.5 -180.5t-48 -194v-571h-98v572l-294 890h103z" />
    <glyph glyph-name="uni03D6" unicode="&#x3d6;" horiz-adv-x="945" 
d="M909 1087v-86h-155q33 -100 51.5 -183t26.5 -162.5t8 -172.5q0 -159 -23.5 -272t-70 -172t-115.5 -59q-58 0 -97 39t-56 117h-9q-16 -74 -53.5 -115t-100.5 -41q-107 0 -159 133.5t-52 371.5q0 91 8.5 171t28 163t53.5 182h-177v36l79 50h813zM664 1001h-381
q-30 -96 -48 -173.5t-26 -157t-8 -180.5q0 -211 29.5 -316t91.5 -105q63 0 84 95.5t21 280.5v231h93v-231q0 -128 9.5 -211.5t33 -124t62.5 -40.5q61 0 91 105.5t30 312.5q0 99 -8 178.5t-26.5 158.5t-47.5 177z" />
    <glyph glyph-name="uni0400" unicode="&#x400;" horiz-adv-x="796" 
d="M700 0h-544v1462h544v-90h-446v-560h420v-91h-420v-630h446v-91zM277 1903q30 -53 66.5 -106t74 -102t74.5 -93v-23h-62q-30 28 -66 66t-73.5 80t-70.5 83.5t-57 78.5v16h114z" />
    <glyph glyph-name="uni0401" unicode="&#x401;" horiz-adv-x="796" 
d="M700 0h-544v1462h544v-90h-446v-560h420v-91h-420v-630h446v-91zM200 1700q0 36 18 58t47 22q28 0 45.5 -21.5t17.5 -58.5q0 -39 -17.5 -60t-45.5 -21q-29 0 -47 22t-18 59zM506 1701q0 36 18.5 57.5t46.5 21.5q27 0 46 -21t19 -58q0 -39 -18.5 -60.5t-46.5 -21.5
q-29 0 -47 22t-18 60z" />
    <glyph glyph-name="uni0402" unicode="&#x402;" horiz-adv-x="930" 
d="M587 -20q-29 0 -54 5.5t-45 14.5v91q23 -11 45 -16.5t44 -5.5q43 0 75 21.5t50 73.5t18 140v239q0 123 -54 183t-183 60h-129v-786h-99v1372h-239v90h618v-90h-280v-495h146q155 0 236.5 -80t81.5 -248v-253q0 -160 -60.5 -238t-170.5 -78z" />
    <glyph glyph-name="uni0403" unicode="&#x403;" horiz-adv-x="705" 
d="M687 1462v-91h-433v-1371h-98v1462h531zM685 1903v-16q-23 -35 -55.5 -77t-70 -84.5t-73.5 -80t-67 -66.5h-58v24q43 55 80 104t68.5 97.5t61.5 98.5h114z" />
    <glyph glyph-name="uni0404" unicode="&#x404;" horiz-adv-x="854" 
d="M566 1393q-95 0 -160 -48.5t-106 -131.5t-62 -187.5t-27 -214.5h457v-91h-459q1 -128 22 -245t64.5 -208.5t111.5 -144t161 -52.5q67 0 116 20.5t84 42.5v-97q-43 -27 -96.5 -41.5t-112.5 -14.5q-141 0 -243 94.5t-156 265t-54 398.5q0 146 26 280t80.5 239.5t142 166
t209.5 60.5q63 0 124.5 -16t115.5 -53l-41 -83q-48 34 -99 47.5t-98 13.5z" />
    <glyph glyph-name="uni0405" unicode="&#x405;" horiz-adv-x="816" 
d="M731 387q0 -127 -44 -218t-126 -140t-197 -49q-46 0 -95.5 6t-97 18.5t-88.5 31.5v104q60 -31 136 -49t142 -18q91 0 150.5 39t89.5 109t30 160q0 88 -26.5 143t-81.5 96.5t-143 87.5q-60 34 -112.5 68t-92 78t-61 106t-21.5 149q-1 119 45 202.5t128 127.5t188 44
q74 0 144 -18.5t117 -44.5l-35 -88q-60 32 -119.5 45t-105.5 13q-84 0 -142.5 -34.5t-89 -96.5t-30.5 -147q0 -90 30 -147t85.5 -98t131.5 -81q94 -51 159 -101t98.5 -119.5t33.5 -178.5z" />
    <glyph glyph-name="uni0406" unicode="&#x406;" horiz-adv-x="408" 
d="M156 0v1462h97v-1462h-97z" />
    <glyph glyph-name="uni0407" unicode="&#x407;" horiz-adv-x="408" 
d="M156 0v1462h97v-1462h-97zM-15 1704q0 36 18 58t47 22q28 0 45.5 -21.5t17.5 -58.5q0 -39 -17.5 -60t-45.5 -21q-29 0 -47 22t-18 59zM291 1705q0 36 18.5 57.5t46.5 21.5q27 0 46 -21t19 -58q0 -39 -18.5 -60.5t-46.5 -21.5q-29 0 -47 22t-18 60z" />
    <glyph glyph-name="uni0408" unicode="&#x408;" horiz-adv-x="410" 
d="M29 -372q-33 0 -65 5.5t-59 18.5v89q27 -9 56.5 -15t60.5 -6q54 0 84.5 28.5t42.5 85t12 141.5v1487h98v-1501q0 -117 -24.5 -190.5t-75 -108t-130.5 -34.5z" />
    <glyph glyph-name="uni0409" unicode="&#x409;" horiz-adv-x="1286" 
d="M65 -14q-26 0 -45 4.5t-33 12.5v89q12 -7 28.5 -11.5t36.5 -4.5q45 0 71 26t39 66.5t21 83.5q10 53 22 143t26.5 231t32.5 346.5t39 489.5h410v-645h125q122 0 205.5 -42.5t126 -131.5t42.5 -224q0 -203 -97 -311t-274 -108h-225v1369h-228q-18 -247 -33.5 -425
t-26.5 -301t-20 -202t-17 -130t-15 -87q-14 -74 -38.5 -127.5t-65 -81.5t-107.5 -29zM713 89h120q141 0 209.5 85t68.5 245q0 101 -28 169t-89 103.5t-162 35.5h-119v-638z" />
    <glyph glyph-name="uni040A" unicode="&#x40a;" horiz-adv-x="1334" 
d="M156 0v1462h98v-648h414v648h99v-648h120q126 0 209.5 -42.5t125.5 -130.5t42 -221q0 -207 -99.5 -313.5t-272.5 -106.5h-224v724h-414v-724h-98zM766 90h115q139 0 210.5 81.5t71.5 247.5q0 103 -28.5 170.5t-89.5 101.5t-158 34h-121v-635z" />
    <glyph glyph-name="uni040B" unicode="&#x40b;" horiz-adv-x="947" 
d="M633 1462v-91h-279v-494h147q157 0 237 -79.5t80 -248.5v-549h-99v542q0 126 -53.5 185t-176.5 59h-135v-786h-99v1371h-239v91h617z" />
    <glyph glyph-name="uni040C" unicode="&#x40c;" horiz-adv-x="805" 
d="M806 0h-111l-441 758v-758h-98v1462h98v-696l413 696h109l-420 -696zM711 1903v-16q-23 -35 -55.5 -77t-70 -84.5t-73.5 -80t-67 -66.5h-58v24q43 55 80 104t68.5 97.5t61.5 98.5h114z" />
    <glyph glyph-name="uni040D" unicode="&#x40d;" horiz-adv-x="1081" 
d="M156 1462h96v-1022q0 -27 -0.5 -56t-1.5 -63t-2.5 -75t-5.5 -91h8l550 1307h127v-1462h-97v1044q0 32 1 66t2.5 68.5t3.5 70t5 70.5h-8l-553 -1319h-125v1462zM403 1903q30 -53 66.5 -106t74 -102t74.5 -93v-23h-62q-30 28 -66 66t-73.5 80t-70.5 83.5t-57 78.5v16h114z
" />
    <glyph glyph-name="uni040E" unicode="&#x40e;" horiz-adv-x="686" 
d="M685 1462l-271 -1049q-46 -176 -88 -270t-89.5 -128.5t-109.5 -34.5q-27 0 -48.5 5t-41.5 13v92q21 -9 40.5 -14.5t39.5 -5.5q45 0 78 38.5t61.5 119.5t57.5 210l-314 1024h101l225 -752q5 -14 10 -32t11.5 -44.5t14.5 -63.5h9q4 27 9 50.5t10 45.5t11 45l183 751h101z
M598 1860q-7 -91 -37 -153t-85 -95t-138 -33q-78 0 -133 29.5t-86 92t-38 159.5h84q11 -113 53.5 -163t119.5 -50q83 0 124 52.5t52 160.5h84z" />
    <glyph glyph-name="uni040F" unicode="&#x40f;" horiz-adv-x="1032" 
d="M877 0h-312v-369h-96v369h-313v1462h98v-1371h525v1371h98v-1462z" />
    <glyph glyph-name="uni0410" unicode="&#x410;" horiz-adv-x="829" 
d="M727 0l-126 531h-371l-128 -531h-102l350 1462h126l353 -1462h-102zM581 623l-130 571q-8 35 -14.5 66t-12 60t-11.5 59q-5 -30 -10.5 -58.5t-11.5 -59.5t-15 -66l-128 -572h333z" />
    <glyph glyph-name="uni0411" unicode="&#x411;" horiz-adv-x="859" 
d="M156 0v1462h570v-90h-472v-555h164q122 0 205.5 -43t126 -131t42.5 -222q0 -200 -96 -310.5t-276 -110.5h-264zM254 89h159q133 0 205.5 82.5t72.5 245.5q0 105 -30 173.5t-91.5 102.5t-155.5 34h-160v-638z" />
    <glyph glyph-name="uni0412" unicode="&#x412;" horiz-adv-x="918" 
d="M156 1462h299q176 0 263.5 -85t87.5 -257q0 -94 -24 -167t-70.5 -119t-114.5 -61v-5q83 -20 136 -66.5t78.5 -120t25.5 -172.5q0 -125 -41 -217t-119.5 -142t-192.5 -50h-328v1462zM254 811h192q131 0 195.5 75t64.5 228q0 131 -61.5 196t-207.5 65h-183v-564zM254 724
v-636h214q127 0 197 81t70 246q0 111 -35 179t-98.5 99t-146.5 31h-201z" />
    <glyph glyph-name="uni0413" unicode="&#x413;" horiz-adv-x="705" 
d="M687 1462v-91h-433v-1371h-98v1462h531z" />
    <glyph glyph-name="uni0414" unicode="&#x414;" horiz-adv-x="902" 
d="M760 1462v-1371h102v-460h-96v369h-661v-369h-95v460h76q58 178 98.5 345t66.5 332.5t39 336.5t17 357h453zM661 1373h-263q-5 -178 -20.5 -346.5t-41.5 -328.5t-63.5 -311.5t-85.5 -295.5h474v1282z" />
    <glyph glyph-name="uni0415" unicode="&#x415;" horiz-adv-x="796" 
d="M700 0h-544v1462h544v-90h-446v-560h420v-91h-420v-630h446v-91z" />
    <glyph glyph-name="uni0416" unicode="&#x416;" horiz-adv-x="1114" 
d="M409 754l-403 708h111l392 -706v706h96v-706l394 706h107l-400 -708l411 -754h-110l-402 747v-747h-96v747l-402 -747h-109z" />
    <glyph glyph-name="uni0417" unicode="&#x417;" horiz-adv-x="807" 
d="M658 1134q0 -144 -65 -239.5t-184 -126.5v-7q134 -17 204.5 -113.5t70.5 -259.5q0 -128 -43.5 -219t-127.5 -140t-205 -49q-65 0 -130 13.5t-122 41.5v102q35 -21 77 -36t85 -23t84 -8q130 0 205.5 78.5t75.5 245.5q0 164 -80 243.5t-240 79.5h-100v93h100q92 0 158 36.5
t102 107.5t36 172q0 128 -60.5 197t-165.5 69q-65 0 -115 -25.5t-86 -66.5l-55 69q36 38 76.5 63.5t88 38t103.5 12.5q99 0 169.5 -42.5t107 -121t36.5 -185.5z" />
    <glyph glyph-name="uni0418" unicode="&#x418;" horiz-adv-x="1081" 
d="M156 1462h96v-1022q0 -27 -0.5 -56t-1.5 -63t-2.5 -75t-5.5 -91h8l550 1307h127v-1462h-97v1044q0 32 1 66t2.5 68.5t3.5 70t5 70.5h-8l-553 -1319h-125v1462z" />
    <glyph glyph-name="uni0419" unicode="&#x419;" horiz-adv-x="1081" 
d="M156 1462h96v-1022q0 -27 -0.5 -56t-1.5 -63t-2.5 -75t-5.5 -91h8l550 1307h127v-1462h-97v1044q0 32 1 66t2.5 68.5t3.5 70t5 70.5h-8l-553 -1319h-125v1462zM770 1860q-7 -91 -37 -153t-85 -95t-138 -33q-78 0 -133 29.5t-86 92t-38 159.5h84q11 -113 53.5 -163
t119.5 -50q83 0 124 52.5t52 160.5h84z" />
    <glyph glyph-name="uni041A" unicode="&#x41a;" horiz-adv-x="805" 
d="M806 0h-111l-441 758v-758h-98v1462h98v-696l413 696h109l-420 -696z" />
    <glyph glyph-name="uni041B" unicode="&#x41b;" horiz-adv-x="929" 
d="M775 0h-99v1369h-286q-9 -126 -21.5 -262.5t-25 -267t-23 -241.5t-19.5 -186q-18 -147 -41 -241.5t-67.5 -139.5t-125.5 -45q-28 0 -47.5 5t-32.5 13v88q16 -7 30.5 -11.5t32.5 -4.5q50 0 78.5 29.5t47 107t34.5 219.5q10 89 21 204.5t23 250.5t25 281t25 294h471v-1462z
" />
    <glyph glyph-name="uni041C" unicode="&#x41c;" horiz-adv-x="1386" 
d="M638 0l-389 1315h-5q3 -64 4.5 -108t2 -71.5t0.5 -42.5v-1093h-95v1462h140l394 -1321h6l394 1321h143v-1462h-97v1087q0 16 0.5 44.5t1.5 73t2 109.5h-5l-389 -1314h-108z" />
    <glyph glyph-name="uni041D" unicode="&#x41d;" horiz-adv-x="1031" 
d="M877 0h-99v721h-524v-721h-98v1462h98v-649h524v649h99v-1462z" />
    <glyph glyph-name="uni041E" unicode="&#x41e;" horiz-adv-x="1077" 
d="M970 733q0 -152 -21.5 -288t-70 -240.5t-131.5 -164.5t-206 -60q-124 0 -208 62t-133 168t-71 241.5t-22 282.5q0 250 50 416t146.5 249.5t237.5 83.5q156 0 250 -98t136.5 -268t42.5 -384zM208 733q0 -212 38 -360t113 -225.5t181 -77.5q110 0 183 75t109 223t36 365
q0 322 -81.5 490.5t-245.5 168.5q-112 0 -186 -76.5t-110.5 -223.5t-36.5 -359z" />
    <glyph glyph-name="uni041F" unicode="&#x41f;" horiz-adv-x="1032" 
d="M156 0v1462h721v-1462h-98v1372h-525v-1372h-98z" />
    <glyph glyph-name="uni0420" unicode="&#x420;" horiz-adv-x="845" 
d="M377 1462q205 0 304 -95t99 -316q0 -116 -24.5 -200t-74 -138.5t-126 -81t-179.5 -26.5h-122v-605h-98v1462h221zM374 1373h-120v-679h124q104 0 170.5 36.5t99 115t32.5 205.5q0 176 -75 249t-231 73z" />
    <glyph glyph-name="uni0421" unicode="&#x421;" horiz-adv-x="874" 
d="M589 1393q-103 0 -175.5 -54.5t-117.5 -148.5t-66 -213t-21 -246q0 -199 47.5 -348t135 -231t206.5 -82q66 0 120 17.5t92 38.5v-92q-43 -25 -99.5 -39.5t-120.5 -14.5q-146 0 -255 91t-168.5 260t-59.5 402q0 150 27.5 285t85.5 240t149 165.5t218 60.5q64 0 123 -16.5
t115 -47.5l-40 -84q-48 30 -98.5 43.5t-97.5 13.5z" />
    <glyph glyph-name="uni0422" unicode="&#x422;" horiz-adv-x="723" 
d="M409 0h-99v1372h-294v90h688v-90h-295v-1372z" />
    <glyph glyph-name="uni0423" unicode="&#x423;" horiz-adv-x="686" 
d="M685 1462l-271 -1049q-46 -176 -88 -270t-89.5 -128.5t-109.5 -34.5q-27 0 -48.5 5t-41.5 13v92q21 -9 40.5 -14.5t39.5 -5.5q45 0 78 38.5t61.5 119.5t57.5 210l-314 1024h101l225 -752q5 -14 10 -32t11.5 -44.5t14.5 -63.5h9q4 27 9 50.5t10 45.5t11 45l183 751h101z
" />
    <glyph glyph-name="uni0424" unicode="&#x424;" horiz-adv-x="1212" 
d="M653 1483v-179q137 -1 239.5 -65t159.5 -185t57 -292q0 -132 -32.5 -234.5t-92.5 -174t-144 -110t-187 -39.5v-224h-96v224q-95 -1 -177 37t-145 110.5t-98 176t-35 236.5q0 125 33.5 224t94.5 169.5t144 108t183 38.5v179h96zM557 1215q-100 -1 -181 -52.5t-128 -152
t-47 -247.5q0 -155 49.5 -259t130.5 -157.5t176 -54.5v923zM653 1215v-923q103 3 183.5 56t127 156.5t46.5 259.5q0 155 -46.5 254t-126.5 147.5t-184 49.5z" />
    <glyph glyph-name="uni0425" unicode="&#x425;" horiz-adv-x="731" 
d="M713 0h-105l-229 666l-258 -666h-103l307 764l-262 698h103l216 -605l222 605h104l-270 -703z" />
    <glyph glyph-name="uni0426" unicode="&#x426;" horiz-adv-x="1035" 
d="M984 91v-460h-96v369h-732v1462h98v-1371h528v1371h98v-1371h104z" />
    <glyph glyph-name="uni0427" unicode="&#x427;" horiz-adv-x="991" 
d="M838 0h-99v626q-84 -48 -162 -71t-153 -23q-144 0 -219 90t-75 263v577h98v-557q0 -143 52.5 -213t162.5 -70q77 0 148 24.5t148 66.5v749h99v-1462z" />
    <glyph glyph-name="uni0428" unicode="&#x428;" horiz-adv-x="1395" 
d="M1240 0h-1084v1462h98v-1371h395v1371h99v-1371h395v1371h97v-1462z" />
    <glyph glyph-name="uni0429" unicode="&#x429;" horiz-adv-x="1393" 
d="M1343 91v-460h-94v369h-1093v1462h98v-1371h396v1371h97v-1371h395v1371h98v-1371h103z" />
    <glyph glyph-name="uni042A" unicode="&#x42a;" horiz-adv-x="1028" 
d="M315 0v1371h-289v91h387v-645h164q123 0 206 -43t125.5 -130.5t42.5 -222.5q0 -200 -94.5 -310.5t-276.5 -110.5h-265zM414 89h159q133 0 206.5 82.5t73.5 245.5q0 105 -31 173.5t-92 102.5t-155 34h-161v-638z" />
    <glyph glyph-name="uni042B" unicode="&#x42b;" horiz-adv-x="1280" 
d="M156 0v1462h98v-645h164q122 0 205.5 -43t125.5 -130.5t42 -222.5q0 -200 -95.5 -310.5t-275.5 -110.5h-264zM254 89h159q133 0 205.5 82.5t72.5 245.5q0 105 -30 173.5t-91 102.5t-156 34h-160v-638zM1027 0v1462h98v-1462h-98z" />
    <glyph glyph-name="uni042C" unicode="&#x42c;" horiz-adv-x="865" 
d="M156 0v1462h98v-645h163q123 0 206 -43t125.5 -130.5t42.5 -222.5q0 -200 -95.5 -310.5t-275.5 -110.5h-264zM254 89h159q133 0 205.5 82.5t72.5 245.5q0 105 -30 173.5t-91.5 102.5t-155.5 34h-160v-638z" />
    <glyph glyph-name="uni042D" unicode="&#x42d;" horiz-adv-x="855" 
d="M284 1393q-48 0 -97 -13.5t-96 -44.5l-40 83q53 35 114 50.5t123 15.5q117 0 204 -58t143.5 -160.5t84 -238t27.5 -291.5q0 -220 -52 -390.5t-153 -268t-252 -97.5q-57 0 -112 13.5t-95 39.5v96q36 -21 87 -40t114 -19q94 0 162 52.5t111.5 144t64.5 208.5t23 245h-459
v91h456q-4 111 -26 215t-64 187t-108 131.5t-160 48.5z" />
    <glyph glyph-name="uni042E" unicode="&#x42e;" horiz-adv-x="1383" 
d="M1276 733q0 -152 -19 -287t-63.5 -240t-120 -165.5t-188.5 -60.5q-129 0 -216.5 85.5t-132.5 251t-47 405.5h-235v-722h-98v1462h98v-649h236q7 222 54.5 371.5t133 224t207.5 74.5q137 0 223.5 -92.5t127 -261.5t40.5 -396zM588 733q0 -212 34 -360t100 -225.5
t161 -77.5q99 0 163.5 75.5t96.5 223t32 364.5q0 216 -32.5 362.5t-97 221.5t-160.5 75q-99 0 -165.5 -77.5t-99 -225t-32.5 -356.5z" />
    <glyph glyph-name="uni042F" unicode="&#x42f;" horiz-adv-x="864" 
d="M422 640l-276 -640h-108l294 661q-83 23 -135.5 77t-77.5 132.5t-25 177.5q0 207 95.5 310.5t290.5 103.5h230v-1462h-98v639zM611 1374h-125q-104 0 -168 -35.5t-93.5 -108.5t-29.5 -183q0 -167 68.5 -244t195.5 -77h152v648z" />
    <glyph glyph-name="uni0430" unicode="&#x430;" horiz-adv-x="788" 
d="M390 1108q139 0 200 -89t61 -283v-736h-74l-11 175h-4q-18 -53 -48 -97.5t-77 -71t-118 -26.5q-86 0 -139.5 42.5t-79 111t-25.5 146.5q0 162 92.5 247.5t262.5 99.5l126 12v92q0 162 -41 227.5t-135 65.5q-41 0 -90.5 -14t-107.5 -49l-34 75q55 35 117.5 53.5
t124.5 18.5zM558 563l-118 -10q-137 -13 -202.5 -79.5t-65.5 -191.5q0 -110 45 -167t124 -57q113 0 165 106t52 281v118z" />
    <glyph glyph-name="uni0431" unicode="&#x431;" horiz-adv-x="858" 
d="M101 700q0 169 19 314.5t71 256.5t149 178q63 44 163.5 76t238.5 42l12 -87q-42 -3 -90.5 -9t-97 -17.5t-94 -29t-81.5 -43.5q-70 -48 -109.5 -123t-57.5 -180t-24 -245h9q26 53 64.5 91t87 59t102.5 21q98 0 165.5 -58t103 -171t35.5 -276q0 -166 -37.5 -282.5
t-112 -176.5t-185.5 -60q-88 0 -151 44t-102.5 133t-58.5 224t-19 319zM434 66q75 0 127.5 48.5t80 145t27.5 242.5q0 201 -55 309t-170 108q-61 0 -110 -33t-83 -85t-51 -111q-1 -141 10 -255.5t38.5 -197.5t72.5 -127t113 -44z" />
    <glyph glyph-name="uni0432" unicode="&#x432;" horiz-adv-x="778" 
d="M665 824q0 -88 -34.5 -152.5t-117.5 -89.5v-8q90 -16 136.5 -83t46.5 -180q0 -95 -31.5 -164.5t-98.5 -108t-174 -38.5h-252v1087h232q102 0 166.5 -31t95.5 -89.5t31 -142.5zM599 319q0 117 -50.5 166.5t-149.5 49.5h-162v-454h145q114 0 165.5 59t51.5 179zM568 813
q0 94 -49 143t-157 49h-125v-389h160q89 0 130 49.5t41 147.5z" />
    <glyph glyph-name="uni0433" unicode="&#x433;" horiz-adv-x="591" 
d="M573 1087v-87h-336v-1000h-97v1087h433z" />
    <glyph glyph-name="uni0434" unicode="&#x434;" horiz-adv-x="773" 
d="M634 1087v-1001h96v-451h-93v365h-531v-365h-95v451h87q59 152 95.5 319t53.5 340.5t18 341.5h369zM539 1001h-187q-4 -149 -21 -309.5t-50 -315.5t-86 -290h344v915z" />
    <glyph glyph-name="uni0435" unicode="&#x435;" horiz-adv-x="808" 
d="M415 1107q110 0 176.5 -68t96.5 -178t30 -239v-79h-530q0 -234 67.5 -356.5t204.5 -122.5q56 0 111 19t111 57v-93q-49 -32 -106 -49.5t-123 -17.5q-126 0 -206 70.5t-117 197t-37 294.5q0 175 35.5 301.5t107 195t179.5 68.5zM415 1024q-99 0 -157.5 -98.5t-66.5 -301.5
h438q0 108 -22 199.5t-69 146t-123 54.5z" />
    <glyph glyph-name="uni0436" unicode="&#x436;" horiz-adv-x="953" 
d="M920 1087l-301 -513l328 -574h-112l-309 567v-567h-95v567l-310 -567h-112l328 575l-301 512h106l289 -512v512h95v-512l288 512h106z" />
    <glyph glyph-name="uni0437" unicode="&#x437;" horiz-adv-x="641" 
d="M277 1108q80 0 136 -32.5t85 -92t29 -143.5q0 -102 -44 -165.5t-103 -86.5v-8q55 -19 94 -55.5t59.5 -92t20.5 -132.5q0 -95 -32 -166t-94.5 -111.5t-155.5 -40.5q-44 0 -84.5 8.5t-74.5 24.5t-61 37v97q43 -36 98 -58.5t117 -22.5q66 0 108 29t62.5 81.5t20.5 123.5
q0 75 -23.5 127.5t-67.5 80.5t-108 28h-56v82h54q75 0 125 55.5t50 159.5q0 95 -45 141.5t-117 46.5q-37 0 -77.5 -12t-78.5 -35l-41 75q47 28 98.5 42.5t105.5 14.5z" />
    <glyph glyph-name="uni0438" unicode="&#x438;" horiz-adv-x="871" 
d="M235 1087v-745q0 -26 -0.5 -51.5t-0.5 -51.5t-1.5 -51.5t-3.5 -51.5l385 951h118v-1087h-94v711v78.5t1 79.5t2 78l-385 -947h-116v1087h95z" />
    <glyph glyph-name="uni0439" unicode="&#x439;" horiz-adv-x="871" 
d="M235 1087v-745q0 -26 -0.5 -51.5t-0.5 -51.5t-1.5 -51.5t-3.5 -51.5l385 951h118v-1087h-94v711v78.5t1 79.5t2 78l-385 -947h-116v1087h95zM696 1522q-7 -91 -37 -153t-85 -95t-138 -33q-78 0 -133 29.5t-86 92t-38 159.5h84q11 -113 53.5 -163t119.5 -50q83 0 124 52.5
t52 160.5h84z" />
    <glyph glyph-name="uni043A" unicode="&#x43a;" horiz-adv-x="682" 
d="M544 1087h106l-318 -505l343 -582h-108l-330 575v-575h-97v1087h97v-504z" />
    <glyph glyph-name="uni043B" unicode="&#x43b;" horiz-adv-x="777" 
d="M635 0h-95v999h-233q-9 -248 -21.5 -437t-38.5 -316t-74 -191.5t-128 -64.5q-15 0 -27 1.5t-24 6.5v84q8 -3 17 -4t21 -1q41 0 70.5 41t50 123.5t33 204t20 282.5t13.5 359h416v-1087z" />
    <glyph glyph-name="uni043C" unicode="&#x43c;" horiz-adv-x="1044" 
d="M905 1087v-1087h-93v653q0 37 2 109t8 178h-8l-243 -940h-98l-241 940h-9q4 -87 7 -166t3 -115v-659h-93v1087h139l244 -967l245 967h137z" />
    <glyph glyph-name="uni043D" unicode="&#x43d;" horiz-adv-x="875" 
d="M237 1087v-477h402v477h96v-1087h-96v525h-402v-525h-97v1087h97z" />
    <glyph glyph-name="uni043E" unicode="&#x43e;" horiz-adv-x="858" 
d="M766 545q0 -138 -20.5 -243.5t-62 -177t-104.5 -108t-148 -36.5q-84 0 -147.5 37t-106.5 109t-64.5 178t-21.5 243q0 182 37 307t112 189.5t190 64.5q117 0 191 -66.5t109.5 -192.5t35.5 -304zM188 547q0 -158 25.5 -264.5t80 -161t138.5 -54.5q82 0 134.5 51.5t78 158.5
t25.5 269q0 151 -23.5 257t-76.5 162t-140 56q-128 0 -185 -121.5t-57 -352.5z" />
    <glyph glyph-name="uni043F" unicode="&#x43f;" horiz-adv-x="876" 
d="M734 1087v-1087h-96v1001h-401v-1001h-97v1087h594z" />
    <glyph glyph-name="uni0440" unicode="&#x440;" horiz-adv-x="896" 
d="M494 1108q153 0 233 -138t80 -418q0 -192 -38 -319t-108 -190t-168 -63q-69 0 -120 30.5t-84.5 79t-50.5 102.5h-6q2 -27 3.5 -64.5t1.5 -80.5v-528h-97v1568h75l9 -213h7q22 65 55.5 118.5t84 84.5t123.5 31zM478 1022q-77 0 -131.5 -53.5t-82 -149.5t-27.5 -226v-109
q0 -131 29.5 -225t84 -143t128.5 -49q67 0 119.5 47.5t82.5 154t30 282.5q0 229 -55.5 350t-177.5 121z" />
    <glyph glyph-name="uni0441" unicode="&#x441;" horiz-adv-x="667" 
d="M441 -20q-117 0 -194.5 65t-115.5 188.5t-38 297.5q0 186 42 314.5t122.5 195.5t196.5 67q51 0 93 -11t79 -32l-32 -81q-32 19 -65.5 27.5t-68.5 8.5q-85 0 -145 -54t-92.5 -162.5t-32.5 -270.5q0 -144 27.5 -248.5t85.5 -161.5t149 -57q41 0 83.5 10.5t83.5 30.5v-86
q-37 -19 -86 -30t-92 -11z" />
    <glyph glyph-name="uni0442" unicode="&#x442;" horiz-adv-x="516" 
d="M498 1001h-192v-1001h-94v1001h-194v86h480v-86z" />
    <glyph glyph-name="uni0443" unicode="&#x443;" horiz-adv-x="689" 
d="M32 1087h98l179 -729q14 -55 21 -89t11 -58.5t7 -49.5h7q10 60 20 106.5t22 93.5l178 726h98l-331 -1309q-26 -98 -59.5 -158.5t-77 -87t-98.5 -26.5q-22 0 -41.5 5t-42.5 12v91q18 -8 38 -13.5t37 -5.5q32 0 58.5 17.5t49.5 60.5t41 120l57 226z" />
    <glyph glyph-name="uni0444" unicode="&#x444;" horiz-adv-x="990" 
d="M543 1556v-451q126 -8 204.5 -86.5t115.5 -202.5t37 -270t-35.5 -270t-114 -204t-208.5 -93v-471h-93v471q-114 11 -194 80.5t-121 193.5t-41 297q0 151 36 273t114.5 198t205.5 84v451h94zM448 1021q-83 -6 -140 -65t-87 -162.5t-30 -244.5q0 -127 26.5 -233t83.5 -173
t147 -76v954zM543 1021v-954q96 9 152.5 79.5t82 177t25.5 222.5q0 210 -68.5 336.5t-191.5 138.5z" />
    <glyph glyph-name="uni0445" unicode="&#x445;" horiz-adv-x="688" 
d="M292 561l-240 526h103l193 -447l197 447h102l-242 -532l252 -555h-104l-207 475l-211 -475h-102z" />
    <glyph glyph-name="uni0446" unicode="&#x446;" horiz-adv-x="875" 
d="M835 -365h-95v365h-600v1087h97v-1001h405v1001h95v-1001h98v-451z" />
    <glyph glyph-name="uni0447" unicode="&#x447;" horiz-adv-x="854" 
d="M213 1087v-423q0 -114 42.5 -159.5t113.5 -45.5q74 0 137.5 35t112.5 92v501h95v-1087h-95v497q-51 -59 -121.5 -91.5t-146.5 -32.5q-115 0 -174 71t-59 214v429h95z" />
    <glyph glyph-name="uni0448" unicode="&#x448;" horiz-adv-x="1172" 
d="M1032 1087v-1087h-892v1087h96v-1001h303v1001h94v-1001h303v1001h96z" />
    <glyph glyph-name="uni0449" unicode="&#x449;" horiz-adv-x="1181" 
d="M1031 1087v-1001h98v-451h-94v365h-895v1087h96v-1001h303v1001h94v-1001h303v1001h95z" />
    <glyph glyph-name="uni044A" unicode="&#x44a;" horiz-adv-x="885" 
d="M344 1087v-476h141q106 0 178.5 -36t110 -104t37.5 -165q0 -96 -38.5 -164.5t-111.5 -105t-180 -36.5h-232v999h-231v88h326zM484 528h-140v-447h132q121 0 179 58.5t58 164.5q0 110 -57.5 167t-171.5 57z" />
    <glyph glyph-name="uni044B" unicode="&#x44b;" horiz-adv-x="1109" 
d="M140 0v1087h97v-476h141q106 0 177.5 -36t109 -104t37.5 -165q0 -96 -38 -164.5t-111 -105t-180 -36.5h-233zM237 81h131q120 0 178 58t58 165q0 110 -57 167.5t-172 57.5h-138v-448zM874 0v1087h94v-1087h-94z" />
    <glyph glyph-name="uni044C" unicode="&#x44c;" horiz-adv-x="777" 
d="M237 611h140q107 0 178.5 -36t108.5 -104t37 -165q0 -96 -37 -164.5t-110.5 -105t-180.5 -36.5h-233v1087h97v-476zM605 304q0 110 -57.5 167.5t-172.5 57.5h-138v-448h131q120 0 178.5 58.5t58.5 164.5z" />
    <glyph glyph-name="uni044D" unicode="&#x44d;" horiz-adv-x="682" 
d="M235 -20q-53 0 -100.5 11.5t-80.5 28.5v87q42 -18 85.5 -30t87.5 -12q83 0 141 49.5t90 151t33 259.5h-294v82h292q-6 209 -67.5 312t-182.5 103q-36 0 -73 -9.5t-63 -24.5l-32 80q42 21 85 30.5t88 9.5q116 0 192.5 -64.5t115 -188.5t38.5 -305q0 -183 -38.5 -310
t-117 -193.5t-199.5 -66.5z" />
    <glyph glyph-name="uni044E" unicode="&#x44e;" horiz-adv-x="1174" 
d="M1083 545q0 -188 -36 -314t-106.5 -188.5t-175.5 -62.5q-103 0 -172.5 59.5t-106 181t-39.5 303.5h-211v-524h-96v1087h96v-477h211q6 163 43.5 274t106 167.5t168.5 56.5q110 0 180 -66.5t104 -193t34 -303.5zM541 547q0 -158 24.5 -265.5t74 -161.5t125.5 -54
q75 0 124 52t73 158.5t24 269.5q0 151 -22 257t-71 162t-129 56q-79 0 -128 -54t-72 -160t-23 -260z" />
    <glyph glyph-name="uni044F" unicode="&#x44f;" horiz-adv-x="786" 
d="M152 0h-109l289 488q-83 13 -138.5 52.5t-82.5 100.5t-27 141q0 148 90 226.5t251 78.5h220v-1087h-95v478h-124zM181 781q0 -107 61 -163.5t188 -56.5h120v444h-112q-131 0 -194 -58.5t-63 -165.5z" />
    <glyph glyph-name="uni0450" unicode="&#x450;" horiz-adv-x="808" 
d="M415 1107q110 0 176.5 -68t96.5 -178t30 -239v-79h-530q0 -234 67.5 -356.5t204.5 -122.5q56 0 111 19t111 57v-93q-49 -32 -106 -49.5t-123 -17.5q-126 0 -206 70.5t-117 197t-37 294.5q0 175 35.5 301.5t107 195t179.5 68.5zM415 1024q-99 0 -157.5 -98.5t-66.5 -301.5
h438q0 108 -22 199.5t-69 146t-123 54.5zM266 1565q30 -53 66.5 -106t74 -102t74.5 -93v-23h-62q-30 28 -66 66t-73.5 80t-70.5 83.5t-57 78.5v16h114z" />
    <glyph glyph-name="uni0451" unicode="&#x451;" horiz-adv-x="808" 
d="M415 1107q110 0 176.5 -68t96.5 -178t30 -239v-79h-530q0 -234 67.5 -356.5t204.5 -122.5q56 0 111 19t111 57v-93q-49 -32 -106 -49.5t-123 -17.5q-126 0 -206 70.5t-117 197t-37 294.5q0 175 35.5 301.5t107 195t179.5 68.5zM415 1024q-99 0 -157.5 -98.5t-66.5 -301.5
h438q0 108 -22 199.5t-69 146t-123 54.5zM190 1362q0 36 18 58t47 22q28 0 45.5 -21.5t17.5 -58.5q0 -39 -17.5 -60t-45.5 -21q-29 0 -47 22t-18 59zM496 1363q0 36 18.5 57.5t46.5 21.5q27 0 46 -21t19 -58q0 -39 -18.5 -60.5t-46.5 -21.5q-29 0 -47 22t-18 60z" />
    <glyph glyph-name="uni0452" unicode="&#x452;" horiz-adv-x="883" 
d="M573 -494q-23 0 -44 4.5t-35 10.5v88q17 -7 33.5 -11t32.5 -4q47 0 68.5 39t21.5 122v967q0 159 -44.5 225.5t-123.5 66.5q-66 0 -120 -43.5t-85 -137t-31 -243.5v-590h-95v1275h-129v82h129v199h95v-199h251v-82h-251v-239q0 -43 -1 -75t-5 -67h6q19 53 51.5 101
t82 77.5t117.5 29.5q83 0 138 -40t83 -119.5t28 -199.5v-991q0 -86 -20.5 -140.5t-59 -80t-93.5 -25.5z" />
    <glyph glyph-name="uni0453" unicode="&#x453;" horiz-adv-x="591" 
d="M573 1087v-87h-336v-1000h-97v1087h433zM640 1565v-16q-23 -35 -55.5 -77t-70 -84.5t-73.5 -80t-67 -66.5h-58v24q43 55 80 104t68.5 97.5t61.5 98.5h114z" />
    <glyph glyph-name="uni0454" unicode="&#x454;" horiz-adv-x="686" 
d="M444 -20q-120 0 -197.5 65.5t-115.5 193t-38 308.5q0 180 37.5 305t114.5 190.5t194 65.5q46 0 89.5 -10t84.5 -30l-31 -80q-27 14 -63.5 24t-74.5 10q-80 0 -135 -46t-83.5 -137.5t-33.5 -231.5h293v-82h-293q2 -156 32.5 -258t88.5 -152t140 -50q44 0 86.5 12t85.5 30
v-87q-32 -16 -82.5 -28t-98.5 -12z" />
    <glyph glyph-name="uni0455" unicode="&#x455;" horiz-adv-x="660" 
d="M592 268q0 -89 -33 -154t-96 -99.5t-157 -34.5q-75 0 -135.5 19t-98.5 43v104q44 -34 105.5 -56t127.5 -22q95 0 142.5 52.5t47.5 147.5q0 61 -20.5 101.5t-61 72.5t-100.5 69q-69 43 -122.5 86t-84 99t-30.5 138q0 117 74 195.5t214 78.5q64 0 120 -16t103 -46l-39 -80
q-38 27 -86 42t-98 15q-88 0 -141.5 -49t-53.5 -139q0 -53 20 -92.5t62 -74t107 -74.5q67 -43 120 -84.5t83.5 -98t30.5 -143.5z" />
    <glyph glyph-name="uni0456" unicode="&#x456;" horiz-adv-x="388" 
d="M243 1087v-1087h-94v1087h94zM199 1494q35 0 51.5 -25t16.5 -62q0 -40 -18.5 -64t-51.5 -24q-32 0 -50.5 24.5t-18.5 62.5t17 63t54 25z" />
    <glyph glyph-name="uni0457" unicode="&#x457;" horiz-adv-x="374" 
d="M235 0h-95v1087h95v-1087zM-29 1372q0 36 18 58t47 22q28 0 45.5 -21.5t17.5 -58.5q0 -39 -17.5 -60t-45.5 -21q-29 0 -47 22t-18 59zM277 1373q0 36 18.5 57.5t46.5 21.5q27 0 46 -21t19 -58q0 -39 -18.5 -60.5t-46.5 -21.5q-29 0 -47 22t-18 60z" />
    <glyph glyph-name="uni0458" unicode="&#x458;" horiz-adv-x="388" 
d="M62 -494q-24 0 -42.5 4.5t-31.5 10.5v89q13 -7 29.5 -10.5t32.5 -3.5q54 0 74.5 46.5t20.5 143.5v1301h95v-1310q0 -99 -22 -158.5t-61.5 -86t-94.5 -26.5zM127 1406q0 38 17 63t53 25t52 -25t16 -62q0 -40 -18 -64t-51 -24t-51 24.5t-18 62.5z" />
    <glyph glyph-name="uni0459" unicode="&#x459;" horiz-adv-x="1164" 
d="M625 1087v-476h141q106 0 178.5 -36t109.5 -104t37 -165q0 -96 -38 -164.5t-111 -105t-180 -36.5h-231v999h-224q-10 -248 -22 -436.5t-37 -316t-73 -192t-130 -64.5q-15 0 -27 1.5t-24 6.5v85q8 -4 17 -5t20 -1q42 0 72 40.5t50 121.5t33 202.5t20.5 283t12.5 362.5h406
zM763 528h-138v-447h130q121 0 179 58.5t58 164.5q0 110 -57 167t-172 57z" />
    <glyph glyph-name="uni045A" unicode="&#x45a;" horiz-adv-x="1265" 
d="M727 1087v-476h141q106 0 178.5 -36.5t109.5 -104t37 -164.5q0 -96 -38 -164.5t-111 -105t-178 -36.5h-233v525h-397v-525h-96v1087h96v-477h397v477h94zM864 528h-137v-447h130q121 0 179.5 58.5t58.5 164.5q0 110 -57.5 167t-173.5 57z" />
    <glyph glyph-name="uni045B" unicode="&#x45b;" horiz-adv-x="883" 
d="M246 1556v-199h252v-82h-252v-239q0 -43 -1 -74.5t-5 -67.5h6q19 53 51 101t82 77.5t118 29.5q83 0 138 -40t83 -120t28 -199v-743h-96v722q0 159 -44.5 225.5t-123.5 66.5q-67 0 -120.5 -43.5t-85 -137t-31.5 -243.5v-590h-94v1275h-129v82h129v199h95z" />
    <glyph glyph-name="uni045C" unicode="&#x45c;" horiz-adv-x="682" 
d="M544 1087h106l-318 -505l343 -582h-108l-330 575v-575h-97v1087h97v-504zM649 1565v-16q-23 -35 -55.5 -77t-70 -84.5t-73.5 -80t-67 -66.5h-58v24q43 55 80 104t68.5 97.5t61.5 98.5h114z" />
    <glyph glyph-name="uni045D" unicode="&#x45d;" horiz-adv-x="871" 
d="M235 1087v-745q0 -26 -0.5 -51.5t-0.5 -51.5t-1.5 -51.5t-3.5 -51.5l385 951h118v-1087h-94v711v78.5t1 79.5t2 78l-385 -947h-116v1087h95zM290 1565q30 -53 66.5 -106t74 -102t74.5 -93v-23h-62q-30 28 -66 66t-73.5 80t-70.5 83.5t-57 78.5v16h114z" />
    <glyph glyph-name="uni045E" unicode="&#x45e;" horiz-adv-x="689" 
d="M32 1087h98l179 -729q14 -55 21 -89t11 -58.5t7 -49.5h7q10 60 20 106.5t22 93.5l178 726h98l-331 -1309q-26 -98 -59.5 -158.5t-77 -87t-98.5 -26.5q-22 0 -41.5 5t-42.5 12v91q18 -8 38 -13.5t37 -5.5q32 0 58.5 17.5t49.5 60.5t41 120l57 226zM601 1522
q-7 -91 -37 -153t-85 -95t-138 -33q-78 0 -133 29.5t-86 92t-38 159.5h84q11 -113 53.5 -163t119.5 -50q83 0 124 52.5t52 160.5h84z" />
    <glyph glyph-name="uni045F" unicode="&#x45f;" horiz-adv-x="876" 
d="M391 0h-251v1087h97v-1001h402v1001h96v-1087h-251v-365h-93v365z" />
    <glyph glyph-name="uni0460" unicode="&#x460;" horiz-adv-x="1274" 
d="M341 0q-70 183 -122.5 368.5t-89 370t-59.5 366t-35 357.5h100q7 -151 26.5 -314t50 -331.5t72 -336t93.5 -326.5h4q11 53 28.5 115.5t34.5 118.5l143 503q-11 90 -20.5 188t-15.5 195t-8 188h98q3 -167 18 -334.5t44 -334t71.5 -328.5t98.5 -318h4q85 216 140.5 438
t88 443t47.5 434h97q-17 -234 -55.5 -478t-108 -492t-180.5 -492h-65q-38 91 -70 180.5t-58 180t-48.5 181t-39.5 182.5l-207 -724h-77z" />
    <glyph glyph-name="uni0461" unicode="&#x461;" horiz-adv-x="1211" 
d="M1139 1087q-6 -187 -39 -374t-92.5 -366.5t-145.5 -346.5h-85q-34 81 -66 167t-58.5 175t-47.5 175l-208 -517h-85q-57 127 -101 265t-74 278.5t-46 278.5t-20 265h90q3 -155 28.5 -329.5t68.5 -342.5t99 -303h6q16 43 33.5 88t35.5 88.5t33 82.5l111 272
q-23 115 -34 221t-16 223h88q3 -152 29 -322t71 -339.5t104 -318.5h5q66 135 116 296.5t78.5 336.5t31.5 347h90z" />
    <glyph glyph-name="uni0462" unicode="&#x462;" horiz-adv-x="887" 
d="M176 0v1158h-167v83h167v315h98v-315h248v-83h-248v-344h164q122 0 205 -42.5t126 -129.5t43 -222q0 -199 -95 -309.5t-277 -110.5h-264zM274 89h158q134 0 206.5 82t72.5 244q0 106 -30 174.5t-91.5 101.5t-155.5 33h-160v-635z" />
    <glyph glyph-name="uni0463" unicode="&#x463;" horiz-adv-x="806" 
d="M265 1318v-231h217v-80h-217v-396h141q159 0 241.5 -80t82.5 -225q0 -96 -37.5 -164.5t-110.5 -105t-180 -36.5h-233v1007h-158v80h158v231h96zM403 528h-138v-447h131q120 0 178 58.5t58 164.5q0 110 -57 167t-172 57z" />
    <glyph glyph-name="uni0464" unicode="&#x464;" horiz-adv-x="1241" 
d="M946 -20q-144 0 -243.5 95.5t-152 263t-54.5 381.5h-242v-720h-98v1462h98v-651h243q7 136 36 257t83 215t137.5 147.5t197.5 53.5q63 0 124.5 -16t114.5 -53l-40 -82q-49 32 -99 46t-99 14q-92 0 -157 -48t-106.5 -130.5t-62.5 -187.5t-28 -216h457v-91h-460
q2 -127 23 -244t65 -208.5t111 -144.5t161 -53q63 0 113 19.5t86 44.5v-98q-42 -27 -95.5 -41.5t-112.5 -14.5z" />
    <glyph glyph-name="uni0465" unicode="&#x465;" horiz-adv-x="1033" 
d="M791 -20q-118 0 -194 63t-113.5 185t-40.5 296h-206v-524h-97v1087h97v-481h206q7 161 46 273t113 170.5t184 58.5q48 0 91.5 -9.5t83.5 -30.5l-31 -80q-27 14 -64 24t-75 10q-81 0 -135.5 -45.5t-84 -138t-32.5 -231.5h294v-83h-294q1 -155 31.5 -257t89 -152t139.5 -50
q45 0 88 12t84 30v-87q-31 -16 -80.5 -28t-99.5 -12z" />
    <glyph glyph-name="uni0466" unicode="&#x466;" horiz-adv-x="930" 
d="M525 1462l406 -1462h-101l-194 716h-121v-716h-94v716h-128l-193 -716h-102l406 1462h121zM464 1379q-3 -23 -7.5 -45.5t-9 -44.5t-10.5 -43t-12 -41l-109 -401h296l-109 402q-5 20 -10.5 40.5t-10 42.5t-9 44.5t-9.5 45.5z" />
    <glyph glyph-name="uni0467" unicode="&#x467;" horiz-adv-x="773" 
d="M441 1087l325 -1087h-95l-150 518h-90v-518h-88v518h-91l-146 -518h-98l328 1087h105zM392 998h-7l-6 -28t-7 -28.5t-7 -29.5l-89 -312h222l-87 310q-4 17 -7.5 31.5t-6.5 28.5t-5 28z" />
    <glyph glyph-name="uni0468" unicode="&#x468;" horiz-adv-x="1324" 
d="M920 1462l405 -1462h-101l-193 716h-122v-716h-93v716h-129l-193 -716h-101l199 721h-338v-721h-98v1462h98v-650h364l180 650h122zM858 1379q-4 -23 -8.5 -45.5t-9.5 -44.5t-10 -43t-11 -41l-108 -401h295l-109 402q-5 20 -10.5 41t-11 42.5t-9.5 44t-8 45.5z" />
    <glyph glyph-name="uni0469" unicode="&#x469;" horiz-adv-x="1105" 
d="M773 1087l325 -1087h-95l-151 518h-89v-518h-87v518h-92l-147 -518h-96l158 525h-263v-525h-96v1087h96v-477h291l141 477h105zM723 998h-8q-2 -19 -7 -38.5t-10 -40t-12 -42.5l-78 -277h223l-79 277q-4 16 -10.5 39t-11.5 45t-7 37z" />
    <glyph glyph-name="uni046A" unicode="&#x46a;" horiz-adv-x="1006" 
d="M890 1462v-73l-300 -578q90 -6 146 -44t91 -108t58 -174l111 -485h-101l-107 485q-17 80 -41.5 133.5t-70.5 81.5t-127 29v-729h-95v729q-83 -1 -128.5 -29.5t-68.5 -82.5t-42 -132l-106 -485h-100l109 484q17 76 38 134.5t53 99.5t81.5 64.5t121.5 28.5l-300 578l-1 73
h779zM776 1376h-547l272 -552z" />
    <glyph glyph-name="uni046B" unicode="&#x46b;" horiz-adv-x="958" 
d="M817 1087v-69l-253 -410q85 -9 136.5 -43.5t83.5 -95t58 -145.5l100 -324h-99l-97 334q-23 75 -50 118t-68 61t-104 18v-531h-90v530q-61 0 -102 -18.5t-68.5 -61t-49.5 -114.5l-99 -336h-100l101 324q26 86 56.5 146.5t82 94.5t141.5 43l-260 410v69h681zM711 1006h-467
l236 -379z" />
    <glyph glyph-name="uni046C" unicode="&#x46c;" horiz-adv-x="1421" 
d="M1307 1462v-73l-300 -585q91 -6 147.5 -45t90.5 -109.5t57 -170.5l112 -479h-101l-108 479q-17 79 -41.5 133t-70 81.5t-126.5 28.5v-722h-95v722q-81 -1 -126.5 -28t-69.5 -80t-44 -135l-105 -479h-98l105 471q19 85 46 148t71 102h-397v-721h-98v1462h98v-649h571
l-294 576l-2 73h778zM1192 1376h-547l272 -556z" />
    <glyph glyph-name="uni046D" unicode="&#x46d;" horiz-adv-x="1314" 
d="M1176 1087v-69l-255 -416q86 -7 137.5 -41t84 -94t57.5 -145l101 -322h-100l-98 331q-21 75 -49 117t-68 59.5t-102 17.5v-525h-90v525q-62 0 -103 -18.5t-67.5 -60.5t-49.5 -113l-101 -333h-98l102 324q21 70 44.5 120t58.5 81h-345v-525h-95v1087h95v-476h513l-254 407
v69h682zM1069 1006h-466l234 -382z" />
    <glyph glyph-name="uni046E" unicode="&#x46e;" horiz-adv-x="807" 
d="M546 1728q15 0 27.5 -3t24.5 -10v-72q-9 6 -19 8t-19 2q-46 0 -77.5 -54.5t-60.5 -122.5q115 -23 177.5 -113t62.5 -229q0 -144 -65.5 -239.5t-182.5 -126.5v-7q135 -17 204 -111.5t69 -255.5q0 -103 -26.5 -172.5t-74.5 -113t-111 -67.5t-137 -36q-64 -12 -104 -27
t-59 -42.5t-19 -77.5q0 -66 40.5 -106t119.5 -40q31 0 57 4t52.5 8t55.5 4q27 0 55.5 -3.5t54.5 -10.5v-92q-21 8 -52 12.5t-58 4.5q-28 0 -53 -4t-53.5 -7.5t-66.5 -3.5q-82 0 -138 28t-85 80.5t-29 126.5q0 85 34.5 133t92.5 70t126 31q148 27 213 95.5t65 209.5
q0 162 -81 240.5t-240 78.5h-99v93h99q92 1 158 37t102 107t36 172q0 128 -60.5 197t-165.5 69q-66 0 -115.5 -25.5t-85.5 -66.5l-55 69q41 45 91 71.5t108 37.5q-13 28 -39.5 73.5t-55.5 90.5t-51 71v17h70q36 -40 73.5 -97t78.5 -128q25 57 52.5 107.5t61 83t77.5 32.5z
" />
    <glyph glyph-name="uni046F" unicode="&#x46f;" horiz-adv-x="638" 
d="M457 1341q14 0 26.5 -2.5t24.5 -10.5v-69q-9 5 -19 7.5t-18 2.5q-35 0 -67 -42.5t-69 -126.5q92 -18 140.5 -86t48.5 -175q0 -101 -45 -163.5t-104 -87.5v-7q56 -20 96 -57.5t60.5 -93t20.5 -129.5q0 -104 -36.5 -167t-100 -95t-144.5 -45q-52 -10 -83.5 -22.5t-45 -33.5
t-13.5 -57q0 -55 30 -83.5t91 -28.5q25 0 46 3.5t42.5 6.5t45.5 3t46.5 -3.5t44.5 -8.5v-89q-17 8 -42 11.5t-47 3.5q-20 0 -43 -2.5t-46.5 -6t-50.5 -3.5q-67 0 -113.5 22.5t-71 66t-24.5 106.5q0 69 29 109t76.5 60t103.5 28q75 14 121 41.5t66.5 73t20.5 115.5
q0 74 -23.5 126t-67 79t-103.5 27h-74v82h68q74 0 124 55t50 158q0 97 -44.5 144t-120.5 47q-39 0 -79.5 -12t-76.5 -35l-40 75q27 16 56.5 27.5t60.5 19.5q-15 32 -39.5 75t-51.5 84.5t-49 68.5v17h69q34 -40 71.5 -97t79.5 -128q29 61 58 111.5t62 80.5t73 30z" />
    <glyph glyph-name="uni0470" unicode="&#x470;" horiz-adv-x="1180" 
d="M1044 1462v-470q0 -139 -23 -240t-72 -167t-125.5 -98.5t-184.5 -34.5v-452h-96v452q-104 2 -180 32.5t-125.5 94.5t-74 167t-24.5 248v468h98v-462q0 -139 24 -241.5t89.5 -159t192.5 -59.5v922h96v-922q115 4 181.5 51t95.5 146t29 260v465h99z" />
    <glyph glyph-name="uni0471" unicode="&#x471;" horiz-adv-x="1008" 
d="M560 1556v-1484q92 5 148.5 65.5t81 175.5t24.5 281q0 141 -17 257.5t-51 235.5h96q35 -128 52 -242.5t17 -255.5q0 -191 -37 -324t-114.5 -203.5t-199.5 -75.5v-467h-94v467q-118 3 -192.5 64.5t-109.5 177.5t-35 284v575h95v-563q0 -137 22.5 -236t75 -155t144.5 -61
v1484h94z" />
    <glyph glyph-name="uni0472" unicode="&#x472;" horiz-adv-x="1082" 
d="M974 733q0 -152 -21 -288t-70.5 -240.5t-133 -164.5t-207.5 -60t-208 62t-133.5 168t-71.5 241.5t-22 282.5q0 250 50.5 416t147 249.5t238.5 83.5q157 0 252 -98t137 -268t42 -384zM543 70q108 0 181.5 72.5t111 216t38.5 357.5h-666q1 -208 40 -352t113.5 -219
t181.5 -75zM543 1393q-106 0 -178.5 -68t-111.5 -199.5t-45 -322.5h665q-8 288 -90 439t-240 151z" />
    <glyph glyph-name="uni0473" unicode="&#x473;" horiz-adv-x="864" 
d="M772 545q0 -188 -38 -313.5t-113 -188.5t-187 -63q-110 0 -187 63.5t-116.5 190.5t-39.5 313q0 277 85.5 419t256.5 142q122 0 196.5 -71t108.5 -198t34 -294zM434 66q81 0 134 49.5t80 151.5t29 258h-490q2 -149 28.5 -251t80.5 -155t138 -53zM433 1021
q-122 0 -180 -106.5t-66 -308.5h489q-5 128 -31 221.5t-78 143.5t-134 50z" />
    <glyph glyph-name="uni0474" unicode="&#x474;" horiz-adv-x="914" 
d="M888 1386q-40 0 -65 -31t-42 -86.5t-34 -126.5l-279 -1142h-116l-352 1462h102l244 -1029q19 -76 30 -128t19 -94.5t16 -93.5q5 32 11 63t12.5 62.5t13 63.5t13.5 64l190 788q30 125 57.5 194t66 96.5t99.5 28.5q23 0 41.5 -4t33.5 -12v-87q-16 6 -31.5 9t-29.5 3z" />
    <glyph glyph-name="uni0475" unicode="&#x475;" horiz-adv-x="742" 
d="M698 1101q24 0 41 -4t32 -11v-81q-17 8 -31 11.5t-29 3.5q-33 -1 -55 -20.5t-40 -71.5t-44 -148l-193 -780h-106l-264 1087h97l162 -699q16 -70 30 -135.5t26 -137.5h7q10 59 24 128t32 147l94 392q30 125 58 194t65 97t94 28z" />
    <glyph glyph-name="uni0476" unicode="&#x476;" horiz-adv-x="914" 
d="M888 1386q-40 0 -65 -31t-42 -86.5t-34 -126.5l-279 -1142h-116l-352 1462h102l244 -1029q19 -76 30 -128t19 -94.5t16 -93.5q5 32 11 63t12.5 62.5t13 63.5t13.5 64l190 788q30 125 57.5 194t66 96.5t99.5 28.5q23 0 41.5 -4t33.5 -12v-87q-16 6 -31.5 9t-29.5 3z
M453 1907q17 -44 49 -105.5t66 -117.5t54 -84v-21h-46q-25 21 -58 59.5t-66.5 84.5t-62.5 90.5t-46 76.5v17h110zM189 1907q21 -50 51.5 -110.5t63 -114t53.5 -82.5v-21h-48q-24 21 -56 59.5t-66.5 84.5t-63 90.5t-46.5 76.5v17h112z" />
    <glyph glyph-name="uni0477" unicode="&#x477;" horiz-adv-x="743" 
d="M698 1101q24 0 41 -4t32 -11v-81q-17 8 -31 11.5t-29 3.5q-33 -1 -55 -20.5t-40 -71.5t-44 -148l-193 -780h-106l-264 1087h97l162 -699q16 -70 30 -135.5t26 -137.5h7q10 59 24 128t32 147l94 392q30 125 58 194t65 97t94 28zM382 1569q17 -44 49 -105.5t66 -117.5
t54 -84v-21h-46q-25 21 -58 59.5t-66.5 84.5t-62.5 90.5t-46 76.5v17h110zM118 1569q21 -50 51.5 -110.5t63 -114t53.5 -82.5v-21h-48q-24 21 -56 59.5t-66.5 84.5t-63 90.5t-46.5 76.5v17h112z" />
    <glyph glyph-name="uni0478" unicode="&#x478;" horiz-adv-x="1766" 
d="M969 733q0 -152 -21 -288t-70 -240.5t-131.5 -164.5t-206.5 -60q-123 0 -207 62t-133 168t-71 241.5t-22 282.5q0 250 50 416t146 249.5t238 83.5q156 0 250 -98t136 -268t42 -384zM208 733q0 -212 38.5 -360t112.5 -225.5t181 -77.5q110 0 182.5 75t109 223t36.5 365
q0 215 -36 362t-109 222t-182 75q-112 0 -186 -76.5t-110.5 -223.5t-36.5 -359zM1117 1087h98l179 -729q13 -56 19.5 -90t10.5 -57.5t9 -50.5h6q10 61 20 107.5t22 93.5l179 726h97l-331 -1309q-25 -98 -59 -158.5t-78 -87t-99 -26.5q-20 0 -40 5t-42 12v91q17 -8 37 -13.5
t37 -5.5q32 0 58.5 17.5t49 60.5t42.5 120l57 226z" />
    <glyph glyph-name="uni0479" unicode="&#x479;" horiz-adv-x="1532" 
d="M766 545q0 -138 -20.5 -243.5t-62 -177t-104.5 -108t-148 -36.5q-84 0 -147.5 37t-106.5 109t-64.5 178t-21.5 243q0 182 37 307t112 189.5t190 64.5q117 0 191 -66.5t109.5 -192.5t35.5 -304zM188 547q0 -158 25.5 -264.5t80 -161t138.5 -54.5q82 0 134.5 51.5t78 158.5
t25.5 269q0 151 -23.5 257t-76.5 162t-140 56q-128 0 -185 -121.5t-57 -352.5zM896 1087h98l179 -729q14 -55 21 -89t11 -58.5t7 -49.5h7q10 60 20 106.5t22 93.5l178 726h98l-331 -1309q-26 -98 -59.5 -158.5t-77 -87t-98.5 -26.5q-22 0 -41.5 5t-42.5 12v91
q18 -8 38 -13.5t37 -5.5q32 0 58.5 17.5t49.5 60.5t41 120l57 226z" />
    <glyph glyph-name="uni047A" unicode="&#x47a;" horiz-adv-x="1106" 
d="M556 -98q-33 0 -52.5 22t-25.5 64q-101 17 -172 80.5t-114.5 164.5t-64 229t-20.5 273q0 226 42 383.5t124 247t204 110.5q7 40 26 63t53 23q31 0 50.5 -22t24.5 -63q131 -21 212.5 -119.5t119.5 -258.5t38 -368q0 -146 -20 -274.5t-64 -228.5t-114.5 -163t-171.5 -79
q-7 -40 -25.5 -62t-49.5 -22zM479 83q8 36 26 57.5t50 21.5q30 0 49 -22t25 -59q89 21 150 101.5t92 218.5t31 331q0 288 -68.5 453.5t-204.5 196.5q-6 -39 -24.5 -59t-49.5 -20t-50.5 21t-25.5 57q-91 -24 -151.5 -107.5t-90.5 -220t-30 -319.5q0 -187 31 -324.5t92 -220
t149 -106.5z" />
    <glyph glyph-name="uni047B" unicode="&#x47b;" horiz-adv-x="886" 
d="M798 544q0 -163 -30.5 -281t-92.5 -188t-157 -89q-6 -39 -23.5 -60t-47.5 -21q-33 0 -50.5 21.5t-23.5 60.5q-92 18 -155 88t-95 189t-32 285q0 246 70 384.5t211 166.5q6 38 24.5 58t50.5 20q30 0 47 -20.5t24 -58.5q98 -20 159.5 -92t91 -189.5t29.5 -273.5zM703 545
q0 136 -19.5 232t-60.5 153.5t-107 76.5q-5 -39 -22 -60.5t-47 -21.5q-32 0 -50.5 21t-24.5 60q-97 -29 -141.5 -147.5t-45.5 -312.5q0 -199 46.5 -317.5t140.5 -148.5q6 36 24.5 57.5t47.5 21.5q32 0 49.5 -22t24.5 -59q101 31 143 153t42 314z" />
    <glyph glyph-name="uni047C" unicode="&#x47c;" horiz-adv-x="1395" 
d="M477 1892v19q1 45 11.5 79t31 58t51.5 35.5t73 11.5q57 0 102.5 -18.5t88.5 -43.5t91 -43.5t109 -19.5h11v-78h-10q-66 0 -118 18.5t-95.5 43t-84 43t-85.5 18.5q-54 0 -77 -30t-23 -93h-76zM625 1560v55q56 20 84.5 48.5t28.5 56.5q0 22 -12.5 32t-29 18t-29.5 21.5
t-13 40.5q0 32 19 48.5t47 16.5q43 0 69 -34t26 -92q0 -51 -20.5 -91.5t-62.5 -70.5t-107 -49zM482 -20q-112 0 -196.5 90.5t-131 263t-46.5 417.5q0 141 19 272t61 235t112 164.5t172 60.5q50 0 96 -17t86 -48l-45 -79q-28 27 -62 40t-70 13q-78 0 -130 -56.5t-83 -150
t-44 -208.5t-13 -230q0 -214 36.5 -366.5t101 -232.5t145.5 -80q44 0 84.5 21.5t76.5 57.5v488h95v-488q31 -31 70.5 -55t90.5 -24q85 0 149 80.5t99.5 231.5t34.5 365q0 119 -13 234.5t-42.5 208.5t-81 148.5t-127.5 55.5q-39 0 -74.5 -13t-63.5 -40l-42 79q39 31 86.5 48
t97.5 17q102 0 170.5 -61.5t111 -165.5t60.5 -235t18 -270q0 -184 -26.5 -327.5t-76 -242.5t-119.5 -150t-156 -51q-66 0 -119.5 26.5t-91.5 76.5q-45 -50 -98.5 -76.5t-120.5 -26.5z" />
    </font>
</defs>
</svg>
