<?xml version="1.0" standalone="no"?>
<!DOCTYPE svg PUBLIC "-//W3C//DTD SVG 1.1//EN" "http://www.w3.org/Graphics/SVG/1.1/DTD/svg11.dtd" >
<svg xmlns="http://www.w3.org/2000/svg" xmlns:xlink="http://www.w3.org/1999/xlink" version="1.1">
<metadata>
Created by FontForge 20170731 at Wed Feb 10 17:54:38 2021
 By Aleksey,,,
Copyright 2020 The Open Sans Project Authors (https://github.com/googlefonts/opensans)
</metadata>
<defs>
<font id="OpenSansCondensed-Medium" horiz-adv-x="0" >
  <font-face 
    font-family="Open Sans Condensed Medium"
    font-weight="500"
    font-stretch="condensed"
    units-per-em="2048"
    panose-1="0 0 0 0 0 0 0 0 0 0"
    ascent="1638"
    descent="-410"
    x-height="1104"
    cap-height="1462"
    bbox="-1082 -572 1981 2163"
    underline-thickness="50"
    underline-position="-175"
    unicode-range="U+000D-FFFD"
  />
<missing-glyph horiz-adv-x="1229" 
 />
    <glyph glyph-name="f_f" unicode="ff" horiz-adv-x="1068" 
d="M507 951h-174v-951h-182v951h-133v98l133 58v65q0 129 23.5 217t79.5 133t153 45q48 0 88 -8.5t85 -26.5l-44 -143q-28 9 -52.5 14.5t-49.5 5.5q-57 0 -78.5 -50t-22.5 -180v-75h174v-153zM1041 951h-174v-951h-182v951h-133v98l133 58v65q0 129 23.5 217t79.5 133
t153 45q48 0 88 -8.5t85 -26.5l-44 -143q-28 9 -52.5 14.5t-49.5 5.5q-57 0 -78.5 -50t-22.5 -180v-75h174v-153z" />
    <glyph glyph-name="fi" unicode="fi" horiz-adv-x="974" 
d="M507 951h-174v-951h-182v951h-133v98l133 58v65q0 129 23.5 217t79.5 133t153 45q48 0 88 -8.5t85 -26.5l-44 -143q-28 9 -52.5 14.5t-49.5 5.5q-57 0 -78.5 -50t-22.5 -180v-75h174v-153zM846 1104v-1104h-182v1104h182zM757 1523q54 0 79 -32.5t25 -90.5t-26.5 -90
t-77.5 -32q-50 0 -78 32t-28 90q0 60 26.5 91.5t79.5 31.5z" />
    <glyph glyph-name="fl" unicode="fl" horiz-adv-x="972" 
d="M507 951h-174v-951h-182v951h-133v98l133 58v65q0 129 23.5 217t79.5 133t153 45q48 0 88 -8.5t85 -26.5l-44 -143q-28 9 -52.5 14.5t-49.5 5.5q-57 0 -78.5 -50t-22.5 -180v-75h174v-153zM844 0h-182v1556h182v-1556z" />
    <glyph glyph-name="f_f_i" unicode="ffi" horiz-adv-x="1509" 
d="M507 951h-174v-951h-182v951h-133v98l133 58v65q0 129 23.5 217t79.5 133t153 45q48 0 88 -8.5t85 -26.5l-44 -143q-28 9 -52.5 14.5t-49.5 5.5q-57 0 -78.5 -50t-22.5 -180v-75h174v-153zM1040 951h-174v-951h-182v951h-133v98l133 58v65q0 129 23.5 217t79.5 133
t153 45q48 0 88 -8.5t85 -26.5l-44 -143q-28 9 -52.5 14.5t-49.5 5.5q-57 0 -78.5 -50t-22.5 -180v-75h174v-153zM1378 1104v-1104h-182v1104h182zM1289 1523q54 0 79 -32.5t25 -90.5t-26.5 -90t-77.5 -32q-50 0 -78 32t-28 90q0 60 26.5 91.5t79.5 31.5z" />
    <glyph glyph-name="f_f_l" unicode="ffl" horiz-adv-x="1505" 
d="M507 951h-174v-951h-182v951h-133v98l133 58v65q0 129 23.5 217t79.5 133t153 45q48 0 88 -8.5t85 -26.5l-44 -143q-28 9 -52.5 14.5t-49.5 5.5q-57 0 -78.5 -50t-22.5 -180v-75h174v-153zM1040 951h-174v-951h-182v951h-133v98l133 58v65q0 129 23.5 217t79.5 133
t153 45q48 0 88 -8.5t85 -26.5l-44 -143q-28 9 -52.5 14.5t-49.5 5.5q-57 0 -78.5 -50t-22.5 -180v-75h174v-153zM1376 0h-182v1556h182v-1556z" />
    <glyph glyph-name=".notdef" horiz-adv-x="1229" 
 />
    <glyph glyph-name=".null" 
 />
    <glyph glyph-name="nonmarkingreturn" horiz-adv-x="682" 
 />
    <glyph glyph-name="NULL" 
 />
    <glyph glyph-name="NULL" 
 />
    <glyph glyph-name="CR" unicode="&#xd;" horiz-adv-x="377" 
 />
    <glyph glyph-name="space" unicode=" " horiz-adv-x="377" 
 />
    <glyph glyph-name="exclam" unicode="!" horiz-adv-x="486" 
d="M314 423h-142l-39 1039h218zM126 117q0 66 29.5 100.5t88.5 34.5q54 0 85.5 -32.5t31.5 -102.5q0 -69 -33 -102t-84 -33q-57 0 -87.5 34.5t-30.5 100.5z" />
    <glyph glyph-name="quotedbl" unicode="&#x22;" horiz-adv-x="795" 
d="M321 1462l-32 -528h-141l-34 528h207zM682 1462l-32 -528h-141l-34 528h207z" />
    <glyph glyph-name="numbersign" unicode="#" horiz-adv-x="963" 
d="M740 912l-40 -331h181v-142h-197l-57 -439h-140l57 439h-197l-53 -439h-137l53 439h-170v142h188l40 331h-181v141h200l51 409h138l-52 -409h196l53 409h135l-52 -409h172v-141h-188zM366 581h196l41 331h-196z" />
    <glyph glyph-name="dollar" unicode="$" horiz-adv-x="894" 
d="M395 -119v214q-89 3 -169.5 22t-139.5 49v173q59 -37 142 -64.5t167 -29.5v436q-109 45 -178.5 95t-102 116.5t-32.5 159.5q0 97 39.5 170t110 117.5t163.5 53.5v163h104v-160q77 -4 148 -22.5t137 -52.5l-50 -143q-54 28 -111.5 44t-123.5 21v-434q106 -44 175.5 -92
t104 -111.5t34.5 -152.5q0 -138 -82 -232t-232 -118v-222h-104zM499 254q78 16 118.5 66.5t40.5 120.5q0 47 -17 82t-52 63t-90 52v-384zM395 853v388q-50 -8 -85 -33.5t-52.5 -65t-17.5 -89.5q0 -51 15.5 -86t49.5 -61.5t90 -52.5z" />
    <glyph glyph-name="percent" unicode="%" horiz-adv-x="1399" 
d="M325 1483q117 0 183 -119t66 -338q0 -220 -65 -340.5t-184 -120.5t-183 121.5t-64 339.5q0 221 63 339t184 118zM324 1350q-52 0 -75 -80.5t-23 -243.5q0 -164 23.5 -245t76.5 -81q51 0 75 80t24 246q0 164 -25.5 244t-75.5 80zM1031 1462l-522 -1462h-145l523 1462h144z
M1074 899q117 0 183 -119t66 -338q0 -223 -65.5 -341.5t-183.5 -118.5q-119 0 -183 121t-64 339q0 226 63.5 341.5t183.5 115.5zM1072 767q-52 0 -75 -80.5t-23 -244.5t23.5 -245t76.5 -81t75.5 83.5t22.5 242.5q0 157 -24.5 241t-75.5 84z" />
    <glyph glyph-name="ampersand" unicode="&#x26;" horiz-adv-x="1013" 
d="M438 1483q85 0 143.5 -37t89.5 -106.5t31 -168.5q0 -124 -47 -220.5t-141 -178.5l202 -333q24 53 39.5 121.5t19.5 148.5h188q-9 -105 -43.5 -223.5t-88.5 -209.5l187 -276h-223l-85 144q-44 -52 -93.5 -88.5t-107.5 -56t-129 -19.5q-108 0 -179.5 51t-107 140t-35.5 204
q0 88 24.5 161.5t75.5 137.5t131 123q-42 66 -68 124.5t-39 120t-13 134.5q0 95 33 163.5t94 106t142 37.5zM375 676q-48 -42 -76.5 -85.5t-41.5 -94t-13 -113.5q0 -109 44 -173t118 -64q63 0 112.5 35t93.5 106zM436 1338q-43 0 -68 -42t-25 -122q0 -68 22 -144.5
t61 -134.5q58 52 82.5 124.5t24.5 156.5q0 80 -25 121t-72 41z" />
    <glyph glyph-name="quotesingle" unicode="'" horiz-adv-x="432" 
d="M321 1462l-32 -528h-141l-34 528h207z" />
    <glyph glyph-name="parenleft" unicode="(" horiz-adv-x="602" 
d="M98 569q0 176 34.5 339.5t99 307.5t155.5 262h163q-134 -199 -202 -428.5t-68 -478.5q0 -163 31 -319.5t91 -302t146 -273.5h-161q-93 117 -157.5 257t-98 300.5t-33.5 335.5z" />
    <glyph glyph-name="parenright" unicode=")" horiz-adv-x="602" 
d="M504 570q0 -172 -33.5 -333t-98.5 -303t-157 -258h-161q86 129 146 275t91.5 303t31.5 318q0 168 -31 325.5t-91 303.5t-148 277h162q92 -117 156 -262t98.5 -308.5t34.5 -337.5z" />
    <glyph glyph-name="asterisk" unicode="*" horiz-adv-x="828" 
d="M506 1560l-31 -273l249 81l36 -169l-248 -26l179 -225l-148 -94l-128 250l-132 -250l-145 94l175 225l-245 24l36 169l248 -79l-27 273h181z" />
    <glyph glyph-name="plus" unicode="+" horiz-adv-x="898" 
d="M526 799h306v-153h-306v-404h-154v404h-309v153h309v408h154v-408z" />
    <glyph glyph-name="comma" unicode="," horiz-adv-x="470" 
d="M352 241l13 -22q-19 -88 -41.5 -172.5t-49 -164.5t-59.5 -153h-142q21 83 39 173t31.5 177.5t20.5 161.5h188z" />
    <glyph glyph-name="hyphen" unicode="-" horiz-adv-x="576" 
d="M56 463v179h464v-179h-464z" />
    <glyph glyph-name="period" unicode="." horiz-adv-x="470" 
d="M118 117q0 66 30 100.5t88 34.5q55 0 86 -32.5t31 -102.5q0 -69 -32 -102t-85 -33q-55 0 -86.5 34.5t-31.5 100.5z" />
    <glyph glyph-name="slash" unicode="/" horiz-adv-x="769" 
d="M745 1470l-541 -1477h-169l543 1477h167z" />
    <glyph glyph-name="zero" unicode="0" horiz-adv-x="894" 
d="M809 731q0 -173 -19.5 -312t-62.5 -236.5t-112.5 -149.5t-168.5 -52q-116 0 -197 70.5t-123.5 234.5t-42.5 445q0 252 40 419t120.5 250t202.5 83q124 0 204 -84.5t119.5 -251.5t39.5 -416zM273 731q0 -194 17 -323t55.5 -193.5t100.5 -64.5q63 0 101.5 65t55.5 194
t17 322q0 192 -17.5 321.5t-55.5 195t-101 65.5q-62 0 -100.5 -65t-55.5 -194t-17 -323z" />
    <glyph glyph-name="one" unicode="1" horiz-adv-x="894" 
d="M626 0h-187v967q0 44 1 88.5t2.5 90t3.5 90.5q-13 -19 -34 -43t-53 -55l-129 -128l-108 114l341 338h163v-1462z" />
    <glyph glyph-name="two" unicode="2" horiz-adv-x="894" 
d="M795 0h-728v138l287 417q87 125 135.5 214t69 166t20.5 165q0 100 -48 157.5t-138 57.5q-62 0 -114 -24.5t-109 -83.5l-95 128q53 53 104.5 85.5t108.5 47.5t123 15q110 0 190 -47t123 -131t43 -196t-26 -207.5t-80.5 -191.5t-140.5 -212l-231 -322v-8h506v-168z" />
    <glyph glyph-name="three" unicode="3" horiz-adv-x="894" 
d="M772 1123q0 -85 -28 -155t-82 -120.5t-133 -79.5v-7q130 -29 199 -121t69 -238q0 -126 -49 -221.5t-141.5 -148t-223.5 -52.5q-90 0 -163 14t-144 48v183q67 -40 140 -61t145 -21q123 0 181.5 73.5t58.5 194.5q0 87 -32.5 145.5t-98 87.5t-163.5 29h-75v162h80
q86 0 147 33t94 93.5t33 142.5q0 103 -50 159t-143 56q-46 0 -85.5 -11.5t-76.5 -34t-75 -56.5l-85 133q80 71 163.5 102t186.5 31q163 0 257 -95.5t94 -264.5z" />
    <glyph glyph-name="four" unicode="4" horiz-adv-x="894" 
d="M866 316h-153v-316h-184v316h-495v153l484 1003h195v-998h153v-158zM528 474v527q0 21 1 51t2 62t2 60t2 46h-7q-16 -47 -33.5 -90.5t-35.5 -83.5l-263 -572h332z" />
    <glyph glyph-name="five" unicode="5" horiz-adv-x="894" 
d="M449 906q110 0 189 -55t122 -152.5t43 -226.5q0 -148 -49 -258.5t-144 -172t-236 -61.5q-85 0 -153 16t-121 47v183q58 -38 126 -60.5t135 -22.5q85 0 140.5 43.5t83 116.5t27.5 163q0 137 -61 208.5t-176 71.5q-48 0 -95.5 -9t-95.5 -25l-70 63l44 687h567v-169h-410
l-28 -406q43 10 83.5 14.5t78.5 4.5z" />
    <glyph glyph-name="six" unicode="6" horiz-adv-x="894" 
d="M87 622q0 160 17.5 294.5t53.5 239.5t94 178t139 110.5t188 37.5q44 0 85 -5t75 -16v-164q-34 10 -71.5 15.5t-79.5 5.5q-101 0 -171 -62t-107.5 -185t-43.5 -309h8q21 51 54 89t78 59t101 21q102 0 169.5 -61t101.5 -165.5t34 -237.5q0 -141 -39.5 -251t-117.5 -173.5
t-194 -63.5q-90 0 -160 42.5t-117.5 124t-72 201.5t-24.5 275zM458 146q79 0 123.5 79t44.5 238q0 149 -41.5 226t-125.5 77q-59 0 -99 -34t-61 -90.5t-21 -123.5q0 -60 9.5 -125t30.5 -121.5t55.5 -91t84.5 -34.5z" />
    <glyph glyph-name="seven" unicode="7" horiz-adv-x="894" 
d="M189 0l438 1293h-560v169h750v-136l-431 -1326h-197z" />
    <glyph glyph-name="eight" unicode="8" horiz-adv-x="894" 
d="M449 1483q108 0 184.5 -42t117.5 -118.5t41 -181.5q0 -82 -25 -150t-74.5 -124t-125.5 -101q79 -54 137 -111.5t89.5 -126.5t31.5 -156q0 -117 -45.5 -205t-129 -137.5t-197.5 -49.5q-122 0 -208 47t-131.5 133.5t-45.5 202.5q0 86 26.5 158t80 132t133.5 111
q-68 53 -113.5 111.5t-68 124.5t-22.5 139q0 105 42.5 182t120 119.5t182.5 42.5zM252 363q0 -100 50.5 -164t143.5 -64q97 0 146.5 65.5t49.5 170.5q0 50 -17 97.5t-55 92.5t-99 88l-37 27q-65 -43 -105 -89t-58.5 -100.5t-18.5 -123.5zM447 1327q-74 0 -118.5 -53.5
t-44.5 -147.5q0 -58 18.5 -104.5t54 -86.5t88.5 -78q59 39 95.5 79.5t53.5 87t17 102.5q0 94 -43.5 147.5t-120.5 53.5z" />
    <glyph glyph-name="nine" unicode="9" horiz-adv-x="894" 
d="M799 851q0 -163 -18 -299.5t-56 -242.5t-96.5 -179t-139 -111.5t-184.5 -38.5q-40 0 -86.5 6.5t-78.5 14.5v167q33 -12 72.5 -18.5t84.5 -6.5q114 0 183.5 75.5t103 202t37.5 279.5h-8q-21 -51 -54.5 -88.5t-78 -58.5t-99.5 -21q-103 0 -171 60.5t-101.5 165.5t-33.5 236
q0 142 40 252.5t119.5 173.5t199.5 63q88 0 156.5 -41.5t114.5 -122.5t70 -198.5t24 -269.5zM434 1316q-83 0 -127.5 -78.5t-44.5 -238.5q0 -148 42 -226t126 -78q61 0 101 38t59 97.5t19 124.5q0 49 -7 110.5t-25.5 118.5t-53 94.5t-89.5 37.5z" />
    <glyph glyph-name="colon" unicode=":" horiz-adv-x="475" 
d="M120 117q0 66 30 100.5t88 34.5q55 0 86 -32.5t31 -102.5q0 -68 -32 -101.5t-85 -33.5q-58 0 -88 34.5t-30 100.5zM120 975q0 67 30 101.5t88 34.5q57 0 87 -34t30 -101q0 -69 -32.5 -103t-84.5 -34q-57 0 -87.5 35t-30.5 101z" />
    <glyph glyph-name="semicolon" unicode=";" horiz-adv-x="475" 
d="M352 241l13 -22q-18 -88 -40.5 -172.5t-49.5 -164.5t-60 -153h-143q23 86 41 175.5t31 175.5t20 161h188zM121 976q0 66 29.5 100.5t88.5 34.5q57 0 87 -34.5t30 -100.5q0 -69 -32.5 -103t-84.5 -34q-57 0 -87.5 35t-30.5 102z" />
    <glyph glyph-name="less" unicode="&#x3c;" horiz-adv-x="898" 
d="M834 267l-775 413v105l775 406v-173l-566 -287l566 -293v-171z" />
    <glyph glyph-name="equal" unicode="=" horiz-adv-x="898" 
d="M63 866v152h769v-152h-769zM63 425v151h769v-151h-769z" />
    <glyph glyph-name="greater" unicode="&#x3e;" horiz-adv-x="898" 
d="M62 438l567 293l-567 287v173l775 -406v-105l-775 -413v171z" />
    <glyph glyph-name="question" unicode="?" horiz-adv-x="668" 
d="M202 423v62q0 70 10 125t35 105t68 103q47 59 76 107t42 97t13 107q0 94 -39.5 141t-111.5 47q-56 0 -104.5 -19.5t-101.5 -57.5l-67 144q68 49 138.5 74t145.5 25q155 0 238 -88.5t83 -250.5q0 -89 -18.5 -154t-56.5 -124t-96 -131q-43 -53 -66 -94.5t-31.5 -82
t-8.5 -93.5v-42h-148zM161 117q0 66 30 100.5t87 34.5q55 0 86.5 -32.5t31.5 -102.5q0 -68 -32.5 -101.5t-85.5 -33.5q-55 0 -86 34.5t-31 100.5z" />
    <glyph glyph-name="at" unicode="@" horiz-adv-x="1361" 
d="M1272 740q0 -121 -18.5 -215.5t-52.5 -160t-83 -99t-111 -33.5q-81 0 -124 47.5t-54 134.5h-10q-26 -93 -70 -137.5t-107 -44.5q-110 0 -169.5 98t-59.5 277q0 150 37 255.5t107.5 161t170.5 55.5q53 0 107.5 -10.5t101.5 -29.5l-16 -422q-1 -30 -3 -62.5t-2 -53.5
q0 -73 23 -106.5t63 -33.5q41 0 68.5 39.5t42 124t14.5 219.5q0 180 -50 317t-142.5 214t-221.5 76q-125 0 -215 -64t-147 -171.5t-84.5 -240.5t-27.5 -270q0 -184 46 -331.5t142.5 -233t245.5 -85.5q79 0 159 22t143 57v-135q-66 -35 -139.5 -52.5t-164.5 -17.5
q-185 0 -314 90t-195.5 260.5t-66.5 412.5q0 204 44.5 367t126.5 279t196 177.5t252 59.5q174 0 299 -97.5t192 -264t67 -373.5zM562 604q0 -122 26 -182.5t74 -60.5t73.5 78t34.5 255l14 256q-14 6 -30 7.5t-34 1.5q-49 0 -84.5 -41t-54.5 -120t-19 -194z" />
    <glyph glyph-name="A" unicode="A" horiz-adv-x="949" 
d="M747 0l-101 441h-342l-101 -441h-203l353 1462h236l360 -1462h-202zM613 612l-104 469q-7 39 -14 77.5t-12.5 74t-10.5 68.5q-3 -32 -8.5 -68t-12.5 -73.5t-16 -76.5l-101 -471h279z" />
    <glyph glyph-name="B" unicode="B" horiz-adv-x="995" 
d="M146 1462h336q199 0 301 -87.5t102 -264.5q0 -92 -24 -162t-70 -114t-113 -59v-9q81 -19 133 -64t77.5 -115.5t25.5 -166.5q0 -127 -45.5 -221.5t-131.5 -146.5t-209 -52h-382v1462zM336 842h144q111 0 161.5 62t50.5 185q0 104 -53.5 159t-161.5 55h-141v-461zM336 684
v-521h173q104 0 156.5 67t52.5 201q0 84 -27 140t-77 84.5t-122 28.5h-156z" />
    <glyph glyph-name="C" unicode="C" horiz-adv-x="927" 
d="M605 1315q-81 0 -140 -46t-96.5 -127.5t-55 -187t-17.5 -224.5q0 -182 39 -312t111 -199.5t170 -69.5q64 0 120.5 17.5t105.5 43.5v-171q-51 -30 -113.5 -44.5t-135.5 -14.5q-153 0 -264 89.5t-170.5 257.5t-59.5 405q0 157 31 293.5t93 240t155.5 161.5t217.5 58
q76 0 146.5 -19.5t135.5 -57.5l-63 -159q-48 31 -100 48.5t-110 17.5z" />
    <glyph glyph-name="D" unicode="D" horiz-adv-x="1072" 
d="M973 751q0 -246 -59.5 -413t-176.5 -252.5t-290 -85.5h-301v1462h316q167 0 281 -81t172 -239.5t58 -390.5zM776 742q0 184 -35.5 307t-106 184.5t-178.5 61.5h-120v-1126h106q174 0 254 143.5t80 429.5z" />
    <glyph glyph-name="E" unicode="E" horiz-adv-x="832" 
d="M742 0h-596v1462h596v-166h-406v-450h380v-167h-380v-509h406v-170z" />
    <glyph glyph-name="F" unicode="F" horiz-adv-x="791" 
d="M336 0h-190v1462h595v-166h-405v-509h381v-168h-381v-619z" />
    <glyph glyph-name="G" unicode="G" horiz-adv-x="1127" 
d="M625 780h393v-726q-93 -37 -191.5 -55.5t-199.5 -18.5q-180 0 -297 97t-174 267t-57 390q0 222 63 390.5t188.5 263.5t312.5 95q94 0 179 -24t158 -69l-63 -160q-67 43 -133.5 64t-136.5 21q-121 0 -203.5 -68t-124.5 -198.5t-42 -319.5q0 -167 35.5 -298.5t111.5 -206.5
t197 -75q53 0 101.5 8t90.5 22v435h-208v166z" />
    <glyph glyph-name="H" unicode="H" horiz-adv-x="1107" 
d="M963 0h-190v679h-437v-679h-190v1462h190v-613h437v613h190v-1462z" />
    <glyph glyph-name="I" unicode="I" horiz-adv-x="479" 
d="M146 0v1462h190v-1462h-190z" />
    <glyph glyph-name="J" unicode="J" horiz-adv-x="473" 
d="M34 -402q-37 0 -71.5 5t-65.5 17v168q25 -9 54 -15t60 -6q48 0 76.5 25t42 80.5t13.5 147.5v1442h189v-1451q0 -152 -34 -242.5t-100.5 -130.5t-163.5 -40z" />
    <glyph glyph-name="K" unicode="K" horiz-adv-x="937" 
d="M946 0h-211l-297 664l-102 -118v-546h-190v1462h190v-725q11 32 38 83.5t67 123.5l285 518h205l-363 -647z" />
    <glyph glyph-name="L" unicode="L" horiz-adv-x="773" 
d="M146 0v1462h190v-1292h403v-170h-593z" />
    <glyph glyph-name="M" unicode="M" horiz-adv-x="1487" 
d="M660 0l-339 1201h-8q4 -67 7 -121.5t4 -96.5t1 -71v-912h-179v1462h266l329 -1162h6l330 1162h267v-1462h-184v910q0 31 1.5 73.5t4 97t4.5 120.5h-7l-339 -1201h-164z" />
    <glyph glyph-name="N" unicode="N" horiz-adv-x="1181" 
d="M1037 0h-227l-489 1163h-8q4 -58 7 -110.5t4 -100t1 -91.5v-861h-179v1462h226l490 -1143h6q-3 61 -5.5 115t-4 101t-1.5 86v841h180v-1462z" />
    <glyph glyph-name="O" unicode="O" horiz-adv-x="1141" 
d="M1044 733q0 -161 -27 -298.5t-83 -239.5t-145.5 -158.5t-215.5 -56.5q-128 0 -218.5 58t-146.5 160.5t-82.5 240t-26.5 296.5q0 249 53.5 415.5t159 250t261.5 83.5q167 0 270.5 -97.5t152 -267t48.5 -386.5zM296 733q0 -191 31.5 -321t93 -195.5t150.5 -65.5
q91 0 152 64t91.5 194t30.5 324q0 290 -68 435.5t-204 145.5q-92 0 -153.5 -65.5t-92.5 -195t-31 -320.5z" />
    <glyph glyph-name="P" unicode="P" horiz-adv-x="923" 
d="M435 1462q217 0 321 -107t104 -327q0 -112 -26.5 -199t-80 -146.5t-134.5 -90.5t-190 -31h-93v-561h-190v1462h289zM426 1297h-90v-570h76q89 0 145.5 30t84 96.5t27.5 172.5q0 144 -59.5 207.5t-183.5 63.5z" />
    <glyph glyph-name="Q" unicode="Q" horiz-adv-x="1141" 
d="M1044 733q0 -186 -31 -327.5t-91.5 -236t-147.5 -141.5l224 -376h-222l-179 332q-6 -1 -17.5 -2t-20.5 -1q-123 0 -210.5 59t-142.5 163t-81 240.5t-26 291.5q0 249 53.5 415.5t159 250t262.5 83.5q151 0 256 -84t159.5 -251t54.5 -416zM296 733q0 -191 31 -321
t92.5 -195.5t151.5 -65.5q91 0 152 64t91.5 194t30.5 324q0 291 -68 436t-203 145q-93 0 -154.5 -65.5t-92.5 -195t-31 -320.5z" />
    <glyph glyph-name="R" unicode="R" horiz-adv-x="961" 
d="M419 1462q151 0 250 -45t147 -136.5t48 -230.5q0 -96 -23.5 -172t-72.5 -131.5t-127 -92.5l298 -654h-210l-258 606h-135v-606h-190v1462h273zM419 1295h-83v-533h101q113 0 173.5 69.5t60.5 209.5q0 133 -61 193.5t-191 60.5z" />
    <glyph glyph-name="S" unicode="S" horiz-adv-x="855" 
d="M781 406q0 -126 -49 -222t-137.5 -150t-207.5 -54q-58 0 -112 7t-103.5 21.5t-95.5 37.5v196q71 -42 152 -63.5t150 -21.5t115 31t70.5 83.5t24.5 116.5q0 67 -20.5 114t-68.5 87t-132 85q-64 36 -116 73.5t-89 84.5t-56.5 110.5t-19.5 150.5q-2 117 46 205t135 137
t201 48q85 0 163 -21.5t139 -53.5l-59 -172q-63 36 -123.5 53.5t-114.5 17.5q-62 0 -106 -26.5t-67 -72.5t-23 -106q0 -71 20.5 -117.5t69.5 -84.5t133 -84q94 -50 156.5 -108t93.5 -131.5t31 -170.5z" />
    <glyph glyph-name="T" unicode="T" horiz-adv-x="797" 
d="M492 0h-189v1293h-281v169h752v-169h-282v-1293z" />
    <glyph glyph-name="U" unicode="U" horiz-adv-x="1084" 
d="M949 1462v-999q0 -167 -46.5 -274t-136.5 -158t-223 -51q-199 0 -304 117.5t-105 363.5v1001h190v-999q0 -167 57 -239.5t163 -72.5q71 0 118.5 31t72 100t24.5 183v997h190z" />
    <glyph glyph-name="V" unicode="V" horiz-adv-x="927" 
d="M927 1462l-356 -1462h-219l-352 1462h198l214 -964q10 -43 19 -93t17 -100t14 -93q6 43 14 92.5t18 100t20 96.5l216 961h197z" />
    <glyph glyph-name="W" unicode="W" horiz-adv-x="1490" 
d="M1483 1462l-298 -1462h-223l-177 891q-3 23 -8 53.5t-10 68t-11 81.5t-12 95q-4 -35 -8 -72t-9.5 -75t-11 -75.5t-13.5 -73.5l-174 -893h-221l-300 1462h189l171 -878q10 -52 18.5 -102t16 -97.5t13.5 -89t9 -75.5q6 45 13 92.5t15 94.5t15.5 91t14.5 82l178 882h171
l173 -880q8 -40 15.5 -82.5t14.5 -87.5t14 -93.5t13 -99.5q7 64 16.5 127t19.5 123.5t21 114.5l174 878h191z" />
    <glyph glyph-name="X" unicode="X" horiz-adv-x="845" 
d="M835 0h-203l-202 580l-221 -580h-197l313 759l-278 703h196l187 -533l188 533h199l-279 -711z" />
    <glyph glyph-name="Y" unicode="Y" horiz-adv-x="832" 
d="M417 787l218 675h197l-322 -894v-568h-189v563l-321 899h197z" />
    <glyph glyph-name="Z" unicode="Z" horiz-adv-x="768" 
d="M726 0h-674v143l458 1151h-449v168h652v-144l-459 -1148h472v-170z" />
    <glyph glyph-name="bracketleft" unicode="[" horiz-adv-x="635" 
d="M575 -331h-435v1809h435v-149h-263v-1510h263v-150z" />
    <glyph glyph-name="backslash" unicode="\" horiz-adv-x="769" 
d="M201 1470l542 -1477h-170l-540 1477h168z" />
    <glyph glyph-name="bracketright" unicode="]" horiz-adv-x="635" 
d="M60 -181h264v1510h-264v149h436v-1809h-436v150z" />
    <glyph glyph-name="asciicircum" unicode="^" horiz-adv-x="928" 
d="M29 659l383 802h106l384 -802h-175l-262 565l-264 -565h-172z" />
    <glyph glyph-name="underscore" unicode="_" horiz-adv-x="907" 
d="M911 -307h-915v141h915v-141z" />
    <glyph glyph-name="grave" unicode="`" horiz-adv-x="561" 
d="M296 1568q22 -46 54.5 -103t66.5 -110t62 -90v-24h-121q-30 26 -69 65t-79 83t-73.5 86.5t-54.5 74.5v18h214z" />
    <glyph glyph-name="a" unicode="a" horiz-adv-x="868" 
d="M447 1124q155 0 225 -98t70 -286v-740h-136l-28 155h-5q-28 -57 -64.5 -96t-83.5 -59t-108 -20q-87 0 -142 46.5t-81 121.5t-26 161q0 166 95 256t269 98l129 7v68q0 122 -34.5 179t-110.5 57q-46 0 -98.5 -16.5t-113.5 -53.5l-55 137q65 42 141 62.5t157 20.5zM562 541
l-95 -6q-108 -6 -161 -61t-53 -159q0 -96 34 -142t95 -46q84 0 132 81.5t48 223.5v109z" />
    <glyph glyph-name="b" unicode="b" horiz-adv-x="959" 
d="M311 1556v-441q0 -32 -1.5 -73.5t-3.5 -90.5h7q42 86 103.5 128.5t140.5 42.5q155 0 237.5 -145.5t82.5 -422.5q0 -183 -37 -311.5t-108 -195.5t-173 -67q-80 0 -139.5 38t-106.5 122h-10l-26 -140h-148v1556h182zM509 963q-77 0 -120.5 -49.5t-60.5 -137t-17 -201.5v-49
q0 -199 50 -294.5t150 -95.5q90 0 135 102.5t45 317.5q0 202 -43.5 304.5t-138.5 102.5z" />
    <glyph glyph-name="c" unicode="c" horiz-adv-x="732" 
d="M462 -20q-126 0 -209.5 63t-125.5 188.5t-42 313.5q0 178 42 308t127 200.5t213 70.5q68 0 121.5 -14.5t100.5 -41.5l-55 -149q-40 22 -78.5 33t-75.5 11q-68 0 -114.5 -47t-70.5 -139.5t-24 -230.5q0 -134 23.5 -224.5t70.5 -136.5t117 -46q47 0 95.5 14.5t96.5 42.5
v-155q-45 -30 -103 -45.5t-109 -15.5z" />
    <glyph glyph-name="d" unicode="d" horiz-adv-x="959" 
d="M407 -20q-158 0 -240.5 147t-82.5 423q0 275 82.5 424.5t234.5 149.5q53 0 99 -20t83.5 -57t64.5 -91h8q-3 51 -4.5 90t-1.5 71v439h181v-1556h-145l-25 142h-11q-29 -52 -64.5 -88t-79 -55t-99.5 -19zM452 134q98 0 148 92.5t50 276.5v72q0 198 -48 293t-151 95
q-93 0 -137.5 -105.5t-44.5 -307.5q0 -205 44.5 -310.5t138.5 -105.5z" />
    <glyph glyph-name="e" unicode="e" horiz-adv-x="869" 
d="M447 1122q115 0 191.5 -64.5t114.5 -175t38 -250.5v-120h-526q2 -190 61 -284.5t179 -94.5q62 0 120.5 18t122.5 59v-159q-60 -36 -125.5 -53.5t-139.5 -17.5q-141 0 -229 72.5t-128.5 200.5t-40.5 293q0 185 41 313.5t121.5 195.5t199.5 67zM448 975q-81 0 -127.5 -78
t-53.5 -244h354q0 89 -18.5 162.5t-57 116.5t-97.5 43z" />
    <glyph glyph-name="f" unicode="f" horiz-adv-x="534" 
d="M507 951h-174v-951h-182v951h-133v98l133 58v65q0 129 23.5 217t79.5 133t153 45q48 0 88 -8.5t85 -26.5l-44 -143q-28 9 -52.5 14.5t-49.5 5.5q-57 0 -78.5 -50t-22.5 -180v-75h174v-153z" />
    <glyph glyph-name="g" unicode="g" horiz-adv-x="827" 
d="M364 -492q-164 0 -257 80.5t-93 226.5q0 109 54.5 180.5t141.5 95.5q-43 20 -71 61t-28 96q0 58 27 103t76 87q-64 39 -101.5 124t-37.5 192q0 114 38.5 196.5t111 127.5t174.5 45q32 0 56 -3t42.5 -8.5t33.5 -11.5h285v-115l-144 -20q26 -43 38 -96.5t12 -110.5
q0 -171 -84.5 -268.5t-238.5 -97.5q-47 0 -74 9q-24 -22 -43 -51.5t-19 -72.5q0 -28 13 -48.5t39 -31.5t64 -11h165q126 0 194 -72t68 -219q0 -185 -113.5 -286t-328.5 -101zM378 -351q85 0 142 25t85.5 75t28.5 124q0 60 -19 92t-55 43.5t-90 11.5h-135q-42 0 -76 -19
t-54 -60.5t-20 -110.5q0 -89 52 -135t141 -46zM400 524q66 0 102.5 59t36.5 172q0 120 -37 178.5t-104 58.5q-66 0 -102.5 -62t-36.5 -177q0 -110 35 -169.5t106 -59.5z" />
    <glyph glyph-name="h" unicode="h" horiz-adv-x="949" 
d="M311 1556v-425q0 -48 -3 -93t-10 -86h12q21 53 56.5 91.5t82 59.5t101.5 21q93 0 153.5 -43.5t90 -128t29.5 -208.5v-744h-182v703q0 137 -32 197t-103 60q-67 0 -110.5 -41.5t-64 -129t-20.5 -223.5v-566h-182v1556h182z" />
    <glyph glyph-name="i" unicode="i" horiz-adv-x="443" 
d="M313 1104v-1104h-182v1104h182zM224 1523q54 0 79 -32.5t25 -90.5t-26.5 -90t-77.5 -32q-50 0 -78 32t-28 90q0 60 26.5 91.5t79.5 31.5z" />
    <glyph glyph-name="j" unicode="j" horiz-adv-x="443" 
d="M76 -492q-31 0 -58 5t-50 14v160q18 -7 37 -11.5t36 -4.5q49 0 69.5 41t20.5 128v1264h182v-1268q0 -112 -27.5 -184.5t-80.5 -107.5t-129 -36zM118 1400q0 60 26.5 91.5t79.5 31.5t78.5 -32.5t25.5 -90.5t-26.5 -90t-77.5 -32q-50 0 -78 32t-28 90z" />
    <glyph glyph-name="k" unicode="k" horiz-adv-x="842" 
d="M311 1556v-752q0 -61 -2 -119.5t-7 -116.5h7q17 36 35 69t37 63l242 404h196l-271 -431l289 -673h-196l-217 530l-113 -135v-395h-182v1556h182z" />
    <glyph glyph-name="l" unicode="l" horiz-adv-x="439" 
d="M311 0h-182v1556h182v-1556z" />
    <glyph glyph-name="m" unicode="m" horiz-adv-x="1418" 
d="M1031 1124q132 0 196.5 -95t64.5 -290v-739h-182v700q0 139 -34 200.5t-100 61.5q-95 0 -135 -91t-40 -267v-604h-181v702q0 94 -14.5 151t-44 83t-75.5 26q-69 0 -107 -48.5t-53 -135.5t-15 -203v-575h-182v1104h145l21 -153h11q21 55 55 93.5t81 59t105 20.5
q96 0 151 -50t74 -126h13q38 89 96 132.5t150 43.5z" />
    <glyph glyph-name="n" unicode="n" horiz-adv-x="949" 
d="M551 1124q133 0 202.5 -94t69.5 -284v-746h-182v704q0 129 -32 193.5t-104 64.5q-102 0 -148 -92.5t-46 -301.5v-568h-182v1104h145l20 -155h12q23 54 59 93t83 60.5t103 21.5z" />
    <glyph glyph-name="o" unicode="o" horiz-adv-x="926" 
d="M843 553q0 -126 -22.5 -231t-69 -181.5t-118.5 -118.5t-172 -42q-94 0 -165 41.5t-118 117.5t-70.5 181.5t-23.5 232.5q0 179 40.5 306.5t124.5 196t216 68.5q120 0 204.5 -65t129 -192t44.5 -314zM269 552q0 -136 20.5 -228.5t64 -139t111.5 -46.5q67 0 109.5 45.5
t63 138t20.5 231.5q0 137 -20.5 229t-63 138t-110.5 46q-103 0 -149 -103t-46 -311z" />
    <glyph glyph-name="p" unicode="p" horiz-adv-x="959" 
d="M554 1124q158 0 240.5 -144t82.5 -427q0 -183 -37 -310.5t-107.5 -195t-170.5 -67.5q-55 0 -102.5 20.5t-84.5 59.5t-63 93h-8q3 -46 5 -85.5t2 -72.5v-485h-182v1594h148l24 -158h10q30 62 66 101.5t80 58t97 18.5zM508 968q-66 0 -109.5 -41.5t-65.5 -126t-22 -213.5
v-54q0 -134 22 -221.5t66.5 -130t109.5 -42.5q60 0 101 44t61 135t20 233q0 208 -42.5 312.5t-140.5 104.5z" />
    <glyph glyph-name="q" unicode="q" horiz-adv-x="959" 
d="M649 -490v456q0 32 2.5 81t6.5 112h-9q-43 -90 -104.5 -134.5t-143.5 -44.5q-151 0 -234 145t-83 421q0 189 38.5 317.5t111.5 194.5t174 66q81 0 139 -40.5t101 -130.5h11l18 151h154v-1594h-182zM455 139q63 0 106.5 41t65.5 121t22 199v67q0 205 -48 300.5t-151 95.5
q-92 0 -136.5 -107t-44.5 -312q0 -211 46.5 -308t139.5 -97z" />
    <glyph glyph-name="r" unicode="r" horiz-adv-x="638" 
d="M526 1123q23 0 45.5 -3.5t48.5 -11.5l-24 -189q-19 8 -39.5 11t-45.5 3q-45 0 -82 -27.5t-63.5 -76.5t-40.5 -114.5t-13 -142.5v-572h-182v1104h141l25 -193h11q23 61 54.5 108.5t73 75.5t91.5 28z" />
    <glyph glyph-name="s" unicode="s" horiz-adv-x="708" 
d="M644 300q0 -103 -37.5 -174.5t-109 -108.5t-173.5 -37q-77 0 -142.5 17.5t-114.5 44.5v184q46 -36 112.5 -60.5t135.5 -24.5q71 0 110 39.5t39 111.5q0 42 -16 74t-53 62.5t-101 66.5q-68 41 -119.5 87t-80 105.5t-28.5 142.5q0 133 85.5 213.5t228.5 80.5
q72 0 136.5 -19t123.5 -56l-62 -144q-44 30 -92.5 48t-100.5 18q-67 0 -105 -36.5t-38 -98.5q0 -42 15.5 -72t53.5 -59.5t104 -69.5q68 -42 119.5 -87t80.5 -104t29 -144z" />
    <glyph glyph-name="t" unicode="t" horiz-adv-x="552" 
d="M416 140q26 0 52.5 6t52.5 18v-148q-34 -17 -74 -26.5t-88 -9.5q-77 0 -126.5 33.5t-72.5 101t-23 169.5v668h-104v98l114 49l47 250h125v-245h190v-152h-190v-652q0 -80 20.5 -120t76.5 -40z" />
    <glyph glyph-name="u" unicode="u" horiz-adv-x="949" 
d="M820 1104v-1104h-145l-20 153h-12q-23 -54 -58.5 -92.5t-81.5 -59.5t-103 -21q-97 0 -157.5 48.5t-88.5 138t-28 213.5v724h182v-682q0 -143 32 -211t99 -68q75 0 118 41.5t62 125t19 210.5v584h182z" />
    <glyph glyph-name="v" unicode="v" horiz-adv-x="783" 
d="M290 0l-282 1104h187l145 -649q14 -59 25 -121t20 -129h8q5 40 14.5 95.5t25.5 122.5l155 681h188l-286 -1104h-200z" />
    <glyph glyph-name="w" unicode="w" horiz-adv-x="1264" 
d="M796 0l-124 652q-5 29 -10 61t-9.5 64t-9 63.5t-8.5 60.5h-5q-4 -31 -8.5 -63.5t-9.5 -64.5t-10 -62.5t-10 -58.5l-131 -652h-208l-236 1104h182l107 -537q11 -54 20.5 -112.5t18 -117t15.5 -116.5h6q5 36 10.5 75t11.5 81.5t14 88t18 93.5l111 545h205l109 -549
q9 -43 17.5 -96t17.5 -113t18 -125h6q3 35 8.5 75t12.5 85.5t16 94.5l128 628h178l-241 -1104h-210z" />
    <glyph glyph-name="x" unicode="x" horiz-adv-x="786" 
d="M286 568l-245 536h196l159 -390l160 390h194l-245 -543l256 -561h-194l-176 415l-173 -415h-191z" />
    <glyph glyph-name="y" unicode="y" horiz-adv-x="787" 
d="M11 1104h189l149 -617q9 -41 17 -80.5t15 -78t12 -75.5h8q7 53 18.5 110.5t27.5 123.5l144 617h188l-328 -1263q-31 -117 -73 -190.5t-98.5 -108t-133.5 -34.5q-26 0 -52 5t-54 12v162q19 -7 39.5 -11t39.5 -4q39 0 65.5 18.5t47.5 63t42 123.5l33 132z" />
    <glyph glyph-name="z" unicode="z" horiz-adv-x="643" 
d="M600 0h-551v121l337 827h-315v156h515v-130l-331 -820h345v-154z" />
    <glyph glyph-name="braceleft" unicode="{" horiz-adv-x="741" 
d="M659 -331q-130 1 -213 34.5t-122.5 105t-39.5 186.5v304q0 68 -19.5 112.5t-64.5 65.5t-123 21v142q71 0 117 18.5t68 62t22 118.5v307q0 110 37 180.5t119.5 106t218.5 37.5v-147q-66 -2 -110.5 -20t-66.5 -58t-22 -109v-309q0 -114 -42.5 -175t-142.5 -78v-9
q103 -19 144 -81.5t41 -171.5v-308q0 -65 20 -106t64 -60.5t115 -20.5v-148z" />
    <glyph glyph-name="bar" unicode="|" horiz-adv-x="829" 
d="M331 1566h167v-2049h-167v2049z" />
    <glyph glyph-name="braceright" unicode="}" horiz-adv-x="741" 
d="M79 -331v148q72 1 116 20t64 60t20 107v308q0 112 42.5 173t141.5 80v9q-99 17 -141.5 78.5t-42.5 174.5v309q0 69 -23.5 109t-68 58t-108.5 20v147q130 -2 213 -35.5t123 -104t40 -184.5v-307q0 -66 18.5 -110.5t64 -66.5t123.5 -22v-142q-74 0 -119.5 -20t-66 -64
t-20.5 -115v-304q0 -110 -37 -181.5t-119.5 -107.5t-219.5 -37z" />
    <glyph glyph-name="asciitilde" unicode="~" horiz-adv-x="898" 
d="M428 648q-48 27 -92 42t-84 15q-46 0 -95.5 -31.5t-97.5 -88.5v170q42 50 92 76.5t113 26.5q57 0 105 -17t102 -45q52 -27 94 -41t82 -14q47 0 98.5 32.5t93.5 85.5v-170q-40 -47 -91.5 -73t-111.5 -26t-105.5 15t-102.5 43z" />
    <glyph glyph-name="uni00A0" unicode="&#xa0;" horiz-adv-x="377" 
 />
    <glyph glyph-name="exclamdown" unicode="&#xa1;" horiz-adv-x="486" 
d="M171 669h143l37 -1052h-218zM363 977q0 -70 -31.5 -103.5t-86.5 -33.5q-58 0 -87 34.5t-29 102.5q0 64 29 100t87 36q53 0 85.5 -34t32.5 -102z" />
    <glyph glyph-name="cent" unicode="&#xa2;" horiz-adv-x="897" 
d="M568 1483v-164q51 -4 97.5 -18t84.5 -37l-53 -151q-39 23 -79.5 34t-72.5 11q-73 0 -120 -46t-69.5 -138t-22.5 -231t23 -229t69 -133.5t118 -43.5q46 0 96 15.5t98 42.5v-157q-32 -21 -75 -36t-93 -22v-200h-114v202q-105 13 -173 83t-101.5 191t-33.5 286t34 287
t101.5 195t170.5 89v170h115z" />
    <glyph glyph-name="sterling" unicode="&#xa3;" horiz-adv-x="892" 
d="M544 1483q73 0 137 -21t123 -64l-64 -147q-53 34 -97 49t-88 15q-73 0 -105.5 -53t-32.5 -171v-283h252v-144h-252v-222q0 -64 -14.5 -115.5t-42.5 -90.5t-71 -66h525v-170h-724v158q46 23 77.5 60.5t47.5 92.5t16 130v223h-147v144h147v284q0 129 34.5 216t104.5 131
t174 44z" />
    <glyph glyph-name="currency" unicode="&#xa4;" horiz-adv-x="1128" 
d="M167 723q0 63 19 120t56 109l-135 137l92 89l132 -136q51 39 109 58t122 19t121.5 -18.5t109.5 -57.5l134 135l92 -88l-134 -136q37 -50 55.5 -108t18.5 -123q0 -64 -18.5 -122.5t-55.5 -110.5l133 -134l-90 -89l-135 134q-52 -37 -110 -55t-121 -18q-67 0 -125 18.5
t-107 56.5l-131 -134l-90 90l133 133q-38 52 -56.5 109.5t-18.5 121.5zM293 723q0 -75 36 -137t97.5 -98t136.5 -36q79 0 140.5 36.5t97 98.5t35.5 136t-37.5 136t-99.5 100t-137 38q-73 0 -134.5 -37t-98 -99t-36.5 -138z" />
    <glyph glyph-name="yen" unicode="&#xa5;" horiz-adv-x="894" 
d="M446 796l184 666h194l-253 -771h203v-128h-236v-172h236v-129h-236v-262h-187v262h-233v129h233v172h-233v128h197l-250 771h192z" />
    <glyph glyph-name="brokenbar" unicode="&#xa6;" horiz-adv-x="829" 
d="M331 1555h167v-802h-167v802zM331 319h167v-803h-167v803z" />
    <glyph glyph-name="section" unicode="&#xa7;" horiz-adv-x="772" 
d="M82 829q0 79 40 138.5t110 94.5q-65 48 -98 105t-33 126q0 124 87 194t219 70q72 0 131 -16t121 -50l-56 -129q-53 32 -99.5 47.5t-93.5 15.5q-69 0 -108 -34.5t-39 -92.5q0 -43 19.5 -74t57 -56.5t90.5 -55.5q82 -42 136.5 -84.5t83 -95t28.5 -125.5q0 -79 -33 -142
t-90 -101q61 -49 88.5 -104t27.5 -123q0 -133 -89.5 -212t-239.5 -79q-77 0 -141.5 17.5t-116.5 51.5v153q32 -25 75.5 -45t90 -31t88.5 -11q79 0 125 41.5t46 105.5q0 48 -19.5 79t-62.5 59.5t-117 70.5q-82 45 -132.5 87.5t-73 91t-22.5 113.5zM235 851q0 -40 17.5 -70.5
t50 -56.5t76.5 -52l74 -40q35 24 53.5 61t18.5 86q0 47 -15 79.5t-55.5 64t-118.5 74.5q-48 -18 -74.5 -56t-26.5 -90z" />
    <glyph glyph-name="dieresis" unicode="&#xa8;" horiz-adv-x="1054" 
d="M263 1374q0 55 26.5 81.5t66.5 26.5q41 0 67 -27.5t26 -80.5q0 -54 -26 -82t-67 -28q-40 0 -66.5 27.5t-26.5 82.5zM601 1374q0 55 27 81.5t68 26.5t68 -27.5t27 -80.5q0 -54 -27 -82t-68 -28q-42 0 -68.5 28t-26.5 82z" />
    <glyph glyph-name="copyright" unicode="&#xa9;" horiz-adv-x="1698" 
d="M846 -20q-172 0 -311 58.5t-237 162t-150.5 239t-52.5 291.5q0 168 58 306t161.5 238t240.5 154t295 54q166 0 304 -57.5t238.5 -159.5t155.5 -239.5t55 -296.5q0 -163 -56.5 -300.5t-158.5 -238t-240 -156t-302 -55.5zM881 274q-196 0 -304.5 118t-108.5 336
q0 142 50 245t143.5 158.5t224.5 55.5q69 0 135.5 -15.5t130.5 -45.5l-57 -119q-52 25 -103 36.5t-99 11.5q-126 0 -196.5 -83.5t-70.5 -240.5q0 -168 67.5 -247t199.5 -79q51 0 108 13t114 39v-132q-55 -25 -114 -38t-120 -13zM850 90q141 0 257 49t200 135.5t129.5 203
t45.5 252.5q0 141 -47.5 258.5t-133 203.5t-201 133t-251.5 47q-142 0 -258.5 -49t-200 -136.5t-129.5 -204.5t-46 -252q0 -144 48 -261t134.5 -202t202 -131t250.5 -46z" />
    <glyph glyph-name="ordfeminine" unicode="&#xaa;" horiz-adv-x="626" 
d="M320 1479q106 0 156.5 -59.5t50.5 -177.5v-453h-95l-23 104q-33 -57 -78.5 -86.5t-109.5 -29.5q-52 0 -90 27t-59 73.5t-21 103.5q0 73 30.5 117.5t88.5 67t139 28.5l82 6v49q0 61 -21.5 89.5t-73.5 28.5q-39 0 -76 -12.5t-78 -34.5l-40 100q52 29 105 44t113 15z
M391 1110l-60 -6q-76 -6 -110 -33.5t-34 -85.5q0 -49 21.5 -73.5t62.5 -24.5q57 0 88.5 47.5t31.5 127.5v48z" />
    <glyph glyph-name="guillemotleft" unicode="&#xab;" horiz-adv-x="964" 
d="M69 562l298 406l128 -66l-218 -354l218 -350l-128 -70l-298 406v28zM469 562l299 406l126 -66l-216 -354l217 -350l-127 -70l-299 406v28z" />
    <glyph glyph-name="logicalnot" unicode="&#xac;" horiz-adv-x="898" 
d="M818 799v-554h-155v401h-599v153h754z" />
    <glyph glyph-name="uni00AD" unicode="&#xad;" horiz-adv-x="576" 
d="M56 463v179h464v-179h-464z" />
    <glyph glyph-name="registered" unicode="&#xae;" horiz-adv-x="1698" 
d="M572 300v877h248q157 0 241 -63.5t84 -195.5q0 -89 -37 -148.5t-112 -91.5l197 -378h-169l-167 345h-131v-345h-154zM724 760h87q80 0 127.5 36.5t47.5 114.5q0 74 -42.5 107.5t-130.5 33.5h-89v-292zM846 -20q-172 0 -311 58.5t-237 162t-150.5 239t-52.5 291.5
q0 168 58 306t161.5 238t240.5 154t295 54q166 0 304 -57.5t238.5 -159.5t155.5 -239.5t55 -296.5q0 -163 -56.5 -300.5t-158.5 -238t-240 -156t-302 -55.5zM850 90q141 0 257 49t200 135.5t129.5 203t45.5 252.5q0 141 -47.5 258.5t-133 203.5t-201 133t-251.5 47
q-142 0 -258.5 -49t-200 -136.5t-129.5 -204.5t-46 -252q0 -144 48 -261t134.5 -202t202 -131t250.5 -46z" />
    <glyph glyph-name="overscore" unicode="&#xaf;" horiz-adv-x="903" 
d="M910 1556h-917v143h917v-143z" />
    <glyph glyph-name="degree" unicode="&#xb0;" horiz-adv-x="745" 
d="M371 924q-81 0 -146 34t-101.5 97t-36.5 148t37.5 147.5t102 97t144.5 34.5q83 0 147.5 -34.5t102 -97t37.5 -147.5q0 -86 -38 -148.5t-103 -96.5t-146 -34zM373 1038q72 0 115.5 45t43.5 120q0 73 -42.5 118.5t-116.5 45.5q-78 0 -119.5 -47.5t-41.5 -116.5
q0 -77 45 -121t116 -44z" />
    <glyph glyph-name="plusminus" unicode="&#xb1;" horiz-adv-x="898" 
d="M64 0v152h768v-152h-768zM526 846h306v-152h-306v-405h-154v405h-309v152h309v408h154v-408z" />
    <glyph glyph-name="uni00B2" unicode="&#xb2;" horiz-adv-x="649" 
d="M565 850h-510v123l181 222q55 67 91 117.5t54 95.5t18 96t-30.5 83.5t-86.5 32.5q-42 0 -81 -20.5t-76 -62.5l-73 95q43 53 106 84.5t139 31.5q119 0 184.5 -64.5t65.5 -169.5q0 -73 -25 -134t-78.5 -128.5t-137.5 -162.5l-91 -114h350v-125z" />
    <glyph glyph-name="uni00B3" unicode="&#xb3;" horiz-adv-x="649" 
d="M294 1746q114 0 181 -58.5t67 -163.5q0 -76 -36 -129t-102 -80v-8q81 -24 122 -79t41 -144q0 -116 -81.5 -182.5t-212.5 -66.5q-58 0 -111.5 12.5t-102.5 38.5v141q48 -32 101 -47.5t113 -15.5q78 0 115 36t37 95q0 73 -42.5 110t-129.5 37h-73v118h67q77 0 117 38.5
t40 103.5q0 55 -31.5 86t-92.5 31q-43 0 -81.5 -17t-78.5 -55l-68 99q54 49 114 74.5t128 25.5z" />
    <glyph glyph-name="acute" unicode="&#xb4;" horiz-adv-x="561" 
d="M479 1568v-18q-21 -32 -54 -73t-72 -84t-78.5 -83t-71.5 -69h-121v24q39 55 72 107t60.5 101t49.5 95h215z" />
    <glyph glyph-name="uni00B5" unicode="&#xb5;" horiz-adv-x="952" 
d="M823 1104v-1104h-145l-20 155h-11q-18 -53 -48 -92.5t-68 -61t-81 -21.5q-50 0 -84.5 24t-56.5 74h-6q2 -36 4 -71t3 -69t1 -64v-364h-182v1594h182v-695q0 -132 32 -199t99 -67q75 0 118 45.5t62 133t19 213.5v569h182z" />
    <glyph glyph-name="paragraph" unicode="&#xb6;" horiz-adv-x="989" 
d="M827 -260h-122v1699h-137v-1699h-120v833q-18 -9 -37 -13.5t-43 -4.5q-85 0 -141 55t-83 165t-27 275q0 167 30.5 279.5t95 169.5t166.5 57h418v-1816z" />
    <glyph glyph-name="periodcentered" unicode="&#xb7;" horiz-adv-x="470" 
d="M118 718q0 66 30 100.5t88 34.5q55 0 86 -32.5t31 -102.5q0 -69 -32 -102t-85 -33q-55 0 -86.5 34.5t-31.5 100.5z" />
    <glyph glyph-name="cedilla" unicode="&#xb8;" horiz-adv-x="399" 
d="M375 -279q0 -102 -64 -157.5t-179 -55.5q-38 0 -69 4t-54 10v116q22 -6 46 -9t47 -3q62 0 93.5 26.5t31.5 70.5q0 52 -42 78.5t-114 35.5l70 163h105l-44 -99q56 -11 94.5 -35t58.5 -60.5t20 -84.5z" />
    <glyph glyph-name="uni00B9" unicode="&#xb9;" horiz-adv-x="649" 
d="M453 1726v-876h-143v517q0 32 1 63.5t2.5 64t4.5 65.5q-15 -16 -28.5 -27t-24.5 -19l-116 -89l-73 97l259 204h118z" />
    <glyph glyph-name="ordmasculine" unicode="&#xba;" horiz-adv-x="648" 
d="M587 1130q0 -167 -67.5 -260.5t-193.5 -93.5q-129 0 -198 94.5t-69 259.5t71.5 257t196.5 92q81 0 139.5 -40t89.5 -117.5t31 -191.5zM201 1129q0 -121 30.5 -178.5t92.5 -57.5q67 0 96.5 58t29.5 178q0 119 -29.5 176.5t-95.5 57.5q-59 0 -91.5 -57t-32.5 -177z" />
    <glyph glyph-name="guillemotright" unicode="&#xbb;" horiz-adv-x="963" 
d="M896 534l-300 -406l-127 70l217 350l-217 354l127 66l300 -406v-28zM499 534l-301 -406l-126 70l215 350l-215 354l126 66l301 -406v-28z" />
    <glyph glyph-name="onequarter" unicode="&#xbc;" horiz-adv-x="1491" 
d="M325 0l741 1462h154l-742 -1462h-153zM291 586v518q0 32 1 63.5t2.5 64t4.5 65.5q-16 -16 -29.5 -27.5t-23.5 -20.5l-116 -86l-73 95l258 204h120v-876h-144zM1214 0v185h-332v106l325 590h145v-576h106v-120h-106v-185h-138zM1013 305h201v250q0 48 0.5 86t2.5 64
q-8 -23 -19 -48t-26 -55z" />
    <glyph glyph-name="onehalf" unicode="&#xbd;" horiz-adv-x="1550" 
d="M299 0l740 1462h154l-742 -1462h-152zM291 586v518q0 24 0.5 48t1.5 48t2.5 48.5t3.5 48.5q-16 -16 -29.5 -27.5t-23.5 -20.5l-116 -86l-73 95l258 204h120v-876h-144zM955 0v125l182 217q56 67 92.5 117t54 95.5t17.5 96.5q0 53 -30.5 86t-88.5 33q-42 0 -80.5 -20.5
t-76.5 -63.5l-73 96q43 53 106 84.5t138 31.5q120 0 185.5 -64.5t65.5 -168.5q0 -74 -23.5 -132.5t-65.5 -115t-100 -124.5l-143 -167h351v-126h-511z" />
    <glyph glyph-name="threequarters" unicode="&#xbe;" horiz-adv-x="1515" 
d="M348 0l740 1462h155l-743 -1462h-152zM272 570q-58 0 -112 13t-102 40v139q47 -30 100.5 -46t112.5 -16q79 0 115.5 35.5t36.5 94.5q0 74 -42.5 111.5t-129.5 37.5h-73v118h67q77 0 117.5 38.5t40.5 103.5q0 55 -31.5 86.5t-92.5 31.5q-44 0 -82 -18.5t-79 -55.5l-68 99
q55 50 115 75.5t127 25.5q113 0 180.5 -58.5t67.5 -164.5q0 -75 -36 -128.5t-101 -80.5v-9q80 -22 121.5 -77t41.5 -144q0 -116 -82.5 -183.5t-211.5 -67.5zM1236 0v185h-331v106l325 590h145v-576h107v-120h-107v-185h-139zM1036 305h200v250q0 48 1 86t4 64
q-8 -23 -19.5 -48t-27.5 -55z" />
    <glyph glyph-name="questiondown" unicode="&#xbf;" horiz-adv-x="668" 
d="M467 669v-62q0 -70 -10.5 -125t-35 -104.5t-67.5 -103.5q-47 -59 -76 -107t-42.5 -96.5t-13.5 -107.5q0 -94 40 -141t112 -47q56 0 104.5 19.5t101.5 57.5l66 -144q-67 -49 -137.5 -74t-145.5 -25q-156 0 -239 88.5t-83 250.5q0 89 19 154t57 124.5t95 130.5
q44 53 66.5 94.5t31 82.5t8.5 93v42h149zM508 975q0 -66 -30 -100.5t-88 -34.5q-55 0 -86 32.5t-31 102.5q0 69 32 102t85 33q56 0 87 -34.5t31 -100.5z" />
    <glyph glyph-name="Agrave" unicode="&#xc0;" horiz-adv-x="949" 
d="M747 0l-101 441h-342l-101 -441h-203l353 1462h236l360 -1462h-202zM613 612l-104 469q-7 39 -14 77.5t-12.5 74t-10.5 68.5q-3 -32 -8.5 -68t-12.5 -73.5t-16 -76.5l-101 -471h279zM374 1904q22 -46 54.5 -103t66.5 -110t62 -90v-24h-121q-30 26 -69 65t-79 83
t-73.5 86.5t-54.5 74.5v18h214z" />
    <glyph glyph-name="Aacute" unicode="&#xc1;" horiz-adv-x="949" 
d="M747 0l-101 441h-342l-101 -441h-203l353 1462h236l360 -1462h-202zM613 612l-104 469q-7 39 -14 77.5t-12.5 74t-10.5 68.5q-3 -32 -8.5 -68t-12.5 -73.5t-16 -76.5l-101 -471h279zM761 1904v-18q-21 -32 -54 -73t-72 -84t-78.5 -83t-71.5 -69h-121v24q39 55 72 107
t60.5 101t49.5 95h215z" />
    <glyph glyph-name="Acircumflex" unicode="&#xc2;" horiz-adv-x="949" 
d="M747 0l-101 441h-342l-101 -441h-203l353 1462h236l360 -1462h-202zM613 612l-104 469q-7 39 -14 77.5t-12.5 74t-10.5 68.5q-3 -32 -8.5 -68t-12.5 -73.5t-16 -76.5l-101 -471h279zM556 1904q22 -45 54 -99t67.5 -107.5t68.5 -98.5v-22h-104q-41 39 -83.5 88t-88.5 104
q-45 -54 -89.5 -106t-80.5 -86h-105v22q35 46 70.5 100.5t67 108.5t51.5 96h172z" />
    <glyph glyph-name="Atilde" unicode="&#xc3;" horiz-adv-x="949" 
d="M747 0l-101 441h-342l-101 -441h-203l353 1462h236l360 -1462h-202zM613 612l-104 469q-7 39 -14 77.5t-12.5 74t-10.5 68.5q-3 -32 -8.5 -68t-12.5 -73.5t-16 -76.5l-101 -471h279zM168 1577q4 48 14.5 94.5t29.5 83t50.5 58.5t75.5 22q39 0 73.5 -17.5t67.5 -40
t63.5 -40t60.5 -17.5q31 0 47 31.5t24 85.5h110q-6 -125 -52.5 -191.5t-115.5 -66.5q-38 0 -75 17.5t-70.5 41t-63 41t-54.5 17.5q-27 0 -47.5 -30.5t-29.5 -88.5h-108z" />
    <glyph glyph-name="Adieresis" unicode="&#xc4;" horiz-adv-x="949" 
d="M747 0l-101 441h-342l-101 -441h-203l353 1462h236l360 -1462h-202zM613 612l-104 469q-7 39 -14 77.5t-12.5 74t-10.5 68.5q-3 -32 -8.5 -68t-12.5 -73.5t-16 -76.5l-101 -471h279zM210 1710q0 55 26.5 81.5t66.5 26.5q41 0 67 -27.5t26 -80.5q0 -54 -26 -82t-67 -28
q-40 0 -66.5 27.5t-26.5 82.5zM548 1710q0 55 27 81.5t68 26.5t68 -27.5t27 -80.5q0 -54 -27 -82t-68 -28q-42 0 -68.5 28t-26.5 82z" />
    <glyph glyph-name="Aring" unicode="&#xc5;" horiz-adv-x="949" 
d="M747 0l-101 441h-342l-101 -441h-203l353 1462h236l360 -1462h-202zM613 612l-104 469q-7 39 -14 77.5t-12.5 74t-10.5 68.5q-3 -32 -8.5 -68t-12.5 -73.5t-16 -76.5l-101 -471h279zM474 1364q-100 0 -159 58t-59 152q0 95 59 153t159 58q95 0 156.5 -57.5t61.5 -150.5
q0 -95 -59.5 -154t-158.5 -59zM476 1471q47 0 77 28t30 75t-28.5 77t-78.5 30q-48 0 -78.5 -30t-30.5 -76q0 -47 27.5 -75.5t81.5 -28.5z" />
    <glyph glyph-name="AE" unicode="&#xc6;" horiz-adv-x="1293" 
d="M1200 0h-601v441h-272l-125 -441h-206l440 1462h764v-168h-412v-448h386v-167h-386v-509h412v-170zM372 612h229v680h-36z" />
    <glyph glyph-name="Ccedilla" unicode="&#xc7;" horiz-adv-x="927" 
d="M605 1315q-81 0 -140 -46t-96.5 -127.5t-55 -187t-17.5 -224.5q0 -182 39 -312t111 -199.5t170 -69.5q64 0 120.5 17.5t105.5 43.5v-171q-51 -30 -113.5 -44.5t-135.5 -14.5q-153 0 -264 89.5t-170.5 257.5t-59.5 405q0 157 31 293.5t93 240t155.5 161.5t217.5 58
q76 0 146.5 -19.5t135.5 -57.5l-63 -159q-48 31 -100 48.5t-110 17.5zM735 -279q0 -102 -64 -157.5t-179 -55.5q-38 0 -69 4t-54 10v116q22 -6 46 -9t47 -3q62 0 93.5 26.5t31.5 70.5q0 52 -42 78.5t-114 35.5l70 163h105l-44 -99q56 -11 94.5 -35t58.5 -60.5t20 -84.5z" />
    <glyph glyph-name="Egrave" unicode="&#xc8;" horiz-adv-x="832" 
d="M742 0h-596v1462h596v-166h-406v-450h380v-167h-380v-509h406v-170zM363 1904q22 -46 54.5 -103t66.5 -110t62 -90v-24h-121q-30 26 -69 65t-79 83t-73.5 86.5t-54.5 74.5v18h214z" />
    <glyph glyph-name="Eacute" unicode="&#xc9;" horiz-adv-x="832" 
d="M742 0h-596v1462h596v-166h-406v-450h380v-167h-380v-509h406v-170zM728 1904v-18q-21 -32 -54 -73t-72 -84t-78.5 -83t-71.5 -69h-121v24q39 55 72 107t60.5 101t49.5 95h215z" />
    <glyph glyph-name="Ecircumflex" unicode="&#xca;" horiz-adv-x="832" 
d="M742 0h-596v1462h596v-166h-406v-450h380v-167h-380v-509h406v-170zM528 1904q22 -45 54 -99t67.5 -107.5t68.5 -98.5v-22h-104q-41 39 -83.5 88t-88.5 104q-45 -54 -89.5 -106t-80.5 -86h-105v22q35 46 70.5 100.5t67 108.5t51.5 96h172z" />
    <glyph glyph-name="Edieresis" unicode="&#xcb;" horiz-adv-x="832" 
d="M742 0h-596v1462h596v-166h-406v-450h380v-167h-380v-509h406v-170zM175 1710q0 55 26.5 81.5t66.5 26.5q41 0 67 -27.5t26 -80.5q0 -54 -26 -82t-67 -28q-40 0 -66.5 27.5t-26.5 82.5zM513 1710q0 55 27 81.5t68 26.5t68 -27.5t27 -80.5q0 -54 -27 -82t-68 -28
q-42 0 -68.5 28t-26.5 82z" />
    <glyph glyph-name="Igrave" unicode="&#xcc;" horiz-adv-x="479" 
d="M146 0v1462h190v-1462h-190zM168 1913q22 -46 54.5 -103t66.5 -110t62 -90v-24h-121q-30 26 -69 65t-79 83t-73.5 86.5t-54.5 74.5v18h214z" />
    <glyph glyph-name="Iacute" unicode="&#xcd;" horiz-adv-x="479" 
d="M146 0v1462h190v-1462h-190zM521 1913v-18q-21 -32 -54 -73t-72 -84t-78.5 -83t-71.5 -69h-121v24q39 55 72 107t60.5 101t49.5 95h215z" />
    <glyph glyph-name="Icircumflex" unicode="&#xce;" horiz-adv-x="479" 
d="M146 0v1462h190v-1462h-190zM326 1910q22 -45 54 -99t67.5 -107.5t68.5 -98.5v-22h-104q-41 39 -83.5 88t-88.5 104q-45 -54 -89.5 -106t-80.5 -86h-105v22q35 46 70.5 100.5t67 108.5t51.5 96h172z" />
    <glyph glyph-name="Idieresis" unicode="&#xcf;" horiz-adv-x="479" 
d="M146 0v1462h190v-1462h-190zM-25 1717q0 55 26.5 81.5t66.5 26.5q41 0 67 -27.5t26 -80.5q0 -54 -26 -82t-67 -28q-40 0 -66.5 27.5t-26.5 82.5zM313 1717q0 55 27 81.5t68 26.5t68 -27.5t27 -80.5q0 -54 -27 -82t-68 -28q-42 0 -68.5 28t-26.5 82z" />
    <glyph glyph-name="Eth" unicode="&#xd0;" horiz-adv-x="1073" 
d="M461 1462q167 0 281 -81t172.5 -239.5t58.5 -390.5q0 -246 -59.5 -413t-176.5 -252.5t-290 -85.5h-302v678h-107v149h107v635h316zM457 1295h-120v-468h196v-149h-196v-509h107q173 0 253 143.5t80 429.5q0 184 -35 307t-106.5 184.5t-178.5 61.5z" />
    <glyph glyph-name="Ntilde" unicode="&#xd1;" horiz-adv-x="1181" 
d="M1037 0h-227l-489 1163h-8q4 -58 7 -110.5t4 -100t1 -91.5v-861h-179v1462h226l490 -1143h6q-3 61 -5.5 115t-4 101t-1.5 86v841h180v-1462zM291 1577q4 48 14.5 94.5t29.5 83t50.5 58.5t75.5 22q39 0 73.5 -17.5t67.5 -40t63.5 -40t60.5 -17.5q31 0 47 31.5t24 85.5h110
q-6 -125 -52.5 -191.5t-115.5 -66.5q-38 0 -75 17.5t-70.5 41t-63 41t-54.5 17.5q-27 0 -47.5 -30.5t-29.5 -88.5h-108z" />
    <glyph glyph-name="Ograve" unicode="&#xd2;" horiz-adv-x="1141" 
d="M1044 733q0 -161 -27 -298.5t-83 -239.5t-145.5 -158.5t-215.5 -56.5q-128 0 -218.5 58t-146.5 160.5t-82.5 240t-26.5 296.5q0 249 53.5 415.5t159 250t261.5 83.5q167 0 270.5 -97.5t152 -267t48.5 -386.5zM296 733q0 -191 31.5 -321t93 -195.5t150.5 -65.5
q91 0 152 64t91.5 194t30.5 324q0 290 -68 435.5t-204 145.5q-92 0 -153.5 -65.5t-92.5 -195t-31 -320.5zM478 1904q22 -46 54.5 -103t66.5 -110t62 -90v-24h-121q-30 26 -69 65t-79 83t-73.5 86.5t-54.5 74.5v18h214z" />
    <glyph glyph-name="Oacute" unicode="&#xd3;" horiz-adv-x="1141" 
d="M1044 733q0 -161 -27 -298.5t-83 -239.5t-145.5 -158.5t-215.5 -56.5q-128 0 -218.5 58t-146.5 160.5t-82.5 240t-26.5 296.5q0 249 53.5 415.5t159 250t261.5 83.5q167 0 270.5 -97.5t152 -267t48.5 -386.5zM296 733q0 -191 31.5 -321t93 -195.5t150.5 -65.5
q91 0 152 64t91.5 194t30.5 324q0 290 -68 435.5t-204 145.5q-92 0 -153.5 -65.5t-92.5 -195t-31 -320.5zM862 1904v-18q-21 -32 -54 -73t-72 -84t-78.5 -83t-71.5 -69h-121v24q39 55 72 107t60.5 101t49.5 95h215z" />
    <glyph glyph-name="Ocircumflex" unicode="&#xd4;" horiz-adv-x="1141" 
d="M1044 733q0 -161 -27 -298.5t-83 -239.5t-145.5 -158.5t-215.5 -56.5q-128 0 -218.5 58t-146.5 160.5t-82.5 240t-26.5 296.5q0 249 53.5 415.5t159 250t261.5 83.5q167 0 270.5 -97.5t152 -267t48.5 -386.5zM296 733q0 -191 31.5 -321t93 -195.5t150.5 -65.5
q91 0 152 64t91.5 194t30.5 324q0 290 -68 435.5t-204 145.5q-92 0 -153.5 -65.5t-92.5 -195t-31 -320.5zM657 1904q22 -45 54 -99t67.5 -107.5t68.5 -98.5v-22h-104q-41 39 -83.5 88t-88.5 104q-45 -54 -89.5 -106t-80.5 -86h-105v22q35 46 70.5 100.5t67 108.5t51.5 96
h172z" />
    <glyph glyph-name="Otilde" unicode="&#xd5;" horiz-adv-x="1141" 
d="M1044 733q0 -161 -27 -298.5t-83 -239.5t-145.5 -158.5t-215.5 -56.5q-128 0 -218.5 58t-146.5 160.5t-82.5 240t-26.5 296.5q0 249 53.5 415.5t159 250t261.5 83.5q167 0 270.5 -97.5t152 -267t48.5 -386.5zM296 733q0 -191 31.5 -321t93 -195.5t150.5 -65.5
q91 0 152 64t91.5 194t30.5 324q0 290 -68 435.5t-204 145.5q-92 0 -153.5 -65.5t-92.5 -195t-31 -320.5zM270 1577q4 48 14.5 94.5t29.5 83t50.5 58.5t75.5 22q39 0 73.5 -17.5t67.5 -40t63.5 -40t60.5 -17.5q31 0 47 31.5t24 85.5h110q-6 -125 -52.5 -191.5t-115.5 -66.5
q-38 0 -75 17.5t-70.5 41t-63 41t-54.5 17.5q-27 0 -47.5 -30.5t-29.5 -88.5h-108z" />
    <glyph glyph-name="Odieresis" unicode="&#xd6;" horiz-adv-x="1141" 
d="M1044 733q0 -161 -27 -298.5t-83 -239.5t-145.5 -158.5t-215.5 -56.5q-128 0 -218.5 58t-146.5 160.5t-82.5 240t-26.5 296.5q0 249 53.5 415.5t159 250t261.5 83.5q167 0 270.5 -97.5t152 -267t48.5 -386.5zM296 733q0 -191 31.5 -321t93 -195.5t150.5 -65.5
q91 0 152 64t91.5 194t30.5 324q0 290 -68 435.5t-204 145.5q-92 0 -153.5 -65.5t-92.5 -195t-31 -320.5zM313 1710q0 55 26.5 81.5t66.5 26.5q41 0 67 -27.5t26 -80.5q0 -54 -26 -82t-67 -28q-40 0 -66.5 27.5t-26.5 82.5zM651 1710q0 55 27 81.5t68 26.5t68 -27.5
t27 -80.5q0 -54 -27 -82t-68 -28q-42 0 -68.5 28t-26.5 82z" />
    <glyph glyph-name="multiply" unicode="&#xd7;" horiz-adv-x="898" 
d="M724 1106l106 -103l-277 -280l272 -276l-103 -103l-275 274l-276 -275l-102 104l273 276l-273 274l103 105l275 -274z" />
    <glyph glyph-name="Oslash" unicode="&#xd8;" horiz-adv-x="1146" 
d="M1047 733q0 -180 -29.5 -320t-88.5 -236.5t-147 -146.5t-205 -50q-78 0 -142 23.5t-115 69.5l-86 -175l-109 50l108 217q-69 107 -99.5 248.5t-30.5 321.5q0 249 54 415.5t159.5 250t260.5 83.5q78 0 144.5 -26t118.5 -77l84 164l109 -53l-105 -208q60 -95 89.5 -233.5
t29.5 -317.5zM854 733q0 100 -9 184.5t-28 149.5l-417 -829q33 -46 77 -69t98 -23q93 0 155 65.5t93 196.5t31 325zM297 733q0 -112 11 -201.5t33 -156.5l421 836q-34 55 -80 80.5t-105 25.5q-93 0 -155.5 -66t-93.5 -196t-31 -322z" />
    <glyph glyph-name="Ugrave" unicode="&#xd9;" horiz-adv-x="1084" 
d="M949 1462v-999q0 -167 -46.5 -274t-136.5 -158t-223 -51q-199 0 -304 117.5t-105 363.5v1001h190v-999q0 -167 57 -239.5t163 -72.5q71 0 118.5 31t72 100t24.5 183v997h190zM460 1904q22 -46 54.5 -103t66.5 -110t62 -90v-24h-121q-30 26 -69 65t-79 83t-73.5 86.5
t-54.5 74.5v18h214z" />
    <glyph glyph-name="Uacute" unicode="&#xda;" horiz-adv-x="1084" 
d="M949 1462v-999q0 -167 -46.5 -274t-136.5 -158t-223 -51q-199 0 -304 117.5t-105 363.5v1001h190v-999q0 -167 57 -239.5t163 -72.5q71 0 118.5 31t72 100t24.5 183v997h190zM840 1904v-18q-21 -32 -54 -73t-72 -84t-78.5 -83t-71.5 -69h-121v24q39 55 72 107t60.5 101
t49.5 95h215z" />
    <glyph glyph-name="Ucircumflex" unicode="&#xdb;" horiz-adv-x="1084" 
d="M949 1462v-999q0 -167 -46.5 -274t-136.5 -158t-223 -51q-199 0 -304 117.5t-105 363.5v1001h190v-999q0 -167 57 -239.5t163 -72.5q71 0 118.5 31t72 100t24.5 183v997h190zM627 1904q22 -45 54 -99t67.5 -107.5t68.5 -98.5v-22h-104q-41 39 -83.5 88t-88.5 104
q-45 -54 -89.5 -106t-80.5 -86h-105v22q35 46 70.5 100.5t67 108.5t51.5 96h172z" />
    <glyph glyph-name="Udieresis" unicode="&#xdc;" horiz-adv-x="1084" 
d="M949 1462v-999q0 -167 -46.5 -274t-136.5 -158t-223 -51q-199 0 -304 117.5t-105 363.5v1001h190v-999q0 -167 57 -239.5t163 -72.5q71 0 118.5 31t72 100t24.5 183v997h190zM279 1709q0 55 26.5 81.5t66.5 26.5q41 0 67 -27.5t26 -80.5q0 -54 -26 -82t-67 -28
q-40 0 -66.5 27.5t-26.5 82.5zM617 1709q0 55 27 81.5t68 26.5t68 -27.5t27 -80.5q0 -54 -27 -82t-68 -28q-42 0 -68.5 28t-26.5 82z" />
    <glyph glyph-name="Yacute" unicode="&#xdd;" horiz-adv-x="832" 
d="M417 787l218 675h197l-322 -894v-568h-189v563l-321 899h197zM691 1904v-18q-21 -32 -54 -73t-72 -84t-78.5 -83t-71.5 -69h-121v24q39 55 72 107t60.5 101t49.5 95h215z" />
    <glyph glyph-name="Thorn" unicode="&#xde;" horiz-adv-x="906" 
d="M853 784q0 -109 -25 -196.5t-76.5 -149t-131 -94t-188.5 -32.5h-96v-312h-190v1462h190v-249h99q214 0 316 -106.5t102 -322.5zM336 478h77q91 0 145.5 32t79.5 98.5t25 168.5q0 142 -56 205.5t-178 63.5h-93v-568z" />
    <glyph glyph-name="germandbls" unicode="&#xdf;" horiz-adv-x="963" 
d="M804 1258q0 -65 -19 -114t-47 -88t-56 -72t-47.5 -67.5t-19.5 -74.5q0 -33 12.5 -63t38 -61.5t61.5 -68.5q63 -64 101 -114.5t55 -101.5t17 -119q0 -104 -35 -179t-102.5 -115t-165.5 -40q-52 0 -107 13t-99 42v175q28 -19 58 -34.5t62 -25t68 -9.5q67 0 102.5 43
t35.5 116q0 43 -13 78.5t-42 72t-77 82.5q-59 57 -92 108t-46 98t-13 93q0 58 19 100t47 76.5l56 69t47.5 76t19.5 96.5q0 74 -35.5 116.5t-108.5 42.5q-55 0 -92 -29.5t-56.5 -86t-19.5 -139.5v-1154h-182v1164q0 126 42.5 216t121.5 138.5t189 48.5q100 0 172 -36.5
t111 -105.5t39 -167z" />
    <glyph glyph-name="agrave" unicode="&#xe0;" horiz-adv-x="868" 
d="M447 1124q155 0 225 -98t70 -286v-740h-136l-28 155h-5q-28 -57 -64.5 -96t-83.5 -59t-108 -20q-87 0 -142 46.5t-81 121.5t-26 161q0 166 95 256t269 98l129 7v68q0 122 -34.5 179t-110.5 57q-46 0 -98.5 -16.5t-113.5 -53.5l-55 137q65 42 141 62.5t157 20.5zM562 541
l-95 -6q-108 -6 -161 -61t-53 -159q0 -96 34 -142t95 -46q84 0 132 81.5t48 223.5v109zM401 1568q22 -46 54.5 -103t66.5 -110t62 -90v-24h-121q-30 26 -69 65t-79 83t-73.5 86.5t-54.5 74.5v18h214z" />
    <glyph glyph-name="aacute" unicode="&#xe1;" horiz-adv-x="868" 
d="M447 1124q155 0 225 -98t70 -286v-740h-136l-28 155h-5q-28 -57 -64.5 -96t-83.5 -59t-108 -20q-87 0 -142 46.5t-81 121.5t-26 161q0 166 95 256t269 98l129 7v68q0 122 -34.5 179t-110.5 57q-46 0 -98.5 -16.5t-113.5 -53.5l-55 137q65 42 141 62.5t157 20.5zM562 541
l-95 -6q-108 -6 -161 -61t-53 -159q0 -96 34 -142t95 -46q84 0 132 81.5t48 223.5v109zM702 1568v-18q-21 -32 -54 -73t-72 -84t-78.5 -83t-71.5 -69h-121v24q39 55 72 107t60.5 101t49.5 95h215z" />
    <glyph glyph-name="acircumflex" unicode="&#xe2;" horiz-adv-x="868" 
d="M447 1124q155 0 225 -98t70 -286v-740h-136l-28 155h-5q-28 -57 -64.5 -96t-83.5 -59t-108 -20q-87 0 -142 46.5t-81 121.5t-26 161q0 166 95 256t269 98l129 7v68q0 122 -34.5 179t-110.5 57q-46 0 -98.5 -16.5t-113.5 -53.5l-55 137q65 42 141 62.5t157 20.5zM562 541
l-95 -6q-108 -6 -161 -61t-53 -159q0 -96 34 -142t95 -46q84 0 132 81.5t48 223.5v109zM533 1568q22 -45 54 -99t67.5 -107.5t68.5 -98.5v-22h-104q-41 39 -83.5 88t-88.5 104q-45 -54 -89.5 -106t-80.5 -86h-105v22q35 46 70.5 100.5t67 108.5t51.5 96h172z" />
    <glyph glyph-name="atilde" unicode="&#xe3;" horiz-adv-x="868" 
d="M447 1124q155 0 225 -98t70 -286v-740h-136l-28 155h-5q-28 -57 -64.5 -96t-83.5 -59t-108 -20q-87 0 -142 46.5t-81 121.5t-26 161q0 166 95 256t269 98l129 7v68q0 122 -34.5 179t-110.5 57q-46 0 -98.5 -16.5t-113.5 -53.5l-55 137q65 42 141 62.5t157 20.5zM562 541
l-95 -6q-108 -6 -161 -61t-53 -159q0 -96 34 -142t95 -46q84 0 132 81.5t48 223.5v109zM139 1242q4 48 14.5 94.5t29.5 83t50.5 58.5t75.5 22q39 0 73.5 -17.5t67.5 -40t63.5 -40t60.5 -17.5q31 0 47 31.5t24 85.5h110q-6 -125 -52.5 -191.5t-115.5 -66.5q-38 0 -75 17.5
t-70.5 41t-63 41t-54.5 17.5q-27 0 -47.5 -30.5t-29.5 -88.5h-108z" />
    <glyph glyph-name="adieresis" unicode="&#xe4;" horiz-adv-x="868" 
d="M447 1124q155 0 225 -98t70 -286v-740h-136l-28 155h-5q-28 -57 -64.5 -96t-83.5 -59t-108 -20q-87 0 -142 46.5t-81 121.5t-26 161q0 166 95 256t269 98l129 7v68q0 122 -34.5 179t-110.5 57q-46 0 -98.5 -16.5t-113.5 -53.5l-55 137q65 42 141 62.5t157 20.5zM562 541
l-95 -6q-108 -6 -161 -61t-53 -159q0 -96 34 -142t95 -46q84 0 132 81.5t48 223.5v109zM182 1374q0 55 26.5 81.5t66.5 26.5q41 0 67 -27.5t26 -80.5q0 -54 -26 -82t-67 -28q-40 0 -66.5 27.5t-26.5 82.5zM520 1374q0 55 27 81.5t68 26.5t68 -27.5t27 -80.5q0 -54 -27 -82
t-68 -28q-42 0 -68.5 28t-26.5 82z" />
    <glyph glyph-name="aring" unicode="&#xe5;" horiz-adv-x="868" 
d="M447 1124q155 0 225 -98t70 -286v-740h-136l-28 155h-5q-28 -57 -64.5 -96t-83.5 -59t-108 -20q-87 0 -142 46.5t-81 121.5t-26 161q0 166 95 256t269 98l129 7v68q0 122 -34.5 179t-110.5 57q-46 0 -98.5 -16.5t-113.5 -53.5l-55 137q65 42 141 62.5t157 20.5zM562 541
l-95 -6q-108 -6 -161 -61t-53 -159q0 -96 34 -142t95 -46q84 0 132 81.5t48 223.5v109zM447 1247q-100 0 -159 58t-59 152q0 95 59 153t159 58q95 0 156.5 -57.5t61.5 -150.5q0 -95 -59.5 -154t-158.5 -59zM449 1354q47 0 77 28t30 75t-28.5 77t-78.5 30q-48 0 -78.5 -30
t-30.5 -76q0 -47 27.5 -75.5t81.5 -28.5z" />
    <glyph glyph-name="ae" unicode="&#xe6;" horiz-adv-x="1344" 
d="M922 1122q116 0 191.5 -64.5t112 -175t36.5 -250.5v-119h-524q2 -193 61 -287.5t174 -94.5q62 0 123.5 18.5t123.5 57.5v-157q-58 -35 -123 -52.5t-142 -17.5q-73 0 -136.5 25.5t-112 75t-77.5 120.5q-34 -76 -78.5 -125t-99.5 -72.5t-122 -23.5q-90 0 -148 46
t-85.5 121.5t-27.5 162.5q0 111 43 187.5t124.5 118.5t197.5 47l128 7v72q0 116 -35.5 174t-108.5 58q-46 0 -98.5 -16.5t-113.5 -53.5l-56 138q59 36 130 59t152 23q90 0 148 -37.5t89 -114.5q41 73 104.5 111.5t149.5 38.5zM562 540l-94 -5q-110 -6 -162.5 -59.5
t-52.5 -160.5q0 -94 33.5 -140.5t95.5 -46.5q56 0 96.5 36t62 103t21.5 158v115zM920 973q-79 0 -127 -78t-54 -242h354q0 93 -18.5 165t-56.5 113.5t-98 41.5z" />
    <glyph glyph-name="ccedilla" unicode="&#xe7;" horiz-adv-x="732" 
d="M462 -20q-126 0 -209.5 63t-125.5 188.5t-42 313.5q0 178 42 308t127 200.5t213 70.5q68 0 121.5 -14.5t100.5 -41.5l-55 -149q-40 22 -78.5 33t-75.5 11q-68 0 -114.5 -47t-70.5 -139.5t-24 -230.5q0 -134 23.5 -224.5t70.5 -136.5t117 -46q47 0 95.5 14.5t96.5 42.5
v-155q-45 -30 -103 -45.5t-109 -15.5zM638 -279q0 -102 -64 -157.5t-179 -55.5q-38 0 -69 4t-54 10v116q22 -6 46 -9t47 -3q62 0 93.5 26.5t31.5 70.5q0 52 -42 78.5t-114 35.5l70 163h105l-44 -99q56 -11 94.5 -35t58.5 -60.5t20 -84.5z" />
    <glyph glyph-name="egrave" unicode="&#xe8;" horiz-adv-x="869" 
d="M447 1122q115 0 191.5 -64.5t114.5 -175t38 -250.5v-120h-526q2 -190 61 -284.5t179 -94.5q62 0 120.5 18t122.5 59v-159q-60 -36 -125.5 -53.5t-139.5 -17.5q-141 0 -229 72.5t-128.5 200.5t-40.5 293q0 185 41 313.5t121.5 195.5t199.5 67zM448 975q-81 0 -127.5 -78
t-53.5 -244h354q0 89 -18.5 162.5t-57 116.5t-97.5 43zM396 1568q22 -46 54.5 -103t66.5 -110t62 -90v-24h-121q-30 26 -69 65t-79 83t-73.5 86.5t-54.5 74.5v18h214z" />
    <glyph glyph-name="eacute" unicode="&#xe9;" horiz-adv-x="869" 
d="M447 1122q115 0 191.5 -64.5t114.5 -175t38 -250.5v-120h-526q2 -190 61 -284.5t179 -94.5q62 0 120.5 18t122.5 59v-159q-60 -36 -125.5 -53.5t-139.5 -17.5q-141 0 -229 72.5t-128.5 200.5t-40.5 293q0 185 41 313.5t121.5 195.5t199.5 67zM448 975q-81 0 -127.5 -78
t-53.5 -244h354q0 89 -18.5 162.5t-57 116.5t-97.5 43zM728 1568v-18q-21 -32 -54 -73t-72 -84t-78.5 -83t-71.5 -69h-121v24q39 55 72 107t60.5 101t49.5 95h215z" />
    <glyph glyph-name="ecircumflex" unicode="&#xea;" horiz-adv-x="869" 
d="M447 1122q115 0 191.5 -64.5t114.5 -175t38 -250.5v-120h-526q2 -190 61 -284.5t179 -94.5q62 0 120.5 18t122.5 59v-159q-60 -36 -125.5 -53.5t-139.5 -17.5q-141 0 -229 72.5t-128.5 200.5t-40.5 293q0 185 41 313.5t121.5 195.5t199.5 67zM448 975q-81 0 -127.5 -78
t-53.5 -244h354q0 89 -18.5 162.5t-57 116.5t-97.5 43zM528 1568q22 -45 54 -99t67.5 -107.5t68.5 -98.5v-22h-104q-41 39 -83.5 88t-88.5 104q-45 -54 -89.5 -106t-80.5 -86h-105v22q35 46 70.5 100.5t67 108.5t51.5 96h172z" />
    <glyph glyph-name="edieresis" unicode="&#xeb;" horiz-adv-x="869" 
d="M447 1122q115 0 191.5 -64.5t114.5 -175t38 -250.5v-120h-526q2 -190 61 -284.5t179 -94.5q62 0 120.5 18t122.5 59v-159q-60 -36 -125.5 -53.5t-139.5 -17.5q-141 0 -229 72.5t-128.5 200.5t-40.5 293q0 185 41 313.5t121.5 195.5t199.5 67zM448 975q-81 0 -127.5 -78
t-53.5 -244h354q0 89 -18.5 162.5t-57 116.5t-97.5 43zM178 1374q0 55 26.5 81.5t66.5 26.5q41 0 67 -27.5t26 -80.5q0 -54 -26 -82t-67 -28q-40 0 -66.5 27.5t-26.5 82.5zM516 1374q0 55 27 81.5t68 26.5t68 -27.5t27 -80.5q0 -54 -27 -82t-68 -28q-42 0 -68.5 28t-26.5 82
z" />
    <glyph glyph-name="igrave" unicode="&#xec;" horiz-adv-x="442" 
d="M312 0h-182v1104h182v-1104zM174 1568q22 -46 54.5 -103t66.5 -110t62 -90v-24h-121q-30 26 -69 65t-79 83t-73.5 86.5t-54.5 74.5v18h214z" />
    <glyph glyph-name="iacute" unicode="&#xed;" horiz-adv-x="442" 
d="M312 0h-182v1104h182v-1104zM505 1568v-18q-21 -32 -54 -73t-72 -84t-78.5 -83t-71.5 -69h-121v24q39 55 72 107t60.5 101t49.5 95h215z" />
    <glyph glyph-name="icircumflex" unicode="&#xee;" horiz-adv-x="442" 
d="M312 0h-182v1104h182v-1104zM305 1568q22 -45 54 -99t67.5 -107.5t68.5 -98.5v-22h-104q-41 39 -83.5 88t-88.5 104q-45 -54 -89.5 -106t-80.5 -86h-105v22q35 46 70.5 100.5t67 108.5t51.5 96h172z" />
    <glyph glyph-name="idieresis" unicode="&#xef;" horiz-adv-x="442" 
d="M312 0h-182v1104h182v-1104zM-45 1374q0 55 26.5 81.5t66.5 26.5q41 0 67 -27.5t26 -80.5q0 -54 -26 -82t-67 -28q-40 0 -66.5 27.5t-26.5 82.5zM293 1374q0 55 27 81.5t68 26.5t68 -27.5t27 -80.5q0 -54 -27 -82t-68 -28q-42 0 -68.5 28t-26.5 82z" />
    <glyph glyph-name="eth" unicode="&#xf0;" horiz-adv-x="928" 
d="M338 1562q38 -22 75.5 -49t76.5 -62l164 111l72 -98l-152 -98q89 -101 149 -224.5t91 -273.5t31 -332q0 -181 -43.5 -305t-129 -187.5t-209.5 -63.5q-123 0 -207.5 67.5t-128 180.5t-43.5 251q0 159 44.5 269.5t123.5 168.5t181 58q41 0 76 -10t62.5 -28.5t48.5 -46.5
l6 2q-20 105 -65 200t-114 177l-151 -101l-70 96l144 97q-28 28 -57 52t-58 44zM468 817q-65 0 -109.5 -38.5t-67.5 -115t-23 -189.5q0 -96 21 -172.5t65 -121t114 -44.5q103 0 148.5 89t45.5 263q0 71 -12 131t-36.5 104.5t-60.5 69t-85 24.5z" />
    <glyph glyph-name="ntilde" unicode="&#xf1;" horiz-adv-x="949" 
d="M551 1124q133 0 202.5 -94t69.5 -284v-746h-182v704q0 129 -32 193.5t-104 64.5q-102 0 -148 -92.5t-46 -301.5v-568h-182v1104h145l20 -155h12q23 54 59 93t83 60.5t103 21.5zM182 1243q4 48 14.5 94.5t29.5 83t50.5 58.5t75.5 22q39 0 73.5 -17.5t67.5 -40t63.5 -40
t60.5 -17.5q31 0 47 31.5t24 85.5h110q-6 -125 -52.5 -191.5t-115.5 -66.5q-38 0 -75 17.5t-70.5 41t-63 41t-54.5 17.5q-27 0 -47.5 -30.5t-29.5 -88.5h-108z" />
    <glyph glyph-name="ograve" unicode="&#xf2;" horiz-adv-x="926" 
d="M843 553q0 -126 -22.5 -231t-69 -181.5t-118.5 -118.5t-172 -42q-94 0 -165 41.5t-118 117.5t-70.5 181.5t-23.5 232.5q0 179 40.5 306.5t124.5 196t216 68.5q120 0 204.5 -65t129 -192t44.5 -314zM269 552q0 -136 20.5 -228.5t64 -139t111.5 -46.5q67 0 109.5 45.5
t63 138t20.5 231.5q0 137 -20.5 229t-63 138t-110.5 46q-103 0 -149 -103t-46 -311zM417 1568q22 -46 54.5 -103t66.5 -110t62 -90v-24h-121q-30 26 -69 65t-79 83t-73.5 86.5t-54.5 74.5v18h214z" />
    <glyph glyph-name="oacute" unicode="&#xf3;" horiz-adv-x="926" 
d="M843 553q0 -126 -22.5 -231t-69 -181.5t-118.5 -118.5t-172 -42q-94 0 -165 41.5t-118 117.5t-70.5 181.5t-23.5 232.5q0 179 40.5 306.5t124.5 196t216 68.5q120 0 204.5 -65t129 -192t44.5 -314zM269 552q0 -136 20.5 -228.5t64 -139t111.5 -46.5q67 0 109.5 45.5
t63 138t20.5 231.5q0 137 -20.5 229t-63 138t-110.5 46q-103 0 -149 -103t-46 -311zM746 1568v-18q-21 -32 -54 -73t-72 -84t-78.5 -83t-71.5 -69h-121v24q39 55 72 107t60.5 101t49.5 95h215z" />
    <glyph glyph-name="ocircumflex" unicode="&#xf4;" horiz-adv-x="926" 
d="M843 553q0 -126 -22.5 -231t-69 -181.5t-118.5 -118.5t-172 -42q-94 0 -165 41.5t-118 117.5t-70.5 181.5t-23.5 232.5q0 179 40.5 306.5t124.5 196t216 68.5q120 0 204.5 -65t129 -192t44.5 -314zM269 552q0 -136 20.5 -228.5t64 -139t111.5 -46.5q67 0 109.5 45.5
t63 138t20.5 231.5q0 137 -20.5 229t-63 138t-110.5 46q-103 0 -149 -103t-46 -311zM547 1568q22 -45 54 -99t67.5 -107.5t68.5 -98.5v-22h-104q-41 39 -83.5 88t-88.5 104q-45 -54 -89.5 -106t-80.5 -86h-105v22q35 46 70.5 100.5t67 108.5t51.5 96h172z" />
    <glyph glyph-name="otilde" unicode="&#xf5;" horiz-adv-x="926" 
d="M843 553q0 -126 -22.5 -231t-69 -181.5t-118.5 -118.5t-172 -42q-94 0 -165 41.5t-118 117.5t-70.5 181.5t-23.5 232.5q0 179 40.5 306.5t124.5 196t216 68.5q120 0 204.5 -65t129 -192t44.5 -314zM269 552q0 -136 20.5 -228.5t64 -139t111.5 -46.5q67 0 109.5 45.5
t63 138t20.5 231.5q0 137 -20.5 229t-63 138t-110.5 46q-103 0 -149 -103t-46 -311zM154 1242q4 48 14.5 94.5t29.5 83t50.5 58.5t75.5 22q39 0 73.5 -17.5t67.5 -40t63.5 -40t60.5 -17.5q31 0 47 31.5t24 85.5h110q-6 -125 -52.5 -191.5t-115.5 -66.5q-38 0 -75 17.5
t-70.5 41t-63 41t-54.5 17.5q-27 0 -47.5 -30.5t-29.5 -88.5h-108z" />
    <glyph glyph-name="odieresis" unicode="&#xf6;" horiz-adv-x="926" 
d="M843 553q0 -126 -22.5 -231t-69 -181.5t-118.5 -118.5t-172 -42q-94 0 -165 41.5t-118 117.5t-70.5 181.5t-23.5 232.5q0 179 40.5 306.5t124.5 196t216 68.5q120 0 204.5 -65t129 -192t44.5 -314zM269 552q0 -136 20.5 -228.5t64 -139t111.5 -46.5q67 0 109.5 45.5
t63 138t20.5 231.5q0 137 -20.5 229t-63 138t-110.5 46q-103 0 -149 -103t-46 -311zM198 1374q0 55 26.5 81.5t66.5 26.5q41 0 67 -27.5t26 -80.5q0 -54 -26 -82t-67 -28q-40 0 -66.5 27.5t-26.5 82.5zM536 1374q0 55 27 81.5t68 26.5t68 -27.5t27 -80.5q0 -54 -27 -82
t-68 -28q-42 0 -68.5 28t-26.5 82z" />
    <glyph glyph-name="divide" unicode="&#xf7;" horiz-adv-x="898" 
d="M63 647v152h769v-152h-769zM450 220q-53 0 -81 33.5t-28 97.5q0 63 27.5 96t81.5 33q52 0 79 -33t27 -96q0 -65 -28.5 -98t-77.5 -33zM450 964q-53 0 -81 33t-28 96t27.5 96.5t81.5 33.5q52 0 79 -33.5t27 -96.5q0 -65 -28.5 -97t-77.5 -32z" />
    <glyph glyph-name="oslash" unicode="&#xf8;" horiz-adv-x="932" 
d="M846 553q0 -183 -44.5 -311t-129.5 -195t-208 -67q-54 0 -100.5 15t-84.5 45l-85 -175l-105 51l105 208q-55 80 -81 186.5t-26 242.5q0 280 97.5 425.5t283.5 145.5q56 0 103 -16.5t87 -51.5l75 148l104 -51l-90 -183q50 -75 74.5 -180t24.5 -237zM267 552q0 -76 7 -137
t20 -104l300 599q-24 31 -55.5 46.5t-70.5 15.5q-106 0 -153.5 -105t-47.5 -315zM670 553q0 71 -7 128t-17 99l-297 -595q22 -28 52 -42t65 -14q71 0 116 47.5t66.5 141.5t21.5 235z" />
    <glyph glyph-name="ugrave" unicode="&#xf9;" horiz-adv-x="949" 
d="M820 1104v-1104h-145l-20 153h-12q-23 -54 -58.5 -92.5t-81.5 -59.5t-103 -21q-97 0 -157.5 48.5t-88.5 138t-28 213.5v724h182v-682q0 -143 32 -211t99 -68q75 0 118 41.5t62 125t19 210.5v584h182zM430 1568q22 -46 54.5 -103t66.5 -110t62 -90v-24h-121q-30 26 -69 65
t-79 83t-73.5 86.5t-54.5 74.5v18h214z" />
    <glyph glyph-name="uacute" unicode="&#xfa;" horiz-adv-x="949" 
d="M820 1104v-1104h-145l-20 153h-12q-23 -54 -58.5 -92.5t-81.5 -59.5t-103 -21q-97 0 -157.5 48.5t-88.5 138t-28 213.5v724h182v-682q0 -143 32 -211t99 -68q75 0 118 41.5t62 125t19 210.5v584h182zM761 1568v-18q-21 -32 -54 -73t-72 -84t-78.5 -83t-71.5 -69h-121v24
q39 55 72 107t60.5 101t49.5 95h215z" />
    <glyph glyph-name="ucircumflex" unicode="&#xfb;" horiz-adv-x="949" 
d="M820 1104v-1104h-145l-20 153h-12q-23 -54 -58.5 -92.5t-81.5 -59.5t-103 -21q-97 0 -157.5 48.5t-88.5 138t-28 213.5v724h182v-682q0 -143 32 -211t99 -68q75 0 118 41.5t62 125t19 210.5v584h182zM562 1568q22 -45 54 -99t67.5 -107.5t68.5 -98.5v-22h-104
q-41 39 -83.5 88t-88.5 104q-45 -54 -89.5 -106t-80.5 -86h-105v22q35 46 70.5 100.5t67 108.5t51.5 96h172z" />
    <glyph glyph-name="udieresis" unicode="&#xfc;" horiz-adv-x="949" 
d="M820 1104v-1104h-145l-20 153h-12q-23 -54 -58.5 -92.5t-81.5 -59.5t-103 -21q-97 0 -157.5 48.5t-88.5 138t-28 213.5v724h182v-682q0 -143 32 -211t99 -68q75 0 118 41.5t62 125t19 210.5v584h182zM212 1374q0 55 26.5 81.5t66.5 26.5q41 0 67 -27.5t26 -80.5
q0 -54 -26 -82t-67 -28q-40 0 -66.5 27.5t-26.5 82.5zM550 1374q0 55 27 81.5t68 26.5t68 -27.5t27 -80.5q0 -54 -27 -82t-68 -28q-42 0 -68.5 28t-26.5 82z" />
    <glyph glyph-name="yacute" unicode="&#xfd;" horiz-adv-x="787" 
d="M11 1104h189l149 -617q9 -41 17 -80.5t15 -78t12 -75.5h8q7 53 18.5 110.5t27.5 123.5l144 617h188l-328 -1263q-31 -117 -73 -190.5t-98.5 -108t-133.5 -34.5q-26 0 -52 5t-54 12v162q19 -7 39.5 -11t39.5 -4q39 0 65.5 18.5t47.5 63t42 123.5l33 132zM678 1568v-18
q-21 -32 -54 -73t-72 -84t-78.5 -83t-71.5 -69h-121v24q39 55 72 107t60.5 101t49.5 95h215z" />
    <glyph glyph-name="thorn" unicode="&#xfe;" horiz-adv-x="959" 
d="M877 553q0 -183 -37 -310.5t-107.5 -195t-170.5 -67.5q-55 0 -103 21t-85 59.5t-63 92.5h-7q2 -31 4 -59t3.5 -52.5t1.5 -46.5v-485h-184v2046h182v-430q0 -45 -1.5 -89.5t-5.5 -90.5h7q29 62 65.5 101.5t80.5 58t97 18.5q158 0 240.5 -146.5t82.5 -424.5zM691 551
q0 214 -43.5 314.5t-139.5 100.5q-99 0 -148 -92t-49 -287v-54q0 -203 49.5 -298.5t148.5 -95.5q70 0 109.5 53.5t56 146.5t16.5 212z" />
    <glyph glyph-name="ydieresis" unicode="&#xff;" horiz-adv-x="787" 
d="M11 1104h189l149 -617q9 -41 17 -80.5t15 -78t12 -75.5h8q7 53 18.5 110.5t27.5 123.5l144 617h188l-328 -1263q-31 -117 -73 -190.5t-98.5 -108t-133.5 -34.5q-26 0 -52 5t-54 12v162q19 -7 39.5 -11t39.5 -4q39 0 65.5 18.5t47.5 63t42 123.5l33 132zM129 1374
q0 55 26.5 81.5t66.5 26.5q41 0 67 -27.5t26 -80.5q0 -54 -26 -82t-67 -28q-40 0 -66.5 27.5t-26.5 82.5zM467 1374q0 55 27 81.5t68 26.5t68 -27.5t27 -80.5q0 -54 -27 -82t-68 -28q-42 0 -68.5 28t-26.5 82z" />
    <glyph glyph-name="Amacron" unicode="&#x100;" horiz-adv-x="949" 
d="M747 0l-101 441h-342l-101 -441h-203l353 1462h236l360 -1462h-202zM613 612l-104 469q-7 39 -14 77.5t-12.5 74t-10.5 68.5q-3 -32 -8.5 -68t-12.5 -73.5t-16 -76.5l-101 -471h279zM727 1756v-137h-508v137h508z" />
    <glyph glyph-name="amacron" unicode="&#x101;" horiz-adv-x="868" 
d="M447 1124q155 0 225 -98t70 -286v-740h-136l-28 155h-5q-28 -57 -64.5 -96t-83.5 -59t-108 -20q-87 0 -142 46.5t-81 121.5t-26 161q0 166 95 256t269 98l129 7v68q0 122 -34.5 179t-110.5 57q-46 0 -98.5 -16.5t-113.5 -53.5l-55 137q65 42 141 62.5t157 20.5zM562 541
l-95 -6q-108 -6 -161 -61t-53 -159q0 -96 34 -142t95 -46q84 0 132 81.5t48 223.5v109zM701 1397v-137h-508v137h508z" />
    <glyph glyph-name="Abreve" unicode="&#x102;" horiz-adv-x="949" 
d="M747 0l-101 441h-342l-101 -441h-203l353 1462h236l360 -1462h-202zM613 612l-104 469q-7 39 -14 77.5t-12.5 74t-10.5 68.5q-3 -32 -8.5 -68t-12.5 -73.5t-16 -76.5l-101 -471h279zM730 1887q-1 -88 -34.5 -151.5t-92 -98t-135.5 -34.5q-114 0 -182 71t-72 213h116
q5 -49 22 -82t47.5 -49.5t72.5 -16.5q41 0 71.5 16t48.5 49t22 83h116z" />
    <glyph glyph-name="abreve" unicode="&#x103;" horiz-adv-x="868" 
d="M447 1124q155 0 225 -98t70 -286v-740h-136l-28 155h-5q-28 -57 -64.5 -96t-83.5 -59t-108 -20q-87 0 -142 46.5t-81 121.5t-26 161q0 166 95 256t269 98l129 7v68q0 122 -34.5 179t-110.5 57q-46 0 -98.5 -16.5t-113.5 -53.5l-55 137q65 42 141 62.5t157 20.5zM562 541
l-95 -6q-108 -6 -161 -61t-53 -159q0 -96 34 -142t95 -46q84 0 132 81.5t48 223.5v109zM703 1528q-1 -88 -34.5 -151.5t-92 -98t-135.5 -34.5q-114 0 -182 71t-72 213h116q5 -49 22 -82t47.5 -49.5t72.5 -16.5q41 0 71.5 16t48.5 49t22 83h116z" />
    <glyph glyph-name="Aogonek" unicode="&#x104;" horiz-adv-x="949" 
d="M747 0l-101 441h-342l-101 -441h-203l353 1462h236l360 -1462h-202zM613 612l-104 469q-7 39 -14 77.5t-12.5 74t-10.5 68.5q-3 -32 -8.5 -68t-12.5 -73.5t-16 -76.5l-101 -471h279zM757 -235q0 -48 23.5 -73.5t66.5 -25.5q24 0 40 4.5t28 8.5v-123q-19 -8 -45 -13
t-59 -5q-101 0 -151.5 50t-50.5 143q0 51 19 102.5t57 100.5t93 92l102 -26q-69 -70 -96 -124t-27 -111z" />
    <glyph glyph-name="aogonek" unicode="&#x105;" horiz-adv-x="868" 
d="M447 1124q155 0 225 -98t70 -286v-740h-136l-28 155h-5q-28 -57 -64.5 -96t-83.5 -59t-108 -20q-87 0 -142 46.5t-81 121.5t-26 161q0 166 95 256t269 98l129 7v68q0 122 -34.5 179t-110.5 57q-46 0 -98.5 -16.5t-113.5 -53.5l-55 137q65 42 141 62.5t157 20.5zM562 541
l-95 -6q-108 -6 -161 -61t-53 -159q0 -96 34 -142t95 -46q84 0 132 81.5t48 223.5v109zM604 -235q0 -48 23.5 -73.5t66.5 -25.5q24 0 40 4.5t28 8.5v-123q-19 -8 -45 -13t-59 -5q-101 0 -151.5 50t-50.5 143q0 51 19 102.5t57 100.5t93 92l102 -26q-69 -70 -96 -124
t-27 -111z" />
    <glyph glyph-name="Cacute" unicode="&#x106;" horiz-adv-x="927" 
d="M605 1315q-81 0 -140 -46t-96.5 -127.5t-55 -187t-17.5 -224.5q0 -182 39 -312t111 -199.5t170 -69.5q64 0 120.5 17.5t105.5 43.5v-171q-51 -30 -113.5 -44.5t-135.5 -14.5q-153 0 -264 89.5t-170.5 257.5t-59.5 405q0 157 31 293.5t93 240t155.5 161.5t217.5 58
q76 0 146.5 -19.5t135.5 -57.5l-63 -159q-48 31 -100 48.5t-110 17.5zM858 1927v-18q-21 -32 -54 -73t-72 -84t-78.5 -83t-71.5 -69h-121v24q39 55 72 107t60.5 101t49.5 95h215z" />
    <glyph glyph-name="cacute" unicode="&#x107;" horiz-adv-x="732" 
d="M462 -20q-126 0 -209.5 63t-125.5 188.5t-42 313.5q0 178 42 308t127 200.5t213 70.5q68 0 121.5 -14.5t100.5 -41.5l-55 -149q-40 22 -78.5 33t-75.5 11q-68 0 -114.5 -47t-70.5 -139.5t-24 -230.5q0 -134 23.5 -224.5t70.5 -136.5t117 -46q47 0 95.5 14.5t96.5 42.5
v-155q-45 -30 -103 -45.5t-109 -15.5zM721 1568v-18q-21 -32 -54 -73t-72 -84t-78.5 -83t-71.5 -69h-121v24q39 55 72 107t60.5 101t49.5 95h215z" />
    <glyph glyph-name="Ccircumflex" unicode="&#x108;" horiz-adv-x="927" 
d="M605 1315q-81 0 -140 -46t-96.5 -127.5t-55 -187t-17.5 -224.5q0 -182 39 -312t111 -199.5t170 -69.5q64 0 120.5 17.5t105.5 43.5v-171q-51 -30 -113.5 -44.5t-135.5 -14.5q-153 0 -264 89.5t-170.5 257.5t-59.5 405q0 157 31 293.5t93 240t155.5 161.5t217.5 58
q76 0 146.5 -19.5t135.5 -57.5l-63 -159q-48 31 -100 48.5t-110 17.5zM656 1927q22 -45 54 -99t67.5 -107.5t68.5 -98.5v-22h-104q-41 39 -83.5 88t-88.5 104q-45 -54 -89.5 -106t-80.5 -86h-105v22q35 46 70.5 100.5t67 108.5t51.5 96h172z" />
    <glyph glyph-name="ccircumflex" unicode="&#x109;" horiz-adv-x="732" 
d="M462 -20q-126 0 -209.5 63t-125.5 188.5t-42 313.5q0 178 42 308t127 200.5t213 70.5q68 0 121.5 -14.5t100.5 -41.5l-55 -149q-40 22 -78.5 33t-75.5 11q-68 0 -114.5 -47t-70.5 -139.5t-24 -230.5q0 -134 23.5 -224.5t70.5 -136.5t117 -46q47 0 95.5 14.5t96.5 42.5
v-155q-45 -30 -103 -45.5t-109 -15.5zM522 1568q22 -45 54 -99t67.5 -107.5t68.5 -98.5v-22h-104q-41 39 -83.5 88t-88.5 104q-45 -54 -89.5 -106t-80.5 -86h-105v22q35 46 70.5 100.5t67 108.5t51.5 96h172z" />
    <glyph glyph-name="Cdot" unicode="&#x10a;" horiz-adv-x="927" 
d="M605 1315q-81 0 -140 -46t-96.5 -127.5t-55 -187t-17.5 -224.5q0 -182 39 -312t111 -199.5t170 -69.5q64 0 120.5 17.5t105.5 43.5v-171q-51 -30 -113.5 -44.5t-135.5 -14.5q-153 0 -264 89.5t-170.5 257.5t-59.5 405q0 157 31 293.5t93 240t155.5 161.5t217.5 58
q76 0 146.5 -19.5t135.5 -57.5l-63 -159q-48 31 -100 48.5t-110 17.5zM585 1879q54 0 78.5 -32.5t24.5 -90.5t-26 -90t-77 -32q-50 0 -78 32t-28 90q0 60 26.5 91.5t79.5 31.5z" />
    <glyph glyph-name="cdot" unicode="&#x10b;" horiz-adv-x="732" 
d="M462 -20q-126 0 -209.5 63t-125.5 188.5t-42 313.5q0 178 42 308t127 200.5t213 70.5q68 0 121.5 -14.5t100.5 -41.5l-55 -149q-40 22 -78.5 33t-75.5 11q-68 0 -114.5 -47t-70.5 -139.5t-24 -230.5q0 -134 23.5 -224.5t70.5 -136.5t117 -46q47 0 95.5 14.5t96.5 42.5
v-155q-45 -30 -103 -45.5t-109 -15.5zM449 1523q54 0 78.5 -32.5t24.5 -90.5t-26 -90t-77 -32q-50 0 -78 32t-28 90q0 60 26.5 91.5t79.5 31.5z" />
    <glyph glyph-name="Ccaron" unicode="&#x10c;" horiz-adv-x="927" 
d="M605 1315q-81 0 -140 -46t-96.5 -127.5t-55 -187t-17.5 -224.5q0 -182 39 -312t111 -199.5t170 -69.5q64 0 120.5 17.5t105.5 43.5v-171q-51 -30 -113.5 -44.5t-135.5 -14.5q-153 0 -264 89.5t-170.5 257.5t-59.5 405q0 157 31 293.5t93 240t155.5 161.5t217.5 58
q76 0 146.5 -19.5t135.5 -57.5l-63 -159q-48 31 -100 48.5t-110 17.5zM485 1600q-21 45 -52.5 99t-67 108t-69.5 99v21h105q37 -35 81.5 -86.5t88.5 -104.5q50 60 86 100.5t85 90.5h103v-21q-29 -42 -65 -95.5t-69.5 -109t-55.5 -101.5h-170z" />
    <glyph glyph-name="ccaron" unicode="&#x10d;" horiz-adv-x="732" 
d="M462 -20q-126 0 -209.5 63t-125.5 188.5t-42 313.5q0 178 42 308t127 200.5t213 70.5q68 0 121.5 -14.5t100.5 -41.5l-55 -149q-40 22 -78.5 33t-75.5 11q-68 0 -114.5 -47t-70.5 -139.5t-24 -230.5q0 -134 23.5 -224.5t70.5 -136.5t117 -46q47 0 95.5 14.5t96.5 42.5
v-155q-45 -30 -103 -45.5t-109 -15.5zM351 1241q-21 45 -52.5 99t-67 108t-69.5 99v21h105q37 -35 81.5 -86.5t88.5 -104.5q50 60 86 100.5t85 90.5h103v-21q-29 -42 -65 -95.5t-69.5 -109t-55.5 -101.5h-170z" />
    <glyph glyph-name="Dcaron" unicode="&#x10e;" horiz-adv-x="1072" 
d="M973 751q0 -246 -59.5 -413t-176.5 -252.5t-290 -85.5h-301v1462h316q167 0 281 -81t172 -239.5t58 -390.5zM776 742q0 184 -35.5 307t-106 184.5t-178.5 61.5h-120v-1126h106q174 0 254 143.5t80 429.5zM435 1600q-21 45 -52.5 99t-67 108t-69.5 99v21h105
q37 -35 81.5 -86.5t88.5 -104.5q50 60 86 100.5t85 90.5h103v-21q-29 -42 -65 -95.5t-69.5 -109t-55.5 -101.5h-170z" />
    <glyph glyph-name="dcaron" unicode="&#x10f;" horiz-adv-x="959" 
d="M407 -20q-158 0 -240.5 147t-82.5 423q0 275 82.5 424.5t234.5 149.5q53 0 99 -20t83.5 -57t64.5 -91h8q-3 51 -4.5 90t-1.5 71v439h181v-1556h-145l-25 142h-11q-29 -52 -64.5 -88t-79 -55t-99.5 -19zM452 134q98 0 148 92.5t50 276.5v72q0 198 -48 293t-151 95
q-93 0 -137.5 -105.5t-44.5 -307.5q0 -205 44.5 -310.5t138.5 -105.5zM1143 1556v-20q-10 -45 -31 -103.5t-45.5 -113.5t-47.5 -91h-107v24q4 18 11 57.5t14 87t12.5 91t6.5 68.5h187z" />
    <glyph glyph-name="Dcroat" unicode="&#x110;" horiz-adv-x="1073" 
d="M461 1462q167 0 281 -81t172.5 -239.5t58.5 -390.5q0 -246 -59.5 -413t-176.5 -252.5t-290 -85.5h-302v678h-107v149h107v635h316zM457 1295h-120v-468h196v-149h-196v-509h107q173 0 253 143.5t80 429.5q0 184 -35 307t-106.5 184.5t-178.5 61.5z" />
    <glyph glyph-name="dcroat" unicode="&#x111;" horiz-adv-x="961" 
d="M407 -20q-158 0 -240.5 146t-82.5 417q0 270 82.5 416t234.5 146q53 0 99 -19.5t83.5 -56.5t64.5 -91h8q-3 49 -4.5 89.5t-1.5 71.5v141h-223v137h223v179h181v-179h122v-137h-122v-1240h-145l-26 143h-12q-29 -53 -64 -89t-78 -55t-99 -19zM452 134q98 0 148 92t50 283
v56q0 194 -48 286t-151 92q-93 0 -137.5 -102t-44.5 -300q0 -201 44.5 -304t138.5 -103z" />
    <glyph glyph-name="Emacron" unicode="&#x112;" horiz-adv-x="832" 
d="M742 0h-596v1462h596v-166h-406v-450h380v-167h-380v-509h406v-170zM699 1756v-137h-508v137h508z" />
    <glyph glyph-name="emacron" unicode="&#x113;" horiz-adv-x="869" 
d="M447 1122q115 0 191.5 -64.5t114.5 -175t38 -250.5v-120h-526q2 -190 61 -284.5t179 -94.5q62 0 120.5 18t122.5 59v-159q-60 -36 -125.5 -53.5t-139.5 -17.5q-141 0 -229 72.5t-128.5 200.5t-40.5 293q0 185 41 313.5t121.5 195.5t199.5 67zM448 975q-81 0 -127.5 -78
t-53.5 -244h354q0 89 -18.5 162.5t-57 116.5t-97.5 43zM695 1397v-137h-508v137h508z" />
    <glyph glyph-name="Ebreve" unicode="&#x114;" horiz-adv-x="832" 
d="M742 0h-596v1462h596v-166h-406v-450h380v-167h-380v-509h406v-170zM702 1887q-1 -88 -34.5 -151.5t-92 -98t-135.5 -34.5q-114 0 -182 71t-72 213h116q5 -49 22 -82t47.5 -49.5t72.5 -16.5q41 0 71.5 16t48.5 49t22 83h116z" />
    <glyph glyph-name="ebreve" unicode="&#x115;" horiz-adv-x="869" 
d="M447 1122q115 0 191.5 -64.5t114.5 -175t38 -250.5v-120h-526q2 -190 61 -284.5t179 -94.5q62 0 120.5 18t122.5 59v-159q-60 -36 -125.5 -53.5t-139.5 -17.5q-141 0 -229 72.5t-128.5 200.5t-40.5 293q0 185 41 313.5t121.5 195.5t199.5 67zM448 975q-81 0 -127.5 -78
t-53.5 -244h354q0 89 -18.5 162.5t-57 116.5t-97.5 43zM699 1528q-1 -88 -34.5 -151.5t-92 -98t-135.5 -34.5q-114 0 -182 71t-72 213h116q5 -49 22 -82t47.5 -49.5t72.5 -16.5q41 0 71.5 16t48.5 49t22 83h116z" />
    <glyph glyph-name="Edotaccent" unicode="&#x116;" horiz-adv-x="832" 
d="M742 0h-596v1462h596v-166h-406v-450h380v-167h-380v-509h406v-170zM459 1880q54 0 78.5 -32.5t24.5 -90.5t-26 -90t-77 -32q-50 0 -78 32t-28 90q0 60 26.5 91.5t79.5 31.5z" />
    <glyph glyph-name="edotaccent" unicode="&#x117;" horiz-adv-x="869" 
d="M447 1122q115 0 191.5 -64.5t114.5 -175t38 -250.5v-120h-526q2 -190 61 -284.5t179 -94.5q62 0 120.5 18t122.5 59v-159q-60 -36 -125.5 -53.5t-139.5 -17.5q-141 0 -229 72.5t-128.5 200.5t-40.5 293q0 185 41 313.5t121.5 195.5t199.5 67zM448 975q-81 0 -127.5 -78
t-53.5 -244h354q0 89 -18.5 162.5t-57 116.5t-97.5 43zM457 1523q54 0 78.5 -32.5t24.5 -90.5t-26 -90t-77 -32q-50 0 -78 32t-28 90q0 60 26.5 91.5t79.5 31.5z" />
    <glyph glyph-name="Eogonek" unicode="&#x118;" horiz-adv-x="832" 
d="M742 0h-596v1462h596v-166h-406v-450h380v-167h-380v-509h406v-170zM569 -235q0 -48 23.5 -73.5t66.5 -25.5q24 0 40 4.5t28 8.5v-123q-19 -8 -45 -13t-59 -5q-101 0 -151.5 50t-50.5 143q0 51 19 102.5t57 100.5t93 92l102 -26q-69 -70 -96 -124t-27 -111z" />
    <glyph glyph-name="eogonek" unicode="&#x119;" horiz-adv-x="869" 
d="M580 -237q0 -46 23.5 -69.5t65.5 -23.5q20 0 41 4t33 9v-126q-23 -9 -53 -13.5t-59 -4.5q-101 0 -149.5 51t-48.5 144q0 51 19 99.5t54 91.5t82 79l160 47q-55 -53 -92.5 -105t-56.5 -98t-19 -85zM447 1122q115 0 191.5 -64.5t114.5 -175t38 -250.5v-120h-526
q2 -190 61 -284.5t179 -94.5q62 0 120.5 18t122.5 59v-159q-60 -36 -125.5 -53.5t-139.5 -17.5q-141 0 -229 72.5t-128.5 200.5t-40.5 293q0 185 41 313.5t121.5 195.5t199.5 67zM448 975q-81 0 -127.5 -78t-53.5 -244h354q0 89 -18.5 162.5t-57 116.5t-97.5 43z" />
    <glyph glyph-name="Ecaron" unicode="&#x11a;" horiz-adv-x="832" 
d="M742 0h-596v1462h596v-166h-406v-450h380v-167h-380v-509h406v-170zM358 1600q-21 45 -52.5 99t-67 108t-69.5 99v21h105q37 -35 81.5 -86.5t88.5 -104.5q50 60 86 100.5t85 90.5h103v-21q-29 -42 -65 -95.5t-69.5 -109t-55.5 -101.5h-170z" />
    <glyph glyph-name="ecaron" unicode="&#x11b;" horiz-adv-x="869" 
d="M447 1122q115 0 191.5 -64.5t114.5 -175t38 -250.5v-120h-526q2 -190 61 -284.5t179 -94.5q62 0 120.5 18t122.5 59v-159q-60 -36 -125.5 -53.5t-139.5 -17.5q-141 0 -229 72.5t-128.5 200.5t-40.5 293q0 185 41 313.5t121.5 195.5t199.5 67zM448 975q-81 0 -127.5 -78
t-53.5 -244h354q0 89 -18.5 162.5t-57 116.5t-97.5 43zM355 1241q-21 45 -52.5 99t-67 108t-69.5 99v21h105q37 -35 81.5 -86.5t88.5 -104.5q50 60 86 100.5t85 90.5h103v-21q-29 -42 -65 -95.5t-69.5 -109t-55.5 -101.5h-170z" />
    <glyph glyph-name="Gcircumflex" unicode="&#x11c;" horiz-adv-x="1127" 
d="M625 780h393v-726q-93 -37 -191.5 -55.5t-199.5 -18.5q-180 0 -297 97t-174 267t-57 390q0 222 63 390.5t188.5 263.5t312.5 95q94 0 179 -24t158 -69l-63 -160q-67 43 -133.5 64t-136.5 21q-121 0 -203.5 -68t-124.5 -198.5t-42 -319.5q0 -167 35.5 -298.5t111.5 -206.5
t197 -75q53 0 101.5 8t90.5 22v435h-208v166zM720 1927q22 -45 54 -99t67.5 -107.5t68.5 -98.5v-22h-104q-41 39 -83.5 88t-88.5 104q-45 -54 -89.5 -106t-80.5 -86h-105v22q35 46 70.5 100.5t67 108.5t51.5 96h172z" />
    <glyph glyph-name="gcircumflex" unicode="&#x11d;" horiz-adv-x="827" 
d="M364 -492q-164 0 -257 80.5t-93 226.5q0 109 54.5 180.5t141.5 95.5q-43 20 -71 61t-28 96q0 58 27 103t76 87q-64 39 -101.5 124t-37.5 192q0 114 38.5 196.5t111 127.5t174.5 45q32 0 56 -3t42.5 -8.5t33.5 -11.5h285v-115l-144 -20q26 -43 38 -96.5t12 -110.5
q0 -171 -84.5 -268.5t-238.5 -97.5q-47 0 -74 9q-24 -22 -43 -51.5t-19 -72.5q0 -28 13 -48.5t39 -31.5t64 -11h165q126 0 194 -72t68 -219q0 -185 -113.5 -286t-328.5 -101zM378 -351q85 0 142 25t85.5 75t28.5 124q0 60 -19 92t-55 43.5t-90 11.5h-135q-42 0 -76 -19
t-54 -60.5t-20 -110.5q0 -89 52 -135t141 -46zM400 524q66 0 102.5 59t36.5 172q0 120 -37 178.5t-104 58.5q-66 0 -102.5 -62t-36.5 -177q0 -110 35 -169.5t106 -59.5zM488 1568q22 -45 54 -99t67.5 -107.5t68.5 -98.5v-22h-104q-41 39 -83.5 88t-88.5 104
q-45 -54 -89.5 -106t-80.5 -86h-105v22q35 46 70.5 100.5t67 108.5t51.5 96h172z" />
    <glyph glyph-name="Gbreve" unicode="&#x11e;" horiz-adv-x="1127" 
d="M625 780h393v-726q-93 -37 -191.5 -55.5t-199.5 -18.5q-180 0 -297 97t-174 267t-57 390q0 222 63 390.5t188.5 263.5t312.5 95q94 0 179 -24t158 -69l-63 -160q-67 43 -133.5 64t-136.5 21q-121 0 -203.5 -68t-124.5 -198.5t-42 -319.5q0 -167 35.5 -298.5t111.5 -206.5
t197 -75q53 0 101.5 8t90.5 22v435h-208v166zM894 1887q-1 -88 -34.5 -151.5t-92 -98t-135.5 -34.5q-114 0 -182 71t-72 213h116q5 -49 22 -82t47.5 -49.5t72.5 -16.5q41 0 71.5 16t48.5 49t22 83h116z" />
    <glyph glyph-name="gbreve" unicode="&#x11f;" horiz-adv-x="827" 
d="M364 -492q-164 0 -257 80.5t-93 226.5q0 109 54.5 180.5t141.5 95.5q-43 20 -71 61t-28 96q0 58 27 103t76 87q-64 39 -101.5 124t-37.5 192q0 114 38.5 196.5t111 127.5t174.5 45q32 0 56 -3t42.5 -8.5t33.5 -11.5h285v-115l-144 -20q26 -43 38 -96.5t12 -110.5
q0 -171 -84.5 -268.5t-238.5 -97.5q-47 0 -74 9q-24 -22 -43 -51.5t-19 -72.5q0 -28 13 -48.5t39 -31.5t64 -11h165q126 0 194 -72t68 -219q0 -185 -113.5 -286t-328.5 -101zM378 -351q85 0 142 25t85.5 75t28.5 124q0 60 -19 92t-55 43.5t-90 11.5h-135q-42 0 -76 -19
t-54 -60.5t-20 -110.5q0 -89 52 -135t141 -46zM400 524q66 0 102.5 59t36.5 172q0 120 -37 178.5t-104 58.5q-66 0 -102.5 -62t-36.5 -177q0 -110 35 -169.5t106 -59.5zM661 1528q-1 -88 -34.5 -151.5t-92 -98t-135.5 -34.5q-114 0 -182 71t-72 213h116q5 -49 22 -82
t47.5 -49.5t72.5 -16.5q41 0 71.5 16t48.5 49t22 83h116z" />
    <glyph glyph-name="Gdot" unicode="&#x120;" horiz-adv-x="1127" 
d="M625 780h393v-726q-93 -37 -191.5 -55.5t-199.5 -18.5q-180 0 -297 97t-174 267t-57 390q0 222 63 390.5t188.5 263.5t312.5 95q94 0 179 -24t158 -69l-63 -160q-67 43 -133.5 64t-136.5 21q-121 0 -203.5 -68t-124.5 -198.5t-42 -319.5q0 -167 35.5 -298.5t111.5 -206.5
t197 -75q53 0 101.5 8t90.5 22v435h-208v166zM652 1882q54 0 78.5 -32.5t24.5 -90.5t-26 -90t-77 -32q-50 0 -78 32t-28 90q0 60 26.5 91.5t79.5 31.5z" />
    <glyph glyph-name="gdot" unicode="&#x121;" horiz-adv-x="827" 
d="M364 -492q-164 0 -257 80.5t-93 226.5q0 109 54.5 180.5t141.5 95.5q-43 20 -71 61t-28 96q0 58 27 103t76 87q-64 39 -101.5 124t-37.5 192q0 114 38.5 196.5t111 127.5t174.5 45q32 0 56 -3t42.5 -8.5t33.5 -11.5h285v-115l-144 -20q26 -43 38 -96.5t12 -110.5
q0 -171 -84.5 -268.5t-238.5 -97.5q-47 0 -74 9q-24 -22 -43 -51.5t-19 -72.5q0 -28 13 -48.5t39 -31.5t64 -11h165q126 0 194 -72t68 -219q0 -185 -113.5 -286t-328.5 -101zM378 -351q85 0 142 25t85.5 75t28.5 124q0 60 -19 92t-55 43.5t-90 11.5h-135q-42 0 -76 -19
t-54 -60.5t-20 -110.5q0 -89 52 -135t141 -46zM400 524q66 0 102.5 59t36.5 172q0 120 -37 178.5t-104 58.5q-66 0 -102.5 -62t-36.5 -177q0 -110 35 -169.5t106 -59.5zM410 1523q54 0 78.5 -32.5t24.5 -90.5t-26 -90t-77 -32q-50 0 -78 32t-28 90q0 60 26.5 91.5t79.5 31.5
z" />
    <glyph glyph-name="uni0122" unicode="&#x122;" horiz-adv-x="1127" 
d="M625 780h393v-726q-93 -37 -191.5 -55.5t-199.5 -18.5q-180 0 -297 97t-174 267t-57 390q0 222 63 390.5t188.5 263.5t312.5 95q94 0 179 -24t158 -69l-63 -160q-67 43 -133.5 64t-136.5 21q-121 0 -203.5 -68t-124.5 -198.5t-42 -319.5q0 -167 35.5 -298.5t111.5 -206.5
t197 -75q53 0 101.5 8t90.5 22v435h-208v166zM743 -125v-20q-14 -51 -36 -106t-48.5 -107t-54.5 -95h-107v24q11 37 24 92.5t24 113t14 98.5h184z" />
    <glyph glyph-name="uni0123" unicode="&#x123;" horiz-adv-x="827" 
d="M560 1569v-24q-14 -41 -30 -97.5t-27.5 -112t-14.5 -94.5h-183v22q11 48 33 103t51.5 108.5t61.5 94.5h109zM364 -492q-164 0 -257 80.5t-93 226.5q0 109 54.5 180.5t141.5 95.5q-43 20 -71 61t-28 96q0 58 27 103t76 87q-64 39 -101.5 124t-37.5 192q0 114 38.5 196.5
t111 127.5t174.5 45q32 0 56 -3t42.5 -8.5t33.5 -11.5h285v-115l-144 -20q26 -43 38 -96.5t12 -110.5q0 -171 -84.5 -268.5t-238.5 -97.5q-47 0 -74 9q-24 -22 -43 -51.5t-19 -72.5q0 -28 13 -48.5t39 -31.5t64 -11h165q126 0 194 -72t68 -219q0 -185 -113.5 -286
t-328.5 -101zM378 -351q85 0 142 25t85.5 75t28.5 124q0 60 -19 92t-55 43.5t-90 11.5h-135q-42 0 -76 -19t-54 -60.5t-20 -110.5q0 -89 52 -135t141 -46zM400 524q66 0 102.5 59t36.5 172q0 120 -37 178.5t-104 58.5q-66 0 -102.5 -62t-36.5 -177q0 -110 35 -169.5
t106 -59.5z" />
    <glyph glyph-name="Hcircumflex" unicode="&#x124;" horiz-adv-x="1107" 
d="M963 0h-190v679h-437v-679h-190v1462h190v-613h437v613h190v-1462zM642 1927q22 -45 54 -99t67.5 -107.5t68.5 -98.5v-22h-104q-41 39 -83.5 88t-88.5 104q-45 -54 -89.5 -106t-80.5 -86h-105v22q35 46 70.5 100.5t67 108.5t51.5 96h172z" />
    <glyph glyph-name="hcircumflex" unicode="&#x125;" horiz-adv-x="949" 
d="M311 1556v-425q0 -48 -3 -93t-10 -86h12q21 53 56.5 91.5t82 59.5t101.5 21q93 0 153.5 -43.5t90 -128t29.5 -208.5v-744h-182v703q0 137 -32 197t-103 60q-67 0 -110.5 -41.5t-64 -129t-20.5 -223.5v-566h-182v1556h182zM307 2021q22 -45 54 -99t67.5 -107.5t68.5 -98.5
v-22h-104q-41 39 -83.5 88t-88.5 104q-45 -54 -89.5 -106t-80.5 -86h-105v22q35 46 70.5 100.5t67 108.5t51.5 96h172z" />
    <glyph glyph-name="Hbar" unicode="&#x126;" horiz-adv-x="1108" 
d="M144 0v1086h-148v142h148v234h189v-234h439v234h190v-234h150v-142h-150v-1086h-190v677h-439v-677h-189zM336 850h438v236h-438v-236z" />
    <glyph glyph-name="hbar" unicode="&#x127;" horiz-adv-x="950" 
d="M313 1556v-182h229v-138h-229v-147q0 -37 -3.5 -75.5t-10.5 -79.5h12q21 53 56 91.5t82 59t101 20.5q94 0 154.5 -43t90.5 -127t30 -208v-727h-183v684q0 136 -32.5 197t-103.5 61q-66 0 -109.5 -39.5t-64.5 -126t-21 -228.5v-548h-181v1236h-120v138h120v182h183z" />
    <glyph glyph-name="Itilde" unicode="&#x128;" horiz-adv-x="479" 
d="M146 0v1462h190v-1462h-190zM-66 1600q4 48 14.5 94.5t29.5 83t50.5 58.5t75.5 22q39 0 73.5 -17.5t67.5 -40t63.5 -40t60.5 -17.5q31 0 47 31.5t24 85.5h110q-6 -125 -52.5 -191.5t-115.5 -66.5q-38 0 -75 17.5t-70.5 41t-63 41t-54.5 17.5q-27 0 -47.5 -30.5
t-29.5 -88.5h-108z" />
    <glyph glyph-name="itilde" unicode="&#x129;" horiz-adv-x="442" 
d="M312 0h-182v1104h182v-1104zM-89 1241q4 48 14.5 94.5t29.5 83t50.5 58.5t75.5 22q39 0 73.5 -17.5t67.5 -40t63.5 -40t60.5 -17.5q31 0 47 31.5t24 85.5h110q-6 -125 -52.5 -191.5t-115.5 -66.5q-38 0 -75 17.5t-70.5 41t-63 41t-54.5 17.5q-27 0 -47.5 -30.5
t-29.5 -88.5h-108z" />
    <glyph glyph-name="Imacron" unicode="&#x12a;" horiz-adv-x="479" 
d="M146 0v1462h190v-1462h-190zM493 1756v-137h-508v137h508z" />
    <glyph glyph-name="imacron" unicode="&#x12b;" horiz-adv-x="442" 
d="M312 0h-182v1104h182v-1104zM475 1397v-137h-508v137h508z" />
    <glyph glyph-name="Ibreve" unicode="&#x12c;" horiz-adv-x="479" 
d="M146 0v1462h190v-1462h-190zM499 1887q-1 -88 -34.5 -151.5t-92 -98t-135.5 -34.5q-114 0 -182 71t-72 213h116q5 -49 22 -82t47.5 -49.5t72.5 -16.5q41 0 71.5 16t48.5 49t22 83h116z" />
    <glyph glyph-name="ibreve" unicode="&#x12d;" horiz-adv-x="442" 
d="M312 0h-182v1104h182v-1104zM476 1528q-1 -88 -34.5 -151.5t-92 -98t-135.5 -34.5q-114 0 -182 71t-72 213h116q5 -49 22 -82t47.5 -49.5t72.5 -16.5q41 0 71.5 16t48.5 49t22 83h116z" />
    <glyph glyph-name="Iogonek" unicode="&#x12e;" horiz-adv-x="479" 
d="M146 0v1462h190v-1462h-190zM211 -235q0 -48 23.5 -73.5t66.5 -25.5q24 0 40 4.5t28 8.5v-123q-19 -8 -45 -13t-59 -5q-101 0 -151.5 50t-50.5 143q0 51 19 102.5t57 100.5t93 92l102 -26q-69 -70 -96 -124t-27 -111z" />
    <glyph glyph-name="iogonek" unicode="&#x12f;" horiz-adv-x="443" 
d="M313 1104v-1104h-182v1104h182zM224 1523q54 0 79 -32.5t25 -90.5t-26.5 -90t-77.5 -32q-50 0 -78 32t-28 90q0 60 26.5 91.5t79.5 31.5zM168 -235q0 -48 23.5 -73.5t66.5 -25.5q24 0 40 4.5t28 8.5v-123q-19 -8 -45 -13t-59 -5q-101 0 -151.5 50t-50.5 143
q0 51 19 102.5t57 100.5t93 92l102 -26q-69 -70 -96 -124t-27 -111z" />
    <glyph glyph-name="Idotaccent" unicode="&#x130;" horiz-adv-x="479" 
d="M146 0v1462h190v-1462h-190zM242 1879q54 0 78.5 -32.5t24.5 -90.5t-26 -90t-77 -32q-50 0 -78 32t-28 90q0 60 26.5 91.5t79.5 31.5z" />
    <glyph glyph-name="dotlessi" unicode="&#x131;" horiz-adv-x="442" 
d="M312 0h-182v1104h182v-1104z" />
    <glyph glyph-name="IJ" unicode="&#x132;" horiz-adv-x="953" 
d="M146 0v1462h190v-1462h-190zM513 -402q-37 0 -71.5 5t-65.5 17v168q25 -9 54 -15t60 -6q48 0 76.5 25t42 80.5t13.5 147.5v1442h189v-1451q0 -152 -34 -242.5t-100.5 -130.5t-163.5 -40z" />
    <glyph glyph-name="ij" unicode="&#x133;" horiz-adv-x="885" 
d="M313 1104v-1104h-182v1104h182zM224 1523q54 0 79 -32.5t25 -90.5t-26.5 -90t-77.5 -32q-50 0 -78 32t-28 90q0 60 26.5 91.5t79.5 31.5zM518 -492q-31 0 -58 5t-50 14v160q18 -7 37 -11.5t36 -4.5q49 0 69.5 41t20.5 128v1264h182v-1268q0 -112 -27.5 -184.5
t-80.5 -107.5t-129 -36zM560 1400q0 60 26.5 91.5t79.5 31.5t78.5 -32.5t25.5 -90.5t-26.5 -90t-77.5 -32q-50 0 -78 32t-28 90z" />
    <glyph glyph-name="Jcircumflex" unicode="&#x134;" horiz-adv-x="473" 
d="M34 -402q-37 0 -71.5 5t-65.5 17v168q25 -9 54 -15t60 -6q48 0 76.5 25t42 80.5t13.5 147.5v1442h189v-1451q0 -152 -34 -242.5t-100.5 -130.5t-163.5 -40zM323 1925q22 -45 54 -99t67.5 -107.5t68.5 -98.5v-22h-104q-41 39 -83.5 88t-88.5 104q-45 -54 -89.5 -106
t-80.5 -86h-105v22q35 46 70.5 100.5t67 108.5t51.5 96h172z" />
    <glyph glyph-name="jcircumflex" unicode="&#x135;" horiz-adv-x="443" 
d="M76 -492q-29 0 -59.5 6t-48.5 13v160q18 -7 37 -11.5t36 -4.5q49 0 69.5 40.5t20.5 124.5v1268h182v-1268q0 -108 -27.5 -181t-80.5 -110t-129 -37zM307 1568q22 -45 54 -99t67.5 -107.5t68.5 -98.5v-22h-104q-41 39 -83.5 88t-88.5 104q-45 -54 -89.5 -106t-80.5 -86
h-105v22q35 46 70.5 100.5t67 108.5t51.5 96h172z" />
    <glyph glyph-name="uni0136" unicode="&#x136;" horiz-adv-x="937" 
d="M946 0h-211l-297 664l-102 -118v-546h-190v1462h190v-725q11 32 38 83.5t67 123.5l285 518h205l-363 -647zM632 -125v-20q-14 -51 -36 -106t-48.5 -107t-54.5 -95h-107v24q11 37 24 92.5t24 113t14 98.5h184z" />
    <glyph glyph-name="uni0137" unicode="&#x137;" horiz-adv-x="842" 
d="M311 1556v-752q0 -61 -2 -119.5t-7 -116.5h7q17 36 35 69t37 63l242 404h196l-271 -431l289 -673h-196l-217 530l-113 -135v-395h-182v1556h182zM559 -125v-20q-14 -51 -36 -106t-48.5 -107t-54.5 -95h-107v24q11 37 24 92.5t24 113t14 98.5h184z" />
    <glyph glyph-name="kgreenlandic" unicode="&#x138;" horiz-adv-x="842" 
d="M819 1104l-271 -432l289 -672h-196l-217 530l-113 -134v-396h-182v1104h182v-301q0 -64 -2 -122t-7 -112h7q15 31 30.5 60.5t29.5 54.5l254 420h196z" />
    <glyph glyph-name="Lacute" unicode="&#x139;" horiz-adv-x="773" 
d="M146 0v1462h190v-1292h403v-170h-593zM531 1927v-18q-21 -32 -54 -73t-72 -84t-78.5 -83t-71.5 -69h-121v24q39 55 72 107t60.5 101t49.5 95h215z" />
    <glyph glyph-name="lacute" unicode="&#x13a;" horiz-adv-x="439" 
d="M311 0h-182v1556h182v-1556zM511 2021v-18q-21 -32 -54 -73t-72 -84t-78.5 -83t-71.5 -69h-121v24q39 55 72 107t60.5 101t49.5 95h215z" />
    <glyph glyph-name="uni013B" unicode="&#x13b;" horiz-adv-x="773" 
d="M146 0v1462h190v-1292h403v-170h-593zM553 -125v-20q-14 -51 -36 -106t-48.5 -107t-54.5 -95h-107v24q11 37 24 92.5t24 113t14 98.5h184z" />
    <glyph glyph-name="uni013C" unicode="&#x13c;" horiz-adv-x="439" 
d="M311 0h-182v1556h182v-1556zM328 -125v-20q-14 -51 -36 -106t-48.5 -107t-54.5 -95h-107v24q11 37 24 92.5t24 113t14 98.5h184z" />
    <glyph glyph-name="Lcaron" unicode="&#x13d;" horiz-adv-x="773" 
d="M146 0v1462h190v-1292h403v-170h-593zM783 1462v-20q-10 -45 -31 -103.5t-45.5 -113.5t-47.5 -91h-107v24q4 18 11 57.5t14 87t12.5 91t6.5 68.5h187z" />
    <glyph glyph-name="lcaron" unicode="&#x13e;" horiz-adv-x="440" 
d="M311 0h-182v1556h182v-1556zM617 1556v-20q-10 -45 -31 -103.5t-45.5 -113.5t-47.5 -91h-107v24q4 18 11 57.5t14 87t12.5 91t6.5 68.5h187z" />
    <glyph glyph-name="Ldot" unicode="&#x13f;" horiz-adv-x="773" 
d="M146 0v1462h190v-1292h403v-170h-593zM628 928q54 0 78.5 -32.5t24.5 -90.5t-26 -90t-77 -32q-50 0 -78 32t-28 90q0 60 26.5 91.5t79.5 31.5z" />
    <glyph glyph-name="ldot" unicode="&#x140;" horiz-adv-x="579" 
d="M311 0h-182v1556h182v-1556zM513 941q54 0 78.5 -32.5t24.5 -90.5t-26 -90t-77 -32q-50 0 -78 32t-28 90q0 60 26.5 91.5t79.5 31.5z" />
    <glyph glyph-name="Lslash" unicode="&#x141;" horiz-adv-x="793" 
d="M164 0v500l-93 -60l-90 119l183 127v776h188v-645l215 139l86 -120l-301 -203v-463h402v-170h-590z" />
    <glyph glyph-name="lslash" unicode="&#x142;" horiz-adv-x="487" 
d="M153 0v605l-108 -80l-88 119l196 148v764h181v-631l110 82l91 -118l-201 -151v-738h-181z" />
    <glyph glyph-name="Nacute" unicode="&#x143;" horiz-adv-x="1181" 
d="M1037 0h-227l-489 1163h-8q4 -58 7 -110.5t4 -100t1 -91.5v-861h-179v1462h226l490 -1143h6q-3 61 -5.5 115t-4 101t-1.5 86v841h180v-1462zM872 1927v-18q-21 -32 -54 -73t-72 -84t-78.5 -83t-71.5 -69h-121v24q39 55 72 107t60.5 101t49.5 95h215z" />
    <glyph glyph-name="nacute" unicode="&#x144;" horiz-adv-x="949" 
d="M551 1124q133 0 202.5 -94t69.5 -284v-746h-182v704q0 129 -32 193.5t-104 64.5q-102 0 -148 -92.5t-46 -301.5v-568h-182v1104h145l20 -155h12q23 54 59 93t83 60.5t103 21.5zM776 1568v-18q-21 -32 -54 -73t-72 -84t-78.5 -83t-71.5 -69h-121v24q39 55 72 107t60.5 101
t49.5 95h215z" />
    <glyph glyph-name="uni0145" unicode="&#x145;" horiz-adv-x="1181" 
d="M1037 0h-227l-489 1163h-8q4 -58 7 -110.5t4 -100t1 -91.5v-861h-179v1462h226l490 -1143h6q-3 61 -5.5 115t-4 101t-1.5 86v841h180v-1462zM698 -125v-20q-14 -51 -36 -106t-48.5 -107t-54.5 -95h-107v24q11 37 24 92.5t24 113t14 98.5h184z" />
    <glyph glyph-name="uni0146" unicode="&#x146;" horiz-adv-x="949" 
d="M551 1124q133 0 202.5 -94t69.5 -284v-746h-182v704q0 129 -32 193.5t-104 64.5q-102 0 -148 -92.5t-46 -301.5v-568h-182v1104h145l20 -155h12q23 54 59 93t83 60.5t103 21.5zM584 -125v-20q-14 -51 -36 -106t-48.5 -107t-54.5 -95h-107v24q11 37 24 92.5t24 113
t14 98.5h184z" />
    <glyph glyph-name="Ncaron" unicode="&#x147;" horiz-adv-x="1181" 
d="M1037 0h-227l-489 1163h-8q4 -58 7 -110.5t4 -100t1 -91.5v-861h-179v1462h226l490 -1143h6q-3 61 -5.5 115t-4 101t-1.5 86v841h180v-1462zM504 1600q-21 45 -52.5 99t-67 108t-69.5 99v21h105q37 -35 81.5 -86.5t88.5 -104.5q50 60 86 100.5t85 90.5h103v-21
q-29 -42 -65 -95.5t-69.5 -109t-55.5 -101.5h-170z" />
    <glyph glyph-name="ncaron" unicode="&#x148;" horiz-adv-x="949" 
d="M551 1124q133 0 202.5 -94t69.5 -284v-746h-182v704q0 129 -32 193.5t-104 64.5q-102 0 -148 -92.5t-46 -301.5v-568h-182v1104h145l20 -155h12q23 54 59 93t83 60.5t103 21.5zM406 1241q-21 45 -52.5 99t-67 108t-69.5 99v21h105q37 -35 81.5 -86.5t88.5 -104.5
q50 60 86 100.5t85 90.5h103v-21q-29 -42 -65 -95.5t-69.5 -109t-55.5 -101.5h-170z" />
    <glyph glyph-name="napostrophe" unicode="&#x149;" horiz-adv-x="1103" 
d="M704 1124q133 0 202.5 -94t69.5 -284v-746h-182v704q0 129 -32 193.5t-104 64.5q-102 0 -148 -92.5t-46 -301.5v-568h-182v1104h145l20 -155h12q23 54 59 93t83 60.5t103 21.5zM280 1462l15 -22q-19 -87 -42 -170.5t-50 -163t-59 -156.5h-143q16 61 30 128.5t26.5 135.5
t21 131.5t13.5 116.5h188z" />
    <glyph glyph-name="Eng" unicode="&#x14a;" horiz-adv-x="1182" 
d="M747 -402q-37 0 -71 5t-64 17v168q24 -9 53.5 -15t60.5 -6q46 0 75 24t43 76.5t14 137.5l-539 1176h-6q4 -57 6 -109.5t3.5 -100t1.5 -90.5v-881h-178v1462h226l490 -1069h6q-3 59 -5.5 112t-3.5 99.5t-1 86.5v771h180v-1445q0 -140 -31.5 -233.5t-96 -139.5t-163.5 -46z
" />
    <glyph glyph-name="eng" unicode="&#x14b;" horiz-adv-x="949" 
d="M586 -492q-27 0 -54 5t-53 14v160q20 -7 39 -11.5t35 -4.5q45 0 66.5 42t21.5 129v862q0 126 -33.5 189.5t-105.5 63.5q-63 0 -105.5 -36.5t-64 -122t-21.5 -229.5v-569h-182v1104h145l21 -155h9q24 53 60 92.5t83.5 61t103.5 21.5q98 0 157.5 -48.5t87 -138t27.5 -212.5
v-886q0 -100 -25 -174.5t-77.5 -115.5t-134.5 -41z" />
    <glyph glyph-name="Omacron" unicode="&#x14c;" horiz-adv-x="1141" 
d="M1044 733q0 -161 -27 -298.5t-83 -239.5t-145.5 -158.5t-215.5 -56.5q-128 0 -218.5 58t-146.5 160.5t-82.5 240t-26.5 296.5q0 249 53.5 415.5t159 250t261.5 83.5q167 0 270.5 -97.5t152 -267t48.5 -386.5zM296 733q0 -191 31.5 -321t93 -195.5t150.5 -65.5
q91 0 152 64t91.5 194t30.5 324q0 290 -68 435.5t-204 145.5q-92 0 -153.5 -65.5t-92.5 -195t-31 -320.5zM826 1756v-137h-508v137h508z" />
    <glyph glyph-name="omacron" unicode="&#x14d;" horiz-adv-x="926" 
d="M843 553q0 -126 -22.5 -231t-69 -181.5t-118.5 -118.5t-172 -42q-94 0 -165 41.5t-118 117.5t-70.5 181.5t-23.5 232.5q0 179 40.5 306.5t124.5 196t216 68.5q120 0 204.5 -65t129 -192t44.5 -314zM269 552q0 -136 20.5 -228.5t64 -139t111.5 -46.5q67 0 109.5 45.5
t63 138t20.5 231.5q0 137 -20.5 229t-63 138t-110.5 46q-103 0 -149 -103t-46 -311zM718 1397v-137h-508v137h508z" />
    <glyph glyph-name="Obreve" unicode="&#x14e;" horiz-adv-x="1141" 
d="M1044 733q0 -161 -27 -298.5t-83 -239.5t-145.5 -158.5t-215.5 -56.5q-128 0 -218.5 58t-146.5 160.5t-82.5 240t-26.5 296.5q0 249 53.5 415.5t159 250t261.5 83.5q167 0 270.5 -97.5t152 -267t48.5 -386.5zM296 733q0 -191 31.5 -321t93 -195.5t150.5 -65.5
q91 0 152 64t91.5 194t30.5 324q0 290 -68 435.5t-204 145.5q-92 0 -153.5 -65.5t-92.5 -195t-31 -320.5zM828 1887q-1 -88 -34.5 -151.5t-92 -98t-135.5 -34.5q-114 0 -182 71t-72 213h116q5 -49 22 -82t47.5 -49.5t72.5 -16.5q41 0 71.5 16t48.5 49t22 83h116z" />
    <glyph glyph-name="obreve" unicode="&#x14f;" horiz-adv-x="926" 
d="M843 553q0 -126 -22.5 -231t-69 -181.5t-118.5 -118.5t-172 -42q-94 0 -165 41.5t-118 117.5t-70.5 181.5t-23.5 232.5q0 179 40.5 306.5t124.5 196t216 68.5q120 0 204.5 -65t129 -192t44.5 -314zM269 552q0 -136 20.5 -228.5t64 -139t111.5 -46.5q67 0 109.5 45.5
t63 138t20.5 231.5q0 137 -20.5 229t-63 138t-110.5 46q-103 0 -149 -103t-46 -311zM720 1528q-1 -88 -34.5 -151.5t-92 -98t-135.5 -34.5q-114 0 -182 71t-72 213h116q5 -49 22 -82t47.5 -49.5t72.5 -16.5q41 0 71.5 16t48.5 49t22 83h116z" />
    <glyph glyph-name="Ohungarumlaut" unicode="&#x150;" horiz-adv-x="1141" 
d="M1044 733q0 -161 -27 -298.5t-83 -239.5t-145.5 -158.5t-215.5 -56.5q-128 0 -218.5 58t-146.5 160.5t-82.5 240t-26.5 296.5q0 249 53.5 415.5t159 250t261.5 83.5q167 0 270.5 -97.5t152 -267t48.5 -386.5zM296 733q0 -191 31.5 -321t93 -195.5t150.5 -65.5
q91 0 152 64t91.5 194t30.5 324q0 290 -68 435.5t-204 145.5q-92 0 -153.5 -65.5t-92.5 -195t-31 -320.5zM981 1928v-19q-15 -32 -45 -73.5t-66 -85.5t-73 -83t-67 -67h-94v23q32 50 64.5 109t59.5 112.5t39 83.5h182zM681 1928v-19q-16 -34 -44 -74t-63 -82t-73.5 -81
t-75.5 -72h-88v23q32 53 64 111t58.5 110t40.5 84h181z" />
    <glyph glyph-name="ohungarumlaut" unicode="&#x151;" horiz-adv-x="926" 
d="M843 553q0 -126 -22.5 -231t-69 -181.5t-118.5 -118.5t-172 -42q-94 0 -165 41.5t-118 117.5t-70.5 181.5t-23.5 232.5q0 179 40.5 306.5t124.5 196t216 68.5q120 0 204.5 -65t129 -192t44.5 -314zM269 552q0 -136 20.5 -228.5t64 -139t111.5 -46.5q67 0 109.5 45.5
t63 138t20.5 231.5q0 137 -20.5 229t-63 138t-110.5 46q-103 0 -149 -103t-46 -311zM873 1569v-19q-15 -32 -45 -73.5t-66 -85.5t-73 -83t-67 -67h-94v23q32 50 64.5 109t59.5 112.5t39 83.5h182zM573 1569v-19q-16 -34 -44 -74t-63 -82t-73.5 -81t-75.5 -72h-88v23
q32 53 64 111t58.5 110t40.5 84h181z" />
    <glyph glyph-name="OE" unicode="&#x152;" horiz-adv-x="1349" 
d="M600 1474q37 0 68.5 -3.5t59.5 -8.5h529v-166h-410v-450h385v-167h-385v-509h410v-170h-528q-30 -4 -62 -7.5t-70 -3.5q-170 0 -280.5 89t-164 256t-53.5 401q0 232 54.5 397.5t165 253.5t281.5 88zM604 1305q-89 -1 -148.5 -42t-94 -116t-49 -179.5t-14.5 -234.5
q0 -176 28.5 -304t96.5 -197.5t185 -71.5q16 0 29.5 2.5t22.5 3.5v1128q-10 6 -24 8.5t-32 2.5z" />
    <glyph glyph-name="oe" unicode="&#x153;" horiz-adv-x="1443" 
d="M1022 1122q118 0 192.5 -64.5t110.5 -175.5t36 -250v-120h-526q0 -192 60 -286.5t180 -94.5q62 0 120.5 18t122.5 58v-157q-58 -35 -122 -52.5t-139 -17.5q-110 0 -186 50t-124 147q-41 -96 -112 -146.5t-174 -50.5q-122 0 -206.5 69.5t-127.5 198.5t-43 305
q0 183 42 310t127 194t213 67q97 0 166.5 -49t112.5 -145q29 63 68.5 105.5t91.5 64.5t117 22zM466 966q-104 0 -150.5 -103t-46.5 -311q0 -137 21.5 -229.5t65 -139.5t108.5 -47q68 0 110.5 46t63 138.5t20.5 232.5q0 138 -20.5 229.5t-63 137.5t-108.5 46zM1020 973
q-82 0 -129.5 -77.5t-54.5 -243.5h356q0 92 -18.5 164.5t-56.5 114.5t-97 42z" />
    <glyph glyph-name="Racute" unicode="&#x154;" horiz-adv-x="961" 
d="M419 1462q151 0 250 -45t147 -136.5t48 -230.5q0 -96 -23.5 -172t-72.5 -131.5t-127 -92.5l298 -654h-210l-258 606h-135v-606h-190v1462h273zM419 1295h-83v-533h101q113 0 173.5 69.5t60.5 209.5q0 133 -61 193.5t-191 60.5zM774 1927v-18q-21 -32 -54 -73t-72 -84
t-78.5 -83t-71.5 -69h-121v24q39 55 72 107t60.5 101t49.5 95h215z" />
    <glyph glyph-name="racute" unicode="&#x155;" horiz-adv-x="638" 
d="M526 1123q23 0 45.5 -3.5t48.5 -11.5l-24 -189q-19 8 -39.5 11t-45.5 3q-45 0 -82 -27.5t-63.5 -76.5t-40.5 -114.5t-13 -142.5v-572h-182v1104h141l25 -193h11q23 61 54.5 108.5t73 75.5t91.5 28zM650 1568v-18q-21 -32 -54 -73t-72 -84t-78.5 -83t-71.5 -69h-121v24
q39 55 72 107t60.5 101t49.5 95h215z" />
    <glyph glyph-name="uni0156" unicode="&#x156;" horiz-adv-x="961" 
d="M419 1462q151 0 250 -45t147 -136.5t48 -230.5q0 -96 -23.5 -172t-72.5 -131.5t-127 -92.5l298 -654h-210l-258 606h-135v-606h-190v1462h273zM419 1295h-83v-533h101q113 0 173.5 69.5t60.5 209.5q0 133 -61 193.5t-191 60.5zM611 -125v-20q-14 -51 -36 -106t-48.5 -107
t-54.5 -95h-107v24q11 37 24 92.5t24 113t14 98.5h184z" />
    <glyph glyph-name="uni0157" unicode="&#x157;" horiz-adv-x="638" 
d="M526 1123q23 0 45.5 -3.5t48.5 -11.5l-24 -189q-19 8 -39.5 11t-45.5 3q-45 0 -82 -27.5t-63.5 -76.5t-40.5 -114.5t-13 -142.5v-572h-182v1104h141l25 -193h11q23 61 54.5 108.5t73 75.5t91.5 28zM337 -125v-20q-14 -51 -36 -106t-48.5 -107t-54.5 -95h-107v24
q11 37 24 92.5t24 113t14 98.5h184z" />
    <glyph glyph-name="Rcaron" unicode="&#x158;" horiz-adv-x="961" 
d="M419 1462q151 0 250 -45t147 -136.5t48 -230.5q0 -96 -23.5 -172t-72.5 -131.5t-127 -92.5l298 -654h-210l-258 606h-135v-606h-190v1462h273zM419 1295h-83v-533h101q113 0 173.5 69.5t60.5 209.5q0 133 -61 193.5t-191 60.5zM401 1600q-21 45 -52.5 99t-67 108
t-69.5 99v21h105q37 -35 81.5 -86.5t88.5 -104.5q50 60 86 100.5t85 90.5h103v-21q-29 -42 -65 -95.5t-69.5 -109t-55.5 -101.5h-170z" />
    <glyph glyph-name="rcaron" unicode="&#x159;" horiz-adv-x="638" 
d="M526 1123q23 0 45.5 -3.5t48.5 -11.5l-24 -189q-19 8 -39.5 11t-45.5 3q-45 0 -82 -27.5t-63.5 -76.5t-40.5 -114.5t-13 -142.5v-572h-182v1104h141l25 -193h11q23 61 54.5 108.5t73 75.5t91.5 28zM280 1241q-21 45 -52.5 99t-67 108t-69.5 99v21h105q37 -35 81.5 -86.5
t88.5 -104.5q50 60 86 100.5t85 90.5h103v-21q-29 -42 -65 -95.5t-69.5 -109t-55.5 -101.5h-170z" />
    <glyph glyph-name="Sacute" unicode="&#x15a;" horiz-adv-x="855" 
d="M781 406q0 -126 -49 -222t-137.5 -150t-207.5 -54q-58 0 -112 7t-103.5 21.5t-95.5 37.5v196q71 -42 152 -63.5t150 -21.5t115 31t70.5 83.5t24.5 116.5q0 67 -20.5 114t-68.5 87t-132 85q-64 36 -116 73.5t-89 84.5t-56.5 110.5t-19.5 150.5q-2 117 46 205t135 137
t201 48q85 0 163 -21.5t139 -53.5l-59 -172q-63 36 -123.5 53.5t-114.5 17.5q-62 0 -106 -26.5t-67 -72.5t-23 -106q0 -71 20.5 -117.5t69.5 -84.5t133 -84q94 -50 156.5 -108t93.5 -131.5t31 -170.5zM732 1927v-18q-21 -32 -54 -73t-72 -84t-78.5 -83t-71.5 -69h-121v24
q39 55 72 107t60.5 101t49.5 95h215z" />
    <glyph glyph-name="sacute" unicode="&#x15b;" horiz-adv-x="708" 
d="M644 300q0 -103 -37.5 -174.5t-109 -108.5t-173.5 -37q-77 0 -142.5 17.5t-114.5 44.5v184q46 -36 112.5 -60.5t135.5 -24.5q71 0 110 39.5t39 111.5q0 42 -16 74t-53 62.5t-101 66.5q-68 41 -119.5 87t-80 105.5t-28.5 142.5q0 133 85.5 213.5t228.5 80.5
q72 0 136.5 -19t123.5 -56l-62 -144q-44 30 -92.5 48t-100.5 18q-67 0 -105 -36.5t-38 -98.5q0 -42 15.5 -72t53.5 -59.5t104 -69.5q68 -42 119.5 -87t80.5 -104t29 -144zM656 1568v-18q-21 -32 -54 -73t-72 -84t-78.5 -83t-71.5 -69h-121v24q39 55 72 107t60.5 101t49.5 95
h215z" />
    <glyph glyph-name="Scircumflex" unicode="&#x15c;" horiz-adv-x="855" 
d="M781 406q0 -126 -49 -222t-137.5 -150t-207.5 -54q-58 0 -112 7t-103.5 21.5t-95.5 37.5v196q71 -42 152 -63.5t150 -21.5t115 31t70.5 83.5t24.5 116.5q0 67 -20.5 114t-68.5 87t-132 85q-64 36 -116 73.5t-89 84.5t-56.5 110.5t-19.5 150.5q-2 117 46 205t135 137
t201 48q85 0 163 -21.5t139 -53.5l-59 -172q-63 36 -123.5 53.5t-114.5 17.5q-62 0 -106 -26.5t-67 -72.5t-23 -106q0 -71 20.5 -117.5t69.5 -84.5t133 -84q94 -50 156.5 -108t93.5 -131.5t31 -170.5zM534 1927q22 -45 54 -99t67.5 -107.5t68.5 -98.5v-22h-104
q-41 39 -83.5 88t-88.5 104q-45 -54 -89.5 -106t-80.5 -86h-105v22q35 46 70.5 100.5t67 108.5t51.5 96h172z" />
    <glyph glyph-name="scircumflex" unicode="&#x15d;" horiz-adv-x="708" 
d="M644 300q0 -103 -37.5 -174.5t-109 -108.5t-173.5 -37q-77 0 -142.5 17.5t-114.5 44.5v184q46 -36 112.5 -60.5t135.5 -24.5q71 0 110 39.5t39 111.5q0 42 -16 74t-53 62.5t-101 66.5q-68 41 -119.5 87t-80 105.5t-28.5 142.5q0 133 85.5 213.5t228.5 80.5
q72 0 136.5 -19t123.5 -56l-62 -144q-44 30 -92.5 48t-100.5 18q-67 0 -105 -36.5t-38 -98.5q0 -42 15.5 -72t53.5 -59.5t104 -69.5q68 -42 119.5 -87t80.5 -104t29 -144zM457 1568q22 -45 54 -99t67.5 -107.5t68.5 -98.5v-22h-104q-41 39 -83.5 88t-88.5 104
q-45 -54 -89.5 -106t-80.5 -86h-105v22q35 46 70.5 100.5t67 108.5t51.5 96h172z" />
    <glyph glyph-name="Scedilla" unicode="&#x15e;" horiz-adv-x="855" 
d="M781 406q0 -126 -49 -222t-137.5 -150t-207.5 -54q-58 0 -112 7t-103.5 21.5t-95.5 37.5v196q71 -42 152 -63.5t150 -21.5t115 31t70.5 83.5t24.5 116.5q0 67 -20.5 114t-68.5 87t-132 85q-64 36 -116 73.5t-89 84.5t-56.5 110.5t-19.5 150.5q-2 117 46 205t135 137
t201 48q85 0 163 -21.5t139 -53.5l-59 -172q-63 36 -123.5 53.5t-114.5 17.5q-62 0 -106 -26.5t-67 -72.5t-23 -106q0 -71 20.5 -117.5t69.5 -84.5t133 -84q94 -50 156.5 -108t93.5 -131.5t31 -170.5zM588 -279q0 -102 -64 -157.5t-179 -55.5q-38 0 -69 4t-54 10v116
q22 -6 46 -9t47 -3q62 0 93.5 26.5t31.5 70.5q0 52 -42 78.5t-114 35.5l70 163h105l-44 -99q56 -11 94.5 -35t58.5 -60.5t20 -84.5z" />
    <glyph glyph-name="scedilla" unicode="&#x15f;" horiz-adv-x="708" 
d="M644 300q0 -103 -37.5 -174.5t-109 -108.5t-173.5 -37q-77 0 -142.5 17.5t-114.5 44.5v184q46 -36 112.5 -60.5t135.5 -24.5q71 0 110 39.5t39 111.5q0 42 -16 74t-53 62.5t-101 66.5q-68 41 -119.5 87t-80 105.5t-28.5 142.5q0 133 85.5 213.5t228.5 80.5
q72 0 136.5 -19t123.5 -56l-62 -144q-44 30 -92.5 48t-100.5 18q-67 0 -105 -36.5t-38 -98.5q0 -42 15.5 -72t53.5 -59.5t104 -69.5q68 -42 119.5 -87t80.5 -104t29 -144zM514 -279q0 -102 -64 -157.5t-179 -55.5q-38 0 -69 4t-54 10v116q22 -6 46 -9t47 -3q62 0 93.5 26.5
t31.5 70.5q0 52 -42 78.5t-114 35.5l70 163h105l-44 -99q56 -11 94.5 -35t58.5 -60.5t20 -84.5z" />
    <glyph glyph-name="Scaron" unicode="&#x160;" horiz-adv-x="855" 
d="M781 406q0 -126 -49 -222t-137.5 -150t-207.5 -54q-58 0 -112 7t-103.5 21.5t-95.5 37.5v196q71 -42 152 -63.5t150 -21.5t115 31t70.5 83.5t24.5 116.5q0 67 -20.5 114t-68.5 87t-132 85q-64 36 -116 73.5t-89 84.5t-56.5 110.5t-19.5 150.5q-2 117 46 205t135 137
t201 48q85 0 163 -21.5t139 -53.5l-59 -172q-63 36 -123.5 53.5t-114.5 17.5q-62 0 -106 -26.5t-67 -72.5t-23 -106q0 -71 20.5 -117.5t69.5 -84.5t133 -84q94 -50 156.5 -108t93.5 -131.5t31 -170.5zM364 1600q-21 45 -52.5 99t-67 108t-69.5 99v21h105q37 -35 81.5 -86.5
t88.5 -104.5q50 60 86 100.5t85 90.5h103v-21q-29 -42 -65 -95.5t-69.5 -109t-55.5 -101.5h-170z" />
    <glyph glyph-name="scaron" unicode="&#x161;" horiz-adv-x="708" 
d="M644 300q0 -103 -37.5 -174.5t-109 -108.5t-173.5 -37q-77 0 -142.5 17.5t-114.5 44.5v184q46 -36 112.5 -60.5t135.5 -24.5q71 0 110 39.5t39 111.5q0 42 -16 74t-53 62.5t-101 66.5q-68 41 -119.5 87t-80 105.5t-28.5 142.5q0 133 85.5 213.5t228.5 80.5
q72 0 136.5 -19t123.5 -56l-62 -144q-44 30 -92.5 48t-100.5 18q-67 0 -105 -36.5t-38 -98.5q0 -42 15.5 -72t53.5 -59.5t104 -69.5q68 -42 119.5 -87t80.5 -104t29 -144zM286 1241q-21 45 -52.5 99t-67 108t-69.5 99v21h105q37 -35 81.5 -86.5t88.5 -104.5q50 60 86 100.5
t85 90.5h103v-21q-29 -42 -65 -95.5t-69.5 -109t-55.5 -101.5h-170z" />
    <glyph glyph-name="uni0162" unicode="&#x162;" horiz-adv-x="797" 
d="M492 0h-189v1293h-281v169h752v-169h-282v-1293zM575 -279q0 -102 -64 -157.5t-179 -55.5q-38 0 -69 4t-54 10v116q22 -6 46 -9t47 -3q62 0 93.5 26.5t31.5 70.5q0 52 -42 78.5t-114 35.5l70 163h105l-44 -99q56 -11 94.5 -35t58.5 -60.5t20 -84.5z" />
    <glyph glyph-name="uni0163" unicode="&#x163;" horiz-adv-x="552" 
d="M416 140q26 0 52.5 6t52.5 18v-148q-34 -17 -74 -26.5t-88 -9.5q-77 0 -126.5 33.5t-72.5 101t-23 169.5v668h-104v98l114 49l47 250h125v-245h190v-152h-190v-652q0 -80 20.5 -120t76.5 -40zM516 -279q0 -102 -64 -157.5t-179 -55.5q-38 0 -69 4t-54 10v116q22 -6 46 -9
t47 -3q62 0 93.5 26.5t31.5 70.5q0 52 -42 78.5t-114 35.5l70 163h105l-44 -99q56 -11 94.5 -35t58.5 -60.5t20 -84.5z" />
    <glyph glyph-name="Tcaron" unicode="&#x164;" horiz-adv-x="797" 
d="M492 0h-189v1293h-281v169h752v-169h-282v-1293zM314 1600q-21 45 -52.5 99t-67 108t-69.5 99v21h105q37 -35 81.5 -86.5t88.5 -104.5q50 60 86 100.5t85 90.5h103v-21q-29 -42 -65 -95.5t-69.5 -109t-55.5 -101.5h-170z" />
    <glyph glyph-name="tcaron" unicode="&#x165;" horiz-adv-x="552" 
d="M416 140q26 0 52.5 6t52.5 18v-148q-34 -17 -74 -26.5t-88 -9.5q-77 0 -126.5 33.5t-72.5 101t-23 169.5v668h-104v98l114 49l47 250h125v-245h190v-152h-190v-652q0 -80 20.5 -120t76.5 -40zM767 1556v-20q-10 -45 -31 -103.5t-45.5 -113.5t-47.5 -91h-107v24
q4 18 11 57.5t14 87t12.5 91t6.5 68.5h187z" />
    <glyph glyph-name="Tbar" unicode="&#x166;" horiz-adv-x="797" 
d="M303 0v659h-204v150h204v483h-281v170h752v-170h-282v-483h205v-150h-205v-659h-189z" />
    <glyph glyph-name="tbar" unicode="&#x167;" horiz-adv-x="552" 
d="M36 545v136h464v-136h-464zM416 140q26 0 52.5 6t52.5 18v-148q-34 -17 -74 -26.5t-88 -9.5q-77 0 -126.5 33.5t-72.5 101t-23 169.5v668h-104v98l114 49l47 250h125v-245h190v-152h-190v-652q0 -80 20.5 -120t76.5 -40z" />
    <glyph glyph-name="Utilde" unicode="&#x168;" horiz-adv-x="1084" 
d="M949 1462v-999q0 -167 -46.5 -274t-136.5 -158t-223 -51q-199 0 -304 117.5t-105 363.5v1001h190v-999q0 -167 57 -239.5t163 -72.5q71 0 118.5 31t72 100t24.5 183v997h190zM234 1600q4 48 14.5 94.5t29.5 83t50.5 58.5t75.5 22q39 0 73.5 -17.5t67.5 -40t63.5 -40
t60.5 -17.5q31 0 47 31.5t24 85.5h110q-6 -125 -52.5 -191.5t-115.5 -66.5q-38 0 -75 17.5t-70.5 41t-63 41t-54.5 17.5q-27 0 -47.5 -30.5t-29.5 -88.5h-108z" />
    <glyph glyph-name="utilde" unicode="&#x169;" horiz-adv-x="949" 
d="M820 1104v-1104h-145l-20 153h-12q-23 -54 -58.5 -92.5t-81.5 -59.5t-103 -21q-97 0 -157.5 48.5t-88.5 138t-28 213.5v724h182v-682q0 -143 32 -211t99 -68q75 0 118 41.5t62 125t19 210.5v584h182zM168 1241q4 48 14.5 94.5t29.5 83t50.5 58.5t75.5 22q39 0 73.5 -17.5
t67.5 -40t63.5 -40t60.5 -17.5q31 0 47 31.5t24 85.5h110q-6 -125 -52.5 -191.5t-115.5 -66.5q-38 0 -75 17.5t-70.5 41t-63 41t-54.5 17.5q-27 0 -47.5 -30.5t-29.5 -88.5h-108z" />
    <glyph glyph-name="Umacron" unicode="&#x16a;" horiz-adv-x="1084" 
d="M949 1462v-999q0 -167 -46.5 -274t-136.5 -158t-223 -51q-199 0 -304 117.5t-105 363.5v1001h190v-999q0 -167 57 -239.5t163 -72.5q71 0 118.5 31t72 100t24.5 183v997h190zM797 1756v-137h-508v137h508z" />
    <glyph glyph-name="umacron" unicode="&#x16b;" horiz-adv-x="949" 
d="M820 1104v-1104h-145l-20 153h-12q-23 -54 -58.5 -92.5t-81.5 -59.5t-103 -21q-97 0 -157.5 48.5t-88.5 138t-28 213.5v724h182v-682q0 -143 32 -211t99 -68q75 0 118 41.5t62 125t19 210.5v584h182zM731 1397v-137h-508v137h508z" />
    <glyph glyph-name="Ubreve" unicode="&#x16c;" horiz-adv-x="1084" 
d="M949 1462v-999q0 -167 -46.5 -274t-136.5 -158t-223 -51q-199 0 -304 117.5t-105 363.5v1001h190v-999q0 -167 57 -239.5t163 -72.5q71 0 118.5 31t72 100t24.5 183v997h190zM799 1887q-1 -88 -34.5 -151.5t-92 -98t-135.5 -34.5q-114 0 -182 71t-72 213h116
q5 -49 22 -82t47.5 -49.5t72.5 -16.5q41 0 71.5 16t48.5 49t22 83h116z" />
    <glyph glyph-name="ubreve" unicode="&#x16d;" horiz-adv-x="949" 
d="M820 1104v-1104h-145l-20 153h-12q-23 -54 -58.5 -92.5t-81.5 -59.5t-103 -21q-97 0 -157.5 48.5t-88.5 138t-28 213.5v724h182v-682q0 -143 32 -211t99 -68q75 0 118 41.5t62 125t19 210.5v584h182zM732 1528q-1 -88 -34.5 -151.5t-92 -98t-135.5 -34.5q-114 0 -182 71
t-72 213h116q5 -49 22 -82t47.5 -49.5t72.5 -16.5q41 0 71.5 16t48.5 49t22 83h116z" />
    <glyph glyph-name="Uring" unicode="&#x16e;" horiz-adv-x="1084" 
d="M949 1462v-999q0 -167 -46.5 -274t-136.5 -158t-223 -51q-199 0 -304 117.5t-105 363.5v1001h190v-999q0 -167 57 -239.5t163 -72.5q71 0 118.5 31t72 100t24.5 183v997h190zM542 1606q-100 0 -159 58t-59 152q0 95 59 153t159 58q95 0 156.5 -57.5t61.5 -150.5
q0 -95 -59.5 -154t-158.5 -59zM544 1713q47 0 77 28t30 75t-28.5 77t-78.5 30q-48 0 -78.5 -30t-30.5 -76q0 -47 27.5 -75.5t81.5 -28.5z" />
    <glyph glyph-name="uring" unicode="&#x16f;" horiz-adv-x="949" 
d="M820 1104v-1104h-145l-20 153h-12q-23 -54 -58.5 -92.5t-81.5 -59.5t-103 -21q-97 0 -157.5 48.5t-88.5 138t-28 213.5v724h182v-682q0 -143 32 -211t99 -68q75 0 118 41.5t62 125t19 210.5v584h182zM476 1247q-100 0 -159 58t-59 152q0 95 59 153t159 58
q95 0 156.5 -57.5t61.5 -150.5q0 -95 -59.5 -154t-158.5 -59zM478 1354q47 0 77 28t30 75t-28.5 77t-78.5 30q-48 0 -78.5 -30t-30.5 -76q0 -47 27.5 -75.5t81.5 -28.5z" />
    <glyph glyph-name="Uhungarumlaut" unicode="&#x170;" horiz-adv-x="1084" 
d="M949 1462v-999q0 -167 -46.5 -274t-136.5 -158t-223 -51q-199 0 -304 117.5t-105 363.5v1001h190v-999q0 -167 57 -239.5t163 -72.5q71 0 118.5 31t72 100t24.5 183v997h190zM950 1928v-19q-15 -32 -45 -73.5t-66 -85.5t-73 -83t-67 -67h-94v23q32 50 64.5 109
t59.5 112.5t39 83.5h182zM650 1928v-19q-16 -34 -44 -74t-63 -82t-73.5 -81t-75.5 -72h-88v23q32 53 64 111t58.5 110t40.5 84h181z" />
    <glyph glyph-name="uhungarumlaut" unicode="&#x171;" horiz-adv-x="949" 
d="M820 1104v-1104h-145l-20 153h-12q-23 -54 -58.5 -92.5t-81.5 -59.5t-103 -21q-97 0 -157.5 48.5t-88.5 138t-28 213.5v724h182v-682q0 -143 32 -211t99 -68q75 0 118 41.5t62 125t19 210.5v584h182zM884 1569v-19q-15 -32 -45 -73.5t-66 -85.5t-73 -83t-67 -67h-94v23
q32 50 64.5 109t59.5 112.5t39 83.5h182zM584 1569v-19q-16 -34 -44 -74t-63 -82t-73.5 -81t-75.5 -72h-88v23q32 53 64 111t58.5 110t40.5 84h181z" />
    <glyph glyph-name="Uogonek" unicode="&#x172;" horiz-adv-x="1084" 
d="M632 -239q0 -47 23.5 -70t65.5 -23q20 0 41 4.5t32 9.5v-127q-22 -9 -52 -13t-59 -4q-101 0 -150 50.5t-49 143.5q0 50 19.5 98t54.5 91.5t80 80.5l188 80q-76 -76 -118 -133t-59 -101.5t-17 -86.5zM949 1462v-999q0 -167 -46.5 -274t-136.5 -158t-223 -51
q-199 0 -304 117.5t-105 363.5v1001h190v-999q0 -167 57 -239.5t163 -72.5q71 0 118.5 31t72 100t24.5 183v997h190z" />
    <glyph glyph-name="uogonek" unicode="&#x173;" horiz-adv-x="949" 
d="M820 1104v-1104h-145l-20 153h-12q-23 -54 -58.5 -92.5t-81.5 -59.5t-103 -21q-97 0 -157.5 48.5t-88.5 138t-28 213.5v724h182v-682q0 -143 32 -211t99 -68q75 0 118 41.5t62 125t19 210.5v584h182zM674 -235q0 -48 23.5 -73.5t66.5 -25.5q24 0 40 4.5t28 8.5v-123
q-19 -8 -45 -13t-59 -5q-101 0 -151.5 50t-50.5 143q0 51 19 102.5t57 100.5t93 92l102 -26q-69 -70 -96 -124t-27 -111z" />
    <glyph glyph-name="Wcircumflex" unicode="&#x174;" horiz-adv-x="1490" 
d="M1483 1462l-298 -1462h-223l-177 891q-3 23 -8 53.5t-10 68t-11 81.5t-12 95q-4 -35 -8 -72t-9.5 -75t-11 -75.5t-13.5 -73.5l-174 -893h-221l-300 1462h189l171 -878q10 -52 18.5 -102t16 -97.5t13.5 -89t9 -75.5q6 45 13 92.5t15 94.5t15.5 91t14.5 82l178 882h171
l173 -880q8 -40 15.5 -82.5t14.5 -87.5t14 -93.5t13 -99.5q7 64 16.5 127t19.5 123.5t21 114.5l174 878h191zM831 1927q22 -45 54 -99t67.5 -107.5t68.5 -98.5v-22h-104q-41 39 -83.5 88t-88.5 104q-45 -54 -89.5 -106t-80.5 -86h-105v22q35 46 70.5 100.5t67 108.5t51.5 96
h172z" />
    <glyph glyph-name="wcircumflex" unicode="&#x175;" horiz-adv-x="1264" 
d="M796 0l-124 652q-5 29 -10 61t-9.5 64t-9 63.5t-8.5 60.5h-5q-4 -31 -8.5 -63.5t-9.5 -64.5t-10 -62.5t-10 -58.5l-131 -652h-208l-236 1104h182l107 -537q11 -54 20.5 -112.5t18 -117t15.5 -116.5h6q5 36 10.5 75t11.5 81.5t14 88t18 93.5l111 545h205l109 -549
q9 -43 17.5 -96t17.5 -113t18 -125h6q3 35 8.5 75t12.5 85.5t16 94.5l128 628h178l-241 -1104h-210zM716 1568q22 -45 54 -99t67.5 -107.5t68.5 -98.5v-22h-104q-41 39 -83.5 88t-88.5 104q-45 -54 -89.5 -106t-80.5 -86h-105v22q35 46 70.5 100.5t67 108.5t51.5 96h172z
" />
    <glyph glyph-name="Ycircumflex" unicode="&#x176;" horiz-adv-x="832" 
d="M417 787l218 675h197l-322 -894v-568h-189v563l-321 899h197zM500 1927q22 -45 54 -99t67.5 -107.5t68.5 -98.5v-22h-104q-41 39 -83.5 88t-88.5 104q-45 -54 -89.5 -106t-80.5 -86h-105v22q35 46 70.5 100.5t67 108.5t51.5 96h172z" />
    <glyph glyph-name="ycircumflex" unicode="&#x177;" horiz-adv-x="787" 
d="M11 1104h189l149 -617q9 -41 17 -80.5t15 -78t12 -75.5h8q7 53 18.5 110.5t27.5 123.5l144 617h188l-328 -1263q-31 -117 -73 -190.5t-98.5 -108t-133.5 -34.5q-26 0 -52 5t-54 12v162q19 -7 39.5 -11t39.5 -4q39 0 65.5 18.5t47.5 63t42 123.5l33 132zM478 1568
q22 -45 54 -99t67.5 -107.5t68.5 -98.5v-22h-104q-41 39 -83.5 88t-88.5 104q-45 -54 -89.5 -106t-80.5 -86h-105v22q35 46 70.5 100.5t67 108.5t51.5 96h172z" />
    <glyph glyph-name="Ydieresis" unicode="&#x178;" horiz-adv-x="832" 
d="M417 787l218 675h197l-322 -894v-568h-189v563l-321 899h197zM151 1733q0 55 26.5 81.5t66.5 26.5q41 0 67 -27.5t26 -80.5q0 -54 -26 -82t-67 -28q-40 0 -66.5 27.5t-26.5 82.5zM489 1733q0 55 27 81.5t68 26.5t68 -27.5t27 -80.5q0 -54 -27 -82t-68 -28q-42 0 -68.5 28
t-26.5 82z" />
    <glyph glyph-name="Zacute" unicode="&#x179;" horiz-adv-x="768" 
d="M726 0h-674v143l458 1151h-449v168h652v-144l-459 -1148h472v-170zM669 1927v-18q-21 -32 -54 -73t-72 -84t-78.5 -83t-71.5 -69h-121v24q39 55 72 107t60.5 101t49.5 95h215z" />
    <glyph glyph-name="zacute" unicode="&#x17a;" horiz-adv-x="643" 
d="M600 0h-551v121l337 827h-315v156h515v-130l-331 -820h345v-154zM619 1568v-18q-21 -32 -54 -73t-72 -84t-78.5 -83t-71.5 -69h-121v24q39 55 72 107t60.5 101t49.5 95h215z" />
    <glyph glyph-name="Zdotaccent" unicode="&#x17b;" horiz-adv-x="768" 
d="M726 0h-674v143l458 1151h-449v168h652v-144l-459 -1148h472v-170zM399 1880q54 0 78.5 -32.5t24.5 -90.5t-26 -90t-77 -32q-50 0 -78 32t-28 90q0 60 26.5 91.5t79.5 31.5z" />
    <glyph glyph-name="zdotaccent" unicode="&#x17c;" horiz-adv-x="643" 
d="M600 0h-551v121l337 827h-315v156h515v-130l-331 -820h345v-154zM347 1523q54 0 78.5 -32.5t24.5 -90.5t-26 -90t-77 -32q-50 0 -78 32t-28 90q0 60 26.5 91.5t79.5 31.5z" />
    <glyph glyph-name="Zcaron" unicode="&#x17d;" horiz-adv-x="768" 
d="M726 0h-674v143l458 1151h-449v168h652v-144l-459 -1148h472v-170zM300 1600q-21 45 -52.5 99t-67 108t-69.5 99v21h105q37 -35 81.5 -86.5t88.5 -104.5q50 60 86 100.5t85 90.5h103v-21q-29 -42 -65 -95.5t-69.5 -109t-55.5 -101.5h-170z" />
    <glyph glyph-name="zcaron" unicode="&#x17e;" horiz-adv-x="643" 
d="M600 0h-551v121l337 827h-315v156h515v-130l-331 -820h345v-154zM249 1241q-21 45 -52.5 99t-67 108t-69.5 99v21h105q37 -35 81.5 -86.5t88.5 -104.5q50 60 86 100.5t85 90.5h103v-21q-29 -42 -65 -95.5t-69.5 -109t-55.5 -101.5h-170z" />
    <glyph glyph-name="longs" unicode="&#x17f;" horiz-adv-x="483" 
d="M429 1409q-60 0 -81.5 -52t-23.5 -180v-1177h-182v1168q0 131 24 219.5t81 134t153 45.5q45 0 85 -8t85 -26l-43 -144q-25 9 -50.5 14.5t-47.5 5.5z" />
    <glyph glyph-name="florin" unicode="&#x192;" horiz-adv-x="836" 
d="M571 1483q48 0 93 -10t98 -34l-47 -142q-30 14 -57.5 21t-53.5 7q-61 0 -84.5 -51t-23.5 -170v-133h189v-153h-189v-916q0 -129 -25 -217t-83.5 -132.5t-160.5 -44.5q-43 0 -78.5 6t-67.5 13v158q32 -9 61 -13.5t55 -4.5q64 0 90.5 49.5t26.5 153.5v948h-146v99l146 58
v127q0 131 26.5 215.5t83.5 125t147 40.5z" />
    <glyph glyph-name="Ohorn" unicode="&#x1a0;" horiz-adv-x="1151" 
d="M1044 733q0 -161 -27 -298.5t-83 -239.5t-145.5 -158.5t-215.5 -56.5q-128 0 -218.5 58t-146.5 160.5t-82.5 240t-26.5 296.5q0 249 53.5 415.5t159 250t261.5 83.5q118 0 207 -51.5t148 -154.5q42 28 64 68t30.5 93t9.5 117h167l14 -24q-13 -164 -68.5 -255t-155.5 -133
q28 -83 41.5 -185.5t13.5 -225.5zM296 733q0 -191 31.5 -321t93 -195.5t150.5 -65.5q91 0 152 64t91.5 194t30.5 324q0 290 -68 435.5t-204 145.5q-92 0 -153.5 -65.5t-92.5 -195t-31 -320.5z" />
    <glyph glyph-name="ohorn" unicode="&#x1a1;" horiz-adv-x="980" 
d="M843 553q0 -183 -44.5 -311t-129.5 -195t-208 -67q-119 0 -203.5 67.5t-129 196t-44.5 309.5q0 280 97.5 425.5t283.5 145.5q87 0 157 -37.5t118 -111.5q43 16 67 57t35 101t12 134h165l15 -24q-9 -118 -38 -196.5t-78 -125.5t-118 -70q22 -62 32.5 -136t10.5 -162z
M269 552q0 -137 22 -229.5t65.5 -139.5t108.5 -47q67 0 109.5 46.5t63 139t20.5 231.5q0 137 -20.5 229t-63 138t-110.5 46q-103 0 -149 -103t-46 -311z" />
    <glyph glyph-name="Uhorn" unicode="&#x1af;" horiz-adv-x="1215" 
d="M949 1462v-204q60 9 91 50.5t43 106t12 141.5h166l15 -24q-9 -101 -33 -175t-64.5 -123.5t-97.5 -76t-132 -32.5v-618q0 -177 -46.5 -294t-136.5 -175t-223 -58q-199 0 -304 132.5t-105 391.5v958h190v-958q0 -180 57 -266.5t163 -86.5q71 0 118.5 37.5t72 116
t24.5 201.5v956h190z" />
    <glyph glyph-name="uhorn" unicode="&#x1b0;" horiz-adv-x="1085" 
d="M1127 1266l11 -25q-7 -101 -30 -174t-62.5 -121t-95.5 -75t-130 -36v-835h-145l-20 153h-13q-23 -54 -58 -92.5t-81 -59.5t-103 -21q-97 0 -157.5 48.5t-88.5 138.5t-28 213v724h182v-682q0 -143 32 -211t99 -68q104 0 151.5 89.5t47.5 302.5v569h182v-135
q56 11 85.5 51.5t41.5 104.5t12 141h168z" />
    <glyph glyph-name="uni01EA" unicode="&#x1ea;" horiz-adv-x="1141" 
d="M1044 733q0 -161 -27 -298.5t-83 -239.5t-145.5 -158.5t-215.5 -56.5q-128 0 -218.5 58t-146.5 160.5t-82.5 240t-26.5 296.5q0 249 53.5 415.5t159 250t261.5 83.5q167 0 270.5 -97.5t152 -267t48.5 -386.5zM296 733q0 -191 31.5 -321t93 -195.5t150.5 -65.5
q91 0 152 64t91.5 194t30.5 324q0 290 -68 435.5t-204 145.5q-92 0 -153.5 -65.5t-92.5 -195t-31 -320.5zM553 -235q0 -48 23.5 -73.5t66.5 -25.5q24 0 40 4.5t28 8.5v-123q-19 -8 -45 -13t-59 -5q-101 0 -151.5 50t-50.5 143q0 51 19 102.5t57 100.5t93 92l102 -26
q-69 -70 -96 -124t-27 -111z" />
    <glyph glyph-name="uni01EB" unicode="&#x1eb;" horiz-adv-x="926" 
d="M843 553q0 -126 -22.5 -231t-69 -181.5t-118.5 -118.5t-172 -42q-94 0 -165 41.5t-118 117.5t-70.5 181.5t-23.5 232.5q0 179 40.5 306.5t124.5 196t216 68.5q120 0 204.5 -65t129 -192t44.5 -314zM269 552q0 -136 20.5 -228.5t64 -139t111.5 -46.5q67 0 109.5 45.5
t63 138t20.5 231.5q0 137 -20.5 229t-63 138t-110.5 46q-103 0 -149 -103t-46 -311zM447 -235q0 -48 23.5 -73.5t66.5 -25.5q24 0 40 4.5t28 8.5v-123q-19 -8 -45 -13t-59 -5q-101 0 -151.5 50t-50.5 143q0 51 19 102.5t57 100.5t93 92l102 -26q-69 -70 -96 -124t-27 -111z
" />
    <glyph glyph-name="uni01EC" unicode="&#x1ec;" horiz-adv-x="1141" 
d="M1044 733q0 -161 -27 -298.5t-83 -239.5t-145.5 -158.5t-215.5 -56.5q-128 0 -218.5 58t-146.5 160.5t-82.5 240t-26.5 296.5q0 249 53.5 415.5t159 250t261.5 83.5q167 0 270.5 -97.5t152 -267t48.5 -386.5zM296 733q0 -191 31.5 -321t93 -195.5t150.5 -65.5
q91 0 152 64t91.5 194t30.5 324q0 290 -68 435.5t-204 145.5q-92 0 -153.5 -65.5t-92.5 -195t-31 -320.5zM826 1756v-137h-508v137h508zM552 -235q0 -48 23.5 -73.5t66.5 -25.5q24 0 40 4.5t28 8.5v-123q-19 -8 -45 -13t-59 -5q-101 0 -151.5 50t-50.5 143q0 51 19 102.5
t57 100.5t93 92l102 -26q-69 -70 -96 -124t-27 -111z" />
    <glyph glyph-name="uni01ED" unicode="&#x1ed;" horiz-adv-x="926" 
d="M843 553q0 -126 -22.5 -231t-69 -181.5t-118.5 -118.5t-172 -42q-94 0 -165 41.5t-118 117.5t-70.5 181.5t-23.5 232.5q0 179 40.5 306.5t124.5 196t216 68.5q120 0 204.5 -65t129 -192t44.5 -314zM269 552q0 -136 20.5 -228.5t64 -139t111.5 -46.5q67 0 109.5 45.5
t63 138t20.5 231.5q0 137 -20.5 229t-63 138t-110.5 46q-103 0 -149 -103t-46 -311zM718 1397v-137h-508v137h508zM445 -235q0 -48 23.5 -73.5t66.5 -25.5q24 0 40 4.5t28 8.5v-123q-19 -8 -45 -13t-59 -5q-101 0 -151.5 50t-50.5 143q0 51 19 102.5t57 100.5t93 92l102 -26
q-69 -70 -96 -124t-27 -111z" />
    <glyph glyph-name="uni01F0" unicode="&#x1f0;" horiz-adv-x="443" 
d="M76 -492q-29 0 -59.5 6t-48.5 13v160q18 -7 37 -11.5t36 -4.5q49 0 69.5 40.5t20.5 124.5v1268h182v-1268q0 -108 -27.5 -181t-80.5 -110t-129 -37zM137 1241q-21 45 -52.5 99t-67 108t-69.5 99v21h105q37 -35 81.5 -86.5t88.5 -104.5q50 60 86 100.5t85 90.5h103v-21
q-29 -42 -65 -95.5t-69.5 -109t-55.5 -101.5h-170z" />
    <glyph glyph-name="Aringacute" unicode="&#x1fa;" horiz-adv-x="949" 
d="M0 0l343 1295q-40 19 -65 56.5t-25 91.5q0 94 60 152.5t158 58.5q95 0 156.5 -57.5t61.5 -151.5q0 -55 -25 -93t-66 -57l351 -1295h-204l-92 375h-358l-90 -375h-205zM328 545h289l-109 445q-8 41 -15.5 81t-12.5 73.5t-8 55.5q-2 -17 -5 -37.5t-7 -43t-7.5 -45.5
t-7.5 -44zM473 1338q46 0 76 29t30 77q0 45 -28.5 75t-77.5 30t-79 -30t-30 -75q0 -47 27.5 -76.5t81.5 -29.5zM360 1708v20q57 68 89.5 109.5t51 70t31.5 56.5h222v-14q-17 -25 -48 -57t-68.5 -65t-75 -64.5t-67.5 -55.5h-135z" />
    <glyph glyph-name="aringacute" unicode="&#x1fb;" horiz-adv-x="868" 
d="M447 1124q155 0 225 -98t70 -286v-740h-136l-28 155h-5q-28 -57 -64.5 -96t-83.5 -59t-108 -20q-87 0 -142 46.5t-81 121.5t-26 161q0 166 95 256t269 98l129 7v68q0 122 -34.5 179t-110.5 57q-46 0 -98.5 -16.5t-113.5 -53.5l-55 137q65 42 141 62.5t157 20.5zM562 541
l-95 -6q-108 -6 -161 -61t-53 -159q0 -96 34 -142t95 -46q84 0 132 81.5t48 223.5v109zM447 1521q-47 0 -77.5 -30t-30.5 -75q0 -47 27 -76t81 -29q48 0 77.5 28.5t29.5 75.5q0 46 -28.5 76t-78.5 30zM446 1626q64 0 113.5 -26t79 -72.5t29.5 -110.5q0 -94 -61 -153.5
t-161 -59.5q-99 0 -158 58t-59 154q0 94 59.5 152t157.5 58zM739 1956v-15q-26 -39 -75.5 -91.5t-101 -100.5t-85.5 -75h-135v20q48 62 79.5 106.5t53.5 81.5t40 74h224z" />
    <glyph glyph-name="AEacute" unicode="&#x1fc;" horiz-adv-x="1293" 
d="M1200 0h-601v441h-272l-125 -441h-206l440 1462h764v-168h-412v-448h386v-167h-386v-509h412v-170zM372 612h229v680h-36zM954 1927v-18q-21 -32 -54 -73t-72 -84t-78.5 -83t-71.5 -69h-121v24q39 55 72 107t60.5 101t49.5 95h215z" />
    <glyph glyph-name="aeacute" unicode="&#x1fd;" horiz-adv-x="1344" 
d="M922 1122q116 0 191.5 -64.5t112 -175t36.5 -250.5v-119h-524q2 -193 61 -287.5t174 -94.5q62 0 123.5 18.5t123.5 57.5v-157q-58 -35 -123 -52.5t-142 -17.5q-73 0 -136.5 25.5t-112 75t-77.5 120.5q-34 -76 -78.5 -125t-99.5 -72.5t-122 -23.5q-90 0 -148 46
t-85.5 121.5t-27.5 162.5q0 111 43 187.5t124.5 118.5t197.5 47l128 7v72q0 116 -35.5 174t-108.5 58q-46 0 -98.5 -16.5t-113.5 -53.5l-56 138q59 36 130 59t152 23q90 0 148 -37.5t89 -114.5q41 73 104.5 111.5t149.5 38.5zM562 540l-94 -5q-110 -6 -162.5 -59.5
t-52.5 -160.5q0 -94 33.5 -140.5t95.5 -46.5q56 0 96.5 36t62 103t21.5 158v115zM920 973q-79 0 -127 -78t-54 -242h354q0 93 -18.5 165t-56.5 113.5t-98 41.5zM970 1568v-18q-21 -32 -54 -73t-72 -84t-78.5 -83t-71.5 -69h-121v24q39 55 72 107t60.5 101t49.5 95h215z" />
    <glyph glyph-name="Oslashacute" unicode="&#x1fe;" horiz-adv-x="1146" 
d="M1047 733q0 -180 -29.5 -320t-88.5 -236.5t-147 -146.5t-205 -50q-78 0 -142 23.5t-115 69.5l-86 -175l-109 50l108 217q-69 107 -99.5 248.5t-30.5 321.5q0 249 54 415.5t159.5 250t260.5 83.5q78 0 144.5 -26t118.5 -77l84 164l109 -53l-105 -208q60 -95 89.5 -233.5
t29.5 -317.5zM854 733q0 100 -9 184.5t-28 149.5l-417 -829q33 -46 77 -69t98 -23q93 0 155 65.5t93 196.5t31 325zM297 733q0 -112 11 -201.5t33 -156.5l421 836q-34 55 -80 80.5t-105 25.5q-93 0 -155.5 -66t-93.5 -196t-31 -322zM866 1927v-18q-21 -32 -54 -73t-72 -84
t-78.5 -83t-71.5 -69h-121v24q39 55 72 107t60.5 101t49.5 95h215z" />
    <glyph glyph-name="oslashacute" unicode="&#x1ff;" horiz-adv-x="932" 
d="M846 553q0 -183 -44.5 -311t-129.5 -195t-208 -67q-54 0 -100.5 15t-84.5 45l-85 -175l-105 51l105 208q-55 80 -81 186.5t-26 242.5q0 280 97.5 425.5t283.5 145.5q56 0 103 -16.5t87 -51.5l75 148l104 -51l-90 -183q50 -75 74.5 -180t24.5 -237zM267 552q0 -76 7 -137
t20 -104l300 599q-24 31 -55.5 46.5t-70.5 15.5q-106 0 -153.5 -105t-47.5 -315zM670 553q0 71 -7 128t-17 99l-297 -595q22 -28 52 -42t65 -14q71 0 116 47.5t66.5 141.5t21.5 235zM757 1568v-18q-21 -32 -54 -73t-72 -84t-78.5 -83t-71.5 -69h-121v24q39 55 72 107
t60.5 101t49.5 95h215z" />
    <glyph glyph-name="uni0218" unicode="&#x218;" horiz-adv-x="855" 
d="M781 406q0 -126 -49 -222t-137.5 -150t-207.5 -54q-58 0 -112 7t-103.5 21.5t-95.5 37.5v196q71 -42 152 -63.5t150 -21.5t115 31t70.5 83.5t24.5 116.5q0 67 -20.5 114t-68.5 87t-132 85q-64 36 -116 73.5t-89 84.5t-56.5 110.5t-19.5 150.5q-2 117 46 205t135 137
t201 48q85 0 163 -21.5t139 -53.5l-59 -172q-63 36 -123.5 53.5t-114.5 17.5q-62 0 -106 -26.5t-67 -72.5t-23 -106q0 -71 20.5 -117.5t69.5 -84.5t133 -84q94 -50 156.5 -108t93.5 -131.5t31 -170.5zM508 -125v-20q-14 -51 -36 -106t-48.5 -107t-54.5 -95h-107v24
q11 37 24 92.5t24 113t14 98.5h184z" />
    <glyph glyph-name="uni0219" unicode="&#x219;" horiz-adv-x="708" 
d="M644 300q0 -103 -37.5 -174.5t-109 -108.5t-173.5 -37q-77 0 -142.5 17.5t-114.5 44.5v184q46 -36 112.5 -60.5t135.5 -24.5q71 0 110 39.5t39 111.5q0 42 -16 74t-53 62.5t-101 66.5q-68 41 -119.5 87t-80 105.5t-28.5 142.5q0 133 85.5 213.5t228.5 80.5
q72 0 136.5 -19t123.5 -56l-62 -144q-44 30 -92.5 48t-100.5 18q-67 0 -105 -36.5t-38 -98.5q0 -42 15.5 -72t53.5 -59.5t104 -69.5q68 -42 119.5 -87t80.5 -104t29 -144zM436 -125v-20q-14 -51 -36 -106t-48.5 -107t-54.5 -95h-107v24q11 37 24 92.5t24 113t14 98.5h184z
" />
    <glyph glyph-name="uni021A" unicode="&#x21a;" horiz-adv-x="797" 
d="M492 0h-189v1293h-281v169h752v-169h-282v-1293zM504 -125v-20q-14 -51 -36 -106t-48.5 -107t-54.5 -95h-107v24q11 37 24 92.5t24 113t14 98.5h184z" />
    <glyph glyph-name="uni021B" unicode="&#x21b;" horiz-adv-x="552" 
d="M416 140q26 0 52.5 6t52.5 18v-148q-34 -17 -74 -26.5t-88 -9.5q-77 0 -126.5 33.5t-72.5 101t-23 169.5v668h-104v98l114 49l47 250h125v-245h190v-152h-190v-652q0 -80 20.5 -120t76.5 -40zM441 -125v-20q-14 -51 -36 -106t-48.5 -107t-54.5 -95h-107v24q11 37 24 92.5
t24 113t14 98.5h184z" />
    <glyph glyph-name="uni0237" unicode="&#x237;" horiz-adv-x="443" 
d="M76 -492q-29 0 -59.5 6t-48.5 13v160q18 -7 37 -11.5t36 -4.5q49 0 69.5 40.5t20.5 124.5v1268h182v-1268q0 -108 -27.5 -181t-80.5 -110t-129 -37z" />
    <glyph glyph-name="uni0259" unicode="&#x259;" horiz-adv-x="869" 
d="M389 1122q143 0 230.5 -72t127.5 -199.5t40 -293.5q0 -185 -41 -314t-121.5 -196t-199.5 -67q-114 0 -190.5 64.5t-115 176t-38.5 250.5v118h526q-2 192 -61 286t-179 94q-61 0 -120.5 -18t-122.5 -58v158q59 36 125 53.5t140 17.5zM607 450h-355q0 -89 18.5 -162.5
t57 -117t96.5 -43.5q81 0 128.5 79t54.5 244z" />
    <glyph glyph-name="uni02BC" unicode="&#x2bc;" horiz-adv-x="404" 
d="M330 1462l15 -22q-19 -87 -42 -170.5t-50 -163t-59 -156.5h-143q16 61 30 128.5t26.5 135.5t21 131.5t13.5 116.5h188z" />
    <glyph glyph-name="circumflex" unicode="&#x2c6;" horiz-adv-x="715" 
d="M443 1568q22 -45 54 -99t67.5 -107.5t68.5 -98.5v-22h-104q-41 39 -83.5 88t-88.5 104q-45 -54 -89.5 -106t-80.5 -86h-105v22q35 46 70.5 100.5t67 108.5t51.5 96h172z" />
    <glyph glyph-name="caron" unicode="&#x2c7;" horiz-adv-x="713" 
d="M271 1241q-21 45 -52.5 99t-67 108t-69.5 99v21h105q37 -35 81.5 -86.5t88.5 -104.5q50 60 86 100.5t85 90.5h103v-21q-29 -42 -65 -95.5t-69.5 -109t-55.5 -101.5h-170z" />
    <glyph glyph-name="macron" unicode="&#x2c9;" horiz-adv-x="672" 
d="M590 1397v-137h-508v137h508z" />
    <glyph glyph-name="breve" unicode="&#x2d8;" horiz-adv-x="680" 
d="M598 1528q-1 -88 -34.5 -151.5t-92 -98t-135.5 -34.5q-114 0 -182 71t-72 213h116q5 -49 22 -82t47.5 -49.5t72.5 -16.5q41 0 71.5 16t48.5 49t22 83h116z" />
    <glyph glyph-name="dotaccent" unicode="&#x2d9;" horiz-adv-x="373" 
d="M188 1523q54 0 78.5 -32.5t24.5 -90.5t-26 -90t-77 -32q-50 0 -78 32t-28 90q0 60 26.5 91.5t79.5 31.5z" />
    <glyph glyph-name="ring" unicode="&#x2da;" horiz-adv-x="600" 
d="M300 1247q-100 0 -159 58t-59 152q0 95 59 153t159 58q95 0 156.5 -57.5t61.5 -150.5q0 -95 -59.5 -154t-158.5 -59zM302 1354q47 0 77 28t30 75t-28.5 77t-78.5 30q-48 0 -78.5 -30t-30.5 -76q0 -47 27.5 -75.5t81.5 -28.5z" />
    <glyph glyph-name="ogonek" unicode="&#x2db;" horiz-adv-x="469" 
d="M230 -235q0 -48 23.5 -73.5t66.5 -25.5q24 0 40 4.5t28 8.5v-123q-19 -8 -45 -13t-59 -5q-101 0 -151.5 50t-50.5 143q0 51 19 102.5t57 100.5t93 92l102 -26q-69 -70 -96 -124t-27 -111z" />
    <glyph glyph-name="tilde" unicode="&#x2dc;" horiz-adv-x="780" 
d="M82 1241q4 48 14.5 94.5t29.5 83t50.5 58.5t75.5 22q39 0 73.5 -17.5t67.5 -40t63.5 -40t60.5 -17.5q31 0 47 31.5t24 85.5h110q-6 -125 -52.5 -191.5t-115.5 -66.5q-38 0 -75 17.5t-70.5 41t-63 41t-54.5 17.5q-27 0 -47.5 -30.5t-29.5 -88.5h-108z" />
    <glyph glyph-name="hungarumlaut" unicode="&#x2dd;" horiz-adv-x="808" 
d="M726 1569v-19q-15 -32 -45 -73.5t-66 -85.5t-73 -83t-67 -67h-94v23q32 50 64.5 109t59.5 112.5t39 83.5h182zM426 1569v-19q-16 -34 -44 -74t-63 -82t-73.5 -81t-75.5 -72h-88v23q32 53 64 111t58.5 110t40.5 84h181z" />
    <glyph glyph-name="uni02F3" unicode="&#x2f3;" horiz-adv-x="745" 
d="M372 -542q-100 0 -158.5 57.5t-58.5 153.5q0 94 58.5 152.5t158.5 58.5q97 0 158 -58t61 -151q0 -94 -59.5 -153.5t-159.5 -59.5zM372 -437q47 0 77 29.5t30 76.5t-28 75.5t-79 28.5q-48 0 -78.5 -29t-30.5 -75t27.5 -76t81.5 -30z" />
    <glyph glyph-name="gravecomb" unicode="&#x300;" 
d="M-595 1568q22 -46 54.5 -103t66.5 -110t62 -90v-24h-121q-30 26 -69 65t-79 83t-73.5 86.5t-54.5 74.5v18h214z" />
    <glyph glyph-name="acutecomb" unicode="&#x301;" 
d="M-186 1568v-18q-21 -32 -54 -73t-72 -84t-78.5 -83t-71.5 -69h-121v24q39 55 72 107t60.5 101t49.5 95h215z" />
    <glyph glyph-name="uni0302" unicode="&#x302;" 
d="M86 1568q22 -45 54 -99t67.5 -107.5t68.5 -98.5v-22h-104q-41 39 -83.5 88t-88.5 104q-45 -54 -89.5 -106t-80.5 -86h-105v22q35 46 70.5 100.5t67 108.5t51.5 96h172z" />
    <glyph glyph-name="tildecomb" unicode="&#x303;" 
d="M-846 1241q4 48 14.5 94.5t29.5 83t50.5 58.5t75.5 22q39 0 73.5 -17.5t67.5 -40t63.5 -40t60.5 -17.5q31 0 47 31.5t24 85.5h110q-6 -125 -52.5 -191.5t-115.5 -66.5q-38 0 -75 17.5t-70.5 41t-63 41t-54.5 17.5q-27 0 -47.5 -30.5t-29.5 -88.5h-108z" />
    <glyph glyph-name="uni0304" unicode="&#x304;" 
d="M253 1397v-137h-508v137h508z" />
    <glyph glyph-name="uni0306" unicode="&#x306;" 
d="M259 1528q-1 -88 -34.5 -151.5t-92 -98t-135.5 -34.5q-114 0 -182 71t-72 213h116q5 -49 22 -82t47.5 -49.5t72.5 -16.5q41 0 71.5 16t48.5 49t22 83h116z" />
    <glyph glyph-name="uni0307" unicode="&#x307;" 
d="M7 1523q54 0 78.5 -32.5t24.5 -90.5t-26 -90t-77 -32q-50 0 -78 32t-28 90q0 60 26.5 91.5t79.5 31.5z" />
    <glyph glyph-name="uni0308" unicode="&#x308;" 
d="M-263 1374q0 55 26.5 81.5t66.5 26.5q41 0 67 -27.5t26 -80.5q0 -54 -26 -82t-67 -28q-40 0 -66.5 27.5t-26.5 82.5zM75 1374q0 55 27 81.5t68 26.5t68 -27.5t27 -80.5q0 -54 -27 -82t-68 -28q-42 0 -68.5 28t-26.5 82z" />
    <glyph glyph-name="hookabovecomb" unicode="&#x309;" 
d="M-382 1498q0 -74 -39 -121.5t-116 -66.5l-11 -96h-99l-12 159q60 5 95 33t35 75q0 41 -26.5 63.5t-82.5 22.5q-21 0 -43 -3.5t-47 -9.5v116q30 9 61.5 14t65.5 5q107 0 163 -49.5t56 -141.5z" />
    <glyph glyph-name="uni030A" unicode="&#x30a;" 
d="M0 1247q-100 0 -159 58t-59 152q0 95 59 153t159 58q95 0 156.5 -57.5t61.5 -150.5q0 -95 -59.5 -154t-158.5 -59zM2 1354q47 0 77 28t30 75t-28.5 77t-78.5 30q-48 0 -78.5 -30t-30.5 -76q0 -47 27.5 -75.5t81.5 -28.5z" />
    <glyph glyph-name="uni030B" unicode="&#x30b;" 
d="M433 1569v-19q-15 -32 -45 -73.5t-66 -85.5t-73 -83t-67 -67h-94v23q32 50 64.5 109t59.5 112.5t39 83.5h182zM133 1569v-19q-16 -34 -44 -74t-63 -82t-73.5 -81t-75.5 -72h-88v23q32 53 64 111t58.5 110t40.5 84h181z" />
    <glyph glyph-name="uni030C" unicode="&#x30c;" 
d="M-85 1241q-21 45 -52.5 99t-67 108t-69.5 99v21h105q37 -35 81.5 -86.5t88.5 -104.5q50 60 86 100.5t85 90.5h103v-21q-29 -42 -65 -95.5t-69.5 -109t-55.5 -101.5h-170z" />
    <glyph glyph-name="uni030F" unicode="&#x30f;" 
d="M-507 1569q15 -37 42.5 -91t59 -110.5t59.5 -102.5v-24h-87q-32 27 -70.5 66.5t-75.5 84t-66 86t-43 72.5v19h181zM-808 1569q22 -50 47.5 -102t53.5 -103t57 -99v-24h-92q-30 27 -66.5 66.5t-72.5 83.5t-65.5 86t-46.5 73v19h185z" />
    <glyph glyph-name="uni0312" unicode="&#x312;" 
d="M-112 950l-13 23q19 89 42 173t51 163.5t60 152.5h141q-22 -85 -40 -175t-30.5 -176.5t-20.5 -160.5h-190z" />
    <glyph glyph-name="dotbelowcomb" unicode="&#x323;" 
d="M-584 -377q-50 0 -78 31.5t-28 89.5q0 61 26.5 92.5t79.5 31.5t78 -32t25 -91q0 -60 -26 -91t-77 -31z" />
    <glyph glyph-name="uni0326" unicode="&#x326;" 
d="M115 -125v-20q-14 -51 -36 -106t-48.5 -107t-54.5 -95h-107v24q11 37 24 92.5t24 113t14 98.5h184z" />
    <glyph glyph-name="uni0327" unicode="&#x327;" 
d="M183 -279q0 -102 -64 -157.5t-179 -55.5q-38 0 -69 4t-54 10v116q22 -6 46 -9t47 -3q62 0 93.5 26.5t31.5 70.5q0 52 -42 78.5t-114 35.5l70 163h105l-44 -99q56 -11 94.5 -35t58.5 -60.5t20 -84.5z" />
    <glyph glyph-name="uni0328" unicode="&#x328;" 
d="M-24 -235q0 -48 23.5 -73.5t66.5 -25.5q24 0 40 4.5t28 8.5v-123q-19 -8 -45 -13t-59 -5q-101 0 -151.5 50t-50.5 143q0 51 19 102.5t57 100.5t93 92l102 -26q-69 -70 -96 -124t-27 -111z" />
    <glyph glyph-name="tonos" unicode="&#x384;" horiz-adv-x="1050" 
d="M444 1241v25q8 24 21 68.5t26 96t23 96.5t14 67h175v-23q-19 -49 -43.5 -107t-52 -115.5t-54.5 -107.5h-109z" />
    <glyph glyph-name="dieresistonos" unicode="&#x385;" horiz-adv-x="1030" 
d="M656 1628v-20q-11 -37 -29 -84.5t-41 -97t-47 -92.5h-89v24q12 46 21.5 95.5t16.5 95t9 79.5h159zM312 1446q39 0 64.5 -29t25.5 -83q0 -53 -25.5 -81t-64.5 -28q-40 0 -65.5 28.5t-25.5 80.5q0 54 25.5 83t65.5 29zM717 1447q39 0 65.5 -28.5t26.5 -84.5
q0 -50 -26.5 -79t-65.5 -29t-64.5 28.5t-25.5 81.5q0 54 25.5 82.5t64.5 28.5z" />
    <glyph glyph-name="Alphatonos" unicode="&#x386;" horiz-adv-x="969" 
d="M767 0l-101 441h-342l-101 -441h-203l353 1462h236l360 -1462h-202zM633 612l-104 469q-7 39 -14 77.5t-12.5 74t-10.5 68.5q-3 -32 -8.5 -68t-12.5 -73.5t-16 -76.5l-101 -471h279zM0 1200v25q8 24 21 68.5t26 96t23 96.5t14 67h175v-23q-19 -49 -43.5 -107t-52 -115.5
t-54.5 -107.5h-109z" />
    <glyph glyph-name="anoteleia" unicode="&#x387;" horiz-adv-x="470" 
d="M118 977q0 66 30 100.5t88 34.5q55 0 86 -32.5t31 -102.5q0 -69 -32 -102t-85 -33q-55 0 -86.5 34.5t-31.5 100.5z" />
    <glyph glyph-name="Epsilontonos" unicode="&#x388;" horiz-adv-x="1008" 
d="M918 0h-596v1462h596v-166h-406v-450h380v-167h-380v-509h406v-170zM-7 1178v25q8 24 21 68.5t26 96t23 96.5t14 67h175v-23q-19 -49 -43.5 -107t-52 -115.5t-54.5 -107.5h-109z" />
    <glyph glyph-name="Etatonos" unicode="&#x389;" horiz-adv-x="1287" 
d="M1143 0h-190v679h-437v-679h-190v1462h190v-613h437v613h190v-1462zM-7 1178v25q8 24 21 68.5t26 96t23 96.5t14 67h175v-23q-19 -49 -43.5 -107t-52 -115.5t-54.5 -107.5h-109z" />
    <glyph glyph-name="Iotatonos" unicode="&#x38a;" horiz-adv-x="644" 
d="M311 0v1462h190v-1462h-190zM-7 1178v25q8 24 21 68.5t26 96t23 96.5t14 67h175v-23q-19 -49 -43.5 -107t-52 -115.5t-54.5 -107.5h-109z" />
    <glyph glyph-name="Omicrontonos" unicode="&#x38c;" horiz-adv-x="1222" 
d="M1125 733q0 -161 -27 -298.5t-83 -239.5t-145.5 -158.5t-215.5 -56.5q-128 0 -218.5 58t-146.5 160.5t-82.5 240t-26.5 296.5q0 249 53.5 415.5t159 250t261.5 83.5q167 0 270.5 -97.5t152 -267t48.5 -386.5zM377 733q0 -191 31.5 -321t93 -195.5t150.5 -65.5
q91 0 152 64t91.5 194t30.5 324q0 290 -68 435.5t-204 145.5q-92 0 -153.5 -65.5t-92.5 -195t-31 -320.5zM-7 1178v25q8 24 21 68.5t26 96t23 96.5t14 67h175v-23q-19 -49 -43.5 -107t-52 -115.5t-54.5 -107.5h-109z" />
    <glyph glyph-name="Upsilontonos" unicode="&#x38e;" horiz-adv-x="1110" 
d="M695 787l218 675h197l-322 -894v-568h-189v563l-321 899h197zM-7 1178v25q8 24 21 68.5t26 96t23 96.5t14 67h175v-23q-19 -49 -43.5 -107t-52 -115.5t-54.5 -107.5h-109z" />
    <glyph glyph-name="Omegatonos" unicode="&#x38f;" horiz-adv-x="1241" 
d="M667 1314q-92 0 -155 -56t-95.5 -167.5t-32.5 -282.5q0 -146 22.5 -267t67.5 -216t113 -165v-160h-446v170h271q-68 64 -118 157.5t-77.5 218.5t-27.5 281q0 220 56 365.5t163 218.5t258 73q150 0 255 -74t159.5 -220t54.5 -362q0 -159 -26.5 -284t-76.5 -218t-120 -156
h273v-170h-448v160q75 72 120 167t65.5 214.5t20.5 267.5q0 165 -30 277t-91.5 170t-154.5 58zM-7 1178v25q8 24 21 68.5t26 96t23 96.5t14 67h175v-23q-19 -49 -43.5 -107t-52 -115.5t-54.5 -107.5h-109z" />
    <glyph glyph-name="iotadieresistonos" unicode="&#x390;" horiz-adv-x="532" 
d="M310 1104v-829q0 -72 20 -102.5t62 -30.5q28 0 58.5 8t48.5 19v-154q-33 -17 -72 -26t-83 -9q-74 0 -122 29.5t-71 94t-23 168.5v832h182zM376 1628v-20q-11 -37 -29 -84.5t-41 -97t-47 -92.5h-89v24q12 46 21.5 95.5t16.5 95t9 79.5h159zM32 1446q39 0 64.5 -29
t25.5 -83q0 -53 -25.5 -81t-64.5 -28q-40 0 -65.5 28.5t-25.5 80.5q0 54 25.5 83t65.5 29zM437 1447q39 0 65.5 -28.5t26.5 -84.5q0 -50 -26.5 -79t-65.5 -29t-64.5 28.5t-25.5 81.5q0 54 25.5 82.5t64.5 28.5z" />
    <glyph glyph-name="Alpha" unicode="&#x391;" horiz-adv-x="949" 
d="M747 0l-101 441h-342l-101 -441h-203l353 1462h236l360 -1462h-202zM613 612l-104 469q-7 39 -14 77.5t-12.5 74t-10.5 68.5q-3 -32 -8.5 -68t-12.5 -73.5t-16 -76.5l-101 -471h279z" />
    <glyph glyph-name="Beta" unicode="&#x392;" horiz-adv-x="995" 
d="M146 1462h336q199 0 301 -87.5t102 -264.5q0 -92 -24 -162t-70 -114t-113 -59v-9q81 -19 133 -64t77.5 -115.5t25.5 -166.5q0 -127 -45.5 -221.5t-131.5 -146.5t-209 -52h-382v1462zM336 842h144q111 0 161.5 62t50.5 185q0 104 -53.5 159t-161.5 55h-141v-461zM336 684
v-521h173q104 0 156.5 67t52.5 201q0 84 -27 140t-77 84.5t-122 28.5h-156z" />
    <glyph glyph-name="Gamma" unicode="&#x393;" horiz-adv-x="769" 
d="M749 1462v-169h-413v-1293h-190v1462h603z" />
    <glyph glyph-name="uni0394" unicode="&#x394;" horiz-adv-x="938" 
d="M586 1462l330 -1338v-124h-892v132l326 1330h236zM704 170l-188 843q-9 41 -19 91t-18 97t-12 81q-7 -43 -15.5 -91t-17.5 -94.5t-18 -87.5l-182 -839h470z" />
    <glyph glyph-name="Epsilon" unicode="&#x395;" horiz-adv-x="832" 
d="M742 0h-596v1462h596v-166h-406v-450h380v-167h-380v-509h406v-170z" />
    <glyph glyph-name="Zeta" unicode="&#x396;" horiz-adv-x="768" 
d="M726 0h-674v143l458 1151h-449v168h652v-144l-459 -1148h472v-170z" />
    <glyph glyph-name="Eta" unicode="&#x397;" horiz-adv-x="1107" 
d="M963 0h-190v679h-437v-679h-190v1462h190v-613h437v613h190v-1462z" />
    <glyph glyph-name="Theta" unicode="&#x398;" horiz-adv-x="1141" 
d="M743 824v-160h-346v160h346zM1044 733q0 -161 -27 -298.5t-83 -239.5t-145.5 -158.5t-215.5 -56.5q-128 0 -218.5 58t-146.5 160.5t-82.5 240t-26.5 296.5q0 249 53.5 415.5t159 250t261.5 83.5q167 0 270.5 -97.5t152 -267t48.5 -386.5zM296 733q0 -191 31.5 -321
t93 -195.5t150.5 -65.5q91 0 152 64t91.5 194t30.5 324q0 290 -68 435.5t-204 145.5q-92 0 -153.5 -65.5t-92.5 -195t-31 -320.5z" />
    <glyph glyph-name="Iota" unicode="&#x399;" horiz-adv-x="479" 
d="M146 0v1462h190v-1462h-190z" />
    <glyph glyph-name="Kappa" unicode="&#x39a;" horiz-adv-x="937" 
d="M946 0h-211l-297 664l-102 -118v-546h-190v1462h190v-725q11 32 38 83.5t67 123.5l285 518h205l-363 -647z" />
    <glyph glyph-name="Lambda" unicode="&#x39b;" horiz-adv-x="932" 
d="M571 1462l361 -1462h-198l-229 988q-10 53 -18.5 100t-14.5 86.5t-8 70.5q-5 -41 -11.5 -83.5t-14 -85.5t-16.5 -85l-222 -991h-200l357 1462h214z" />
    <glyph glyph-name="Mu" unicode="&#x39c;" horiz-adv-x="1487" 
d="M660 0l-339 1201h-8q4 -67 7 -121.5t4 -96.5t1 -71v-912h-179v1462h266l329 -1162h6l330 1162h267v-1462h-184v910q0 31 1.5 73.5t4 97t4.5 120.5h-7l-339 -1201h-164z" />
    <glyph glyph-name="Nu" unicode="&#x39d;" horiz-adv-x="1181" 
d="M1037 0h-227l-489 1163h-8q4 -58 7 -110.5t4 -100t1 -91.5v-861h-179v1462h226l490 -1143h6q-3 61 -5.5 115t-4 101t-1.5 86v841h180v-1462z" />
    <glyph glyph-name="Xi" unicode="&#x39e;" horiz-adv-x="828" 
d="M83 0v170h664v-170h-664zM154 682v169h520v-169h-520zM108 1296v166h615v-166h-615z" />
    <glyph glyph-name="Omicron" unicode="&#x39f;" horiz-adv-x="1141" 
d="M1044 733q0 -161 -27 -298.5t-83 -239.5t-145.5 -158.5t-215.5 -56.5q-128 0 -218.5 58t-146.5 160.5t-82.5 240t-26.5 296.5q0 249 53.5 415.5t159 250t261.5 83.5q167 0 270.5 -97.5t152 -267t48.5 -386.5zM296 733q0 -191 31.5 -321t93 -195.5t150.5 -65.5
q91 0 152 64t91.5 194t30.5 324q0 290 -68 435.5t-204 145.5q-92 0 -153.5 -65.5t-92.5 -195t-31 -320.5z" />
    <glyph glyph-name="Pi" unicode="&#x3a0;" horiz-adv-x="1097" 
d="M146 0v1462h807v-1462h-189v1293h-428v-1293h-190z" />
    <glyph glyph-name="Rho" unicode="&#x3a1;" horiz-adv-x="923" 
d="M435 1462q217 0 321 -107t104 -327q0 -112 -26.5 -199t-80 -146.5t-134.5 -90.5t-190 -31h-93v-561h-190v1462h289zM426 1297h-90v-570h76q89 0 145.5 30t84 96.5t27.5 172.5q0 144 -59.5 207.5t-183.5 63.5z" />
    <glyph glyph-name="Sigma" unicode="&#x3a3;" horiz-adv-x="842" 
d="M61 0v156l334 607l-318 548v151h677v-166h-317q-28 0 -54 0.5t-48.5 2t-44.5 3.5l315 -538l-337 -604q40 5 77.5 7.5t76.5 2.5h367v-170h-728z" />
    <glyph glyph-name="Tau" unicode="&#x3a4;" horiz-adv-x="797" 
d="M492 0h-189v1293h-281v169h752v-169h-282v-1293z" />
    <glyph glyph-name="Upsilon" unicode="&#x3a5;" horiz-adv-x="832" 
d="M417 787l218 675h197l-322 -894v-568h-189v563l-321 899h197z" />
    <glyph glyph-name="Phi" unicode="&#x3a6;" horiz-adv-x="1326" 
d="M755 1483v-180q157 0 263 -69.5t160.5 -191.5t54.5 -279q0 -125 -31 -227.5t-91.5 -176t-150 -114t-205.5 -40.5v-225h-185v225q-113 -1 -202 39t-151 113.5t-94 176.5t-32 229q0 115 31 213.5t92 172t150 114.5t206 40v180h185zM570 1140q-94 0 -158.5 -43t-97.5 -127
t-33 -206q0 -133 34 -221t99 -131.5t156 -44.5v773zM755 1140v-773q93 1 157.5 46t98 133t33.5 218q0 125 -33 208.5t-97.5 125.5t-158.5 42z" />
    <glyph glyph-name="Chi" unicode="&#x3a7;" horiz-adv-x="845" 
d="M835 0h-203l-202 580l-221 -580h-197l313 759l-278 703h196l187 -533l188 533h199l-279 -711z" />
    <glyph glyph-name="Psi" unicode="&#x3a8;" horiz-adv-x="1328" 
d="M1203 1462v-473q0 -137 -24 -241t-77 -174t-138 -106t-207 -36v-432h-184v432q-121 0 -206.5 34.5t-138 103t-77 171t-24.5 237.5v484h190v-487q0 -113 19.5 -197.5t75 -131t161.5 -46.5v862h184v-862q95 1 151 38t81 119t25 217v488h189z" />
    <glyph glyph-name="uni03A9" unicode="&#x3a9;" horiz-adv-x="1156" 
d="M581 1314q-92 0 -155 -56t-95.5 -167.5t-32.5 -282.5q0 -146 22.5 -267t67.5 -216t113 -165v-160h-446v170h271q-68 64 -118 157.5t-77.5 218.5t-27.5 281q0 220 56 365.5t163 218.5t258 73q150 0 255 -74t159.5 -220t54.5 -362q0 -159 -26.5 -284t-76.5 -218t-120 -156
h273v-170h-448v160q75 72 120 167t65.5 214.5t20.5 267.5q0 165 -30 277t-91.5 170t-154.5 58z" />
    <glyph glyph-name="Iotadieresis" unicode="&#x3aa;" horiz-adv-x="479" 
d="M146 0v1462h190v-1462h-190zM-25 1717q0 55 26.5 81.5t66.5 26.5q41 0 67 -27.5t26 -80.5q0 -54 -26 -82t-67 -28q-40 0 -66.5 27.5t-26.5 82.5zM313 1717q0 55 27 81.5t68 26.5t68 -27.5t27 -80.5q0 -54 -27 -82t-68 -28q-42 0 -68.5 28t-26.5 82z" />
    <glyph glyph-name="Upsilondieresis" unicode="&#x3ab;" horiz-adv-x="832" 
d="M417 787l218 675h197l-322 -894v-568h-189v563l-321 899h197zM154 1710q0 55 26.5 81.5t66.5 26.5q41 0 67 -27.5t26 -80.5q0 -54 -26 -82t-67 -28q-40 0 -66.5 27.5t-26.5 82.5zM492 1710q0 55 27 81.5t68 26.5t68 -27.5t27 -80.5q0 -54 -27 -82t-68 -28q-42 0 -68.5 28
t-26.5 82z" />
    <glyph glyph-name="alphatonos" unicode="&#x3ac;" horiz-adv-x="996" 
d="M459 136q66 0 109.5 45t65 131.5t21.5 210.5v36q0 207 -49 305.5t-151 98.5q-96 0 -141 -107.5t-45 -309.5q0 -212 47 -311t143 -99zM407 -20q-154 0 -238 145t-84 423q0 284 89 430t246 146q87 0 148 -45t101 -133h10q8 43 22.5 85.5t31.5 72.5h150q-14 -47 -24 -108.5
t-15.5 -133.5t-5.5 -152v-428q0 -74 19 -110t55 -36q17 0 32.5 3t29.5 7v-146q-8 -6 -25 -10t-35.5 -7t-33.5 -3q-90 0 -139 41.5t-69 136.5h-14q-26 -55 -63.5 -95.5t-84.5 -61.5t-103 -21zM413 1241v25q8 24 21 68.5t26 96t23 96.5t14 67h175v-23q-19 -49 -43.5 -107
t-52 -115.5t-54.5 -107.5h-109z" />
    <glyph glyph-name="epsilontonos" unicode="&#x3ad;" horiz-adv-x="739" 
d="M535 649v-143h-70q-70 0 -114.5 -22t-66 -65t-21.5 -105q0 -58 21.5 -97t61 -59t92.5 -20q60 0 123.5 19.5t116.5 54.5v-165q-57 -35 -120 -51t-149 -16q-171 0 -251 90.5t-80 233.5q0 107 52.5 180t148.5 97v9q-79 28 -118.5 93t-39.5 157q0 86 39 150t108.5 99
t163.5 35q66 0 129 -17.5t127 -56.5l-69 -140q-42 29 -87 44t-87 15q-72 0 -109 -39t-37 -106q0 -87 44.5 -131t134.5 -44h57zM349 1241v25q8 24 21 68.5t26 96t23 96.5t14 67h175v-23q-19 -49 -43.5 -107t-52 -115.5t-54.5 -107.5h-109z" />
    <glyph glyph-name="etatonos" unicode="&#x3ae;" horiz-adv-x="949" 
d="M551 1124q89 0 149.5 -41.5t91.5 -125.5t31 -211v-1236h-182v1194q0 129 -31.5 192.5t-101.5 63.5q-68 0 -111.5 -39.5t-64.5 -126t-21 -225.5v-569h-182v1104h145l21 -155h11q23 54 59 93t83 60.5t103 21.5zM406 1241v25q8 24 21 68.5t26 96t23 96.5t14 67h175v-23
q-19 -49 -43.5 -107t-52 -115.5t-54.5 -107.5h-109z" />
    <glyph glyph-name="iotatonos" unicode="&#x3af;" horiz-adv-x="533" 
d="M310 1104v-829q0 -72 20 -102.5t62 -30.5q28 0 58.5 8t48.5 19v-154q-33 -17 -72 -26t-83 -9q-74 0 -122 29.5t-71 94t-23 168.5v832h182zM155 1241v25q8 24 21 68.5t26 96t23 96.5t14 67h175v-23q-19 -49 -43.5 -107t-52 -115.5t-54.5 -107.5h-109z" />
    <glyph glyph-name="upsilondieresistonos" unicode="&#x3b0;" horiz-adv-x="930" 
d="M466 -18q-123 2 -197.5 50.5t-108 156.5t-34.5 286v629h182v-646q0 -149 31 -232t127 -83q101 0 148 101t47 314q0 137 -14 269t-46 277h180q23 -109 36 -193t19 -165.5t6 -184.5q0 -289 -96.5 -434t-279.5 -145zM604 1628v-20q-11 -37 -29 -84.5t-41 -97t-47 -92.5h-89
v24q12 46 21.5 95.5t16.5 95t9 79.5h159zM260 1446q39 0 64.5 -29t25.5 -83q0 -53 -25.5 -81t-64.5 -28q-40 0 -65.5 28.5t-25.5 80.5q0 54 25.5 83t65.5 29zM665 1447q39 0 65.5 -28.5t26.5 -84.5q0 -50 -26.5 -79t-65.5 -29t-64.5 28.5t-25.5 81.5q0 54 25.5 82.5
t64.5 28.5z" />
    <glyph glyph-name="alpha" unicode="&#x3b1;" horiz-adv-x="996" 
d="M459 136q66 0 109.5 45t65 131.5t21.5 210.5v36q0 207 -49 305.5t-151 98.5q-96 0 -141 -107.5t-45 -309.5q0 -212 47 -311t143 -99zM407 -20q-154 0 -238 145t-84 423q0 284 89 430t246 146q87 0 148 -45t101 -133h10q8 43 22.5 85.5t31.5 72.5h150q-14 -47 -24 -108.5
t-15.5 -133.5t-5.5 -152v-428q0 -74 19 -110t55 -36q17 0 32.5 3t29.5 7v-146q-8 -6 -25 -10t-35.5 -7t-33.5 -3q-90 0 -139 41.5t-69 136.5h-14q-26 -55 -63.5 -95.5t-84.5 -61.5t-103 -21z" />
    <glyph glyph-name="beta" unicode="&#x3b2;" horiz-adv-x="970" 
d="M491 1567q110 0 185.5 -48t114.5 -133.5t39 -199.5q0 -163 -53 -250.5t-160 -106.5v-8q142 -21 206.5 -120t64.5 -284q0 -137 -41 -234.5t-119 -150t-188 -52.5q-74 0 -128 18t-101 50v-538h-182v1632q0 136 43 230.5t124 144.5t195 50zM486 1409q-55 0 -94.5 -32
t-60 -93.5t-20.5 -151.5v-920q36 -31 89 -50.5t99 -19.5q105 0 155.5 74t50.5 220q0 98 -25 164t-74 99.5t-125 33.5h-42v160h32q93 0 135.5 65.5t42.5 201.5q0 123 -43 186t-120 63z" />
    <glyph glyph-name="gamma" unicode="&#x3b3;" horiz-adv-x="783" 
d="M772 1104l-268 -1045q-21 -87 -38.5 -184t-27.5 -191t-10 -174h-191q0 61 9.5 149.5t24 178t28.5 152.5l-291 1114h192l114 -474q17 -70 33 -138t28 -131.5t17 -124.5h8q7 59 18 120.5t25.5 129t30.5 140.5l111 478h187z" />
    <glyph glyph-name="delta" unicode="&#x3b4;" horiz-adv-x="930" 
d="M523 1563q87 0 163.5 -23t135.5 -59l-67 -152q-60 40 -117 58t-111 18q-71 0 -112.5 -34t-41.5 -93q0 -46 24 -90t69.5 -89.5t109.5 -102.5q89 -78 149 -158.5t90.5 -174t30.5 -212.5q0 -138 -44 -244t-129.5 -166.5t-211.5 -60.5q-127 0 -210.5 59.5t-125.5 163.5
t-42 236q0 115 37.5 212t107.5 168t166 110q-61 56 -106 110.5t-69 112t-24 123.5q0 139 92 213.5t236 74.5zM492 836q-73 -30 -123 -89t-75 -136.5t-25 -165.5q0 -84 22 -154t65.5 -112.5t107.5 -42.5t108 37.5t67 108.5t23 173q0 111 -40 204t-130 177z" />
    <glyph glyph-name="epsilon" unicode="&#x3b5;" horiz-adv-x="739" 
d="M535 649v-143h-70q-70 0 -114.5 -22t-66 -65t-21.5 -105q0 -58 21.5 -97t61 -59t92.5 -20q60 0 123.5 19.5t116.5 54.5v-165q-57 -35 -120 -51t-149 -16q-171 0 -251 90.5t-80 233.5q0 107 52.5 180t148.5 97v9q-79 28 -118.5 93t-39.5 157q0 86 39 150t108.5 99
t163.5 35q66 0 129 -17.5t127 -56.5l-69 -140q-42 29 -87 44t-87 15q-72 0 -109 -39t-37 -106q0 -87 44.5 -131t134.5 -44h57z" />
    <glyph glyph-name="zeta" unicode="&#x3b6;" horiz-adv-x="728" 
d="M684 -104q0 -69 -34 -149.5t-81 -147.5h-186q33 45 60.5 94t43.5 93t16 74q0 36 -15.5 63.5t-52.5 52.5t-101 51q-89 39 -143.5 90.5t-80 134t-25.5 212.5q0 125 26.5 241t78.5 230t129.5 231.5t179.5 246.5q-23 -4 -50 -7t-57 -4.5t-65 -1.5h-205v156h563v-129
q-92 -113 -168.5 -228t-131.5 -232t-84.5 -239t-29.5 -251q0 -77 14.5 -131t56 -94t123.5 -77q57 -23 107 -57t81 -87t31 -135z" />
    <glyph glyph-name="eta" unicode="&#x3b7;" horiz-adv-x="949" 
d="M551 1124q89 0 149.5 -41.5t91.5 -125.5t31 -211v-1236h-182v1194q0 129 -31.5 192.5t-101.5 63.5q-68 0 -111.5 -39.5t-64.5 -126t-21 -225.5v-569h-182v1104h145l21 -155h11q23 54 59 93t83 60.5t103 21.5z" />
    <glyph glyph-name="theta" unicode="&#x3b8;" horiz-adv-x="958" 
d="M875 784q0 -269 -44 -447.5t-132 -267.5t-222 -89q-197 0 -294.5 198.5t-97.5 603.5q0 266 45 443t133 265t218 88q198 0 296 -197t98 -597zM477 133q103 0 155 146t58 438h-421q5 -290 55.5 -437t152.5 -147zM480 1426q-102 0 -152 -139t-56 -416h419q-7 274 -58 414.5
t-153 140.5z" />
    <glyph glyph-name="iota" unicode="&#x3b9;" horiz-adv-x="533" 
d="M311 1104v-829q0 -72 20 -102.5t62 -30.5q28 0 58.5 8t48.5 19v-154q-33 -17 -72 -26t-83 -9q-74 0 -122 29.5t-71 94t-23 168.5v832h182z" />
    <glyph glyph-name="kappa" unicode="&#x3ba;" horiz-adv-x="842" 
d="M819 1104l-271 -432l289 -672h-196l-217 530l-113 -134v-396h-182v1104h182v-301q0 -64 -2 -122t-7 -112h7q15 31 30.5 60.5t29.5 54.5l254 420h196z" />
    <glyph glyph-name="lambda" unicode="&#x3bb;" horiz-adv-x="853" 
d="M14 0l308 1081l-38 181q-15 70 -42 111.5t-83 41.5q-20 0 -37 -3.5t-32 -9.5v153q14 6 29.5 9t32.5 5t35 2q72 0 124 -30t89 -95.5t64 -173.5l228 -989q13 -51 27 -82t33.5 -44.5t47.5 -13.5q18 0 33 3t27 7v-159q-13 -4 -27.5 -7.5t-30.5 -5t-34 -1.5q-67 0 -112.5 28.5
t-76.5 88.5t-54 156l-80 359q-7 27 -12 53t-9 50.5t-7.5 47.5t-7.5 46h-8q-3 -31 -7.5 -61.5t-12.5 -59.5l-179 -688h-188z" />
    <glyph glyph-name="uni03BC" unicode="&#x3bc;" horiz-adv-x="952" 
d="M823 1104v-1104h-145l-20 155h-11q-18 -53 -48 -92.5t-68 -61t-81 -21.5q-50 0 -84.5 24t-56.5 74h-6q2 -36 4 -71t3 -69t1 -64v-364h-182v1594h182v-695q0 -132 32 -199t99 -67q75 0 118 45.5t62 133t19 213.5v569h182z" />
    <glyph glyph-name="nu" unicode="&#x3bd;" horiz-adv-x="839" 
d="M21 1104h188l137 -678q10 -44 17.5 -85t13.5 -76.5t9 -65.5h8q71 128 116 269t67 299.5t22 336.5h183q0 -216 -36 -405t-111.5 -361t-195.5 -338h-168z" />
    <glyph glyph-name="xi" unicode="&#x3be;" horiz-adv-x="731" 
d="M86 418q0 98 25 180.5t79 139.5t140 78v7q-68 13 -113 48t-67 95t-22 148q0 73 27.5 133t75.5 102t106 60q-27 -4 -51 -6t-46.5 -2.5t-46.5 -0.5h-92v156h554v-152h-58q-65 0 -118.5 -19t-91.5 -55.5t-58 -88t-20 -116.5q0 -122 52 -175.5t166 -53.5h87v-159h-96
q-79 0 -134 -31.5t-84 -96t-29 -165.5q0 -75 17 -125.5t58 -84.5t114 -61t121.5 -64.5t72.5 -90t24 -124.5q0 -69 -34.5 -148.5t-78.5 -146.5h-188q35 47 62 96.5t42.5 93t15.5 71.5q0 39 -15.5 68.5t-49.5 53t-90 43.5q-92 34 -148 86t-82 128.5t-26 178.5z" />
    <glyph glyph-name="omicron" unicode="&#x3bf;" horiz-adv-x="926" 
d="M843 553q0 -126 -22.5 -231t-69 -181.5t-118.5 -118.5t-172 -42q-94 0 -165 41.5t-118 117.5t-70.5 181.5t-23.5 232.5q0 179 40.5 306.5t124.5 196t216 68.5q120 0 204.5 -65t129 -192t44.5 -314zM269 552q0 -136 20.5 -228.5t64 -139t111.5 -46.5q67 0 109.5 45.5
t63 138t20.5 231.5q0 137 -20.5 229t-63 138t-110.5 46q-103 0 -149 -103t-46 -311z" />
    <glyph glyph-name="pi" unicode="&#x3c0;" horiz-adv-x="1015" 
d="M890 146q18 0 39 4t39 13v-148q-23 -14 -59 -22t-76 -8q-104 0 -154.5 71.5t-50.5 217.5v673h-274v-947h-181v947h-161v80l108 77h854v-157h-162v-669q0 -71 19 -101.5t59 -30.5z" />
    <glyph glyph-name="rho" unicode="&#x3c1;" horiz-adv-x="951" 
d="M869 555q0 -175 -36.5 -304.5t-114 -200t-199.5 -70.5q-69 0 -122 23t-91 64h-10q7 -73 9 -141t2 -127v-289h-182v1056q0 176 38.5 300.5t121.5 191t214 66.5q120 0 202.5 -63t125 -189t42.5 -317zM493 966q-96 0 -142 -91.5t-46 -281.5v-376q33 -39 77 -60t95 -21
q106 0 156 103t50 316t-45 312t-145 99z" />
    <glyph glyph-name="uni03C2" unicode="&#x3c2;" horiz-adv-x="721" 
d="M470 1124q61 0 116 -14.5t103 -40.5l-52 -151q-41 22 -79 33.5t-78 11.5q-105 0 -157 -104.5t-52 -317.5q0 -99 12.5 -167t53 -114t122.5 -85q69 -30 118.5 -67t76.5 -88.5t27 -126.5q0 -69 -34 -148.5t-80 -145.5h-185q34 46 60 95t41.5 93t15.5 74q0 36 -13.5 64
t-47.5 53.5t-96 52.5q-71 31 -119.5 69.5t-79 95.5t-44.5 139.5t-14 199.5q0 196 43.5 326.5t129.5 196.5t212 66z" />
    <glyph glyph-name="sigma" unicode="&#x3c3;" horiz-adv-x="962" 
d="M845 496q0 -165 -45.5 -280.5t-131 -175.5t-203.5 -60q-123 0 -208 63.5t-128.5 184.5t-43.5 295q0 194 51.5 323t156.5 193.5t265 64.5h364v-157h-193q59 -89 87.5 -201.5t28.5 -249.5zM270 528q0 -133 22.5 -220t66.5 -129.5t107 -42.5q97 0 146 97t49 285
q0 78 -9.5 150t-28.5 141.5t-50 137.5h-47q-134 0 -195 -102t-61 -317z" />
    <glyph glyph-name="tau" unicode="&#x3c4;" horiz-adv-x="658" 
d="M623 1104v-157h-248v-617q0 -98 26.5 -145t83.5 -47q29 0 58 6t59 17v-149q-27 -15 -73.5 -25t-89.5 -10q-86 0 -140.5 37t-79.5 112.5t-25 192.5v628h-190v80l103 77h516z" />
    <glyph glyph-name="upsilon" unicode="&#x3c5;" horiz-adv-x="930" 
d="M466 -18q-123 2 -197.5 50.5t-108 156.5t-34.5 286v629h182v-646q0 -149 31 -232t127 -83q101 0 148 101t47 314q0 137 -14 269t-46 277h180q23 -109 36 -193t19 -165.5t6 -184.5q0 -289 -96.5 -434t-279.5 -145z" />
    <glyph glyph-name="phi" unicode="&#x3c6;" horiz-adv-x="1208" 
d="M284 1117l138 -90q-74 -97 -112.5 -219.5t-38.5 -257.5q0 -121 26.5 -208.5t80 -138t133.5 -63.5v608q0 189 68 282t208 93q114 0 189 -71.5t112 -191.5t37 -267q0 -168 -48 -300t-145 -213t-243 -96v-474h-178v474q-140 12 -234.5 81.5t-143 193t-48.5 294.5
q0 161 49.5 300.5t149.5 263.5zM787 967q-56 0 -77.5 -53.5t-21.5 -164.5v-609q77 9 133 65t87 154.5t31 232.5q0 117 -19.5 201t-54 129.5t-78.5 44.5z" />
    <glyph glyph-name="chi" unicode="&#x3c7;" horiz-adv-x="819" 
d="M132 1118q62 0 106.5 -25.5t76.5 -81.5t56 -148l65 -276l175 517h185l-292 -763l122 -490q20 -75 36 -115t36.5 -55.5t52.5 -15.5q18 0 33.5 3t29.5 7v-152q-21 -7 -46.5 -11t-58.5 -4q-62 0 -106.5 25.5t-76.5 84.5t-59 158l-80 332l-199 -598h-192l325 844l-116 452
q-22 83 -45.5 120t-65.5 37q-18 0 -35 -3t-29 -8v152q18 6 45 10t57 4z" />
    <glyph glyph-name="psi" unicode="&#x3c8;" horiz-adv-x="1178" 
d="M682 1556v-1412q78 7 125.5 56.5t69.5 146t22 242.5q0 128 -16 255t-49 260h179q36 -146 52.5 -269.5t16.5 -249.5q0 -190 -44.5 -321.5t-133 -202.5t-222.5 -78v-473h-176v473q-127 4 -213 63t-129.5 175.5t-43.5 292.5v590h182v-580q0 -121 20.5 -203t65.5 -126
t118 -51v1412h176z" />
    <glyph glyph-name="omega" unicode="&#x3c9;" horiz-adv-x="1189" 
d="M999 1104q32 -97 53.5 -189.5t31.5 -187t10 -195.5q0 -175 -34 -298.5t-98.5 -188.5t-153.5 -65q-82 0 -136.5 49.5t-75.5 141.5h-5q-21 -92 -75 -141.5t-141 -49.5q-88 0 -151 64.5t-96 188t-33 299.5q0 104 10 196.5t31 184t53 191.5h183q-47 -132 -71 -273.5
t-24 -294.5q0 -195 29 -291.5t92 -96.5q38 0 62 32.5t35 99.5t11 170v274h175v-274q0 -105 11 -171.5t35 -98t64 -32.5q41 0 67.5 43t40 128.5t13.5 213.5q0 148 -23.5 292t-72.5 279h183z" />
    <glyph glyph-name="iotadieresis" unicode="&#x3ca;" horiz-adv-x="534" 
d="M312 1104v-829q0 -72 20 -102.5t62 -30.5q28 0 58.5 8t48.5 19v-154q-33 -17 -72 -26t-83 -9q-74 0 -122 29.5t-71 94t-23 168.5v832h182zM-26 1374q0 55 26.5 81.5t66.5 26.5q41 0 67 -27.5t26 -80.5q0 -54 -26 -82t-67 -28q-40 0 -66.5 27.5t-26.5 82.5zM312 1374
q0 55 27 81.5t68 26.5t68 -27.5t27 -80.5q0 -54 -27 -82t-68 -28q-42 0 -68.5 28t-26.5 82z" />
    <glyph glyph-name="upsilondieresis" unicode="&#x3cb;" horiz-adv-x="930" 
d="M466 -18q-123 2 -197.5 50.5t-108 156.5t-34.5 286v629h182v-646q0 -149 31 -232t127 -83q101 0 148 101t47 314q0 137 -14 269t-46 277h180q23 -109 36 -193t19 -165.5t6 -184.5q0 -289 -96.5 -434t-279.5 -145zM202 1374q0 55 26.5 81.5t66.5 26.5q41 0 67 -27.5
t26 -80.5q0 -54 -26 -82t-67 -28q-40 0 -66.5 27.5t-26.5 82.5zM540 1374q0 55 27 81.5t68 26.5t68 -27.5t27 -80.5q0 -54 -27 -82t-68 -28q-42 0 -68.5 28t-26.5 82z" />
    <glyph glyph-name="omicrontonos" unicode="&#x3cc;" horiz-adv-x="926" 
d="M843 553q0 -126 -22.5 -231t-69 -181.5t-118.5 -118.5t-172 -42q-94 0 -165 41.5t-118 117.5t-70.5 181.5t-23.5 232.5q0 179 40.5 306.5t124.5 196t216 68.5q120 0 204.5 -65t129 -192t44.5 -314zM269 552q0 -136 20.5 -228.5t64 -139t111.5 -46.5q67 0 109.5 45.5
t63 138t20.5 231.5q0 137 -20.5 229t-63 138t-110.5 46q-103 0 -149 -103t-46 -311zM377 1241v25q8 24 21 68.5t26 96t23 96.5t14 67h175v-23q-19 -49 -43.5 -107t-52 -115.5t-54.5 -107.5h-109z" />
    <glyph glyph-name="upsilontonos" unicode="&#x3cd;" horiz-adv-x="930" 
d="M466 -18q-123 2 -197.5 50.5t-108 156.5t-34.5 286v629h182v-646q0 -149 31 -232t127 -83q101 0 148 101t47 314q0 137 -14 269t-46 277h180q23 -109 36 -193t19 -165.5t6 -184.5q0 -289 -96.5 -434t-279.5 -145zM384 1241v25q8 24 21 68.5t26 96t23 96.5t14 67h175v-23
q-19 -49 -43.5 -107t-52 -115.5t-54.5 -107.5h-109z" />
    <glyph glyph-name="omegatonos" unicode="&#x3ce;" horiz-adv-x="1189" 
d="M999 1104q32 -97 53.5 -189.5t31.5 -187t10 -195.5q0 -175 -34 -298.5t-98.5 -188.5t-153.5 -65q-82 0 -136.5 49.5t-75.5 141.5h-5q-21 -92 -75 -141.5t-141 -49.5q-88 0 -151 64.5t-96 188t-33 299.5q0 104 10 196.5t31 184t53 191.5h183q-47 -132 -71 -273.5
t-24 -294.5q0 -195 29 -291.5t92 -96.5q38 0 62 32.5t35 99.5t11 170v274h175v-274q0 -105 11 -171.5t35 -98t64 -32.5q41 0 67.5 43t40 128.5t13.5 213.5q0 148 -23.5 292t-72.5 279h183zM513 1241v25q8 24 21 68.5t26 96t23 96.5t14 67h175v-23q-19 -49 -43.5 -107
t-52 -115.5t-54.5 -107.5h-109z" />
    <glyph glyph-name="uni03D1" unicode="&#x3d1;" horiz-adv-x="1056" 
d="M506 1579q85 0 153.5 -38.5t119 -115t82.5 -192t46 -268.5h127v-158h-124q1 -19 2 -37t1 -39q-3 -184 -29 -324t-78 -235t-131.5 -143.5t-189.5 -48.5q-82 0 -143.5 22t-102.5 65t-61.5 106t-20.5 143q0 40 4 92.5t8 101t4 77.5q0 50 -15 69.5t-48 19.5q-13 0 -29 -3.5
t-35 -10.5l-32 146q25 12 64 21t85 9q91 0 141 -56t50 -163q0 -44 -3.5 -97t-8 -103.5t-4.5 -86.5q0 -96 36 -147.5t110 -51.5q80 0 133 63t79.5 195t29.5 338q0 21 -1 40t-1 38q-157 2 -275 53.5t-182.5 149.5t-64.5 240q0 95 32.5 169.5t100 117t171.5 42.5zM507 1427
q-61 0 -92.5 -47t-31.5 -134q0 -88 40 -151.5t115.5 -96.5t182.5 -33q-6 90 -21.5 172.5t-41 148t-63 103.5t-88.5 38z" />
    <glyph glyph-name="uni03D2" unicode="&#x3d2;" horiz-adv-x="834" 
d="M416 794q18 77 34 140.5t30 115.5t27 96t27 83q25 72 49.5 127.5t63 87t102.5 31.5q25 0 47.5 -5t42.5 -14v-159q-11 4 -21.5 6.5t-21.5 2.5q-33 0 -60 -40.5t-64 -136.5q-16 -45 -35 -105t-40 -132t-43 -153.5t-45 -170.5v-568h-189v563l-320 899h202z" />
    <glyph glyph-name="uni03D6" unicode="&#x3d6;" horiz-adv-x="1218" 
d="M1187 1104v-157h-163q23 -81 38 -154.5t22 -146t7 -151.5q0 -164 -33 -279t-95 -175.5t-151 -60.5q-79 0 -127.5 42.5t-70.5 133.5h-8q-23 -89 -70.5 -132.5t-129.5 -43.5q-135 0 -208 135.5t-73 380.5q0 80 7.5 153t23.5 146t40 152h-177v78l106 79h1062zM845 947h-472
q-23 -79 -38 -147.5t-21.5 -138t-6.5 -152.5q0 -183 28.5 -273t86.5 -90t79 77t21 252v196h176v-196q0 -120 8.5 -192.5t30 -104.5t58.5 -32q57 0 87 90.5t30 269.5q0 81 -7.5 151.5t-22 141t-37.5 148.5z" />
    <glyph glyph-name="uni0400" unicode="&#x400;" horiz-adv-x="832" 
d="M742 0h-596v1462h596v-166h-406v-450h380v-167h-380v-509h406v-170zM362 1903q22 -46 54.5 -103t66.5 -110t62 -90v-24h-121q-30 26 -69 65t-79 83t-73.5 86.5t-54.5 74.5v18h214z" />
    <glyph glyph-name="uni0401" unicode="&#x401;" horiz-adv-x="832" 
d="M742 0h-596v1462h596v-166h-406v-450h380v-167h-380v-509h406v-170zM174 1709q0 55 26.5 81.5t66.5 26.5q41 0 67 -27.5t26 -80.5q0 -54 -26 -82t-67 -28q-40 0 -66.5 27.5t-26.5 82.5zM512 1709q0 55 27 81.5t68 26.5t68 -27.5t27 -80.5q0 -54 -27 -82t-68 -28
q-42 0 -68.5 28t-26.5 82z" />
    <glyph glyph-name="uni0402" unicode="&#x402;" horiz-adv-x="1059" 
d="M684 -20q-30 0 -58 5.5t-52 14.5v167q19 -10 39 -15.5t39 -5.5q39 0 64 18.5t37.5 59.5t12.5 107v214q0 99 -43 145.5t-138 46.5h-128v-737h-190v1293h-245v169h705v-169h-270v-387h148q174 0 262 -91t88 -271v-204q0 -176 -69.5 -268t-201.5 -92z" />
    <glyph glyph-name="uni0403" unicode="&#x403;" horiz-adv-x="769" 
d="M749 1462v-169h-413v-1293h-190v1462h603zM772 1903v-18q-21 -32 -54 -73t-72 -84t-78.5 -83t-71.5 -69h-121v24q39 55 72 107t60.5 101t49.5 95h215z" />
    <glyph glyph-name="uni0404" unicode="&#x404;" horiz-adv-x="942" 
d="M603 1315q-78 0 -133 -38.5t-90 -105t-54.5 -151.5t-27.5 -177h434v-168h-436q3 -108 22.5 -203.5t58 -168t97 -113.5t137.5 -41q75 0 132 21t107 48v-173q-54 -32 -120 -48.5t-141 -16.5q-153 0 -262.5 90.5t-169 259.5t-59.5 403q0 156 31.5 292t93.5 239.5t155.5 162
t218.5 58.5q80 0 154.5 -20.5t140.5 -63.5l-62 -159q-55 36 -110.5 54.5t-116.5 18.5z" />
    <glyph glyph-name="uni0405" unicode="&#x405;" horiz-adv-x="855" 
d="M781 406q0 -126 -49 -222t-137.5 -150t-207.5 -54q-58 0 -112 7t-103.5 21.5t-95.5 37.5v196q71 -42 152 -63.5t150 -21.5t115 31t70.5 83.5t24.5 116.5q0 67 -20.5 114t-68.5 87t-132 85q-64 36 -116 73.5t-89 84.5t-56.5 110.5t-19.5 150.5q-2 117 46 205t135 137
t201 48q85 0 163 -21.5t139 -53.5l-59 -172q-63 36 -123.5 53.5t-114.5 17.5q-62 0 -106 -26.5t-67 -72.5t-23 -106q0 -71 20.5 -117.5t69.5 -84.5t133 -84q94 -50 156.5 -108t93.5 -131.5t31 -170.5z" />
    <glyph glyph-name="uni0406" unicode="&#x406;" horiz-adv-x="479" 
d="M146 0v1462h190v-1462h-190z" />
    <glyph glyph-name="uni0407" unicode="&#x407;" horiz-adv-x="479" 
d="M146 0v1462h190v-1462h-190zM-25 1716q0 55 26.5 81.5t66.5 26.5q41 0 67 -27.5t26 -80.5q0 -54 -26 -82t-67 -28q-40 0 -66.5 27.5t-26.5 82.5zM313 1716q0 55 27 81.5t68 26.5t68 -27.5t27 -80.5q0 -54 -27 -82t-68 -28q-42 0 -68.5 28t-26.5 82z" />
    <glyph glyph-name="uni0408" unicode="&#x408;" horiz-adv-x="473" 
d="M34 -402q-37 0 -71.5 5t-65.5 17v168q25 -9 54 -15t60 -6q48 0 76.5 25t42 80.5t13.5 147.5v1442h189v-1451q0 -152 -34 -242.5t-100.5 -130.5t-163.5 -40z" />
    <glyph glyph-name="uni0409" unicode="&#x409;" horiz-adv-x="1428" 
d="M101 -16q-34 0 -59.5 5t-44.5 15v165q15 -9 32.5 -13.5t36.5 -4.5q38 0 61 22t36.5 63t23.5 97q10 53 22 148t26.5 235t30.5 326t35 420h547v-601h79q142 0 238.5 -46t145.5 -139.5t49 -236.5q0 -207 -111 -323t-314 -116h-271v1285h-196q-15 -194 -28.5 -345.5
t-24.5 -266.5t-20.5 -198t-18.5 -138.5t-17 -87.5q-21 -89 -52 -147.5t-79.5 -87.5t-126.5 -30zM847 166h81q119 0 179 68.5t60 200.5q0 89 -25 146.5t-78 86t-138 28.5h-79v-530z" />
    <glyph glyph-name="uni040A" unicode="&#x40a;" horiz-adv-x="1453" 
d="M146 0v1462h190v-608h355v608h185v-608h76q145 0 241.5 -45.5t145 -137t48.5 -232.5q0 -210 -112.5 -324.5t-313.5 -114.5h-270v688h-355v-688h-190zM875 166h79q118 0 179 68t61 201q0 87 -25.5 143t-78.5 83t-136 27h-79v-522z" />
    <glyph glyph-name="uni040B" unicode="&#x40b;" horiz-adv-x="1074" 
d="M727 1462v-169h-270v-387h150q173 0 261 -91.5t88 -270.5v-544h-191v545q0 99 -42.5 145.5t-136.5 46.5h-129v-737h-190v1293h-245v169h705z" />
    <glyph glyph-name="uni040C" unicode="&#x40c;" horiz-adv-x="927" 
d="M935 0h-212l-387 754v-754h-190v1462h190v-697l375 697h205l-393 -700zM832 1903v-18q-21 -32 -54 -73t-72 -84t-78.5 -83t-71.5 -69h-121v24q39 55 72 107t60.5 101t49.5 95h215z" />
    <glyph glyph-name="uni040D" unicode="&#x40d;" horiz-adv-x="1192" 
d="M146 1462h184v-840q0 -29 -0.5 -61t-1.5 -68.5t-3 -80.5t-6 -96h8l487 1146h234v-1462h-185v859q0 32 1 66.5t2.5 72.5t4 79t6.5 84h-8l-492 -1161h-231v1462zM527 1903q22 -46 54.5 -103t66.5 -110t62 -90v-24h-121q-30 26 -69 65t-79 83t-73.5 86.5t-54.5 74.5v18h214z
" />
    <glyph glyph-name="uni040E" unicode="&#x40e;" horiz-adv-x="837" 
d="M837 1462l-300 -1044q-46 -161 -94 -257.5t-112.5 -138.5t-158.5 -42q-36 0 -67.5 6t-60.5 17v170q27 -14 53.5 -20.5t53.5 -6.5q45 0 74.5 24.5t54.5 85t54 169.5l-332 1037h198l182 -614q9 -28 17 -58.5t16 -65.5t16 -77h11q5 38 11 69.5t13 61.5t15 61l158 623h198z
M724 1889q-7 -103 -44 -173t-102 -105t-159 -35q-96 0 -161 33.5t-99.5 103t-41.5 176.5h151q8 -107 43 -155t108 -48q75 0 110.5 50t43.5 153h151z" />
    <glyph glyph-name="uni040F" unicode="&#x40f;" horiz-adv-x="1097" 
d="M953 0h-312v-401h-184v401h-311v1462h190v-1292h428v1292h189v-1462z" />
    <glyph glyph-name="uni0410" unicode="&#x410;" horiz-adv-x="949" 
d="M747 0l-101 441h-342l-101 -441h-203l353 1462h236l360 -1462h-202zM613 612l-104 469q-7 39 -14 77.5t-12.5 74t-10.5 68.5q-3 -32 -8.5 -68t-12.5 -73.5t-16 -76.5l-101 -471h279z" />
    <glyph glyph-name="uni0411" unicode="&#x411;" horiz-adv-x="936" 
d="M146 0v1462h646v-169h-456v-432h102q143 0 239.5 -46t145 -139.5t48.5 -236.5q0 -208 -111 -323.5t-313 -115.5h-301zM336 166h105q117 0 178 68t61 201q0 89 -25.5 146.5t-79 86t-136.5 28.5h-103v-530z" />
    <glyph glyph-name="uni0412" unicode="&#x412;" horiz-adv-x="995" 
d="M146 1462h336q199 0 301 -87.5t102 -264.5q0 -92 -24 -162t-70 -114t-113 -59v-9q81 -19 133 -64t77.5 -115.5t25.5 -166.5q0 -127 -45.5 -221.5t-131.5 -146.5t-209 -52h-382v1462zM336 842h144q111 0 161.5 62t50.5 185q0 104 -53.5 159t-161.5 55h-141v-461zM336 684
v-521h173q104 0 156.5 67t52.5 201q0 84 -27 140t-77 84.5t-122 28.5h-156z" />
    <glyph glyph-name="uni0413" unicode="&#x413;" horiz-adv-x="769" 
d="M749 1462v-169h-413v-1293h-190v1462h603z" />
    <glyph glyph-name="uni0414" unicode="&#x414;" horiz-adv-x="1079" 
d="M910 1462v-1292h131v-571h-183v401h-665v-401h-183v571h89q55 158 95.5 313t67.5 312.5t42 322.5t18 344h588zM720 1296h-223q-6 -154 -21.5 -301.5t-40.5 -288t-59 -274.5t-77 -262h421v1126z" />
    <glyph glyph-name="uni0415" unicode="&#x415;" horiz-adv-x="832" 
d="M742 0h-596v1462h596v-166h-406v-450h380v-167h-380v-509h406v-170z" />
    <glyph glyph-name="uni0416" unicode="&#x416;" horiz-adv-x="1313" 
d="M374 758l-377 704h205l362 -703v703h184v-703l364 703h202l-377 -704l384 -758h-208l-365 749v-749h-184v749l-365 -749h-207z" />
    <glyph glyph-name="uni0417" unicode="&#x417;" horiz-adv-x="903" 
d="M761 1126q0 -141 -65.5 -235t-189.5 -125v-8q140 -17 212.5 -109.5t72.5 -248.5q0 -127 -47.5 -221t-143 -146.5t-241.5 -52.5q-85 0 -162 15.5t-142 46.5v186q37 -23 85.5 -41.5t100 -28t97.5 -9.5q133 0 195 63.5t62 198.5q0 136 -72 200.5t-221 64.5h-110v168h108
q91 0 151 27.5t89.5 84.5t29.5 145q0 107 -51.5 159.5t-146.5 52.5q-66 0 -121 -25.5t-95 -68.5l-87 138q48 44 98.5 72t109 41t129.5 13q112 0 191 -44t121.5 -124.5t42.5 -188.5z" />
    <glyph glyph-name="uni0418" unicode="&#x418;" horiz-adv-x="1192" 
d="M146 1462h184v-840q0 -29 -0.5 -61t-1.5 -68.5t-3 -80.5t-6 -96h8l487 1146h234v-1462h-185v859q0 32 1 66.5t2.5 72.5t4 79t6.5 84h-8l-492 -1161h-231v1462z" />
    <glyph glyph-name="uni0419" unicode="&#x419;" horiz-adv-x="1192" 
d="M146 1462h184v-840q0 -29 -0.5 -61t-1.5 -68.5t-3 -80.5t-6 -96h8l487 1146h234v-1462h-185v859q0 32 1 66.5t2.5 72.5t4 79t6.5 84h-8l-492 -1161h-231v1462zM897 1889q-7 -103 -44 -173t-102 -105t-159 -35q-96 0 -161 33.5t-99.5 103t-41.5 176.5h151q8 -107 43 -155
t108 -48q75 0 110.5 50t43.5 153h151z" />
    <glyph glyph-name="uni041A" unicode="&#x41a;" horiz-adv-x="927" 
d="M935 0h-212l-387 754v-754h-190v1462h190v-697l375 697h205l-393 -700z" />
    <glyph glyph-name="uni041B" unicode="&#x41b;" horiz-adv-x="1046" 
d="M903 0h-190v1285h-245q-9 -118 -20.5 -250t-24 -260t-25 -235t-22.5 -175q-22 -134 -52.5 -218t-82.5 -123.5t-140 -39.5q-34 0 -59.5 5t-44.5 15v165q16 -9 33 -13.5t36 -4.5q41 0 66 26.5t42 91t31 178.5q9 70 20 181t24 248.5t26.5 287.5t25.5 298h602v-1462z" />
    <glyph glyph-name="uni041C" unicode="&#x41c;" horiz-adv-x="1487" 
d="M660 0l-339 1201h-8q4 -67 7 -121.5t4 -96.5t1 -71v-912h-179v1462h266l329 -1162h6l330 1162h267v-1462h-184v910q0 31 1.5 73.5t4 97t4.5 120.5h-7l-339 -1201h-164z" />
    <glyph glyph-name="uni041D" unicode="&#x41d;" horiz-adv-x="1107" 
d="M963 0h-190v679h-437v-679h-190v1462h190v-613h437v613h190v-1462z" />
    <glyph glyph-name="uni041E" unicode="&#x41e;" horiz-adv-x="1141" 
d="M1044 733q0 -161 -27 -298.5t-83 -239.5t-145.5 -158.5t-215.5 -56.5q-128 0 -218.5 58t-146.5 160.5t-82.5 240t-26.5 296.5q0 249 53.5 415.5t159 250t261.5 83.5q167 0 270.5 -97.5t152 -267t48.5 -386.5zM296 733q0 -191 31.5 -321t93 -195.5t150.5 -65.5
q91 0 152 64t91.5 194t30.5 324q0 290 -68 435.5t-204 145.5q-92 0 -153.5 -65.5t-92.5 -195t-31 -320.5z" />
    <glyph glyph-name="uni041F" unicode="&#x41f;" horiz-adv-x="1097" 
d="M146 0v1462h807v-1462h-189v1293h-428v-1293h-190z" />
    <glyph glyph-name="uni0420" unicode="&#x420;" horiz-adv-x="923" 
d="M435 1462q217 0 321 -107t104 -327q0 -112 -26.5 -199t-80 -146.5t-134.5 -90.5t-190 -31h-93v-561h-190v1462h289zM426 1297h-90v-570h76q89 0 145.5 30t84 96.5t27.5 172.5q0 144 -59.5 207.5t-183.5 63.5z" />
    <glyph glyph-name="uni0421" unicode="&#x421;" horiz-adv-x="927" 
d="M605 1315q-81 0 -140 -46t-96.5 -127.5t-55 -187t-17.5 -224.5q0 -182 39 -312t111 -199.5t170 -69.5q64 0 120.5 17.5t105.5 43.5v-171q-51 -30 -113.5 -44.5t-135.5 -14.5q-153 0 -264 89.5t-170.5 257.5t-59.5 405q0 157 31 293.5t93 240t155.5 161.5t217.5 58
q76 0 146.5 -19.5t135.5 -57.5l-63 -159q-48 31 -100 48.5t-110 17.5z" />
    <glyph glyph-name="uni0422" unicode="&#x422;" horiz-adv-x="797" 
d="M492 0h-189v1293h-281v169h752v-169h-282v-1293z" />
    <glyph glyph-name="uni0423" unicode="&#x423;" horiz-adv-x="837" 
d="M837 1462l-300 -1044q-46 -161 -94 -257.5t-112.5 -138.5t-158.5 -42q-36 0 -67.5 6t-60.5 17v170q27 -14 53.5 -20.5t53.5 -6.5q45 0 74.5 24.5t54.5 85t54 169.5l-332 1037h198l182 -614q9 -28 17 -58.5t16 -65.5t16 -77h11q5 38 11 69.5t13 61.5t15 61l158 623h198z
" />
    <glyph glyph-name="uni0424" unicode="&#x424;" horiz-adv-x="1326" 
d="M755 1483v-180q157 0 263 -69.5t160.5 -191.5t54.5 -279q0 -125 -31 -227.5t-91.5 -176t-150 -114t-205.5 -40.5v-225h-185v225q-113 -1 -202 39t-151 113.5t-94 176.5t-32 229q0 115 31 213.5t92 172t150 114.5t206 40v180h185zM570 1140q-94 0 -158.5 -43t-97.5 -127
t-33 -206q0 -133 34 -221t99 -131.5t156 -44.5v773zM755 1140v-773q93 1 157.5 46t98 133t33.5 218q0 125 -33 208.5t-97.5 125.5t-158.5 42z" />
    <glyph glyph-name="uni0425" unicode="&#x425;" horiz-adv-x="845" 
d="M835 0h-203l-202 580l-221 -580h-197l313 759l-278 703h196l187 -533l188 533h199l-279 -711z" />
    <glyph glyph-name="uni0426" unicode="&#x426;" horiz-adv-x="1148" 
d="M1102 170v-571h-182v401h-774v1462h190v-1292h438v1292h190v-1292h138z" />
    <glyph glyph-name="uni0427" unicode="&#x427;" horiz-adv-x="1059" 
d="M916 0h-190v592q-86 -44 -164 -66.5t-151 -22.5q-143 0 -217.5 96t-74.5 278v585h189v-545q0 -126 39.5 -185t123.5 -59q65 0 125 18.5t130 56.5v714h190v-1462z" />
    <glyph glyph-name="uni0428" unicode="&#x428;" horiz-adv-x="1557" 
d="M1412 0h-1266v1462h190v-1292h349v1292h188v-1292h350v1292h189v-1462z" />
    <glyph glyph-name="uni0429" unicode="&#x429;" horiz-adv-x="1595" 
d="M1552 170v-571h-183v401h-1223v1462h190v-1292h349v1292h188v-1292h350v1292h189v-1292h140z" />
    <glyph glyph-name="uni042A" unicode="&#x42a;" horiz-adv-x="1106" 
d="M309 0v1292h-280v170h468v-601h105q142 0 238.5 -46t146 -139.5t49.5 -236.5q0 -207 -111 -323t-315 -116h-301zM499 166h106q118 0 179 68t61 201q0 89 -26.5 146.5t-80 86t-135.5 28.5h-104v-530z" />
    <glyph glyph-name="uni042B" unicode="&#x42b;" horiz-adv-x="1399" 
d="M146 0v1462h190v-601h102q143 0 239.5 -46t145 -139.5t48.5 -236.5q0 -208 -111.5 -323.5t-313.5 -115.5h-300zM336 166h105q117 0 178 68t61 201q0 89 -25.5 146.5t-79 86t-136.5 28.5h-103v-530zM1066 0v1462h189v-1462h-189z" />
    <glyph glyph-name="uni042C" unicode="&#x42c;" horiz-adv-x="940" 
d="M146 0v1462h190v-601h102q143 0 239.5 -46t145 -139.5t48.5 -236.5q0 -208 -111.5 -323.5t-313.5 -115.5h-300zM336 166h105q117 0 178 68t61 201q0 89 -25.5 146.5t-79 86t-136.5 28.5h-103v-530z" />
    <glyph glyph-name="uni042D" unicode="&#x42d;" horiz-adv-x="942" 
d="M329 1315q-60 0 -113 -17.5t-104 -48.5l-63 158q66 40 138 59t156 19q114 1 206 -50t157.5 -149t100.5 -238t34 -319q0 -217 -54.5 -386.5t-164.5 -266t-280 -96.5q-73 0 -141.5 14.5t-117.5 42.5v173q53 -26 114 -43.5t127 -17.5q82 0 140.5 40.5t97.5 113t59 168
t24 204.5h-436v168h432q-6 91 -26.5 175t-58 151.5t-93.5 106.5t-134 39z" />
    <glyph glyph-name="uni042E" unicode="&#x42e;" horiz-adv-x="1518" 
d="M1418 733q0 -160 -24.5 -297t-77 -239.5t-136 -159.5t-201.5 -57q-136 0 -232 80t-149 235.5t-60 383.5h-202v-679h-190v1462h190v-614h205q11 210 64 351.5t147.5 213t226.5 71.5q145 0 242.5 -87t147 -254.5t49.5 -409.5zM729 733q0 -191 28.5 -321t83 -195.5
t134.5 -65.5q82 0 136.5 65t82 194.5t27.5 322.5q0 195 -27.5 324t-82 193t-134.5 64q-81 0 -136.5 -65.5t-83.5 -195t-28 -320.5z" />
    <glyph glyph-name="uni042F" unicode="&#x42f;" horiz-adv-x="963" 
d="M490 606l-257 -606h-209l296 649q-76 30 -125 87.5t-73 135t-24 167.5q0 212 107 317.5t319 105.5h295v-1462h-190v605zM628 1300h-93q-85 0 -138 -28t-78 -87t-25 -151q0 -141 55 -207.5t169 -66.5h110v540z" />
    <glyph glyph-name="uni0430" unicode="&#x430;" horiz-adv-x="868" 
d="M447 1124q155 0 225 -98t70 -286v-740h-136l-28 155h-5q-28 -57 -64.5 -96t-83.5 -59t-108 -20q-87 0 -142 46.5t-81 121.5t-26 161q0 166 95 256t269 98l129 7v68q0 122 -34.5 179t-110.5 57q-46 0 -98.5 -16.5t-113.5 -53.5l-55 137q65 42 141 62.5t157 20.5zM562 541
l-95 -6q-108 -6 -161 -61t-53 -159q0 -96 34 -142t95 -46q84 0 132 81.5t48 223.5v109z" />
    <glyph glyph-name="uni0431" unicode="&#x431;" horiz-adv-x="934" 
d="M91 697q0 187 27.5 339t97.5 262.5t200 171.5q63 34 164.5 59.5t241.5 38.5l19 -164q-45 -4 -98.5 -11t-107 -17.5t-99 -24t-74.5 -29.5q-70 -39 -109.5 -104.5t-57 -155t-22.5 -203.5h10q23 50 60 87t83.5 57t97.5 20q104 0 176.5 -57.5t111.5 -169.5t39 -274
q0 -171 -45 -292.5t-131.5 -185.5t-212.5 -64q-91 0 -160 41.5t-116.5 128.5t-71 223t-23.5 324zM466 136q66 0 110.5 41.5t67 124t22.5 206.5q0 179 -47 271t-143 92q-45 0 -85 -29t-70 -73.5t-44 -92.5q1 -132 12.5 -232.5t34.5 -169t58 -103.5t84 -35z" />
    <glyph glyph-name="uni0432" unicode="&#x432;" horiz-adv-x="885" 
d="M780 830q0 -97 -41 -159.5t-124 -84.5v-8q92 -15 142.5 -82.5t50.5 -172.5q0 -102 -39 -174.5t-114.5 -110.5t-189.5 -38h-336v1104h323q109 0 181.5 -31.5t109.5 -92t37 -150.5zM624 339q0 92 -42 130.5t-124 38.5h-147v-364h143q87 0 128.5 47.5t41.5 147.5zM596 811
q0 73 -38.5 111t-118.5 38h-128v-313h143q75 0 108.5 41t33.5 123z" />
    <glyph glyph-name="uni0433" unicode="&#x433;" horiz-adv-x="667" 
d="M647 1104v-159h-336v-945h-182v1104h518z" />
    <glyph glyph-name="uni0434" unicode="&#x434;" horiz-adv-x="938" 
d="M785 1104v-946h115v-544h-177v386h-530v-386h-177v544h89q54 132 90.5 288t56.5 323.5t24 334.5h509zM604 947h-169q-5 -126 -20.5 -260t-45.5 -268.5t-78 -260.5h313v789z" />
    <glyph glyph-name="uni0435" unicode="&#x435;" horiz-adv-x="869" 
d="M447 1122q115 0 191.5 -64.5t114.5 -175t38 -250.5v-120h-526q2 -190 61 -284.5t179 -94.5q62 0 120.5 18t122.5 59v-159q-60 -36 -125.5 -53.5t-139.5 -17.5q-141 0 -229 72.5t-128.5 200.5t-40.5 293q0 185 41 313.5t121.5 195.5t199.5 67zM448 975q-81 0 -127.5 -78
t-53.5 -244h354q0 89 -18.5 162.5t-57 116.5t-97.5 43z" />
    <glyph glyph-name="uni0436" unicode="&#x436;" horiz-adv-x="1202" 
d="M1172 1104l-301 -523l327 -581h-205l-301 570v-570h-180v570l-301 -570h-204l327 581l-301 523h197l282 -526v526h180v-526l283 526h197z" />
    <glyph glyph-name="uni0437" unicode="&#x437;" horiz-adv-x="738" 
d="M324 1124q93 0 160 -34.5t103 -98t36 -151.5q0 -89 -43.5 -156.5t-111.5 -91.5v-9q60 -16 103 -53.5t65.5 -93t22.5 -126.5q0 -98 -40 -172t-115 -116t-182 -42q-54 0 -101 8t-88 24t-79 42v168q52 -38 114 -62t133 -24q56 0 94.5 21.5t59 62.5t20.5 102q0 56 -21 97
t-64 64t-110 23h-72v143h66q80 0 124.5 45t44.5 130q0 73 -37 110.5t-102 37.5q-42 0 -86 -14t-88 -43l-67 138q66 38 129.5 54.5t131.5 16.5z" />
    <glyph glyph-name="uni0438" unicode="&#x438;" horiz-adv-x="990" 
d="M307 1104v-590q0 -32 -1 -62.5t-2.5 -61.5t-3.5 -63.5t-5 -69.5l361 847h204v-1104h-175v577q0 45 1 89.5t3 89.5t5 90l-362 -846h-203v1104h178z" />
    <glyph glyph-name="uni0439" unicode="&#x439;" horiz-adv-x="990" 
d="M307 1104v-590q0 -32 -1 -62.5t-2.5 -61.5t-3.5 -63.5t-5 -69.5l361 847h204v-1104h-175v577q0 45 1 89.5t3 89.5t5 90l-362 -846h-203v1104h178zM802 1551q-7 -103 -44 -173t-102 -105t-159 -35q-96 0 -161 33.5t-99.5 103t-41.5 176.5h151q8 -107 43 -155t108 -48
q75 0 110.5 50t43.5 153h151z" />
    <glyph glyph-name="uni043A" unicode="&#x43a;" horiz-adv-x="835" 
d="M607 1104h198l-314 -522l339 -582h-204l-315 571v-571h-182v1104h182v-524z" />
    <glyph glyph-name="uni043B" unicode="&#x43b;" horiz-adv-x="902" 
d="M772 0h-181v941h-200q-13 -247 -32 -427.5t-51.5 -297t-85.5 -173t-133 -56.5q-24 0 -45.5 4t-41.5 11v156q9 -4 21.5 -7t26.5 -3q32 0 57 37t43.5 113t32.5 190.5t23.5 268t16.5 347.5h549v-1104z" />
    <glyph glyph-name="uni043C" unicode="&#x43c;" horiz-adv-x="1189" 
d="M1061 1104v-1104h-174v584q0 51 4 125.5t10 165.5h-8l-224 -875h-152l-221 875h-9q6 -82 9.5 -159t3.5 -129v-587h-171v1104h258l208 -836l210 836h256z" />
    <glyph glyph-name="uni043D" unicode="&#x43d;" horiz-adv-x="957" 
d="M311 1104v-454h334v454h182v-1104h-182v494h-334v-494h-182v1104h182z" />
    <glyph glyph-name="uni043E" unicode="&#x43e;" horiz-adv-x="926" 
d="M843 553q0 -126 -22.5 -231t-69 -181.5t-118.5 -118.5t-172 -42q-94 0 -165 41.5t-118 117.5t-70.5 181.5t-23.5 232.5q0 179 40.5 306.5t124.5 196t216 68.5q120 0 204.5 -65t129 -192t44.5 -314zM269 552q0 -136 20.5 -228.5t64 -139t111.5 -46.5q67 0 109.5 45.5
t63 138t20.5 231.5q0 137 -20.5 229t-63 138t-110.5 46q-103 0 -149 -103t-46 -311z" />
    <glyph glyph-name="uni043F" unicode="&#x43f;" horiz-adv-x="957" 
d="M827 1104v-1104h-182v947h-334v-947h-182v1104h698z" />
    <glyph glyph-name="uni0440" unicode="&#x440;" horiz-adv-x="959" 
d="M554 1124q158 0 240.5 -144t82.5 -427q0 -183 -37 -310.5t-107.5 -195t-170.5 -67.5q-55 0 -102.5 20.5t-84.5 59.5t-63 93h-8q3 -46 5 -85.5t2 -72.5v-485h-182v1594h148l24 -158h10q30 62 66 101.5t80 58t97 18.5zM508 968q-66 0 -109.5 -41.5t-65.5 -126t-22 -213.5
v-54q0 -134 22 -221.5t66.5 -130t109.5 -42.5q60 0 101 44t61 135t20 233q0 208 -42.5 312.5t-140.5 104.5z" />
    <glyph glyph-name="uni0441" unicode="&#x441;" horiz-adv-x="732" 
d="M462 -20q-126 0 -209.5 63t-125.5 188.5t-42 313.5q0 178 42 308t127 200.5t213 70.5q68 0 121.5 -14.5t100.5 -41.5l-55 -149q-40 22 -78.5 33t-75.5 11q-68 0 -114.5 -47t-70.5 -139.5t-24 -230.5q0 -134 23.5 -224.5t70.5 -136.5t117 -46q47 0 95.5 14.5t96.5 42.5
v-155q-45 -30 -103 -45.5t-109 -15.5z" />
    <glyph glyph-name="uni0442" unicode="&#x442;" horiz-adv-x="664" 
d="M642 947h-219v-947h-180v947h-221v157h620v-157z" />
    <glyph glyph-name="uni0443" unicode="&#x443;" horiz-adv-x="787" 
d="M11 1104h189l149 -617q9 -41 17 -80.5t15 -78t12 -75.5h8q7 53 18.5 110.5t27.5 123.5l144 617h188l-328 -1263q-31 -117 -73 -190.5t-98.5 -108t-133.5 -34.5q-26 0 -52 5t-54 12v162q19 -7 39.5 -11t39.5 -4q39 0 65.5 18.5t47.5 63t42 123.5l33 132z" />
    <glyph glyph-name="uni0444" unicode="&#x444;" horiz-adv-x="1166" 
d="M674 1556v-441q140 -12 230.5 -89.5t135 -200.5t44.5 -273q0 -154 -44.5 -276.5t-135 -198t-230.5 -90.5v-479h-177v479q-130 12 -222 82.5t-141 193t-49 290.5q0 159 44 281t134.5 195.5t230.5 85.5v441h180zM494 960q-69 -7 -119.5 -58.5t-77.5 -140t-27 -208.5
q0 -107 24.5 -197.5t74 -147.5t125.5 -65v817zM674 960v-817q78 8 128 66.5t74 148.5t24 194q0 179 -61 287.5t-165 120.5z" />
    <glyph glyph-name="uni0445" unicode="&#x445;" horiz-adv-x="786" 
d="M286 568l-245 536h196l159 -390l160 390h194l-245 -543l256 -561h-194l-176 415l-173 -415h-191z" />
    <glyph glyph-name="uni0446" unicode="&#x446;" horiz-adv-x="992" 
d="M956 -386h-179v386h-648v1104h182v-946h344v946h180v-946h121v-544z" />
    <glyph glyph-name="uni0447" unicode="&#x447;" horiz-adv-x="941" 
d="M285 1104v-431q0 -83 31.5 -121.5t87.5 -38.5q60 0 118.5 29.5t109.5 75.5v486h180v-1104h-180v465q-60 -53 -130 -80.5t-141 -27.5q-130 0 -193 79.5t-63 242.5v425h180z" />
    <glyph glyph-name="uni0448" unicode="&#x448;" horiz-adv-x="1347" 
d="M1217 1104v-1104h-1088v1104h182v-946h272v946h179v-946h273v946h182z" />
    <glyph glyph-name="uni0449" unicode="&#x449;" horiz-adv-x="1375" 
d="M1217 1104v-946h120v-544h-178v386h-1030v1104h182v-946h272v946h179v-946h273v946h182z" />
    <glyph glyph-name="uni044A" unicode="&#x44a;" horiz-adv-x="980" 
d="M437 1104v-451h104q123 0 206 -36t125 -107t42 -179t-42.5 -182t-122.5 -111.5t-194 -37.5h-300v941h-233v163h415zM546 509h-109v-365h108q93 0 139.5 45.5t46.5 133.5q0 92 -45.5 139t-139.5 47z" />
    <glyph glyph-name="uni044B" unicode="&#x44b;" horiz-adv-x="1244" 
d="M129 0v1104h182v-451h105q122 0 204.5 -36t124.5 -107t42 -179t-42 -182t-122.5 -111.5t-196.5 -37.5h-297zM311 144h108q92 0 139 45.5t47 133.5q0 92 -45.5 139t-139.5 47h-109v-365zM933 0v1104h181v-1104h-181z" />
    <glyph glyph-name="uni044C" unicode="&#x44c;" horiz-adv-x="854" 
d="M311 653h105q122 0 204.5 -36t124.5 -107t42 -179t-42 -182t-122.5 -111.5t-196.5 -37.5h-297v1104h182v-451zM605 323q0 92 -45.5 139t-139.5 47h-109v-365h108q92 0 139 45.5t47 133.5z" />
    <glyph glyph-name="uni044D" unicode="&#x44d;" horiz-adv-x="766" 
d="M282 -20q-62 0 -120 16t-100 45v156q50 -29 101 -45t103 -16q70 0 118.5 38.5t76 117.5t33.5 202h-292v144h289q-11 166 -64 248.5t-148 82.5q-42 0 -87 -13.5t-75 -33.5l-56 145q53 29 108 43t115 14q128 0 216.5 -66t135 -192.5t46.5 -311.5q0 -187 -44.5 -314.5
t-133.5 -193.5t-222 -66z" />
    <glyph glyph-name="uni044E" unicode="&#x44e;" horiz-adv-x="1295" 
d="M1211 553q0 -185 -42.5 -313t-124 -194t-198.5 -66q-111 0 -187.5 55.5t-119 169.5t-51.5 289h-177v-494h-182v1104h182v-454h177q12 155 57 260.5t122 159.5t183 54q114 0 195 -66.5t123.5 -193.5t42.5 -311zM668 552q0 -137 20 -229.5t59.5 -139.5t99.5 -47
q62 0 101.5 46.5t58.5 139t19 231.5q0 137 -19 229t-58.5 138t-102.5 46q-62 0 -101.5 -45.5t-58 -137.5t-18.5 -231z" />
    <glyph glyph-name="uni044F" unicode="&#x44f;" horiz-adv-x="868" 
d="M226 0h-198l266 470q-70 19 -117.5 60.5t-71.5 104t-24 143.5q0 155 94 240.5t261 85.5h302v-1104h-180v447h-99zM265 774q0 -89 48.5 -135.5t144.5 -46.5h100v368h-98q-96 0 -145.5 -48.5t-49.5 -137.5z" />
    <glyph glyph-name="uni0450" unicode="&#x450;" horiz-adv-x="869" 
d="M447 1122q115 0 191.5 -64.5t114.5 -175t38 -250.5v-120h-526q2 -190 61 -284.5t179 -94.5q62 0 120.5 18t122.5 59v-159q-60 -36 -125.5 -53.5t-139.5 -17.5q-141 0 -229 72.5t-128.5 200.5t-40.5 293q0 185 41 313.5t121.5 195.5t199.5 67zM448 975q-81 0 -127.5 -78
t-53.5 -244h354q0 89 -18.5 162.5t-57 116.5t-97.5 43zM372 1568q22 -46 54.5 -103t66.5 -110t62 -90v-24h-121q-30 26 -69 65t-79 83t-73.5 86.5t-54.5 74.5v18h214z" />
    <glyph glyph-name="uni0451" unicode="&#x451;" horiz-adv-x="869" 
d="M447 1122q115 0 191.5 -64.5t114.5 -175t38 -250.5v-120h-526q2 -190 61 -284.5t179 -94.5q62 0 120.5 18t122.5 59v-159q-60 -36 -125.5 -53.5t-139.5 -17.5q-141 0 -229 72.5t-128.5 200.5t-40.5 293q0 185 41 313.5t121.5 195.5t199.5 67zM448 975q-81 0 -127.5 -78
t-53.5 -244h354q0 89 -18.5 162.5t-57 116.5t-97.5 43zM181 1374q0 55 26.5 81.5t66.5 26.5q41 0 67 -27.5t26 -80.5q0 -54 -26 -82t-67 -28q-40 0 -66.5 27.5t-26.5 82.5zM519 1374q0 55 27 81.5t68 26.5t68 -27.5t27 -80.5q0 -54 -27 -82t-68 -28q-42 0 -68.5 28t-26.5 82
z" />
    <glyph glyph-name="uni0452" unicode="&#x452;" horiz-adv-x="950" 
d="M588 -492q-26 0 -57.5 6t-50.5 13v160q20 -7 38.5 -11.5t35.5 -4.5q44 0 66 40.5t22 124.5v848q0 136 -32.5 197t-103.5 61q-64 0 -107.5 -39.5t-65.5 -126t-22 -228.5v-548h-181v1236h-120v138h120v182h183v-182h229v-138h-229v-147q0 -37 -3.5 -75.5t-10.5 -79.5h12
q21 53 56 91.5t82 59t101 20.5q94 0 154.5 -43t90.5 -127t30 -208v-894q0 -105 -27.5 -177.5t-80 -110t-129.5 -37.5z" />
    <glyph glyph-name="uni0453" unicode="&#x453;" horiz-adv-x="667" 
d="M647 1104v-159h-336v-945h-182v1104h518zM716 1568v-18q-21 -32 -54 -73t-72 -84t-78.5 -83t-71.5 -69h-121v24q39 55 72 107t60.5 101t49.5 95h215z" />
    <glyph glyph-name="uni0454" unicode="&#x454;" horiz-adv-x="766" 
d="M477 -20q-130 0 -217 65t-131 191t-44 311q0 182 44 311t133.5 197.5t223.5 68.5q59 0 116 -14t108 -43l-54 -145q-33 20 -77 33.5t-89 13.5q-65 0 -110.5 -36.5t-72 -110t-33.5 -184.5h291v-144h-291q5 -119 30.5 -199t73.5 -119.5t117 -39.5q52 0 102.5 16t99.5 45
v-156q-41 -29 -105 -45t-115 -16z" />
    <glyph glyph-name="uni0455" unicode="&#x455;" horiz-adv-x="708" 
d="M644 300q0 -103 -37.5 -174.5t-109 -108.5t-173.5 -37q-77 0 -142.5 17.5t-114.5 44.5v184q46 -36 112.5 -60.5t135.5 -24.5q71 0 110 39.5t39 111.5q0 42 -16 74t-53 62.5t-101 66.5q-68 41 -119.5 87t-80 105.5t-28.5 142.5q0 133 85.5 213.5t228.5 80.5
q72 0 136.5 -19t123.5 -56l-62 -144q-44 30 -92.5 48t-100.5 18q-67 0 -105 -36.5t-38 -98.5q0 -42 15.5 -72t53.5 -59.5t104 -69.5q68 -42 119.5 -87t80.5 -104t29 -144z" />
    <glyph glyph-name="uni0456" unicode="&#x456;" horiz-adv-x="443" 
d="M313 1104v-1104h-182v1104h182zM224 1523q54 0 79 -32.5t25 -90.5t-26.5 -90t-77.5 -32q-50 0 -78 32t-28 90q0 60 26.5 91.5t79.5 31.5z" />
    <glyph glyph-name="uni0457" unicode="&#x457;" horiz-adv-x="442" 
d="M312 0h-182v1104h182v-1104zM-42 1376q0 55 26.5 81.5t66.5 26.5q41 0 67 -27.5t26 -80.5q0 -54 -26 -82t-67 -28q-40 0 -66.5 27.5t-26.5 82.5zM296 1376q0 55 27 81.5t68 26.5t68 -27.5t27 -80.5q0 -54 -27 -82t-68 -28q-42 0 -68.5 28t-26.5 82z" />
    <glyph glyph-name="uni0458" unicode="&#x458;" horiz-adv-x="443" 
d="M76 -492q-31 0 -58 5t-50 14v160q18 -7 37 -11.5t36 -4.5q49 0 69.5 41t20.5 128v1264h182v-1268q0 -112 -27.5 -184.5t-80.5 -107.5t-129 -36zM118 1400q0 60 26.5 91.5t79.5 31.5t78.5 -32.5t25.5 -90.5t-26.5 -90t-77.5 -32q-50 0 -78 32t-28 90z" />
    <glyph glyph-name="uni0459" unicode="&#x459;" horiz-adv-x="1289" 
d="M748 1104v-451h105q121 0 204 -36t125 -107t42 -179t-42.5 -182t-123 -111.5t-194.5 -37.5h-294v941h-179q-13 -247 -31 -427.5t-50 -297t-85 -173t-136 -56.5q-24 0 -45.5 4t-41.5 11v156q9 -4 21.5 -7t26.5 -3q32 0 57 36t43.5 109.5t33 187t24 268.5t15.5 355h525z
M855 509h-107v-365h105q93 0 139.5 45.5t46.5 133.5q0 92 -45 139t-139 47z" />
    <glyph glyph-name="uni045A" unicode="&#x45a;" horiz-adv-x="1352" 
d="M811 1104v-451h105q122 0 204.5 -36t125 -107t42.5 -179t-42.5 -182t-122.5 -111.5t-194 -37.5h-296v497h-322v-497h-182v1104h182v-451h322v451h178zM917 509h-106v-365h106q93 0 139.5 45.5t46.5 133.5q0 92 -46 139t-140 47z" />
    <glyph glyph-name="uni045B" unicode="&#x45b;" horiz-adv-x="950" 
d="M313 1556v-182h229v-138h-229v-147q0 -37 -3.5 -75.5t-10.5 -79.5h12q21 53 56 91.5t82 59t101 20.5q94 0 154.5 -43t90.5 -127t30 -208v-727h-183v684q0 136 -32.5 197t-103.5 61q-66 0 -109.5 -39.5t-64.5 -126t-21 -228.5v-548h-181v1236h-120v138h120v182h183z" />
    <glyph glyph-name="uni045C" unicode="&#x45c;" horiz-adv-x="835" 
d="M607 1104h198l-314 -522l339 -582h-204l-315 571v-571h-182v1104h182v-524zM759 1568v-18q-21 -32 -54 -73t-72 -84t-78.5 -83t-71.5 -69h-121v24q39 55 72 107t60.5 101t49.5 95h215z" />
    <glyph glyph-name="uni045D" unicode="&#x45d;" horiz-adv-x="990" 
d="M307 1104v-590q0 -32 -1 -62.5t-2.5 -61.5t-3.5 -63.5t-5 -69.5l361 847h204v-1104h-175v577q0 45 1 89.5t3 89.5t5 90l-362 -846h-203v1104h178zM392 1568q22 -46 54.5 -103t66.5 -110t62 -90v-24h-121q-30 26 -69 65t-79 83t-73.5 86.5t-54.5 74.5v18h214z" />
    <glyph glyph-name="uni045E" unicode="&#x45e;" horiz-adv-x="787" 
d="M11 1104h189l149 -617q9 -41 17 -80.5t15 -78t12 -75.5h8q7 53 18.5 110.5t27.5 123.5l144 617h188l-328 -1263q-31 -117 -73 -190.5t-98.5 -108t-133.5 -34.5q-26 0 -52 5t-54 12v162q19 -7 39.5 -11t39.5 -4q39 0 65.5 18.5t47.5 63t42 123.5l33 132zM700 1551
q-7 -103 -44 -173t-102 -105t-159 -35q-96 0 -161 33.5t-99.5 103t-41.5 176.5h151q8 -107 43 -155t108 -48q75 0 110.5 50t43.5 153h151z" />
    <glyph glyph-name="uni045F" unicode="&#x45f;" horiz-adv-x="957" 
d="M390 0h-261v1104h182v-946h334v946h182v-1104h-260v-386h-177v386z" />
    <glyph glyph-name="uni0460" unicode="&#x460;" horiz-adv-x="1461" 
d="M347 0q-72 182 -128 366t-95 369t-62.5 367t-31.5 360h195q4 -142 20 -294.5t43 -308.5t64 -308t83 -293h5q12 59 30.5 129t38.5 132l124 436q-12 84 -21 168.5t-14 169t-5 169.5h190q1 -147 14 -299t39 -305.5t65.5 -304.5t94.5 -296h4q76 190 127 393t80.5 409
t39.5 403h192q-16 -230 -59 -475t-118.5 -494.5t-191.5 -492.5h-145q-35 81 -67 164t-60 167t-52 166t-42 162l-184 -659h-173z" />
    <glyph glyph-name="uni0461" unicode="&#x461;" horiz-adv-x="1337" 
d="M1272 1104q-6 -190 -43.5 -383.5t-99 -376.5t-140.5 -344h-163q-31 73 -63 160t-59.5 176.5t-44.5 166.5l-185 -503h-163q-61 133 -106.5 272t-76.5 280t-48.5 280t-22.5 272h175q4 -142 25.5 -303t58 -316t85.5 -281h6q13 37 27.5 78.5t29.5 82t28 72.5l108 274
q-18 104 -27.5 201.5t-13.5 191.5h171q5 -143 27.5 -303t60.5 -315.5t87 -284.5h6q53 117 94.5 266.5t65.5 313t26 323.5h175z" />
    <glyph glyph-name="uni0462" unicode="&#x462;" horiz-adv-x="975" 
d="M179 0v1146h-172v145h172v265h190v-265h262v-145h-262v-293h102q143 0 239.5 -44.5t145 -137t48.5 -236.5q0 -202 -110 -318.5t-315 -116.5h-300zM369 166h105q117 0 178.5 67t61.5 198q0 88 -25.5 145t-78.5 84.5t-137 27.5h-104v-522z" />
    <glyph glyph-name="uni0463" unicode="&#x463;" horiz-adv-x="898" 
d="M355 1331v-227h199v-138h-199v-313h106q183 0 276.5 -80.5t93.5 -241.5q0 -108 -42 -182t-122.5 -111.5t-195.5 -37.5h-298v966h-159v138h159v227h182zM463 509h-108v-365h105q93 0 139.5 45.5t46.5 133.5q0 92 -44.5 139t-138.5 47z" />
    <glyph glyph-name="uni0464" unicode="&#x464;" horiz-adv-x="1367" 
d="M1016 -20q-157 0 -261.5 91.5t-159 249t-62.5 354.5h-197v-675h-190v1462h190v-619h201q11 140 46.5 257.5t95.5 204t146.5 133.5t199.5 47q80 0 153 -20.5t138 -63.5l-60 -159q-55 36 -110.5 54.5t-117.5 18.5q-72 0 -125.5 -37.5t-90 -103.5t-57.5 -151t-28 -180h430
v-168h-434q4 -107 24 -202t58.5 -168t96.5 -114.5t137 -41.5q64 0 123 19.5t113 51.5v-175q-54 -32 -119 -48.5t-140 -16.5z" />
    <glyph glyph-name="uni0465" unicode="&#x465;" horiz-adv-x="1160" 
d="M872 -20q-127 0 -210 58.5t-125 173.5t-51 282h-175v-494h-182v1104h182v-466h176q11 151 57.5 260t130 167.5t205.5 58.5q62 0 118 -14t107 -43l-54 -145q-34 20 -78 33.5t-88 13.5q-66 0 -112 -36.5t-72.5 -110t-33.5 -184.5h292v-144h-292q5 -119 31 -199t74 -119.5
t116 -39.5q52 0 103.5 16t100.5 45v-156q-41 -29 -103.5 -45t-116.5 -16z" />
    <glyph glyph-name="uni0466" unicode="&#x466;" horiz-adv-x="1099" 
d="M667 1462l436 -1462h-200l-185 659h-79v-659h-178v659h-84l-181 -659h-200l433 1462h238zM547 1301q-3 -20 -6 -39.5t-7.5 -38.5t-9 -37t-10.5 -34l-92 -334h251l-93 336q-5 17 -9.5 34.5t-8.5 36t-8 37.5t-7 39z" />
    <glyph glyph-name="uni0467" unicode="&#x467;" horiz-adv-x="929" 
d="M576 1104l350 -1104h-181l-137 468h-63v-468h-162v468h-61l-135 -468h-182l352 1104h219zM471 967h-8q-2 -18 -5.5 -34.5t-7.5 -32t-9 -32.5l-73 -252h193l-70 249q-5 20 -8.5 37t-6.5 33t-5 32z" />
    <glyph glyph-name="uni0468" unicode="&#x468;" horiz-adv-x="1541" 
d="M1110 1462l436 -1462h-200l-184 659h-80v-659h-177v659h-86l-180 -659h-199l198 679h-302v-679h-190v1462h190v-614h356l181 614h237zM989 1301q-3 -20 -6.5 -39.5t-7.5 -38.5t-9 -37t-9 -34l-93 -334h250l-93 336q-5 17 -9 34.5t-8.5 36t-8 37.5t-6.5 39z" />
    <glyph glyph-name="uni0469" unicode="&#x469;" horiz-adv-x="1323" 
d="M971 1104l350 -1104h-182l-137 468h-61v-468h-162v468h-63l-135 -468h-179l158 497h-249v-497h-182v1104h182v-451h301l143 451h216zM864 967h-8q-5 -28 -10.5 -56t-13.5 -56.5t-18 -58.5l-51 -180h193l-52 181q-6 19 -14.5 52t-16 66t-9.5 52z" />
    <glyph glyph-name="uni046A" unicode="&#x46a;" horiz-adv-x="1173" 
d="M1044 1462v-116l-285 -509q85 -11 139.5 -56t90 -124.5t63.5 -197.5l114 -459h-203l-95 431q-20 95 -42.5 150.5t-57 80.5t-92.5 29v-691h-181v691q-59 -3 -92.5 -27.5t-54.5 -80.5t-43 -152l-95 -431h-202l114 459q22 90 45 157t55 113t77.5 72.5t112.5 35.5l-282 509
v116h914zM814 1304h-455l226 -446z" />
    <glyph glyph-name="uni046B" unicode="&#x46b;" horiz-adv-x="1056" 
d="M926 1104v-100l-241 -369q80 -12 128.5 -50.5t79 -101.5t54.5 -147l95 -336h-184l-85 349q-17 59 -36 93.5t-48.5 48.5t-78.5 14v-505h-164v503q-49 0 -78.5 -14.5t-47.5 -48t-33 -90.5l-89 -350h-184l93 336q24 86 54.5 149.5t79.5 101.5t128 48l-243 369v100h800z
M720 965h-387l193 -307z" />
    <glyph glyph-name="uni046C" unicode="&#x46c;" horiz-adv-x="1628" 
d="M1499 1462v-116l-283 -522q89 -11 143 -59t88 -128.5t63 -191.5l112 -445h-201l-96 419q-20 94 -42.5 149.5t-57.5 80.5t-92 28v-677h-180v677q-54 -3 -88 -24t-56.5 -76t-47.5 -158l-94 -419h-198l106 422q21 82 46.5 147t58.5 110h-344v-679h-190v1462h190v-614h520
l-269 498v116h912zM1270 1304h-456l227 -456z" />
    <glyph glyph-name="uni046D" unicode="&#x46d;" horiz-adv-x="1469" 
d="M1341 1104v-100l-243 -381q79 -11 128 -48t80 -98t55 -146l96 -331h-184l-89 343q-16 58 -35 91t-47.5 46.5t-78.5 13.5v-494h-163v493q-50 0 -78.5 -15t-45.5 -47.5t-33 -86.5l-92 -344h-180l96 338q16 53 33 93t37 66h-286v-497h-182v1104h182v-451h454l-226 351v100
h802zM1133 965h-387l194 -315z" />
    <glyph glyph-name="uni046E" unicode="&#x46e;" horiz-adv-x="896" 
d="M625 1752q21 0 38.5 -3t33.5 -10v-120q-8 5 -19.5 7.5t-24.5 2.5q-38 0 -70 -45.5t-65 -113.5q117 -30 180.5 -120.5t63.5 -223.5q0 -141 -65 -235t-189 -125v-8q142 -17 213 -108.5t71 -242.5q0 -100 -29 -176t-81.5 -127.5t-123.5 -79t-156 -30.5q-56 -3 -93.5 -16.5
t-56 -39.5t-18.5 -65q0 -59 36.5 -89.5t105.5 -30.5q37 0 69 3.5t60.5 6.5t56.5 3q35 0 65 -6t51 -17v-161q-19 12 -49 18t-69 6q-36 0 -69 -3.5t-67 -6.5t-77 -3q-101 0 -168 34.5t-100.5 98t-33.5 149.5q0 96 36.5 158.5t104 94.5t161.5 34q127 7 189 66.5t62 188.5
q0 134 -72 196.5t-223 62.5h-110v168h108q91 2 150.5 29t89 83.5t30.5 144.5q0 107 -51.5 159.5t-147.5 52.5q-65 0 -119.5 -25.5t-94.5 -68.5l-87 138q50 47 105.5 75.5t119.5 41.5q-16 31 -43 77.5t-57 94t-56 78.5v22h121q34 -35 70 -84.5t79 -111.5q28 56 60.5 101.5
t70.5 73t84 27.5z" />
    <glyph glyph-name="uni046F" unicode="&#x46f;" horiz-adv-x="744" 
d="M537 1356q19 0 37.5 -3t34.5 -10v-116q-9 6 -20.5 8.5t-23.5 2.5q-32 0 -63 -33t-64 -100q92 -28 140.5 -97t48.5 -170q0 -89 -42.5 -153.5t-114.5 -92.5v-9q65 -19 108 -56.5t64.5 -90.5t21.5 -121q0 -97 -36 -167.5t-108 -109.5t-181 -46q-49 -3 -79 -15.5t-44.5 -35.5
t-14.5 -58q0 -51 28.5 -75t86.5 -24q31 0 57.5 3t53.5 5.5t55 2.5q31 0 57 -6t45 -16v-161q-15 11 -43 17.5t-59 6.5q-25 0 -57 -2.5t-64.5 -5t-61.5 -2.5q-87 0 -147.5 29.5t-92 87t-31.5 141.5q0 82 32.5 139.5t93 89.5t144.5 36q65 5 105 26t58.5 59.5t18.5 96.5
q0 54 -22 93.5t-64.5 60.5t-102.5 21h-82v143h67q79 0 125.5 45t46.5 129q0 74 -38 111.5t-111 37.5q-47 0 -91 -14t-85 -41l-66 138q32 19 65 32.5t69 20.5q-18 38 -40.5 75.5t-47 74.5t-51.5 71v22h121q33 -35 69.5 -84t79.5 -111q29 58 61.5 103t70.5 71t83 26z" />
    <glyph glyph-name="uni0470" unicode="&#x470;" horiz-adv-x="1328" 
d="M1203 1462v-473q0 -137 -24 -241t-77 -174t-138 -106t-207 -36v-432h-184v432q-121 0 -206.5 34.5t-138 103t-77 171t-24.5 237.5v484h190v-487q0 -113 19.5 -197.5t75 -131t161.5 -46.5v862h184v-862q95 1 151 38t81 119t25 217v488h189z" />
    <glyph glyph-name="uni0471" unicode="&#x471;" horiz-adv-x="1178" 
d="M682 1556v-1412q78 7 125.5 56.5t69.5 146t22 242.5q0 128 -16 255t-49 260h179q36 -146 52.5 -269.5t16.5 -249.5q0 -190 -44.5 -321.5t-133 -202.5t-222.5 -78v-473h-176v473q-127 4 -213 63t-129.5 175.5t-43.5 292.5v590h182v-580q0 -121 20.5 -203t65.5 -126
t118 -51v1412h176z" />
    <glyph glyph-name="uni0472" unicode="&#x472;" horiz-adv-x="1158" 
d="M1059 733q0 -161 -27 -298.5t-84.5 -239.5t-149 -158.5t-219.5 -56.5q-129 0 -220 58t-148.5 160.5t-84.5 240t-27 296.5q0 249 55 415.5t162 250t264 83.5q170 0 275.5 -97.5t154.5 -267t49 -386.5zM580 149q89 0 150.5 58t95.5 173t38 286h-569q4 -167 37.5 -282
t96 -175t151.5 -60zM581 1316q-87 0 -148.5 -54.5t-96 -163.5t-41.5 -272h568q-10 244 -80.5 367t-201.5 123z" />
    <glyph glyph-name="uni0473" unicode="&#x473;" horiz-adv-x="947" 
d="M864 553q0 -183 -46 -311t-133.5 -195t-213.5 -67q-121 0 -208 67.5t-133 196t-46 309.5q0 280 101 425.5t290 145.5q132 0 218 -75.5t128.5 -204.5t42.5 -291zM473 136q65 0 109.5 40t68.5 120.5t28 200.5h-412q3 -111 25.5 -192.5t67 -125t113.5 -43.5zM473 966
q-97 0 -146.5 -83.5t-59.5 -247.5h412q-5 100 -28 174.5t-67 115.5t-111 41z" />
    <glyph glyph-name="uni0474" unicode="&#x474;" horiz-adv-x="1009" 
d="M970 1309q-33 0 -56 -24t-40 -70.5t-35 -114.5l-266 -1100h-220l-353 1462h198l208 -917q14 -54 24.5 -112t19 -114.5t15.5 -109.5q5 34 10.5 74t13 81t14 77.5t12.5 62.5l146 638q30 126 63.5 198.5t81 103.5t118.5 33q31 0 58 -6t48 -17v-159q-16 6 -31 10t-29 4z" />
    <glyph glyph-name="uni0475" unicode="&#x475;" horiz-adv-x="849" 
d="M763 1120q34 0 58.5 -5.5t42.5 -14.5v-148q-15 8 -30 11t-28 3q-29 -2 -48 -18t-33.5 -55.5t-33.5 -112.5l-202 -780h-199l-282 1104h187l145 -645q14 -61 25 -123.5t20 -130.5h8q6 54 18 118.5t29 135.5l77 334q30 127 62 198t75.5 100t108.5 29z" />
    <glyph glyph-name="uni0476" unicode="&#x476;" horiz-adv-x="1009" 
d="M970 1309q-33 0 -56 -24t-40 -70.5t-35 -114.5l-266 -1100h-220l-353 1462h198l208 -917q14 -54 24.5 -112t19 -114.5t15.5 -109.5q5 34 10.5 74t13 81t14 77.5t12.5 62.5l146 638q30 126 63.5 198.5t81 103.5t118.5 33q31 0 58 -6t48 -17v-159q-16 6 -31 10t-29 4z
M563 1907q15 -37 42.5 -91t59 -110.5t59.5 -102.5v-24h-87q-32 27 -70.5 66.5t-75.5 84t-66 86t-43 72.5v19h181zM262 1907q22 -50 47.5 -102t53.5 -103t57 -99v-24h-92q-30 27 -66.5 66.5t-72.5 83.5t-65.5 86t-46.5 73v19h185z" />
    <glyph glyph-name="uni0477" unicode="&#x477;" horiz-adv-x="849" 
d="M763 1120q34 0 58.5 -5.5t42.5 -14.5v-148q-15 8 -30 11t-28 3q-29 -2 -48 -18t-33.5 -55.5t-33.5 -112.5l-202 -780h-199l-282 1104h187l145 -645q14 -61 25 -123.5t20 -130.5h8q6 54 18 118.5t29 135.5l77 334q30 127 62 198t75.5 100t108.5 29zM493 1569
q15 -37 42.5 -91t59 -110.5t59.5 -102.5v-24h-87q-32 27 -70.5 66.5t-75.5 84t-66 86t-43 72.5v19h181zM192 1569q22 -50 47.5 -102t53.5 -103t57 -99v-24h-92q-30 27 -66.5 66.5t-72.5 83.5t-65.5 86t-46.5 73v19h185z" />
    <glyph glyph-name="uni0478" unicode="&#x478;" horiz-adv-x="1928" 
d="M1044 733q0 -161 -27 -298.5t-83 -239.5t-145.5 -158.5t-215.5 -56.5q-128 0 -218.5 58t-146.5 160.5t-82.5 240t-26.5 296.5q0 249 53.5 415.5t159 250t261.5 83.5q167 0 270.5 -97.5t152 -267t48.5 -386.5zM296 733q0 -191 31.5 -321t93 -195.5t150.5 -65.5
q91 0 152 64t91.5 194t30.5 324t-30.5 323t-90.5 193.5t-151 64.5q-92 0 -153.5 -65.5t-92.5 -195t-31 -320.5zM1154 1104h189l148 -617q10 -41 18 -80.5t14.5 -78t12.5 -75.5h7q8 53 19.5 110.5t27.5 123.5l144 617h187l-327 -1263q-32 -117 -73.5 -190.5t-98.5 -108
t-134 -34.5q-26 0 -52 5t-53 12v162q20 -7 40 -11t39 -4q40 0 66.5 18.5t47.5 63t41 123.5l33 132z" />
    <glyph glyph-name="uni0479" unicode="&#x479;" horiz-adv-x="1711" 
d="M843 553q0 -126 -22.5 -231t-69 -181.5t-118.5 -118.5t-172 -42q-94 0 -165 41.5t-118 117.5t-70.5 181.5t-23.5 232.5q0 179 40.5 306.5t124.5 196t216 68.5q120 0 204.5 -65t129 -192t44.5 -314zM269 552q0 -136 20.5 -228.5t64 -139t111.5 -46.5q67 0 109.5 45.5
t63 138t20.5 231.5q0 137 -20.5 229t-63 138t-110.5 46q-103 0 -149 -103t-46 -311zM938 1104h189l149 -617q9 -41 17 -80.5t15 -78t12 -75.5h8q7 53 18.5 110.5t27.5 123.5l144 617h188l-328 -1263q-31 -117 -73 -190.5t-98.5 -108t-133.5 -34.5q-26 0 -52 5t-54 12v162
q19 -7 39.5 -11t39.5 -4q39 0 65.5 18.5t47.5 63t42 123.5l33 132z" />
    <glyph glyph-name="uni047A" unicode="&#x47a;" horiz-adv-x="1213" 
d="M609 -113q-39 0 -68 24.5t-39 80.5q-99 18 -174.5 76t-126 153t-76.5 224.5t-26 289.5q0 222 45.5 378t135 246.5t221.5 113.5q10 55 38.5 79t69.5 24q38 0 66 -24t39 -79q132 -24 221 -117t134 -250t45 -373q0 -159 -25.5 -288t-76 -224t-126 -153.5t-174.5 -77.5
q-11 -54 -38 -78.5t-65 -24.5zM507 175q13 49 39 71.5t62 22.5q34 0 60.5 -24t38.5 -74q71 27 118.5 99.5t71.5 188.5t24 274q0 236 -54 378.5t-160 181.5q-10 -52 -36.5 -75.5t-62.5 -23.5t-64 23t-39 73q-70 -27 -117.5 -101t-71 -189t-23.5 -267q0 -153 23.5 -269
t71.5 -189t119 -100z" />
    </font>
</defs>
</svg>
