<?xml version="1.0" standalone="no"?>
<!DOCTYPE svg PUBLIC "-//W3C//DTD SVG 1.1//EN" "http://www.w3.org/Graphics/SVG/1.1/DTD/svg11.dtd" >
<svg xmlns="http://www.w3.org/2000/svg" xmlns:xlink="http://www.w3.org/1999/xlink" version="1.1">
<metadata>
Created by FontForge 20170731 at Wed Feb 10 17:54:37 2021
 By Aleksey,,,
Copyright 2020 The Open Sans Project Authors (https://github.com/googlefonts/opensans)
</metadata>
<defs>
<font id="OpenSansCondensed-MediumItalic" horiz-adv-x="0" >
  <font-face 
    font-family="Open Sans Condensed Medium"
    font-weight="500"
    font-style="italic"
    font-stretch="condensed"
    units-per-em="2048"
    panose-1="0 0 0 0 0 0 0 0 0 0"
    ascent="1638"
    descent="-410"
    x-height="1101"
    cap-height="1462"
    bbox="-811 -572 1985 2163"
    underline-thickness="50"
    underline-position="-175"
    slope="-12"
    unicode-range="U+000D-FFFD"
  />
<missing-glyph horiz-adv-x="1229" 
 />
    <glyph glyph-name="f_f" unicode="ff" horiz-adv-x="951" 
d="M-141 -492q-30 0 -57 4t-52 12v152q19 -6 43 -10t46 -4q73 0 99.5 59t49.5 164l228 1070h-117l18 95l129 52l27 117q17 79 38.5 142.5t53.5 110t80 71t119 24.5q41 0 82 -8.5t76 -26.5l-63 -136q-20 10 -41.5 15.5t-41.5 5.5q-57 0 -84.5 -52t-48.5 -149l-24 -115h297
l23 118q16 79 37.5 142.5t54 110t81 71t119.5 24.5q41 0 81.5 -8.5t75.5 -26.5l-61 -136q-21 10 -43 15.5t-40 5.5q-57 0 -85 -52t-49 -149l-25 -115h152l-30 -146h-151l-234 -1084q-22 -102 -53.5 -184.5t-88.5 -130.5t-155 -48q-29 0 -56 4t-52 12v152q17 -6 42 -10t47 -4
q73 0 99.5 59t48.5 164l229 1070h-295l-234 -1084q-21 -102 -52.5 -184.5t-88 -130.5t-154.5 -48z" />
    <glyph glyph-name="fi" unicode="fi" horiz-adv-x="880" 
d="M-141 -492q-30 0 -57 4t-52 12v152q19 -6 43 -10t46 -4q73 0 99.5 59t49.5 164l228 1070h-117l18 95l129 52l27 117q17 79 38.5 142.5t53.5 110t80 71t119 24.5q41 0 82 -8.5t76 -26.5l-63 -136q-20 10 -41.5 15.5t-41.5 5.5q-57 0 -84.5 -52t-48.5 -149l-24 -115h151
l-31 -146h-151l-234 -1084q-21 -102 -52.5 -184.5t-88 -130.5t-154.5 -48zM475 0l233 1101h172l-234 -1101h-171zM839 1280q-41 0 -62.5 21t-21.5 62q0 37 13.5 71.5t41 57.5t69.5 23q40 0 61 -19.5t21 -60.5q0 -63 -33 -109t-89 -46z" />
    <glyph glyph-name="fl" unicode="fl" horiz-adv-x="878" 
d="M-141 -492q-30 0 -57 4t-52 12v152q19 -6 43 -10t46 -4q73 0 99.5 59t49.5 164l228 1070h-117l18 95l129 52l27 117q17 79 38.5 142.5t53.5 110t80 71t119 24.5q41 0 82 -8.5t76 -26.5l-63 -136q-20 10 -41.5 15.5t-41.5 5.5q-57 0 -84.5 -52t-48.5 -149l-24 -115h151
l-31 -146h-151l-234 -1084q-21 -102 -52.5 -184.5t-88 -130.5t-154.5 -48zM475 0l332 1556h171l-331 -1556h-172z" />
    <glyph glyph-name="f_f_i" unicode="ffi" horiz-adv-x="1349" 
d="M-141 -492q-30 0 -57 4t-52 12v152q19 -6 43 -10t46 -4q73 0 99.5 59t49.5 164l228 1070h-117l18 95l129 52l27 117q17 79 38.5 142.5t53.5 110t80 71t119 24.5q41 0 82 -8.5t76 -26.5l-63 -136q-20 10 -41.5 15.5t-41.5 5.5q-57 0 -84.5 -52t-48.5 -149l-24 -115h297
l23 118q16 79 37.5 142.5t54 110t81 71t119.5 24.5q41 0 81.5 -8.5t75.5 -26.5l-61 -136q-21 10 -43 15.5t-40 5.5q-57 0 -85 -52t-49 -149l-25 -115h152l-30 -146h-151l-234 -1084q-22 -102 -53.5 -184.5t-88.5 -130.5t-155 -48q-29 0 -56 4t-52 12v152q17 -6 42 -10t47 -4
q73 0 99.5 59t48.5 164l229 1070h-295l-234 -1084q-21 -102 -52.5 -184.5t-88 -130.5t-154.5 -48zM943 0l234 1101h170l-233 -1101h-171zM1305 1280q-41 0 -62.5 21t-21.5 62q0 37 13.5 71.5t41 57.5t69.5 23q40 0 61.5 -19.5t21.5 -60.5q0 -63 -33.5 -109t-89.5 -46z" />
    <glyph glyph-name="f_f_l" unicode="ffl" horiz-adv-x="1346" 
d="M-141 -492q-30 0 -57 4t-52 12v152q19 -6 43 -10t46 -4q73 0 99.5 59t49.5 164l228 1070h-117l18 95l129 52l27 117q17 79 38.5 142.5t53.5 110t80 71t119 24.5q41 0 82 -8.5t76 -26.5l-63 -136q-20 10 -41.5 15.5t-41.5 5.5q-57 0 -84.5 -52t-48.5 -149l-24 -115h297
l23 118q16 79 37.5 142.5t54 110t81 71t119.5 24.5q41 0 81.5 -8.5t75.5 -26.5l-61 -136q-21 10 -43 15.5t-40 5.5q-57 0 -85 -52t-49 -149l-25 -115h152l-30 -146h-151l-234 -1084q-22 -102 -53.5 -184.5t-88.5 -130.5t-155 -48q-29 0 -56 4t-52 12v152q17 -6 42 -10t47 -4
q73 0 99.5 59t48.5 164l229 1070h-295l-234 -1084q-21 -102 -52.5 -184.5t-88 -130.5t-154.5 -48zM945 0l331 1556h172l-332 -1556h-171z" />
    <glyph glyph-name=".notdef" horiz-adv-x="1229" 
 />
    <glyph glyph-name=".null" 
 />
    <glyph glyph-name="nonmarkingreturn" horiz-adv-x="682" 
 />
    <glyph glyph-name="NULL" 
 />
    <glyph glyph-name="NULL" 
 />
    <glyph glyph-name="CR" unicode="&#xd;" horiz-adv-x="349" 
 />
    <glyph glyph-name="space" unicode=" " horiz-adv-x="349" 
 />
    <glyph glyph-name="exclam" unicode="!" horiz-adv-x="482" 
d="M123 417l199 1045h200l-256 -1045h-143zM108 -15q-42 0 -67 22.5t-25 67.5q0 66 37 117.5t106 51.5q40 0 62.5 -25t22.5 -69q0 -70 -39 -117.5t-97 -47.5z" />
    <glyph glyph-name="quotedbl" unicode="&#x22;" horiz-adv-x="708" 
d="M519 934l86 528h188l-140 -528h-134zM200 934l85 528h188l-139 -528h-134z" />
    <glyph glyph-name="numbersign" unicode="#" horiz-adv-x="885" 
d="M13 0l138 442h-149l23 135h166l108 341h-159l24 135h178l127 409h134l-128 -409h178l128 409h133l-127 -409h149l-24 -135h-168l-108 -341h161l-24 -135h-177l-139 -442h-134l139 442h-180l-135 -442h-134zM326 577h178l107 341h-178z" />
    <glyph glyph-name="dollar" unicode="$" horiz-adv-x="815" 
d="M210 -119l46 212q-86 3 -149.5 23t-104.5 48l25 175q45 -35 112 -63t150 -33l94 449q-51 39 -99 83t-78 102t-30 137q0 121 46 201.5t126.5 124t181.5 50.5l36 166h81l-33 -166q82 -4 138.5 -25.5t100.5 -49.5l-78 -145q-42 28 -89.5 48t-104.5 24l-90 -427
q57 -43 104 -89.5t76 -106t29 -142.5q0 -116 -46.5 -198.5t-128.5 -129t-187 -56.5l-45 -212h-83zM371 249q60 8 98 35.5t56.5 70.5t18.5 96q0 37 -8.5 66t-29 58t-55.5 61zM421 872l78 368q-56 -7 -93.5 -34t-56.5 -69t-19 -97q0 -31 9.5 -58t29.5 -53.5t52 -56.5z" />
    <glyph glyph-name="percent" unicode="%" horiz-adv-x="1279" 
d="M201 0l766 1462h139l-762 -1462h-143zM274 565q-83 0 -128.5 60.5t-45.5 182.5q0 68 13.5 156t40 179t68 168t98 124.5t129.5 47.5q80 0 126.5 -59.5t46.5 -181.5q0 -63 -13 -150.5t-39.5 -179t-67.5 -170.5t-98 -128t-130 -49zM291 693q36 0 66 43t54 110.5t41 143.5
t26 144t9 109q0 59 -13.5 85.5t-42.5 26.5q-35 0 -65.5 -42t-54.5 -108t-41.5 -141.5t-26.5 -143.5t-9 -112q0 -61 15 -88t42 -27zM867 -20q-85 0 -129.5 60t-44.5 182q0 76 14 166.5t42 180t70 164.5t97.5 120t124.5 45q80 0 126.5 -59.5t46.5 -180.5q0 -66 -13 -154
t-39.5 -179t-68 -169.5t-98 -127t-128.5 -48.5zM882 109q36 0 66.5 42.5t54.5 110t41 143t26 144t9 111.5q0 57 -15 83.5t-42 26.5q-37 0 -67.5 -43.5t-54.5 -111.5t-40.5 -143.5t-25 -142.5t-8.5 -107q0 -60 14.5 -86.5t41.5 -26.5z" />
    <glyph glyph-name="ampersand" unicode="&#x26;" horiz-adv-x="904" 
d="M246 -20q-119 0 -188 74.5t-69 206.5q0 113 38 208.5t108 178t165 151.5q-21 64 -34 131.5t-13 139.5q0 114 36 207.5t105 149.5t168 56q56 0 103 -24t75 -71.5t28 -119.5q0 -96 -33 -184t-92.5 -165.5t-139.5 -146.5l105 -338q29 54 55 122.5t46 145.5h172
q-20 -72 -50.5 -149t-69 -150.5t-81.5 -137.5l101 -265h-202l-40 132q-61 -63 -128 -107.5t-165 -44.5zM282 135q44 0 79 20t64.5 52t55.5 67l-130 400q-59 -52 -100.5 -111.5t-63 -127t-21.5 -144.5q0 -50 13.5 -85t39.5 -53t63 -18zM448 895q34 33 63 73t49.5 85t32 93.5
t11.5 97.5q0 45 -15.5 74t-50.5 29q-44 0 -70 -38t-38 -95.5t-12 -116.5q0 -58 8 -107t22 -95z" />
    <glyph glyph-name="quotesingle" unicode="'" horiz-adv-x="389" 
d="M207 934l84 528h188l-138 -528h-134z" />
    <glyph glyph-name="parenleft" unicode="(" horiz-adv-x="531" 
d="M139 -324q-33 67 -56 157t-34.5 187.5t-11.5 186.5q0 170 32.5 342.5t95.5 338t152 315t201 273.5h148q-106 -135 -192 -286.5t-147.5 -313.5t-94 -331t-32.5 -338q0 -92 9 -186t27.5 -182t46.5 -163h-144z" />
    <glyph glyph-name="parenright" unicode=")" horiz-adv-x="531" 
d="M-151 -324q106 135 191.5 286t146 313.5t93 331t32.5 337.5q0 89 -8.5 185t-26.5 186t-47 161h146q35 -74 57.5 -162t33 -182t10.5 -188q0 -174 -33 -347.5t-95.5 -338t-151 -312t-200.5 -270.5h-148z" />
    <glyph glyph-name="asterisk" unicode="*" horiz-adv-x="753" 
d="M597 856l-93 250l-161 -216l-117 111l200 189l-229 72l53 150l218 -117l12 270l165 -21l-61 -262l240 54l13 -158l-241 -8l143 -236z" />
    <glyph glyph-name="plus" unicode="+" horiz-adv-x="898" 
d="M544 799h307v-153h-307v-404h-153v404h-310v153h310v408h153v-408z" />
    <glyph glyph-name="comma" unicode="," horiz-adv-x="422" 
d="M-95 -271q31 71 66.5 160.5t68 180.5t52.5 165h176l6 -21q-31 -83 -68.5 -167.5t-79 -164.5t-85.5 -153h-136z" />
    <glyph glyph-name="hyphen" unicode="-" horiz-adv-x="544" 
d="M31 469l33 168h440l-33 -168h-440z" />
    <glyph glyph-name="period" unicode="." horiz-adv-x="421" 
d="M112 -15q-43 0 -67.5 22.5t-24.5 67.5q0 66 36 117.5t103 51.5q41 0 64 -25t23 -69q0 -70 -40 -117.5t-94 -47.5z" />
    <glyph glyph-name="slash" unicode="/" horiz-adv-x="694" 
d="M-101 -7l790 1476h162l-793 -1476h-159z" />
    <glyph glyph-name="zero" unicode="0" horiz-adv-x="815" 
d="M290 -20q-122 0 -182.5 85.5t-60.5 271.5q0 80 13 195t40 244.5t69 254.5t100.5 227t134 163.5t168.5 61.5q61 0 106.5 -21t75.5 -64t44.5 -109t14.5 -156q0 -88 -13 -206.5t-40.5 -248.5t-70 -253.5t-100.5 -224.5t-132.5 -160.5t-166.5 -59.5zM307 140q51 0 95.5 55
t82.5 147t67.5 202.5t50 223.5t31.5 210.5t11 162.5q0 92 -21 136.5t-68 44.5q-50 0 -94.5 -56t-82.5 -147.5t-68.5 -202.5t-51.5 -222.5t-32.5 -207t-11.5 -154.5q0 -102 22 -147t70 -45z" />
    <glyph glyph-name="one" unicode="1" horiz-adv-x="815" 
d="M260 0l214 1011q9 40 15 67.5t14.5 61t22.5 89.5q-15 -16 -31.5 -33.5t-36.5 -34.5l-165 -144l-82 113l373 332h161l-309 -1462h-176z" />
    <glyph glyph-name="two" unicode="2" horiz-adv-x="815" 
d="M-66 0l25 130l354 425q62 76 120 151t103 150t71.5 151.5t26.5 155.5t-34 120.5t-100 41.5q-41 0 -77.5 -16.5t-71.5 -42t-70 -54.5l-66 128q68 68 147 105.5t175 37.5q83 0 146 -35t97.5 -99.5t34.5 -153.5q0 -119 -46 -233.5t-125.5 -227t-179.5 -226.5l-293 -344v-6
h449l-34 -158h-652z" />
    <glyph glyph-name="three" unicode="3" horiz-adv-x="815" 
d="M222 -20q-81 0 -140 14.5t-114 44.5v176q54 -42 121 -61t129 -19q69 0 122.5 25.5t90.5 70t56 103t19 125.5q0 75 -24 123t-71 72t-116 24h-68l32 153h67q74 0 132.5 26t99.5 71.5t62.5 106t21.5 129.5q0 77 -35 120t-108 43q-58 0 -115.5 -24.5t-114.5 -67.5l-50 136
q71 54 146 83t168 29q88 0 153 -32.5t101 -95t36 -152.5q0 -104 -38.5 -194.5t-109 -154t-166.5 -90.5l-1 -5q81 -26 131 -97t50 -190q0 -97 -31 -186t-90.5 -158t-146.5 -108.5t-199 -39.5z" />
    <glyph glyph-name="four" unicode="4" horiz-adv-x="815" 
d="M344 0l69 317h-447l28 140l649 1017h187l-213 -1005h136l-32 -152h-138l-66 -317h-173zM146 469h298l126 585q8 29 15.5 60.5t16 64t15.5 61.5h-6q-35 -66 -56 -105t-44 -75z" />
    <glyph glyph-name="five" unicode="5" horiz-adv-x="815" 
d="M223 -20q-52 0 -97 7t-81 19t-63 26v185q45 -37 107 -59.5t136 -22.5q75 0 132 31.5t95.5 85.5t58 122.5t19.5 142.5q0 114 -46 174t-141 60q-39 0 -77 -9.5t-78 -24.5l-56 65l183 680h521l-35 -160h-364l-116 -414q28 8 56.5 12t57.5 4q88 0 150.5 -41.5t96 -120.5
t33.5 -192q0 -106 -29 -207.5t-89 -183.5t-152.5 -130.5t-221.5 -48.5z" />
    <glyph glyph-name="six" unicode="6" horiz-adv-x="815" 
d="M327 -20q-96 0 -157 46.5t-89.5 131t-28.5 197.5q0 114 16.5 234t49 236.5t78 220.5t102.5 185q44 65 102.5 122.5t132.5 93.5t163 36q56 0 97 -5.5t74 -15.5l-38 -156q-30 11 -63.5 16.5t-69.5 5.5q-95 0 -173.5 -62t-140.5 -184.5t-108 -304.5h7q29 46 67.5 80t84 52.5
t96.5 18.5q113 0 166 -87t53 -223q0 -99 -24 -210t-75 -208.5t-131 -158.5t-191 -61zM338 137q63 0 107.5 49t72 123.5t40 153t12.5 138.5q0 83 -28.5 128t-80.5 45q-45 0 -81.5 -22t-64 -58.5t-43.5 -81.5q-15 -31 -26 -74t-16 -93t-5 -101q0 -50 7.5 -89t22 -65
t35.5 -39.5t48 -13.5z" />
    <glyph glyph-name="seven" unicode="7" horiz-adv-x="815" 
d="M63 0l633 1301h-502l34 161h677l-23 -129l-636 -1333h-183z" />
    <glyph glyph-name="eight" unicode="8" horiz-adv-x="815" 
d="M317 -20q-103 0 -176.5 38t-112 108.5t-38.5 168.5q0 110 38.5 195.5t112 154.5t175.5 126q-42 48 -70 99t-42.5 107t-14.5 116q0 109 44.5 197.5t127.5 140.5t199 52q86 0 148.5 -34.5t96.5 -97t34 -148.5q0 -93 -35 -173.5t-101.5 -147t-159.5 -117.5q57 -56 93 -114
t53.5 -119.5t17.5 -132.5q0 -109 -47.5 -204.5t-134.5 -155t-208 -59.5zM320 128q73 0 120.5 36t72 96.5t25.5 130.5q0 56 -16.5 105.5t-45.5 94.5t-68 86q-71 -40 -126.5 -91t-88 -119.5t-32.5 -158.5q0 -76 42.5 -128t116.5 -52zM452 857q73 39 121 89.5t72 108.5t24 122
q0 77 -36 117.5t-94 40.5q-56 0 -96.5 -28.5t-63 -81.5t-22.5 -126q0 -74 25.5 -132.5t69.5 -109.5z" />
    <glyph glyph-name="nine" unicode="9" horiz-adv-x="815" 
d="M176 -20q-56 0 -98.5 6.5t-76.5 16.5v158q31 -13 75.5 -20t93.5 -7q73 0 135 35t114 104.5t94 172.5t75 240h-6q-31 -45 -70 -79.5t-84 -53t-95 -18.5q-75 0 -123.5 40.5t-71.5 110.5t-23 158q0 78 15 165.5t47.5 171.5t83 152.5t120.5 109t161 40.5q86 0 145.5 -42
t90.5 -124.5t31 -202.5q0 -93 -11 -193.5t-32.5 -201t-52.5 -194.5t-71 -174q-35 -76 -81 -143t-103.5 -118.5t-127.5 -80.5t-154 -29zM402 690q34 0 63 14t52.5 39.5t40.5 57.5q39 55 59 137t20 183q0 68 -13 113.5t-37.5 68t-61.5 22.5q-59 0 -103 -46t-73.5 -117.5
t-44 -150t-14.5 -142.5q0 -87 29.5 -133t82.5 -46z" />
    <glyph glyph-name="colon" unicode=":" horiz-adv-x="426" 
d="M280 851q-42 0 -66.5 23t-24.5 67t16.5 82.5t47.5 62t75 23.5q42 0 65 -25.5t23 -66.5q0 -71 -39.5 -118.5t-96.5 -47.5zM95 -15q-42 0 -67 22.5t-25 67.5q0 66 36 117.5t104 51.5q41 0 64 -25t23 -69q0 -70 -39.5 -117.5t-95.5 -47.5z" />
    <glyph glyph-name="semicolon" unicode=";" horiz-adv-x="426" 
d="M-103 -271q36 84 71 169.5t64.5 170.5t52.5 166h174l8 -21q-32 -83 -69 -167t-79.5 -164t-87.5 -154h-134zM290 851q-42 0 -67 23t-25 67t16.5 82.5t47.5 62t76 23.5q41 0 64 -25.5t23 -66.5q0 -71 -39 -118.5t-96 -47.5z" />
    <glyph glyph-name="less" unicode="&#x3c;" horiz-adv-x="898" 
d="M854 267l-775 413v105l775 406v-173l-567 -287l567 -293v-171z" />
    <glyph glyph-name="equal" unicode="=" horiz-adv-x="898" 
d="M81 866v152h770v-152h-770zM81 425v151h770v-151h-770z" />
    <glyph glyph-name="greater" unicode="&#x3e;" horiz-adv-x="898" 
d="M81 438l567 293l-567 287v173l776 -406v-105l-776 -413v171z" />
    <glyph glyph-name="question" unicode="?" horiz-adv-x="607" 
d="M130 417q21 100 43.5 168.5t56.5 124.5t87 118q59 71 105 125.5t72 112t26 134.5q0 64 -31 94.5t-85 30.5q-56 0 -104 -22.5t-92 -53.5l-36 136q65 50 133.5 74t136.5 24q122 0 187 -64.5t65 -180.5q0 -91 -31 -167.5t-83 -146t-116 -139.5q-60 -68 -96 -119
t-57.5 -107.5t-36.5 -141.5h-144zM126 -15q-42 0 -67 22.5t-25 67.5q0 66 36 117.5t105 51.5q39 0 62 -25t23 -69q0 -70 -39 -117.5t-95 -47.5z" />
    <glyph glyph-name="at" unicode="@" horiz-adv-x="1219" 
d="M465 -171q-103 0 -181 34.5t-130.5 98.5t-78.5 152.5t-26 196.5q0 167 34 334t99 316.5t158.5 265t212.5 182t261 66.5q121 0 207.5 -58.5t132 -164.5t45.5 -250q0 -92 -17 -196.5t-48.5 -205.5t-76.5 -183.5t-102 -132t-124 -49.5q-76 0 -105.5 42.5t-35.5 114.5h-3
q-33 -72 -81 -116t-101 -44q-79 0 -118.5 52.5t-39.5 159.5q0 68 16 152.5t47.5 168.5t78.5 155.5t110 114.5t141 43q58 0 106.5 -10.5t87.5 -30.5l-119 -481q-11 -43 -16.5 -75.5t-5.5 -51.5q0 -40 12 -59.5t37 -19.5q42 0 77.5 46t63.5 120t48.5 160.5t31 169t10.5 143.5
q0 125 -31.5 207t-91.5 122t-148 40q-118 0 -216 -61t-174 -166t-128.5 -239t-79.5 -280t-27 -289q0 -110 29.5 -195.5t93 -134t168.5 -48.5q71 0 142 17.5t135 49.5v-114q-64 -32 -136.5 -50.5t-143.5 -18.5zM538 350q44 0 85 76.5t82 234.5l75 294q-12 5 -26.5 7t-32.5 2
q-56 0 -100.5 -54t-76 -135t-47.5 -166.5t-16 -148.5q0 -57 14.5 -83.5t42.5 -26.5z" />
    <glyph glyph-name="A" unicode="A" horiz-adv-x="848" 
d="M-132 0l614 1468h227l7 -1468h-186l3 452h-287l-184 -452h-194zM305 612h236l9 504q0 49 2 93t6 83h-6q-9 -37 -22 -80t-33 -95z" />
    <glyph glyph-name="B" unicode="B" horiz-adv-x="894" 
d="M-1 0l309 1462h281q91 0 163.5 -31t115 -94.5t42.5 -161.5q0 -91 -29.5 -174.5t-90.5 -145t-157 -87.5v-6q77 -23 118.5 -96.5t41.5 -171.5q0 -134 -52.5 -247t-155.5 -180t-254 -67h-332zM211 156h120q98 0 159 47.5t89.5 125.5t28.5 170q0 96 -45 142.5t-124 46.5h-116
zM355 839h110q83 0 140 43.5t87 114.5t30 151t-41.5 120.5t-126.5 40.5h-100z" />
    <glyph glyph-name="C" unicode="C" horiz-adv-x="805" 
d="M405 -20q-109 0 -183 53.5t-111 158.5t-37 260q0 123 25 264t76 277t126.5 247.5t177.5 178t229 66.5q72 0 134.5 -18.5t111.5 -57.5l-91 -144q-34 30 -73 44.5t-83 14.5q-92 0 -164 -62t-125.5 -162t-88.5 -216t-52 -227t-17 -193q0 -170 45 -247t142 -77
q47 0 96.5 13.5t103.5 37.5v-162q-58 -25 -120.5 -37t-121.5 -12z" />
    <glyph glyph-name="D" unicode="D" horiz-adv-x="964" 
d="M0 0l309 1462h245q186 0 284.5 -110t98.5 -325q0 -132 -23.5 -275t-74 -276.5t-131 -241t-193.5 -171t-262 -63.5h-253zM211 162h67q101 0 178 54t132.5 145.5t91 203.5t52.5 228.5t17 220.5q0 151 -54 219.5t-161 68.5h-81z" />
    <glyph glyph-name="E" unicode="E" horiz-adv-x="760" 
d="M-1 0l310 1462h542l-33 -158h-365l-97 -462h340l-35 -158h-339l-112 -525h365l-34 -159h-542z" />
    <glyph glyph-name="F" unicode="F" horiz-adv-x="718" 
d="M-1 0l310 1462h543l-34 -158h-365l-109 -521h340l-34 -157h-340l-133 -626h-178z" />
    <glyph glyph-name="G" unicode="G" horiz-adv-x="1016" 
d="M471 -20q-201 0 -299 118.5t-98 347.5q0 167 31 321t90 284t142.5 227.5t188.5 152t228 54.5q94 0 173 -25.5t137 -66.5l-87 -153q-57 43 -115.5 63.5t-123.5 20.5q-109 0 -198 -77.5t-152 -205t-96.5 -280t-33.5 -304.5q0 -110 25.5 -180.5t76 -103.5t126.5 -33
q41 0 79.5 6t75.5 18l97 459h-177l33 155h354l-156 -733q-83 -31 -165 -48t-156 -17z" />
    <glyph glyph-name="H" unicode="H" horiz-adv-x="1003" 
d="M-1 0l310 1462h178l-131 -616h387l132 616h178l-312 -1462h-178l145 684h-386l-145 -684h-178z" />
    <glyph glyph-name="I" unicode="I" horiz-adv-x="439" 
d="M-1 0l310 1462h177l-309 -1462h-178z" />
    <glyph glyph-name="J" unicode="J" horiz-adv-x="425" 
d="M-162 -398q-46 0 -80 6.5t-61 17.5l39 159q24 -11 47.5 -18t49.5 -7q49 0 80.5 31t52.5 87t37 130l307 1454h178l-314 -1485q-27 -132 -73.5 -215t-111.5 -121.5t-151 -38.5z" />
    <glyph glyph-name="K" unicode="K" horiz-adv-x="848" 
d="M-1 0l310 1462h178l-152 -716l110 171l379 545h194l-461 -669l166 -793h-194l-126 659l-110 -111l-116 -548h-178z" />
    <glyph glyph-name="L" unicode="L" horiz-adv-x="701" 
d="M-1 0l310 1462h178l-277 -1303h359l-32 -159h-538z" />
    <glyph glyph-name="M" unicode="M" horiz-adv-x="1340" 
d="M-1 0l310 1462h245l43 -1167h4l526 1167h262l-311 -1462h-175l205 964l14 60t15 61t15 63h-4l-524 -1148h-171l-44 1146h-5q-7 -42 -13.5 -79.5t-12.5 -72t-13 -69.5l-197 -925h-169z" />
    <glyph glyph-name="N" unicode="N" horiz-adv-x="1067" 
d="M-1 0l310 1462h208l190 -1136h6q12 69 24 135.5t23.5 123.5t19.5 96l165 781h172l-312 -1462h-202l-194 1156h-6q-7 -53 -16.5 -110.5t-20.5 -112t-20.5 -100.5t-16.5 -76l-160 -757h-170z" />
    <glyph glyph-name="O" unicode="O" horiz-adv-x="1028" 
d="M400 -20q-111 0 -183.5 47t-108.5 144t-36 245q0 110 16.5 231t50 241t84 227t117.5 190t151.5 131t185.5 48q165 0 244 -104.5t79 -317.5q0 -96 -15 -212.5t-45.5 -238t-78.5 -234t-114.5 -202.5t-152.5 -142.5t-194 -52.5zM413 141q68 0 124.5 45.5t101.5 123
t78.5 174.5t55.5 201t33.5 202t11.5 178q0 133 -39 196t-118 63q-72 0 -130 -48t-103 -128.5t-77.5 -179t-53 -201t-30.5 -195t-10 -158.5q0 -97 17.5 -157.5t52.5 -88t86 -27.5z" />
    <glyph glyph-name="P" unicode="P" horiz-adv-x="839" 
d="M0 0l309 1462h231q113 0 188.5 -39.5t113 -111.5t37.5 -171q0 -119 -32 -223.5t-94.5 -183t-154 -123.5t-210.5 -45h-91l-119 -565h-178zM330 724h57q101 0 169.5 50.5t103.5 139t35 204.5q0 93 -46 139.5t-138 46.5h-58z" />
    <glyph glyph-name="Q" unicode="Q" horiz-adv-x="1028" 
d="M487 -348l-91 332q-9 -1 -17.5 -1h-17.5q-97 7 -161.5 55.5t-96 143t-31.5 234.5q0 110 16.5 231t50 241t84 227t117.5 190t151.5 131t185.5 48q165 0 244 -104.5t79 -317.5q0 -99 -15.5 -219.5t-47.5 -246.5t-82.5 -240.5t-121 -202.5t-161.5 -132l120 -369h-205z
M413 141q68 0 124.5 45.5t101.5 123t78.5 174.5t55.5 201t33.5 202t11.5 178q0 133 -39 196t-118 63q-72 0 -130 -48t-103 -128.5t-77.5 -179t-53 -201t-30.5 -195t-10 -158.5q0 -97 17.5 -157.5t52.5 -88t86 -27.5z" />
    <glyph glyph-name="R" unicode="R" horiz-adv-x="869" 
d="M0 0l309 1462h229q168 0 256 -83t88 -236q0 -122 -36 -226.5t-103 -176t-160 -97.5l133 -643h-194l-109 607h-107l-128 -607h-178zM339 757h86q71 0 122 31t83.5 83t48.5 117t16 132q0 93 -46 139.5t-135 46.5h-61z" />
    <glyph glyph-name="S" unicode="S" horiz-adv-x="780" 
d="M240 -20q-91 0 -163.5 17.5t-123.5 51.5l27 186q53 -36 122.5 -61.5t141.5 -25.5q52 0 96.5 17t76 49t49.5 80t18 111q0 53 -12.5 94t-45 86t-92.5 106q-56 56 -95.5 109.5t-60.5 116t-21 143.5q0 96 29 174t84 133.5t133.5 85.5t176.5 30q74 0 151 -22t127 -58l-84 -162
q-49 34 -101 54.5t-106 20.5q-47 0 -87.5 -15.5t-71 -46t-48 -74.5t-17.5 -100t18 -100t55.5 -89t95.5 -103q54 -53 89 -107t52.5 -117t17.5 -142q0 -96 -28 -176.5t-82.5 -140t-135 -92.5t-185.5 -33z" />
    <glyph glyph-name="T" unicode="T" horiz-adv-x="719" 
d="M137 0l277 1302h-251l35 160h679l-36 -160h-249l-277 -1302h-178z" />
    <glyph glyph-name="U" unicode="U" horiz-adv-x="978" 
d="M368 -20q-93 0 -160.5 36.5t-103.5 105.5t-36 167q0 37 5.5 82.5t15.5 91.5l212 999h178l-214 -1006q-8 -39 -12.5 -75.5t-4.5 -67.5q0 -87 37.5 -129.5t105.5 -42.5q69 0 115.5 35.5t79.5 109.5t58 190l213 986h178l-218 -1005q-31 -147 -85 -254.5t-141.5 -165
t-222.5 -57.5z" />
    <glyph glyph-name="V" unicode="V" horiz-adv-x="848" 
d="M188 0l-10 1462h182l-9 -921q0 -46 -1.5 -92t-4 -97.5t-8.5 -111.5h4q11 38 24.5 80.5t31.5 90.5t39 100l391 951h191l-624 -1462h-206z" />
    <glyph glyph-name="W" unicode="W" horiz-adv-x="1352" 
d="M143 0l36 1462h174l-27 -899q-3 -87 -7.5 -155.5t-8.5 -120.5h4q24 70 50 139.5t53 138.5l352 897h158l-30 -871q-3 -94 -7.5 -165t-9.5 -139h4q18 54 36 102t36 95.5t36 96.5l343 881h181l-577 -1462h-210l32 892q1 31 3 65.5t5 70.5t6 73h-4q-16 -49 -33 -98t-36 -96
l-351 -907h-208z" />
    <glyph glyph-name="X" unicode="X" horiz-adv-x="783" 
d="M-120 0l443 766l-103 696h185l60 -524l275 524h189l-402 -713l108 -749h-190l-57 572l-319 -572h-189z" />
    <glyph glyph-name="Y" unicode="Y" horiz-adv-x="753" 
d="M157 0l117 562l-99 900h186l51 -661l329 661h190l-476 -895l-121 -567h-177z" />
    <glyph glyph-name="Z" unicode="Z" horiz-adv-x="709" 
d="M-83 0l28 135l659 1169h-400l34 158h600l-29 -136l-661 -1167h425l-32 -159h-624z" />
    <glyph glyph-name="bracketleft" unicode="[" horiz-adv-x="578" 
d="M-60 -331l386 1809h393l-30 -141h-235l-326 -1528h236l-31 -140h-393z" />
    <glyph glyph-name="backslash" unicode="\" horiz-adv-x="708" 
d="M393 -7l-187 1477h156l189 -1477h-158z" />
    <glyph glyph-name="bracketright" unicode="]" horiz-adv-x="578" 
d="M-138 -331l28 140h236l325 1528h-235l30 141h394l-386 -1809h-392z" />
    <glyph glyph-name="asciicircum" unicode="^" horiz-adv-x="832" 
d="M17 661l482 801h110l220 -801h-159l-157 562l-328 -562h-168z" />
    <glyph glyph-name="underscore" unicode="_" horiz-adv-x="636" 
d="M-178 -301l25 135h637l-26 -135h-636z" />
    <glyph glyph-name="grave" unicode="`" horiz-adv-x="524" 
d="M476 1241q-27 37 -62.5 93t-67.5 114.5t-47 101.5v18h195q13 -48 27.5 -98t31.5 -101.5t39 -106.5l-3 -21h-113z" />
    <glyph glyph-name="a" unicode="a" horiz-adv-x="875" 
d="M263 -20q-68 0 -116.5 36t-74 105.5t-25.5 168.5q0 91 17 202t51 221.5t87 203t125 148.5t163 56q46 0 82.5 -18t62.5 -54t39 -89h6l46 141h147l-234 -1101h-138l12 156h-5q-36 -55 -73.5 -94.5t-79 -60.5t-92.5 -21zM324 129q67 0 114.5 55t80.5 139.5t55 172.5
q25 98 37 174t12 141q0 76 -29 117t-82 41t-98 -45t-80 -119t-59.5 -162.5t-37 -176.5t-12.5 -160q0 -90 25 -133.5t74 -43.5z" />
    <glyph glyph-name="b" unicode="b" horiz-adv-x="865" 
d="M379 -20q-50 0 -88 19.5t-63.5 54.5t-37.5 82h-6l-50 -136h-137l329 1556h171l-101 -475q-4 -18 -9.5 -38.5t-11 -42t-12.5 -43.5h4q33 54 71 90t81.5 55t92.5 19q67 0 114 -35t72.5 -103.5t25.5 -168.5q0 -91 -17.5 -202t-51.5 -222t-87.5 -204t-125.5 -149.5
t-163 -56.5zM360 128q53 0 97.5 46.5t79.5 122t59.5 164.5t37 177t12.5 158q0 91 -25 132.5t-76 41.5q-49 0 -90 -34.5t-74 -92t-58 -129.5t-42 -147.5t-25 -146t-8 -123.5q0 -83 28 -126t84 -43z" />
    <glyph glyph-name="c" unicode="c" horiz-adv-x="662" 
d="M318 -20q-87 0 -146.5 38t-90.5 113t-31 184q0 98 17.5 208t54 216t93.5 192.5t136 138t182 51.5q57 0 104 -12.5t88 -38.5l-70 -141q-26 20 -59 30.5t-64 10.5q-77 0 -134.5 -63.5t-95.5 -162.5t-57 -208t-19 -201q0 -70 15 -115.5t44.5 -67.5t72.5 -22q38 0 81.5 16
t90.5 44v-150q-41 -25 -96.5 -42.5t-115.5 -17.5z" />
    <glyph glyph-name="d" unicode="d" horiz-adv-x="874" 
d="M261 -20q-68 0 -115.5 36t-73 105.5t-25.5 168.5q0 90 17 200t51 221.5t86 204t122.5 149t158.5 56.5q48 0 86.5 -17t66 -50.5t39.5 -81.5h6q6 36 12.5 70.5t12.5 66.5t12 61l81 386h171l-330 -1556h-138l12 150h-5q-37 -54 -74.5 -92t-79.5 -58t-93 -20zM324 128
q53 0 95.5 37.5t76 100t57.5 138t39.5 152.5t23 145t7.5 113q0 75 -27.5 115t-83.5 40q-55 0 -101 -47t-80.5 -123.5t-58.5 -166.5t-35.5 -176.5t-11.5 -152.5q0 -89 25 -132t74 -43z" />
    <glyph glyph-name="e" unicode="e" horiz-adv-x="794" 
d="M342 -20q-92 0 -157.5 39.5t-101 115t-35.5 184.5q0 161 35.5 305.5t100 256.5t153 176t195.5 64q105 0 167.5 -59.5t62.5 -172.5q0 -91 -34.5 -164.5t-101 -125.5t-161.5 -80t-216 -28h-15q-7 -37 -11 -75.5t-4 -76.5q0 -113 41 -164.5t123 -51.5q57 0 105.5 15
t109.5 50v-141q-57 -36 -120.5 -51.5t-135.5 -15.5zM259 621h6q121 0 194.5 33t107.5 91.5t34 132.5q0 47 -22.5 74t-69.5 27q-52 0 -100 -45.5t-86.5 -126t-63.5 -186.5z" />
    <glyph glyph-name="f" unicode="f" horiz-adv-x="485" 
d="M-141 -492q-30 0 -57 4t-52 12v152q19 -6 43 -10t46 -4q73 0 99.5 59t49.5 164l228 1070h-117l18 95l129 52l27 117q17 79 38.5 142.5t53.5 110t80 71t119 24.5q41 0 82 -8.5t76 -26.5l-63 -136q-20 10 -41.5 15.5t-41.5 5.5q-57 0 -84.5 -52t-48.5 -149l-24 -115h151
l-31 -146h-151l-234 -1084q-21 -102 -52.5 -184.5t-88 -130.5t-154.5 -48z" />
    <glyph glyph-name="g" unicode="g" horiz-adv-x="814" 
d="M190 -492q-158 -1 -242 63t-83 195q1 110 69 196t189 134q-31 14 -50 48t-19 77q0 54 37 106.5t113 103.5q-39 26 -63 81.5t-24 133.5q0 111 47.5 222t136.5 178q42 34 95.5 54.5t111.5 20.5q45 0 76.5 -8.5t50.5 -17.5h259l-22 -108l-132 -28q13 -22 18.5 -52t5.5 -65
q0 -85 -31.5 -176.5t-85.5 -156.5q-50 -60 -118.5 -94.5t-151.5 -34.5q-24 0 -42 -0.5t-26 -4.5q-54 -25 -80 -63t-26 -70q0 -34 28 -49q11 -4 27 -6.5t36 -3.5h156q81 0 130 -28t71 -79t22 -120q0 -115 -51 -207.5t-136 -149.5q-60 -44 -136.5 -67t-159.5 -24zM197 -358
q58 1 111.5 18.5t94.5 52.5q44 35 71.5 88.5t27.5 112.5q0 26 -6 47.5t-23 37.5q-14 13 -39.5 20.5t-64.5 7.5h-131q-47 0 -95.5 -38t-81 -95t-32.5 -114q0 -80 44 -110t124 -28zM378 507q57 0 102 45.5t74 121.5t35 167q4 45 -1 78.5t-22 52.5q-10 11 -24.5 17t-34.5 6
q-44 0 -81.5 -31t-66 -80.5t-46 -107t-21.5 -111.5q-2 -34 0.5 -63t12.5 -49q20 -46 73 -46z" />
    <glyph glyph-name="h" unicode="h" horiz-adv-x="854" 
d="M-1 0l329 1556h171l-86 -399q-7 -31 -15 -64t-17 -65.5t-19 -64.5h4q29 52 65 87t79.5 53t94.5 18q60 0 103.5 -24.5t67 -72t23.5 -116.5q0 -42 -9.5 -101t-19.5 -112l-148 -695h-171l140 667q12 53 21.5 105t9.5 98q0 44 -22.5 69t-66.5 25q-53 0 -96.5 -37t-77.5 -115
t-60 -204l-130 -608h-170z" />
    <glyph glyph-name="i" unicode="i" horiz-adv-x="403" 
d="M-3 0l233 1101h172l-234 -1101h-171zM361 1280q-41 0 -62.5 21t-21.5 62q0 37 13.5 71.5t41 57.5t69.5 23q40 0 61 -19.5t21 -60.5q0 -63 -33 -109t-89 -46z" />
    <glyph glyph-name="j" unicode="j" horiz-adv-x="406" 
d="M-156 -492q-30 0 -56.5 3.5t-51.5 11.5v155q18 -7 41.5 -11t45.5 -4q45 0 73 22.5t47.5 76.5t37.5 150l252 1189h171l-256 -1202q-25 -119 -58 -206.5t-90.5 -136t-155.5 -48.5zM364 1280q-42 0 -63 21t-21 62q0 37 13.5 71.5t41 57.5t68.5 23t62 -19.5t21 -60.5
q0 -63 -33 -109t-89 -46z" />
    <glyph glyph-name="k" unicode="k" horiz-adv-x="761" 
d="M-3 0l332 1556h171l-158 -737q-7 -31 -15 -66t-18 -74.5t-22 -83.5h5l374 506h187l-335 -449l122 -652h-182l-89 511l-123 -134l-77 -377h-172z" />
    <glyph glyph-name="l" unicode="l" horiz-adv-x="398" 
d="M-3 0l332 1556h171l-331 -1556h-172z" />
    <glyph glyph-name="m" unicode="m" horiz-adv-x="1274" 
d="M-3 0l233 1101h140l-20 -142h7q30 52 66.5 88t80.5 55t93 19q79 0 125.5 -34.5t61.5 -107.5h5q30 45 67 77t80.5 48.5t93.5 16.5q89 0 140 -53.5t51 -157.5q0 -31 -5 -69.5t-14 -77.5l-161 -763h-171l153 727q9 39 14 75t5 58q0 53 -22 79.5t-65 26.5q-41 0 -73 -23
t-56 -61t-40.5 -85t-27.5 -95l-149 -702h-171l158 744q8 34 11 65t3 53q0 51 -20.5 77.5t-62.5 26.5q-50 0 -87.5 -30.5t-64.5 -82.5t-46 -118.5t-33 -136.5l-127 -598h-172z" />
    <glyph glyph-name="n" unicode="n" horiz-adv-x="854" 
d="M-3 0l233 1101h139l-18 -146h5q30 53 67.5 90.5t81.5 56.5t94 19q56 0 101 -21.5t72 -68t27 -121.5q0 -42 -8.5 -96.5t-19.5 -108.5l-150 -705h-171l143 676q10 50 19 102t9 92q0 45 -21.5 69.5t-65.5 24.5q-58 0 -103 -44t-78 -127.5t-59 -202.5l-125 -590h-172z" />
    <glyph glyph-name="o" unicode="o" horiz-adv-x="845" 
d="M320 -20q-86 0 -146 38.5t-92 114t-32 184.5q0 83 16 189t50.5 213.5t90.5 199t135.5 147t185.5 55.5q84 0 144 -39.5t91.5 -115.5t31.5 -186q0 -99 -18 -209.5t-54.5 -215.5t-93.5 -189.5t-134 -135t-175 -50.5zM338 129q54 0 98.5 43.5t79 116t57.5 159.5t35 175
t12 161q0 60 -12.5 102.5t-37.5 64.5t-64 22q-58 0 -104 -47t-79.5 -123.5t-55.5 -165.5t-33 -174t-11 -148q0 -90 29 -138t86 -48z" />
    <glyph glyph-name="p" unicode="p" horiz-adv-x="865" 
d="M-101 -478l332 1579h142l-19 -159h6q37 60 76 100t82 59.5t92 19.5q69 0 116 -34t72 -103t25 -173q0 -94 -17.5 -206t-52.5 -222t-88 -201.5t-124 -146.5t-160 -55q-47 0 -84 19t-62.5 53.5t-37.5 80.5h-6q-7 -53 -16 -104.5t-19 -93.5l-88 -413h-169zM359 131
q53 0 98.5 45t80.5 119t59.5 162.5t37 177.5t12.5 162q0 91 -24.5 134.5t-74.5 43.5q-49 0 -90 -36t-74 -95.5t-58 -133t-42 -150.5t-25.5 -147t-8.5 -121q0 -79 27.5 -120t81.5 -41z" />
    <glyph glyph-name="q" unicode="q" horiz-adv-x="875" 
d="M366 -488l100 474q4 20 10.5 44.5t14.5 52.5t15 57h-4q-34 -53 -72 -88.5t-80.5 -53.5t-91.5 -18q-67 0 -114 34t-72 102t-25 167q0 89 16.5 200t51.5 222.5t87.5 206t124.5 152t164 57.5q54 0 91 -18.5t61 -54.5t35 -90h4l44 143h147l-336 -1589h-171zM326 131
q48 0 89 34.5t74 93.5t58 132t42 150.5t25.5 148.5t8.5 126q0 74 -29 113.5t-84 39.5q-54 0 -99 -45.5t-79.5 -120.5t-58 -164t-36 -176.5t-12.5 -157.5q0 -91 25 -132.5t76 -41.5z" />
    <glyph glyph-name="r" unicode="r" horiz-adv-x="578" 
d="M-3 0l233 1101h134l-21 -179h6q31 67 67.5 111t80.5 66t98 22q20 0 39 -3t39 -9l-50 -183q-17 7 -36 10.5t-40 3.5q-54 0 -95.5 -33t-73 -86.5t-53.5 -118t-35 -129.5l-121 -573h-172z" />
    <glyph glyph-name="s" unicode="s" horiz-adv-x="659" 
d="M213 -20q-76 0 -136.5 15t-97.5 37v173q40 -30 100.5 -51.5t114.5 -21.5t92 20t58.5 58.5t20.5 93.5q0 38 -9.5 69t-34.5 65.5t-71 81.5q-46 45 -76.5 89t-45.5 91.5t-15 104.5q0 89 37.5 160.5t108 113.5t170.5 42q80 0 146 -20.5t112 -53.5l-75 -135q-38 31 -85 47.5
t-93 16.5q-67 0 -106 -40t-39 -107q0 -35 8.5 -64.5t31 -60.5t63.5 -73q53 -53 86.5 -97t50 -93.5t16.5 -119.5q0 -101 -39 -178t-113 -120t-180 -43z" />
    <glyph glyph-name="t" unicode="t" horiz-adv-x="505" 
d="M219 -20q-89 0 -128 51t-39 139q0 30 5 68.5t15 83.5l134 633h-98l19 96l121 47l90 251h123l-53 -248h159l-31 -146h-159l-137 -647q-7 -31 -11.5 -59t-4.5 -47q0 -36 14 -52.5t47 -16.5q19 0 45 4.5t48 14.5v-140q-34 -16 -78.5 -24t-80.5 -8z" />
    <glyph glyph-name="u" unicode="u" horiz-adv-x="857" 
d="M250 -20q-65 0 -109.5 25t-67.5 73.5t-23 117.5q0 38 7 88t17 96l154 721h171l-146 -694q-11 -46 -18 -90t-7 -82q0 -47 20.5 -73.5t64.5 -26.5q59 0 104 44.5t79.5 129t58.5 203.5l126 589h170l-232 -1101h-138l13 140h-6q-30 -51 -67.5 -86.5t-80.5 -54.5t-90 -19z" />
    <glyph glyph-name="v" unicode="v" horiz-adv-x="709" 
d="M140 0l-18 1101h171l-4 -599q0 -33 -1 -80t-3.5 -93.5t-5.5 -77.5h8q11 35 22.5 66.5t23.5 62t25 61.5l279 660h178l-487 -1101h-188z" />
    <glyph glyph-name="w" unicode="w" horiz-adv-x="1134" 
d="M109 0l21 1101h167l-18 -602q-2 -61 -6 -119t-9 -111h4q10 33 22.5 70t26 73.5t25.5 67.5l243 621h193l-21 -601q-1 -56 -5.5 -118.5t-7.5 -120.5h4q15 43 29 86t29.5 86t32.5 87l222 581h173l-441 -1101h-198l26 668q1 32 3 64.5t4.5 66t5.5 66.5h-4q-9 -28 -18.5 -55
t-18.5 -53t-20 -54l-270 -703h-194z" />
    <glyph glyph-name="x" unicode="x" horiz-adv-x="726" 
d="M-95 0l355 571l-107 530h181l61 -382l221 382h189l-339 -542l118 -559h-182l-70 411l-240 -411h-187z" />
    <glyph glyph-name="y" unicode="y" horiz-adv-x="720" 
d="M-74 -493q-36 0 -63.5 5.5t-49.5 14.5l25 154q21 -8 41.5 -13t42.5 -5q58 0 93.5 43.5t70.5 123.5l79 179l-31 1092h172l2 -603q0 -37 -0.5 -76.5t-2 -79.5t-4.5 -79h6q12 40 26 79.5t28 75t25 61.5l263 622h179l-579 -1305q-40 -88 -83 -153t-100.5 -100.5t-139.5 -35.5
z" />
    <glyph glyph-name="z" unicode="z" horiz-adv-x="600" 
d="M-75 0l24 113l490 841h-291l31 147h484l-27 -121l-482 -832h319l-33 -148h-515z" />
    <glyph glyph-name="braceleft" unicode="{" horiz-adv-x="673" 
d="M431 -324q-158 2 -228.5 63.5t-70.5 177.5q0 26 4 54t9 57l55 264q4 20 7 40t3 40q0 66 -36.5 97t-129.5 31l31 144q106 1 163 47.5t78 150.5l72 333q25 116 76 178t133 85.5t200 23.5h7l-33 -145q-103 -1 -150.5 -40.5t-69.5 -140.5l-69 -324q-21 -101 -80 -162.5
t-170 -78.5v-6q77 -19 113.5 -63.5t36.5 -113.5q0 -21 -3 -46.5t-10 -54.5l-55 -261q-4 -23 -6 -42.5t-2 -35.5q0 -66 32 -95t109 -31l-4 -146h-12z" />
    <glyph glyph-name="bar" unicode="|" horiz-adv-x="753" 
d="M295 -484v2050h154v-2050h-154z" />
    <glyph glyph-name="braceright" unicode="}" horiz-adv-x="672" 
d="M-123 -324l2 146q73 0 119.5 18t74.5 58.5t42 104.5l68 325q21 101 80.5 162t169.5 77l1 6q-77 20 -113.5 64t-36.5 114q0 22 3 47.5t10 53.5l55 260q4 23 6 43t2 36q0 64 -35.5 94.5t-112.5 31.5l30 145h13q102 0 163 -26.5t88 -78t27 -128.5q0 -25 -3 -57t-9 -61
l-55 -264q-4 -21 -7.5 -40t-3.5 -40q0 -66 37 -97t130 -31l-31 -145q-71 0 -119.5 -21t-78 -64.5t-43.5 -111.5l-72 -333q-25 -113 -72.5 -175.5t-126.5 -87.5t-196 -25h-6z" />
    <glyph glyph-name="asciitilde" unicode="~" horiz-adv-x="898" 
d="M447 648q-48 27 -92.5 42t-83.5 15q-45 0 -95 -31.5t-98 -88.5v170q40 50 91.5 76.5t112.5 26.5q58 0 106 -17t101 -45q53 -27 94.5 -41t81.5 -14q48 0 99.5 32.5t93.5 85.5v-170q-40 -47 -91 -73t-112 -26t-106.5 15t-101.5 43z" />
    <glyph glyph-name="uni00A0" unicode="&#xa0;" horiz-adv-x="349" 
 />
    <glyph glyph-name="exclamdown" unicode="&#xa1;" horiz-adv-x="482" 
d="M-50 -377l257 1059h140l-198 -1059h-199zM316 856q-39 0 -62 24.5t-23 67.5q0 71 38.5 118.5t95.5 47.5q43 0 68 -23t25 -68q0 -43 -16.5 -81.5t-48 -62t-77.5 -23.5z" />
    <glyph glyph-name="cent" unicode="&#xa2;" horiz-adv-x="815" 
d="M268 -20l45 206q-95 22 -139.5 103.5t-44.5 230.5q0 87 16 188.5t48.5 202t82.5 186.5t119 144.5t158 73.5l35 168h115l-35 -167q40 -4 74.5 -17.5t60.5 -28.5l-69 -143q-26 18 -59 29.5t-61 11.5q-74 0 -131.5 -62t-97 -160t-60 -208.5t-20.5 -208.5q0 -107 32.5 -153.5
t95.5 -46.5q39 0 77.5 13t74.5 36l42 -131q-42 -30 -97.5 -45t-102.5 -21l-43 -201h-116z" />
    <glyph glyph-name="sterling" unicode="&#xa3;" horiz-adv-x="817" 
d="M-46 0l32 147q47 22 82.5 59.5t62 94t43.5 135.5l48 229h-134l29 140h134l69 330q24 107 66 185.5t109.5 120.5t166.5 42q70 0 129 -21t109 -61l-81 -142q-34 29 -73 46.5t-83 17.5q-75 0 -113.5 -54t-61.5 -161l-64 -303h228l-29 -140h-228l-48 -227
q-23 -109 -66 -175.5t-102 -103.5h472l-34 -159h-663z" />
    <glyph glyph-name="currency" unicode="&#xa4;" horiz-adv-x="1039" 
d="M901 283l-135 132q-51 -35 -107.5 -54t-115.5 -19q-61 0 -119 19t-107 56l-131 -132l-81 84l131 131q-38 50 -56.5 106.5t-18.5 116.5q0 59 18.5 115t56.5 108l-133 133l83 84l133 -133q51 38 108.5 56.5t115.5 18.5q59 0 115.5 -18.5t107.5 -56.5l134 133l83 -83
l-133 -132q38 -49 57.5 -106.5t19.5 -118.5t-19.5 -118t-56.5 -107l132 -133zM542 463q74 0 133.5 36t95 95.5t35.5 128.5q1 70 -35.5 130t-96.5 96.5t-131 36.5t-131 -36t-95.5 -95.5t-35.5 -131.5t35.5 -131t95 -94t130.5 -35z" />
    <glyph glyph-name="yen" unicode="&#xa5;" horiz-adv-x="807" 
d="M181 0l57 266h-205l26 124h205l36 174h-203l27 123h176l-62 775h176l28 -643l295 643h181l-389 -775h180l-25 -123h-209l-38 -174h209l-25 -124h-209l-57 -266h-174z" />
    <glyph glyph-name="brokenbar" unicode="&#xa6;" horiz-adv-x="753" 
d="M295 784v780h154v-780h-154zM295 -484v780h154v-780h-154z" />
    <glyph glyph-name="section" unicode="&#xa7;" horiz-adv-x="723" 
d="M236 54q-75 0 -136.5 16t-100.5 43v150q50 -41 111 -61t116 -20q81 0 132.5 50.5t51.5 129.5q0 36 -15.5 64.5t-43.5 54.5t-66 54q-47 33 -86.5 70t-63.5 83.5t-24 106.5q0 64 22.5 114.5t67 90t106.5 69.5q-43 44 -63 91.5t-20 108.5q0 76 37.5 140t107.5 104.5
t165 43.5q78 0 142 -19t115 -54l-69 -120q-41 34 -87.5 50t-95.5 16q-44 0 -80 -19t-57 -53.5t-21 -81.5q0 -56 33 -93t85 -75q62 -43 101 -83t56.5 -80t17.5 -86q0 -65 -21 -117.5t-61.5 -95.5t-98.5 -82q32 -34 53.5 -81t21.5 -107q0 -92 -42 -165t-117 -115t-173 -42z
M415 633q50 35 77.5 84t27.5 106q0 36 -12.5 64.5t-41 56.5t-76.5 61q-41 -18 -69.5 -44.5t-42.5 -60.5t-14 -73q0 -37 16.5 -68.5t50.5 -61.5t84 -64z" />
    <glyph glyph-name="dieresis" unicode="&#xa8;" horiz-adv-x="952" 
d="M735 1291q-37 0 -57 19.5t-20 58.5q0 53 30.5 95t84.5 42q34 0 53 -18.5t19 -55.5q0 -61 -31.5 -101t-78.5 -40zM422 1291q-36 0 -56 19.5t-20 58.5q0 53 30 95t85 42q22 0 37.5 -8t24 -24.5t8.5 -41.5q0 -61 -31 -101t-78 -40z" />
    <glyph glyph-name="copyright" unicode="&#xa9;" horiz-adv-x="1698" 
d="M846 -20q-172 0 -311 58.5t-237 162t-150.5 239t-52.5 291.5q0 168 58 306t161.5 238t240.5 154t295 54q166 0 304 -57.5t238.5 -159.5t155.5 -239.5t55 -296.5q0 -163 -56.5 -300.5t-158.5 -238t-240 -156t-302 -55.5zM881 274q-196 0 -304.5 118t-108.5 336
q0 142 50 245t143.5 158.5t224.5 55.5q69 0 135.5 -15.5t130.5 -45.5l-57 -119q-52 25 -103 36.5t-99 11.5q-126 0 -196.5 -83.5t-70.5 -240.5q0 -168 67.5 -247t199.5 -79q51 0 108 13t114 39v-132q-55 -25 -114 -38t-120 -13zM850 90q141 0 257 49t200 135.5t129.5 203
t45.5 252.5q0 141 -47.5 258.5t-133 203.5t-201 133t-251.5 47q-142 0 -258.5 -49t-200 -136.5t-129.5 -204.5t-46 -252q0 -144 48 -261t134.5 -202t202 -131t250.5 -46z" />
    <glyph glyph-name="ordfeminine" unicode="&#xaa;" horiz-adv-x="563" 
d="M305 782q-41 0 -80.5 22.5t-65 74.5t-25.5 139q0 81 19.5 162t57.5 148t95 108t132 41q58 0 89.5 -28.5t44.5 -71.5h8l33 87h90l-141 -670h-96l12 95h-6q-29 -48 -68.5 -77.5t-98.5 -29.5zM337 891q37 0 66 24t50 62.5t35 83.5t20.5 89t6.5 77q0 69 -20.5 105t-63.5 36
q-38 0 -69.5 -30t-53.5 -80t-33.5 -110t-11.5 -120q0 -71 19.5 -104t54.5 -33z" />
    <glyph glyph-name="guillemotleft" unicode="&#xab;" horiz-adv-x="877" 
d="M246 120l-193 412l3 26l342 402l117 -74l-279 -347l144 -361zM614 120l-194 412l4 26l341 402l117 -74l-277 -347l142 -361z" />
    <glyph glyph-name="logicalnot" unicode="&#xac;" horiz-adv-x="898" 
d="M836 799v-554h-154v401h-599v153h753z" />
    <glyph glyph-name="uni00AD" unicode="&#xad;" horiz-adv-x="544" 
d="M31 469l33 168h440l-33 -168h-440z" />
    <glyph glyph-name="registered" unicode="&#xae;" horiz-adv-x="1698" 
d="M572 300v877h248q157 0 241 -63.5t84 -195.5q0 -89 -37 -148.5t-112 -91.5l197 -378h-169l-167 345h-131v-345h-154zM724 760h87q80 0 127.5 36.5t47.5 114.5q0 74 -42.5 107.5t-130.5 33.5h-89v-292zM846 -20q-172 0 -311 58.5t-237 162t-150.5 239t-52.5 291.5
q0 168 58 306t161.5 238t240.5 154t295 54q166 0 304 -57.5t238.5 -159.5t155.5 -239.5t55 -296.5q0 -163 -56.5 -300.5t-158.5 -238t-240 -156t-302 -55.5zM850 90q141 0 257 49t200 135.5t129.5 203t45.5 252.5q0 141 -47.5 258.5t-133 203.5t-201 133t-251.5 47
q-142 0 -258.5 -49t-200 -136.5t-129.5 -204.5t-46 -252q0 -144 48 -261t134.5 -202t202 -131t250.5 -46z" />
    <glyph glyph-name="overscore" unicode="&#xaf;" horiz-adv-x="819" 
d="M193 1556l31 135h829l-29 -135h-831z" />
    <glyph glyph-name="degree" unicode="&#xb0;" horiz-adv-x="745" 
d="M371 924q-81 0 -146 34t-101.5 97t-36.5 148t37.5 147.5t102 97t144.5 34.5q83 0 147.5 -34.5t102 -97t37.5 -147.5q0 -86 -38 -148.5t-103 -96.5t-146 -34zM373 1038q72 0 115.5 45t43.5 120q0 73 -42.5 118.5t-116.5 45.5q-78 0 -119.5 -47.5t-41.5 -116.5
q0 -77 45 -121t116 -44z" />
    <glyph glyph-name="plusminus" unicode="&#xb1;" horiz-adv-x="898" 
d="M83 0v152h769v-152h-769zM544 846h307v-152h-307v-405h-153v405h-310v152h310v408h153v-408z" />
    <glyph glyph-name="uni00B2" unicode="&#xb2;" horiz-adv-x="580" 
d="M85 852l21 116l242 265q54 58 94.5 109t63 99t22.5 98q0 46 -23 70.5t-64 24.5q-40 0 -78 -23t-73 -54l-49 97q47 47 107.5 72t127.5 25q93 0 144.5 -51.5t51.5 -138.5q0 -74 -32.5 -140.5t-83.5 -127t-108 -118.5l-189 -200h308l-27 -123h-455z" />
    <glyph glyph-name="uni00B3" unicode="&#xb3;" horiz-adv-x="580" 
d="M288 836q-60 0 -107 12.5t-79 35.5v133q36 -29 82.5 -45t105.5 -16q80 0 125 48t45 122q0 62 -34 93t-89 31h-68l23 110h61q59 0 98.5 23.5t59.5 63t20 86.5q0 48 -24 73.5t-67 25.5q-41 0 -78 -16.5t-76 -45.5l-52 95q50 41 108.5 63.5t122.5 22.5q70 0 115 -25.5
t67.5 -69t22.5 -100.5q0 -86 -47 -150t-134 -93l-2 -8q48 -21 78 -63.5t30 -115.5q0 -86 -37 -151t-106 -102t-164 -37z" />
    <glyph glyph-name="acute" unicode="&#xb4;" horiz-adv-x="528" 
d="M231 1241l2 20q45 53 86.5 106.5t76.5 105t61 96.5h203l-2 -17q-21 -29 -61 -72t-87 -89t-90.5 -86.5t-73.5 -63.5h-115z" />
    <glyph glyph-name="uni00B5" unicode="&#xb5;" horiz-adv-x="855" 
d="M-109 -492l337 1593h170l-145 -694q-10 -46 -16 -83.5t-6 -69.5q0 -57 21.5 -87t65.5 -30q55 0 97.5 37t76.5 117.5t61 210.5l128 599h170l-232 -1101h-135l7 126h-4q-28 -51 -59.5 -83.5t-67 -47.5t-74.5 -15q-43 0 -71.5 20.5t-44.5 56.5h-4q-1 -24 -3.5 -47.5
t-6.5 -47.5t-9 -50l-86 -404h-170z" />
    <glyph glyph-name="paragraph" unicode="&#xb6;" horiz-adv-x="947" 
d="M481 -260l-2 906q-12 -6 -28 -9.5t-39 -3.5q-70 0 -117.5 38.5t-75 104.5t-40 148.5t-12.5 170.5q0 101 18.5 185.5t55 146t93 95.5t132.5 34h379v-1816h-114v1708h-136v-1708h-114z" />
    <glyph glyph-name="periodcentered" unicode="&#xb7;" horiz-adv-x="429" 
d="M223 593q-43 0 -67.5 22.5t-24.5 67.5q0 66 36 117.5t103 51.5q41 0 64 -25t23 -69q0 -70 -40 -117.5t-94 -47.5z" />
    <glyph glyph-name="cedilla" unicode="&#xb8;" horiz-adv-x="377" 
d="M-32 -492q-38 0 -70.5 4t-63.5 12v109q19 -6 47 -10t66 -4q43 0 74 14.5t47.5 40.5t16.5 61q0 43 -34.5 68t-104.5 33l105 164h102l-69 -102q65 -13 103.5 -53.5t38.5 -103.5q0 -76 -34 -128t-92 -78.5t-132 -26.5z" />
    <glyph glyph-name="uni00B9" unicode="&#xb9;" horiz-adv-x="580" 
d="M302 852l134 616q7 30 13 52t13 46q-18 -17 -32 -29t-26 -20l-121 -87l-57 90l279 209h121l-187 -877h-137z" />
    <glyph glyph-name="ordmasculine" unicode="&#xba;" horiz-adv-x="572" 
d="M336 779q-98 0 -146.5 64.5t-48.5 175.5q0 79 19.5 160t58 149t96.5 109.5t136 41.5q84 0 139 -57t55 -179q0 -79 -19.5 -160.5t-58 -150.5t-96.5 -111t-135 -42zM352 893q43 0 74.5 32t51 83.5t29 110.5t9.5 113q0 64 -18.5 98.5t-63.5 34.5q-41 0 -71.5 -31.5
t-51.5 -82.5t-31 -110t-10 -114q0 -70 20 -102t62 -32z" />
    <glyph glyph-name="guillemotright" unicode="&#xbb;" horiz-adv-x="879" 
d="M471 120l-117 75l277 346l-143 360l134 59l194 -411l-4 -27zM102 120l-116 75l276 346l-142 360l133 59l192 -411l-2 -27z" />
    <glyph glyph-name="onequarter" unicode="&#xbc;" horiz-adv-x="1353" 
d="M95 0l1068 1462h147l-1068 -1462h-147zM259 586l134 616q7 30 13 52t13 46q-18 -17 -32 -29t-26 -20l-121 -87l-57 90l279 209h121l-187 -877h-137zM963 0l39 189h-297l19 101l419 593h141l-124 -580h94l-24 -114h-92l-43 -189h-132zM850 303h176l56 258q8 40 16 73.5
t16 61.5q-19 -31 -36 -60.5t-40 -62.5z" />
    <glyph glyph-name="onehalf" unicode="&#xbd;" horiz-adv-x="1432" 
d="M83 0l1068 1462h147l-1068 -1462h-147zM259 586l134 616q7 30 13 52t13 46q-18 -17 -32 -29t-26 -20l-121 -87l-57 90l279 209h121l-187 -877h-137zM767 0l21 116l242 265q54 58 94.5 109t63 99t22.5 98q0 46 -23 70.5t-64 24.5q-40 0 -78 -23t-73 -54l-49 97
q47 47 107.5 72t127.5 25q93 0 144.5 -51.5t51.5 -138.5q0 -74 -32.5 -140.5t-83.5 -127t-108 -118.5l-189 -200h308l-27 -123h-455z" />
    <glyph glyph-name="threequarters" unicode="&#xbe;" horiz-adv-x="1366" 
d="M243 570q-60 0 -107 12.5t-79 35.5v133q36 -29 82.5 -45t105.5 -16q80 0 125 48t45 122q0 62 -34 93t-89 31h-68l23 110h61q59 0 98.5 23.5t59.5 63t20 86.5q0 48 -24 73.5t-67 25.5q-41 0 -78 -16.5t-76 -45.5l-52 95q50 41 108.5 63.5t122.5 22.5q70 0 115 -25.5
t67.5 -69t22.5 -100.5q0 -86 -47 -150t-134 -93l-2 -8q48 -21 78 -63.5t30 -115.5q0 -86 -37 -151t-106 -102t-164 -37zM122 0l1068 1462h147l-1068 -1462h-147zM976 0l39 189h-297l19 101l419 593h141l-124 -580h94l-24 -114h-92l-43 -189h-132zM863 303h176l56 258
q8 40 16 73.5t16 61.5q-19 -31 -36 -60.5t-40 -62.5z" />
    <glyph glyph-name="questiondown" unicode="&#xbf;" horiz-adv-x="602" 
d="M467 674q-20 -100 -43 -169t-56.5 -125t-87.5 -118q-59 -70 -105 -125t-72 -112t-26 -135q0 -63 31 -94t85 -31q56 0 104 23t92 53l36 -136q-65 -49 -133.5 -73.5t-136.5 -24.5q-122 0 -187 65t-65 180q0 92 31 168.5t83 146t116 138.5q61 68 96.5 119.5t57 108
t36.5 141.5h144zM471 1106q43 0 67.5 -23t24.5 -68q0 -66 -36 -117t-105 -51q-39 0 -62 24.5t-23 68.5q0 71 39 118.5t95 47.5z" />
    <glyph glyph-name="Agrave" unicode="&#xc0;" horiz-adv-x="848" 
d="M-132 0l614 1468h227l7 -1468h-186l3 452h-287l-184 -452h-194zM305 612h236l9 504q0 49 2 93t6 83h-6q-9 -37 -22 -80t-33 -95zM613 1622q-27 37 -62.5 93t-67.5 114.5t-47 101.5v18h195q13 -48 27.5 -98t31.5 -101.5t39 -106.5l-3 -21h-113z" />
    <glyph glyph-name="Aacute" unicode="&#xc1;" horiz-adv-x="848" 
d="M-132 0l614 1468h227l7 -1468h-186l3 452h-287l-184 -452h-194zM305 612h236l9 504q0 49 2 93t6 83h-6q-9 -37 -22 -80t-33 -95zM513 1621l2 20q45 53 86.5 106.5t76.5 105t61 96.5h203l-2 -17q-21 -29 -61 -72t-87 -89t-90.5 -86.5t-73.5 -63.5h-115z" />
    <glyph glyph-name="Acircumflex" unicode="&#xc2;" horiz-adv-x="848" 
d="M-132 0l614 1468h227l7 -1468h-186l3 452h-287l-184 -452h-194zM305 612h236l9 504q0 49 2 93t6 83h-6q-9 -37 -22 -80t-33 -95zM353 1621l4 21q46 49 89.5 101t82.5 104.5t70 101.5h153q8 -37 28 -95.5t43.5 -116.5t40.5 -95l-4 -21h-98q-18 25 -37 55t-38 63.5
t-38 70.5q-53 -57 -101.5 -105t-91.5 -84h-103z" />
    <glyph glyph-name="Atilde" unicode="&#xc3;" horiz-adv-x="848" 
d="M-132 0l614 1468h227l7 -1468h-186l3 452h-287l-184 -452h-194zM305 612h236l9 504q0 49 2 93t6 83h-6q-9 -37 -22 -80t-33 -95zM329 1625q18 81 43.5 139.5t65 90t95.5 31.5q43 0 74 -18t56 -41t48 -41t48 -18q32 0 51.5 26t34.5 94h107q-17 -96 -46 -153.5t-67 -82.5
t-83 -25q-41 0 -71.5 18t-56 42t-49.5 42t-50 18q-35 0 -57 -30.5t-35 -91.5h-108z" />
    <glyph glyph-name="Adieresis" unicode="&#xc4;" horiz-adv-x="848" 
d="M-132 0l614 1468h227l7 -1468h-186l3 452h-287l-184 -452h-194zM305 612h236l9 504q0 49 2 93t6 83h-6q-9 -37 -22 -80t-33 -95zM776 1671q-37 0 -57 19.5t-20 58.5q0 53 30.5 95t84.5 42q34 0 53 -18.5t19 -55.5q0 -61 -31.5 -101t-78.5 -40zM463 1671q-36 0 -56 19.5
t-20 58.5q0 53 30 95t85 42q22 0 37.5 -8t24 -24.5t8.5 -41.5q0 -61 -31 -101t-78 -40z" />
    <glyph glyph-name="Aring" unicode="&#xc5;" horiz-adv-x="848" 
d="M-132 0l614 1468h227l7 -1468h-186l3 452h-287l-184 -452h-194zM305 612h236l9 504q0 49 2 93t6 83h-6q-9 -37 -22 -80t-33 -95zM636 1599q-99 0 -154.5 56.5t-55.5 152.5q0 92 56 149t154 57q95 0 152.5 -57t58.5 -146q0 -93 -56.5 -152.5t-154.5 -59.5zM638 1696
q50 0 80 30.5t30 80.5q0 49 -29.5 80t-80.5 31q-53 0 -81.5 -31t-28.5 -80q0 -50 27.5 -80.5t82.5 -30.5z" />
    <glyph glyph-name="AE" unicode="&#xc6;" horiz-adv-x="1158" 
d="M-137 0l696 1462h692l-34 -158h-364l-97 -462h341l-35 -158h-341l-111 -525h365l-33 -159h-542l97 453h-234l-210 -453h-190zM337 614h195l146 689h-26z" />
    <glyph glyph-name="Ccedilla" unicode="&#xc7;" horiz-adv-x="805" 
d="M405 -20q-109 0 -183 53.5t-111 158.5t-37 260q0 123 25 264t76 277t126.5 247.5t177.5 178t229 66.5q72 0 134.5 -18.5t111.5 -57.5l-91 -144q-34 30 -73 44.5t-83 14.5q-92 0 -164 -62t-125.5 -162t-88.5 -216t-52 -227t-17 -193q0 -170 45 -247t142 -77
q47 0 96.5 13.5t103.5 37.5v-162q-58 -25 -120.5 -37t-121.5 -12zM245 -492q-38 0 -70.5 4t-63.5 12v109q19 -6 47 -10t66 -4q43 0 74 14.5t47.5 40.5t16.5 61q0 43 -34.5 68t-104.5 33l105 164h102l-69 -102q65 -13 103.5 -53.5t38.5 -103.5q0 -76 -34 -128t-92 -78.5
t-132 -26.5z" />
    <glyph glyph-name="Egrave" unicode="&#xc8;" horiz-adv-x="760" 
d="M-1 0l310 1462h542l-33 -158h-365l-97 -462h340l-35 -158h-339l-112 -525h365l-34 -159h-542zM576 1611q-27 37 -62.5 93t-67.5 114.5t-47 101.5v18h195q13 -48 27.5 -98t31.5 -101.5t39 -106.5l-3 -21h-113z" />
    <glyph glyph-name="Eacute" unicode="&#xc9;" horiz-adv-x="760" 
d="M-1 0l310 1462h542l-33 -158h-365l-97 -462h340l-35 -158h-339l-112 -525h365l-34 -159h-542zM477 1608l2 20q45 53 86.5 106.5t76.5 105t61 96.5h203l-2 -17q-21 -29 -61 -72t-87 -89t-90.5 -86.5t-73.5 -63.5h-115z" />
    <glyph glyph-name="Ecircumflex" unicode="&#xca;" horiz-adv-x="760" 
d="M-1 0l310 1462h542l-33 -158h-365l-97 -462h340l-35 -158h-339l-112 -525h365l-34 -159h-542zM340 1579l4 21q46 49 89.5 101t82.5 104.5t70 101.5h153q8 -37 28 -95.5t43.5 -116.5t40.5 -95l-4 -21h-98q-18 25 -37 55t-38 63.5t-38 70.5q-53 -57 -101.5 -105t-91.5 -84
h-103z" />
    <glyph glyph-name="Edieresis" unicode="&#xcb;" horiz-adv-x="760" 
d="M-1 0l310 1462h542l-33 -158h-365l-97 -462h340l-35 -158h-339l-112 -525h365l-34 -159h-542zM750 1629q-37 0 -57 19.5t-20 58.5q0 53 30.5 95t84.5 42q34 0 53 -18.5t19 -55.5q0 -61 -31.5 -101t-78.5 -40zM437 1629q-36 0 -56 19.5t-20 58.5q0 53 30 95t85 42
q22 0 37.5 -8t24 -24.5t8.5 -41.5q0 -61 -31 -101t-78 -40z" />
    <glyph glyph-name="Igrave" unicode="&#xcc;" horiz-adv-x="439" 
d="M-1 0l310 1462h177l-309 -1462h-178zM410 1620q-27 37 -62.5 93t-67.5 114.5t-47 101.5v18h195q13 -48 27.5 -98t31.5 -101.5t39 -106.5l-3 -21h-113z" />
    <glyph glyph-name="Iacute" unicode="&#xcd;" horiz-adv-x="439" 
d="M-1 0l310 1462h177l-309 -1462h-178zM331 1620l2 20q45 53 86.5 106.5t76.5 105t61 96.5h203l-2 -17q-21 -29 -61 -72t-87 -89t-90.5 -86.5t-73.5 -63.5h-115z" />
    <glyph glyph-name="Icircumflex" unicode="&#xce;" horiz-adv-x="439" 
d="M-1 0l310 1462h177l-309 -1462h-178zM170 1623l4 21q46 49 89.5 101t82.5 104.5t70 101.5h153q8 -37 28 -95.5t43.5 -116.5t40.5 -95l-4 -21h-98q-18 25 -37 55t-38 63.5t-38 70.5q-53 -57 -101.5 -105t-91.5 -84h-103z" />
    <glyph glyph-name="Idieresis" unicode="&#xcf;" horiz-adv-x="439" 
d="M-1 0l310 1462h177l-309 -1462h-178zM594 1671q-37 0 -57 19.5t-20 58.5q0 53 30.5 95t84.5 42q34 0 53 -18.5t19 -55.5q0 -61 -31.5 -101t-78.5 -40zM281 1671q-36 0 -56 19.5t-20 58.5q0 53 30 95t85 42q22 0 37.5 -8t24 -24.5t8.5 -41.5q0 -61 -31 -101t-78 -40z" />
    <glyph glyph-name="Eth" unicode="&#xd0;" horiz-adv-x="965" 
d="M0 0l144 688h-101l31 143h101l134 631h245q186 0 284.5 -110t98.5 -325q0 -134 -24 -277.5t-75 -277t-131.5 -240.5t-193 -169.5t-260.5 -62.5h-253zM211 162h67q106 0 184.5 58.5t133.5 154t88.5 209t49 226.5t15.5 204q0 151 -54 219.5t-161 68.5h-81l-100 -471h170
l-31 -143h-172z" />
    <glyph glyph-name="Ntilde" unicode="&#xd1;" horiz-adv-x="1067" 
d="M-1 0l310 1462h208l190 -1136h6q12 69 24 135.5t23.5 123.5t19.5 96l165 781h172l-312 -1462h-202l-194 1156h-6q-7 -53 -16.5 -110.5t-20.5 -112t-20.5 -100.5t-16.5 -76l-160 -757h-170zM432 1583q18 81 43.5 139.5t65 90t95.5 31.5q43 0 74 -18t56 -41t48 -41t48 -18
q32 0 51.5 26t34.5 94h107q-17 -96 -46 -153.5t-67 -82.5t-83 -25q-41 0 -71.5 18t-56 42t-49.5 42t-50 18q-35 0 -57 -30.5t-35 -91.5h-108z" />
    <glyph glyph-name="Ograve" unicode="&#xd2;" horiz-adv-x="1028" 
d="M400 -20q-111 0 -183.5 47t-108.5 144t-36 245q0 110 16.5 231t50 241t84 227t117.5 190t151.5 131t185.5 48q165 0 244 -104.5t79 -317.5q0 -96 -15 -212.5t-45.5 -238t-78.5 -234t-114.5 -202.5t-152.5 -142.5t-194 -52.5zM413 141q68 0 124.5 45.5t101.5 123
t78.5 174.5t55.5 201t33.5 202t11.5 178q0 133 -39 196t-118 63q-72 0 -130 -48t-103 -128.5t-77.5 -179t-53 -201t-30.5 -195t-10 -158.5q0 -97 17.5 -157.5t52.5 -88t86 -27.5zM705 1611q-27 37 -62.5 93t-67.5 114.5t-47 101.5v18h195q13 -48 27.5 -98t31.5 -101.5
t39 -106.5l-3 -21h-113z" />
    <glyph glyph-name="Oacute" unicode="&#xd3;" horiz-adv-x="1028" 
d="M400 -20q-111 0 -183.5 47t-108.5 144t-36 245q0 110 16.5 231t50 241t84 227t117.5 190t151.5 131t185.5 48q165 0 244 -104.5t79 -317.5q0 -96 -15 -212.5t-45.5 -238t-78.5 -234t-114.5 -202.5t-152.5 -142.5t-194 -52.5zM413 141q68 0 124.5 45.5t101.5 123
t78.5 174.5t55.5 201t33.5 202t11.5 178q0 133 -39 196t-118 63q-72 0 -130 -48t-103 -128.5t-77.5 -179t-53 -201t-30.5 -195t-10 -158.5q0 -97 17.5 -157.5t52.5 -88t86 -27.5zM607 1608l2 20q45 53 86.5 106.5t76.5 105t61 96.5h203l-2 -17q-21 -29 -61 -72t-87 -89
t-90.5 -86.5t-73.5 -63.5h-115z" />
    <glyph glyph-name="Ocircumflex" unicode="&#xd4;" horiz-adv-x="1028" 
d="M400 -20q-111 0 -183.5 47t-108.5 144t-36 245q0 110 16.5 231t50 241t84 227t117.5 190t151.5 131t185.5 48q165 0 244 -104.5t79 -317.5q0 -96 -15 -212.5t-45.5 -238t-78.5 -234t-114.5 -202.5t-152.5 -142.5t-194 -52.5zM413 141q68 0 124.5 45.5t101.5 123
t78.5 174.5t55.5 201t33.5 202t11.5 178q0 133 -39 196t-118 63q-72 0 -130 -48t-103 -128.5t-77.5 -179t-53 -201t-30.5 -195t-10 -158.5q0 -97 17.5 -157.5t52.5 -88t86 -27.5zM431 1579l4 21q46 49 89.5 101t82.5 104.5t70 101.5h153q8 -37 28 -95.5t43.5 -116.5
t40.5 -95l-4 -21h-98q-18 25 -37 55t-38 63.5t-38 70.5q-53 -57 -101.5 -105t-91.5 -84h-103z" />
    <glyph glyph-name="Otilde" unicode="&#xd5;" horiz-adv-x="1028" 
d="M400 -20q-111 0 -183.5 47t-108.5 144t-36 245q0 110 16.5 231t50 241t84 227t117.5 190t151.5 131t185.5 48q165 0 244 -104.5t79 -317.5q0 -96 -15 -212.5t-45.5 -238t-78.5 -234t-114.5 -202.5t-152.5 -142.5t-194 -52.5zM413 141q68 0 124.5 45.5t101.5 123
t78.5 174.5t55.5 201t33.5 202t11.5 178q0 133 -39 196t-118 63q-72 0 -130 -48t-103 -128.5t-77.5 -179t-53 -201t-30.5 -195t-10 -158.5q0 -97 17.5 -157.5t52.5 -88t86 -27.5zM411 1583q18 81 43.5 139.5t65 90t95.5 31.5q43 0 74 -18t56 -41t48 -41t48 -18q32 0 51.5 26
t34.5 94h107q-17 -96 -46 -153.5t-67 -82.5t-83 -25q-41 0 -71.5 18t-56 42t-49.5 42t-50 18q-35 0 -57 -30.5t-35 -91.5h-108z" />
    <glyph glyph-name="Odieresis" unicode="&#xd6;" horiz-adv-x="1028" 
d="M400 -20q-111 0 -183.5 47t-108.5 144t-36 245q0 110 16.5 231t50 241t84 227t117.5 190t151.5 131t185.5 48q165 0 244 -104.5t79 -317.5q0 -96 -15 -212.5t-45.5 -238t-78.5 -234t-114.5 -202.5t-152.5 -142.5t-194 -52.5zM413 141q68 0 124.5 45.5t101.5 123
t78.5 174.5t55.5 201t33.5 202t11.5 178q0 133 -39 196t-118 63q-72 0 -130 -48t-103 -128.5t-77.5 -179t-53 -201t-30.5 -195t-10 -158.5q0 -97 17.5 -157.5t52.5 -88t86 -27.5zM860 1629q-37 0 -57 19.5t-20 58.5q0 53 30.5 95t84.5 42q34 0 53 -18.5t19 -55.5
q0 -61 -31.5 -101t-78.5 -40zM547 1629q-36 0 -56 19.5t-20 58.5q0 53 30 95t85 42q22 0 37.5 -8t24 -24.5t8.5 -41.5q0 -61 -31 -101t-78 -40z" />
    <glyph glyph-name="multiply" unicode="&#xd7;" horiz-adv-x="898" 
d="M743 1106l107 -103l-279 -280l272 -276l-102 -103l-276 274l-276 -275l-101 104l273 276l-273 274l102 105l276 -274z" />
    <glyph glyph-name="Oslash" unicode="&#xd8;" horiz-adv-x="1029" 
d="M76 -99l-92 53l131 208q-21 49 -32 112.5t-11 141.5q0 110 16.5 231t50 241t83.5 227t117.5 190t152.5 131t186 48q72 0 127 -23t93 -69l99 159l94 -57l-127 -200q19 -45 27.5 -104t8.5 -128q0 -96 -15 -212.5t-45.5 -238t-78.5 -234t-114.5 -202.5t-153 -142.5
t-194.5 -52.5q-70 0 -124 22t-92 65zM413 141q63 0 117 40.5t97 110t75.5 157.5t55.5 184.5t36 190t16 172.5q2 20 2.5 38.5t-0.5 34.5l-529 -838q19 -46 51.5 -68t78.5 -22zM262 383l534 844q-20 49 -53 73t-82 24q-68 0 -123.5 -43.5t-98.5 -116t-75 -162.5t-53.5 -185
t-33.5 -182.5t-15 -153.5q-1 -27 -1.5 -51.5t1.5 -46.5z" />
    <glyph glyph-name="Ugrave" unicode="&#xd9;" horiz-adv-x="978" 
d="M368 -20q-93 0 -160.5 36.5t-103.5 105.5t-36 167q0 37 5.5 82.5t15.5 91.5l212 999h178l-214 -1006q-8 -39 -12.5 -75.5t-4.5 -67.5q0 -87 37.5 -129.5t105.5 -42.5q69 0 115.5 35.5t79.5 109.5t58 190l213 986h178l-218 -1005q-31 -147 -85 -254.5t-141.5 -165
t-222.5 -57.5zM679 1611q-27 37 -62.5 93t-67.5 114.5t-47 101.5v18h195q13 -48 27.5 -98t31.5 -101.5t39 -106.5l-3 -21h-113z" />
    <glyph glyph-name="Uacute" unicode="&#xda;" horiz-adv-x="978" 
d="M368 -20q-93 0 -160.5 36.5t-103.5 105.5t-36 167q0 37 5.5 82.5t15.5 91.5l212 999h178l-214 -1006q-8 -39 -12.5 -75.5t-4.5 -67.5q0 -87 37.5 -129.5t105.5 -42.5q69 0 115.5 35.5t79.5 109.5t58 190l213 986h178l-218 -1005q-31 -147 -85 -254.5t-141.5 -165
t-222.5 -57.5zM583 1608l2 20q45 53 86.5 106.5t76.5 105t61 96.5h203l-2 -17q-21 -29 -61 -72t-87 -89t-90.5 -86.5t-73.5 -63.5h-115z" />
    <glyph glyph-name="Ucircumflex" unicode="&#xdb;" horiz-adv-x="978" 
d="M368 -20q-93 0 -160.5 36.5t-103.5 105.5t-36 167q0 37 5.5 82.5t15.5 91.5l212 999h178l-214 -1006q-8 -39 -12.5 -75.5t-4.5 -67.5q0 -87 37.5 -129.5t105.5 -42.5q69 0 115.5 35.5t79.5 109.5t58 190l213 986h178l-218 -1005q-31 -147 -85 -254.5t-141.5 -165
t-222.5 -57.5zM427 1579l4 21q46 49 89.5 101t82.5 104.5t70 101.5h153q8 -37 28 -95.5t43.5 -116.5t40.5 -95l-4 -21h-98q-18 25 -37 55t-38 63.5t-38 70.5q-53 -57 -101.5 -105t-91.5 -84h-103z" />
    <glyph glyph-name="Udieresis" unicode="&#xdc;" horiz-adv-x="978" 
d="M368 -20q-93 0 -160.5 36.5t-103.5 105.5t-36 167q0 37 5.5 82.5t15.5 91.5l212 999h178l-214 -1006q-8 -39 -12.5 -75.5t-4.5 -67.5q0 -87 37.5 -129.5t105.5 -42.5q69 0 115.5 35.5t79.5 109.5t58 190l213 986h178l-218 -1005q-31 -147 -85 -254.5t-141.5 -165
t-222.5 -57.5zM841 1629q-37 0 -57 19.5t-20 58.5q0 53 30.5 95t84.5 42q34 0 53 -18.5t19 -55.5q0 -61 -31.5 -101t-78.5 -40zM528 1629q-36 0 -56 19.5t-20 58.5q0 53 30 95t85 42q22 0 37.5 -8t24 -24.5t8.5 -41.5q0 -61 -31 -101t-78 -40z" />
    <glyph glyph-name="Yacute" unicode="&#xdd;" horiz-adv-x="753" 
d="M157 0l117 562l-99 900h186l51 -661l329 661h190l-476 -895l-121 -567h-177zM474 1608l2 20q45 53 86.5 106.5t76.5 105t61 96.5h203l-2 -17q-21 -29 -61 -72t-87 -89t-90.5 -86.5t-73.5 -63.5h-115z" />
    <glyph glyph-name="Thorn" unicode="&#xde;" horiz-adv-x="833" 
d="M-1 0l310 1462h178l-53 -250h51q113 0 188.5 -39t114 -111t38.5 -170q0 -118 -32.5 -222.5t-95.5 -184t-154.5 -124.5t-209.5 -45h-92l-65 -316h-178zM276 473h58q101 0 169.5 50.5t103 139.5t34.5 205q0 94 -44 139.5t-138 45.5h-59z" />
    <glyph glyph-name="germandbls" unicode="&#xdf;" horiz-adv-x="866" 
d="M-165 -492q-31 0 -57.5 4t-51.5 12v154q17 -6 41.5 -10.5t46.5 -4.5q64 0 93.5 54.5t53.5 169.5l276 1292q26 126 74.5 212.5t121.5 131t174 44.5q129 0 198.5 -67t69.5 -174q0 -63 -17 -115t-49.5 -99.5t-80.5 -98.5q-58 -60 -92.5 -109t-34.5 -115q0 -28 9.5 -58
t25.5 -62t35 -67q35 -55 61.5 -117.5t26.5 -147.5q0 -105 -41.5 -186t-118 -126t-182.5 -45q-55 0 -105.5 13t-85.5 37l24 164q42 -33 86 -47.5t86 -14.5q75 0 117 51.5t42 136.5q0 36 -9 69t-26 68.5t-43 79.5q-39 64 -59.5 117t-20.5 111q0 50 15 96t44.5 89.5t72.5 86.5
q44 47 76 87t49 83.5t17 98.5q0 52 -27 80.5t-75 28.5t-83.5 -27t-61.5 -82t-45 -138l-277 -1294q-21 -105 -52 -187.5t-87 -130.5t-154 -48z" />
    <glyph glyph-name="agrave" unicode="&#xe0;" horiz-adv-x="875" 
d="M263 -20q-68 0 -116.5 36t-74 105.5t-25.5 168.5q0 91 17 202t51 221.5t87 203t125 148.5t163 56q46 0 82.5 -18t62.5 -54t39 -89h6l46 141h147l-234 -1101h-138l12 156h-5q-36 -55 -73.5 -94.5t-79 -60.5t-92.5 -21zM324 129q67 0 114.5 55t80.5 139.5t55 172.5
q25 98 37 174t12 141q0 76 -29 117t-82 41t-98 -45t-80 -119t-59.5 -162.5t-37 -176.5t-12.5 -160q0 -90 25 -133.5t74 -43.5zM556 1252q-27 37 -62.5 93t-67.5 114.5t-47 101.5v18h195q13 -48 27.5 -98t31.5 -101.5t39 -106.5l-3 -21h-113z" />
    <glyph glyph-name="aacute" unicode="&#xe1;" horiz-adv-x="875" 
d="M263 -20q-68 0 -116.5 36t-74 105.5t-25.5 168.5q0 91 17 202t51 221.5t87 203t125 148.5t163 56q46 0 82.5 -18t62.5 -54t39 -89h6l46 141h147l-234 -1101h-138l12 156h-5q-36 -55 -73.5 -94.5t-79 -60.5t-92.5 -21zM324 129q67 0 114.5 55t80.5 139.5t55 172.5
q25 98 37 174t12 141q0 76 -29 117t-82 41t-98 -45t-80 -119t-59.5 -162.5t-37 -176.5t-12.5 -160q0 -90 25 -133.5t74 -43.5zM453 1251l2 20q45 53 86.5 106.5t76.5 105t61 96.5h203l-2 -17q-21 -29 -61 -72t-87 -89t-90.5 -86.5t-73.5 -63.5h-115z" />
    <glyph glyph-name="acircumflex" unicode="&#xe2;" horiz-adv-x="875" 
d="M263 -20q-68 0 -116.5 36t-74 105.5t-25.5 168.5q0 91 17 202t51 221.5t87 203t125 148.5t163 56q46 0 82.5 -18t62.5 -54t39 -89h6l46 141h147l-234 -1101h-138l12 156h-5q-36 -55 -73.5 -94.5t-79 -60.5t-92.5 -21zM324 129q67 0 114.5 55t80.5 139.5t55 172.5
q25 98 37 174t12 141q0 76 -29 117t-82 41t-98 -45t-80 -119t-59.5 -162.5t-37 -176.5t-12.5 -160q0 -90 25 -133.5t74 -43.5zM319 1245l4 21q46 49 89.5 101t82.5 104.5t70 101.5h153q8 -37 28 -95.5t43.5 -116.5t40.5 -95l-4 -21h-98q-18 25 -37 55t-38 63.5t-38 70.5
q-53 -57 -101.5 -105t-91.5 -84h-103z" />
    <glyph glyph-name="atilde" unicode="&#xe3;" horiz-adv-x="875" 
d="M263 -20q-68 0 -116.5 36t-74 105.5t-25.5 168.5q0 91 17 202t51 221.5t87 203t125 148.5t163 56q46 0 82.5 -18t62.5 -54t39 -89h6l46 141h147l-234 -1101h-138l12 156h-5q-36 -55 -73.5 -94.5t-79 -60.5t-92.5 -21zM324 129q67 0 114.5 55t80.5 139.5t55 172.5
q25 98 37 174t12 141q0 76 -29 117t-82 41t-98 -45t-80 -119t-59.5 -162.5t-37 -176.5t-12.5 -160q0 -90 25 -133.5t74 -43.5zM297 1249q18 81 43.5 139.5t65 90t95.5 31.5q43 0 74 -18t56 -41t48 -41t48 -18q32 0 51.5 26t34.5 94h107q-17 -96 -46 -153.5t-67 -82.5
t-83 -25q-41 0 -71.5 18t-56 42t-49.5 42t-50 18q-35 0 -57 -30.5t-35 -91.5h-108z" />
    <glyph glyph-name="adieresis" unicode="&#xe4;" horiz-adv-x="875" 
d="M263 -20q-68 0 -116.5 36t-74 105.5t-25.5 168.5q0 91 17 202t51 221.5t87 203t125 148.5t163 56q46 0 82.5 -18t62.5 -54t39 -89h6l46 141h147l-234 -1101h-138l12 156h-5q-36 -55 -73.5 -94.5t-79 -60.5t-92.5 -21zM324 129q67 0 114.5 55t80.5 139.5t55 172.5
q25 98 37 174t12 141q0 76 -29 117t-82 41t-98 -45t-80 -119t-59.5 -162.5t-37 -176.5t-12.5 -160q0 -90 25 -133.5t74 -43.5zM742 1295q-37 0 -57 19.5t-20 58.5q0 53 30.5 95t84.5 42q34 0 53 -18.5t19 -55.5q0 -61 -31.5 -101t-78.5 -40zM429 1295q-36 0 -56 19.5
t-20 58.5q0 53 30 95t85 42q22 0 37.5 -8t24 -24.5t8.5 -41.5q0 -61 -31 -101t-78 -40z" />
    <glyph glyph-name="aring" unicode="&#xe5;" horiz-adv-x="875" 
d="M263 -20q-68 0 -116.5 36t-74 105.5t-25.5 168.5q0 91 17 202t51 221.5t87 203t125 148.5t163 56q46 0 82.5 -18t62.5 -54t39 -89h6l46 141h147l-234 -1101h-138l12 156h-5q-36 -55 -73.5 -94.5t-79 -60.5t-92.5 -21zM324 129q67 0 114.5 55t80.5 139.5t55 172.5
q25 98 37 174t12 141q0 76 -29 117t-82 41t-98 -45t-80 -119t-59.5 -162.5t-37 -176.5t-12.5 -160q0 -90 25 -133.5t74 -43.5zM608 1247q-99 0 -154.5 56.5t-55.5 152.5q0 92 56 149t154 57q95 0 152.5 -57t58.5 -146q0 -93 -56.5 -152.5t-154.5 -59.5zM610 1344
q50 0 80 30.5t30 80.5q0 49 -29.5 80t-80.5 31q-53 0 -81.5 -31t-28.5 -80q0 -50 27.5 -80.5t82.5 -30.5z" />
    <glyph glyph-name="ae" unicode="&#xe6;" horiz-adv-x="1277" 
d="M253 -20q-64 0 -110 36t-71 105.5t-25 168.5q0 114 20.5 231.5t58.5 225t92 192t122.5 133.5t149.5 49q41 0 76 -15.5t61 -48t40 -83.5h4l33 127h125l-25 -122q43 57 100.5 99.5t133.5 42.5q101 0 159.5 -61t58.5 -171q0 -93 -35 -166.5t-101.5 -125.5t-161.5 -79
t-215 -27h-15q-8 -37 -12 -75.5t-4 -76.5q0 -102 38 -159t128 -57q56 0 111 17.5t118 54.5l-22 -150q-59 -35 -114.5 -50t-125.5 -15q-85 0 -138 39.5t-71 109.5l-27 -129h-125l25 150h-4q-34 -53 -72 -91t-82.5 -58.5t-97.5 -20.5zM324 128q46 0 83.5 30t67 81t52 116
t38.5 136q23 97 34 176.5t11 147.5q0 75 -25 114.5t-73 39.5t-91.5 -41t-79.5 -111t-62 -157t-40 -180t-14 -177q0 -89 25 -132t74 -43zM752 621h7q120 0 194 33.5t107.5 91.5t33.5 132q0 47 -22.5 74t-70.5 27q-55 0 -102.5 -47.5t-84.5 -128.5t-62 -182z" />
    <glyph glyph-name="ccedilla" unicode="&#xe7;" horiz-adv-x="662" 
d="M318 -20q-87 0 -146.5 38t-90.5 113t-31 184q0 98 17.5 208t54 216t93.5 192.5t136 138t182 51.5q57 0 104 -12.5t88 -38.5l-70 -141q-26 20 -59 30.5t-64 10.5q-77 0 -134.5 -63.5t-95.5 -162.5t-57 -208t-19 -201q0 -70 15 -115.5t44.5 -67.5t72.5 -22q38 0 81.5 16
t90.5 44v-150q-41 -25 -96.5 -42.5t-115.5 -17.5zM148 -492q-38 0 -70.5 4t-63.5 12v109q19 -6 47 -10t66 -4q43 0 74 14.5t47.5 40.5t16.5 61q0 43 -34.5 68t-104.5 33l105 164h102l-69 -102q65 -13 103.5 -53.5t38.5 -103.5q0 -76 -34 -128t-92 -78.5t-132 -26.5z" />
    <glyph glyph-name="egrave" unicode="&#xe8;" horiz-adv-x="794" 
d="M342 -20q-92 0 -157.5 39.5t-101 115t-35.5 184.5q0 161 35.5 305.5t100 256.5t153 176t195.5 64q105 0 167.5 -59.5t62.5 -172.5q0 -91 -34.5 -164.5t-101 -125.5t-161.5 -80t-216 -28h-15q-7 -37 -11 -75.5t-4 -76.5q0 -113 41 -164.5t123 -51.5q57 0 105.5 15
t109.5 50v-141q-57 -36 -120.5 -51.5t-135.5 -15.5zM259 621h6q121 0 194.5 33t107.5 91.5t34 132.5q0 47 -22.5 74t-69.5 27q-52 0 -100 -45.5t-86.5 -126t-63.5 -186.5zM518 1241q-27 37 -62.5 93t-67.5 114.5t-47 101.5v18h195q13 -48 27.5 -98t31.5 -101.5t39 -106.5
l-3 -21h-113z" />
    <glyph glyph-name="eacute" unicode="&#xe9;" horiz-adv-x="794" 
d="M342 -20q-92 0 -157.5 39.5t-101 115t-35.5 184.5q0 161 35.5 305.5t100 256.5t153 176t195.5 64q105 0 167.5 -59.5t62.5 -172.5q0 -91 -34.5 -164.5t-101 -125.5t-161.5 -80t-216 -28h-15q-7 -37 -11 -75.5t-4 -76.5q0 -113 41 -164.5t123 -51.5q57 0 105.5 15
t109.5 50v-141q-57 -36 -120.5 -51.5t-135.5 -15.5zM259 621h6q121 0 194.5 33t107.5 91.5t34 132.5q0 47 -22.5 74t-69.5 27q-52 0 -100 -45.5t-86.5 -126t-63.5 -186.5zM412 1239l2 20q45 53 86.5 106.5t76.5 105t61 96.5h203l-2 -17q-21 -29 -61 -72t-87 -89t-90.5 -86.5
t-73.5 -63.5h-115z" />
    <glyph glyph-name="ecircumflex" unicode="&#xea;" horiz-adv-x="794" 
d="M342 -20q-92 0 -157.5 39.5t-101 115t-35.5 184.5q0 161 35.5 305.5t100 256.5t153 176t195.5 64q105 0 167.5 -59.5t62.5 -172.5q0 -91 -34.5 -164.5t-101 -125.5t-161.5 -80t-216 -28h-15q-7 -37 -11 -75.5t-4 -76.5q0 -113 41 -164.5t123 -51.5q57 0 105.5 15
t109.5 50v-141q-57 -36 -120.5 -51.5t-135.5 -15.5zM259 621h6q121 0 194.5 33t107.5 91.5t34 132.5q0 47 -22.5 74t-69.5 27q-52 0 -100 -45.5t-86.5 -126t-63.5 -186.5zM295 1241l4 21q46 49 89.5 101t82.5 104.5t70 101.5h153q8 -37 28 -95.5t43.5 -116.5t40.5 -95
l-4 -21h-98q-18 25 -37 55t-38 63.5t-38 70.5q-53 -57 -101.5 -105t-91.5 -84h-103z" />
    <glyph glyph-name="edieresis" unicode="&#xeb;" horiz-adv-x="794" 
d="M342 -20q-92 0 -157.5 39.5t-101 115t-35.5 184.5q0 161 35.5 305.5t100 256.5t153 176t195.5 64q105 0 167.5 -59.5t62.5 -172.5q0 -91 -34.5 -164.5t-101 -125.5t-161.5 -80t-216 -28h-15q-7 -37 -11 -75.5t-4 -76.5q0 -113 41 -164.5t123 -51.5q57 0 105.5 15
t109.5 50v-141q-57 -36 -120.5 -51.5t-135.5 -15.5zM259 621h6q121 0 194.5 33t107.5 91.5t34 132.5q0 47 -22.5 74t-69.5 27q-52 0 -100 -45.5t-86.5 -126t-63.5 -186.5zM720 1291q-37 0 -57 19.5t-20 58.5q0 53 30.5 95t84.5 42q34 0 53 -18.5t19 -55.5q0 -61 -31.5 -101
t-78.5 -40zM407 1291q-36 0 -56 19.5t-20 58.5q0 53 30 95t85 42q22 0 37.5 -8t24 -24.5t8.5 -41.5q0 -61 -31 -101t-78 -40z" />
    <glyph glyph-name="igrave" unicode="&#xec;" horiz-adv-x="403" 
d="M-3 0l233 1101h172l-235 -1101h-170zM320 1250q-27 37 -62.5 93t-67.5 114.5t-47 101.5v18h195q13 -48 27.5 -98t31.5 -101.5t39 -106.5l-3 -21h-113z" />
    <glyph glyph-name="iacute" unicode="&#xed;" horiz-adv-x="403" 
d="M-3 0l233 1101h172l-235 -1101h-170zM220 1249l2 20q45 53 86.5 106.5t76.5 105t61 96.5h203l-2 -17q-21 -29 -61 -72t-87 -89t-90.5 -86.5t-73.5 -63.5h-115z" />
    <glyph glyph-name="icircumflex" unicode="&#xee;" horiz-adv-x="403" 
d="M-3 0l233 1101h172l-235 -1101h-170zM77 1241l4 21q46 49 89.5 101t82.5 104.5t70 101.5h153q8 -37 28 -95.5t43.5 -116.5t40.5 -95l-4 -21h-98q-18 25 -37 55t-38 63.5t-38 70.5q-53 -57 -101.5 -105t-91.5 -84h-103z" />
    <glyph glyph-name="idieresis" unicode="&#xef;" horiz-adv-x="403" 
d="M-3 0l233 1101h172l-235 -1101h-170zM499 1291q-37 0 -57 19.5t-20 58.5q0 53 30.5 95t84.5 42q34 0 53 -18.5t19 -55.5q0 -61 -31.5 -101t-78.5 -40zM186 1291q-36 0 -56 19.5t-20 58.5q0 53 30 95t85 42q22 0 37.5 -8t24 -24.5t8.5 -41.5q0 -61 -31 -101t-78 -40z" />
    <glyph glyph-name="eth" unicode="&#xf0;" horiz-adv-x="840" 
d="M299 -20q-88 0 -150.5 38.5t-95 112t-32.5 179.5q0 100 26.5 215t80.5 217t135.5 167t192.5 65q73 0 108 -45t52 -106h3q0 137 -22.5 246.5t-86.5 195.5l-194 -121l-56 87l196 122q-22 27 -58 58.5t-81 62.5l89 99q47 -28 90 -61.5t84 -76.5l195 123l60 -85l-191 -121
q46 -69 76 -147.5t44.5 -163.5t14.5 -178q0 -101 -14.5 -220t-47 -236t-87.5 -213.5t-136.5 -155t-194.5 -58.5zM316 128q51 0 92 33t73 87t54 120.5t33 135t11 128.5q0 46 -7.5 82t-22.5 60.5t-37 37t-51 12.5q-63 0 -112.5 -48t-83.5 -124.5t-51.5 -164.5t-17.5 -169
q0 -98 31 -144t89 -46z" />
    <glyph glyph-name="ntilde" unicode="&#xf1;" horiz-adv-x="854" 
d="M-3 0l233 1101h139l-18 -146h5q30 53 67.5 90.5t81.5 56.5t94 19q56 0 101 -21.5t72 -68t27 -121.5q0 -42 -8.5 -96.5t-19.5 -108.5l-150 -705h-171l143 676q10 50 19 102t9 92q0 45 -21.5 69.5t-65.5 24.5q-58 0 -103 -44t-78 -127.5t-59 -202.5l-125 -590h-172z
M281 1249q18 81 43.5 139.5t65 90t95.5 31.5q43 0 74 -18t56 -41t48 -41t48 -18q32 0 51.5 26t34.5 94h107q-17 -96 -46 -153.5t-67 -82.5t-83 -25q-41 0 -71.5 18t-56 42t-49.5 42t-50 18q-35 0 -57 -30.5t-35 -91.5h-108z" />
    <glyph glyph-name="ograve" unicode="&#xf2;" horiz-adv-x="845" 
d="M320 -20q-86 0 -146 38.5t-92 114t-32 184.5q0 83 16 189t50.5 213.5t90.5 199t135.5 147t185.5 55.5q84 0 144 -39.5t91.5 -115.5t31.5 -186q0 -99 -18 -209.5t-54.5 -215.5t-93.5 -189.5t-134 -135t-175 -50.5zM338 129q54 0 98.5 43.5t79 116t57.5 159.5t35 175
t12 161q0 60 -12.5 102.5t-37.5 64.5t-64 22q-58 0 -104 -47t-79.5 -123.5t-55.5 -165.5t-33 -174t-11 -148q0 -90 29 -138t86 -48zM535 1241q-27 37 -62.5 93t-67.5 114.5t-47 101.5v18h195q13 -48 27.5 -98t31.5 -101.5t39 -106.5l-3 -21h-113z" />
    <glyph glyph-name="oacute" unicode="&#xf3;" horiz-adv-x="845" 
d="M320 -20q-86 0 -146 38.5t-92 114t-32 184.5q0 83 16 189t50.5 213.5t90.5 199t135.5 147t185.5 55.5q84 0 144 -39.5t91.5 -115.5t31.5 -186q0 -99 -18 -209.5t-54.5 -215.5t-93.5 -189.5t-134 -135t-175 -50.5zM338 129q54 0 98.5 43.5t79 116t57.5 159.5t35 175
t12 161q0 60 -12.5 102.5t-37.5 64.5t-64 22q-58 0 -104 -47t-79.5 -123.5t-55.5 -165.5t-33 -174t-11 -148q0 -90 29 -138t86 -48zM440 1239l2 20q45 53 86.5 106.5t76.5 105t61 96.5h203l-2 -17q-21 -29 -61 -72t-87 -89t-90.5 -86.5t-73.5 -63.5h-115z" />
    <glyph glyph-name="ocircumflex" unicode="&#xf4;" horiz-adv-x="845" 
d="M320 -20q-86 0 -146 38.5t-92 114t-32 184.5q0 83 16 189t50.5 213.5t90.5 199t135.5 147t185.5 55.5q84 0 144 -39.5t91.5 -115.5t31.5 -186q0 -99 -18 -209.5t-54.5 -215.5t-93.5 -189.5t-134 -135t-175 -50.5zM338 129q54 0 98.5 43.5t79 116t57.5 159.5t35 175
t12 161q0 60 -12.5 102.5t-37.5 64.5t-64 22q-58 0 -104 -47t-79.5 -123.5t-55.5 -165.5t-33 -174t-11 -148q0 -90 29 -138t86 -48zM291 1241l4 21q46 49 89.5 101t82.5 104.5t70 101.5h153q8 -37 28 -95.5t43.5 -116.5t40.5 -95l-4 -21h-98q-18 25 -37 55t-38 63.5
t-38 70.5q-53 -57 -101.5 -105t-91.5 -84h-103z" />
    <glyph glyph-name="otilde" unicode="&#xf5;" horiz-adv-x="845" 
d="M320 -20q-86 0 -146 38.5t-92 114t-32 184.5q0 83 16 189t50.5 213.5t90.5 199t135.5 147t185.5 55.5q84 0 144 -39.5t91.5 -115.5t31.5 -186q0 -99 -18 -209.5t-54.5 -215.5t-93.5 -189.5t-134 -135t-175 -50.5zM338 129q54 0 98.5 43.5t79 116t57.5 159.5t35 175
t12 161q0 60 -12.5 102.5t-37.5 64.5t-64 22q-58 0 -104 -47t-79.5 -123.5t-55.5 -165.5t-33 -174t-11 -148q0 -90 29 -138t86 -48zM257 1245q18 81 43.5 139.5t65 90t95.5 31.5q43 0 74 -18t56 -41t48 -41t48 -18q32 0 51.5 26t34.5 94h107q-17 -96 -46 -153.5t-67 -82.5
t-83 -25q-41 0 -71.5 18t-56 42t-49.5 42t-50 18q-35 0 -57 -30.5t-35 -91.5h-108z" />
    <glyph glyph-name="odieresis" unicode="&#xf6;" horiz-adv-x="845" 
d="M320 -20q-86 0 -146 38.5t-92 114t-32 184.5q0 83 16 189t50.5 213.5t90.5 199t135.5 147t185.5 55.5q84 0 144 -39.5t91.5 -115.5t31.5 -186q0 -99 -18 -209.5t-54.5 -215.5t-93.5 -189.5t-134 -135t-175 -50.5zM338 129q54 0 98.5 43.5t79 116t57.5 159.5t35 175
t12 161q0 60 -12.5 102.5t-37.5 64.5t-64 22q-58 0 -104 -47t-79.5 -123.5t-55.5 -165.5t-33 -174t-11 -148q0 -90 29 -138t86 -48zM709 1291q-37 0 -57 19.5t-20 58.5q0 53 30.5 95t84.5 42q34 0 53 -18.5t19 -55.5q0 -61 -31.5 -101t-78.5 -40zM396 1291q-36 0 -56 19.5
t-20 58.5q0 53 30 95t85 42q22 0 37.5 -8t24 -24.5t8.5 -41.5q0 -61 -31 -101t-78 -40z" />
    <glyph glyph-name="divide" unicode="&#xf7;" horiz-adv-x="898" 
d="M81 647v152h770v-152h-770zM469 220q-53 0 -81 33.5t-28 97.5q0 63 27.5 96t81.5 33q52 0 78.5 -33t26.5 -96q0 -65 -28.5 -98t-76.5 -33zM469 964q-53 0 -81 33t-28 96t27.5 96.5t81.5 33.5q52 0 78.5 -33.5t26.5 -96.5q0 -65 -28.5 -97t-76.5 -32z" />
    <glyph glyph-name="oslash" unicode="&#xf8;" horiz-adv-x="845" 
d="M65 -124l-88 55l115 182q-19 39 -30.5 90t-11.5 114q0 78 15.5 183t49.5 213.5t89.5 201t136 149.5t187.5 57q50 0 90 -15.5t71 -46.5l88 142l90 -54l-109 -174q18 -39 27.5 -86.5t9.5 -106.5q0 -86 -16.5 -192t-51.5 -212.5t-91 -196t-134 -144.5t-182 -55
q-46 0 -85.5 13t-70.5 39zM338 123q51 0 93.5 37.5t76.5 100.5t58 140.5t38.5 159t18.5 154.5q2 17 1.5 34t-2.5 31l-375 -605q16 -26 39 -39t52 -13zM223 302l381 615q-14 30 -38.5 45.5t-58.5 15.5q-52 0 -95 -40t-76.5 -106.5t-58 -147t-38.5 -163.5t-17 -154
q-1 -18 -1 -34.5t2 -30.5z" />
    <glyph glyph-name="ugrave" unicode="&#xf9;" horiz-adv-x="857" 
d="M250 -20q-65 0 -109.5 25t-67.5 73.5t-23 117.5q0 38 7 88t17 96l154 721h171l-146 -694q-11 -46 -18 -90t-7 -82q0 -47 20.5 -73.5t64.5 -26.5q59 0 104 44.5t79.5 129t58.5 203.5l126 589h170l-232 -1101h-138l13 140h-6q-30 -51 -67.5 -86.5t-80.5 -54.5t-90 -19z
M539 1241q-27 37 -62.5 93t-67.5 114.5t-47 101.5v18h195q13 -48 27.5 -98t31.5 -101.5t39 -106.5l-3 -21h-113z" />
    <glyph glyph-name="uacute" unicode="&#xfa;" horiz-adv-x="857" 
d="M250 -20q-65 0 -109.5 25t-67.5 73.5t-23 117.5q0 38 7 88t17 96l154 721h171l-146 -694q-11 -46 -18 -90t-7 -82q0 -47 20.5 -73.5t64.5 -26.5q59 0 104 44.5t79.5 129t58.5 203.5l126 589h170l-232 -1101h-138l13 140h-6q-30 -51 -67.5 -86.5t-80.5 -54.5t-90 -19z
M449 1239l2 20q45 53 86.5 106.5t76.5 105t61 96.5h203l-2 -17q-21 -29 -61 -72t-87 -89t-90.5 -86.5t-73.5 -63.5h-115z" />
    <glyph glyph-name="ucircumflex" unicode="&#xfb;" horiz-adv-x="857" 
d="M250 -20q-65 0 -109.5 25t-67.5 73.5t-23 117.5q0 38 7 88t17 96l154 721h171l-146 -694q-11 -46 -18 -90t-7 -82q0 -47 20.5 -73.5t64.5 -26.5q59 0 104 44.5t79.5 129t58.5 203.5l126 589h170l-232 -1101h-138l13 140h-6q-30 -51 -67.5 -86.5t-80.5 -54.5t-90 -19z
M303 1241l4 21q46 49 89.5 101t82.5 104.5t70 101.5h153q8 -37 28 -95.5t43.5 -116.5t40.5 -95l-4 -21h-98q-18 25 -37 55t-38 63.5t-38 70.5q-53 -57 -101.5 -105t-91.5 -84h-103z" />
    <glyph glyph-name="udieresis" unicode="&#xfc;" horiz-adv-x="857" 
d="M250 -20q-65 0 -109.5 25t-67.5 73.5t-23 117.5q0 38 7 88t17 96l154 721h171l-146 -694q-11 -46 -18 -90t-7 -82q0 -47 20.5 -73.5t64.5 -26.5q59 0 104 44.5t79.5 129t58.5 203.5l126 589h170l-232 -1101h-138l13 140h-6q-30 -51 -67.5 -86.5t-80.5 -54.5t-90 -19z
M711 1291q-37 0 -57 19.5t-20 58.5q0 53 30.5 95t84.5 42q34 0 53 -18.5t19 -55.5q0 -61 -31.5 -101t-78.5 -40zM398 1291q-36 0 -56 19.5t-20 58.5q0 53 30 95t85 42q22 0 37.5 -8t24 -24.5t8.5 -41.5q0 -61 -31 -101t-78 -40z" />
    <glyph glyph-name="yacute" unicode="&#xfd;" horiz-adv-x="720" 
d="M-74 -493q-36 0 -63.5 5.5t-49.5 14.5l25 154q21 -8 41.5 -13t42.5 -5q58 0 93.5 43.5t70.5 123.5l79 179l-31 1092h172l2 -603q0 -37 -0.5 -76.5t-2 -79.5t-4.5 -79h6q12 40 26 79.5t28 75t25 61.5l263 622h179l-579 -1305q-40 -88 -83 -153t-100.5 -100.5t-139.5 -35.5
zM384 1239l2 20q45 53 86.5 106.5t76.5 105t61 96.5h203l-2 -17q-21 -29 -61 -72t-87 -89t-90.5 -86.5t-73.5 -63.5h-115z" />
    <glyph glyph-name="thorn" unicode="&#xfe;" horiz-adv-x="865" 
d="M-101 -478l430 2035h169l-109 -510q-5 -24 -10 -44t-11 -38h6q31 49 67.5 83.5t78.5 53.5t90 19q102 0 157.5 -77t55.5 -233q0 -94 -17.5 -206t-52.5 -222t-88 -201.5t-124 -146.5t-160 -55q-47 0 -84 19t-62.5 54t-37.5 82h-6q-5 -40 -12.5 -80.5t-12.5 -70.5l-98 -462
h-169zM359 131q58 0 104 48t80.5 125.5t57.5 167t34.5 176t11.5 149.5q0 91 -24.5 134.5t-74.5 43.5q-62 0 -110.5 -53.5t-83.5 -137.5t-58 -174q-24 -89 -35 -174t-11 -144q0 -79 27.5 -120t81.5 -41z" />
    <glyph glyph-name="ydieresis" unicode="&#xff;" horiz-adv-x="720" 
d="M-74 -493q-36 0 -63.5 5.5t-49.5 14.5l25 154q21 -8 41.5 -13t42.5 -5q58 0 93.5 43.5t70.5 123.5l79 179l-31 1092h172l2 -603q0 -37 -0.5 -76.5t-2 -79.5t-4.5 -79h6q12 40 26 79.5t28 75t25 61.5l263 622h179l-579 -1305q-40 -88 -83 -153t-100.5 -100.5t-139.5 -35.5
zM641 1291q-37 0 -57 19.5t-20 58.5q0 53 30.5 95t84.5 42q34 0 53 -18.5t19 -55.5q0 -61 -31.5 -101t-78.5 -40zM328 1291q-36 0 -56 19.5t-20 58.5q0 53 30 95t85 42q22 0 37.5 -8t24 -24.5t8.5 -41.5q0 -61 -31 -101t-78 -40z" />
    <glyph glyph-name="Amacron" unicode="&#x100;" horiz-adv-x="848" 
d="M-132 0l614 1468h227l7 -1468h-186l3 452h-287l-184 -452h-194zM305 612h236l9 504q0 49 2 93t6 83h-6q-9 -37 -22 -80t-33 -95zM362 1628l27 132h498l-29 -132h-496z" />
    <glyph glyph-name="amacron" unicode="&#x101;" horiz-adv-x="875" 
d="M263 -20q-68 0 -116.5 36t-74 105.5t-25.5 168.5q0 91 17 202t51 221.5t87 203t125 148.5t163 56q46 0 82.5 -18t62.5 -54t39 -89h6l46 141h147l-234 -1101h-138l12 156h-5q-36 -55 -73.5 -94.5t-79 -60.5t-92.5 -21zM324 129q67 0 114.5 55t80.5 139.5t55 172.5
q25 98 37 174t12 141q0 76 -29 117t-82 41t-98 -45t-80 -119t-59.5 -162.5t-37 -176.5t-12.5 -160q0 -90 25 -133.5t74 -43.5zM328 1252l27 132h498l-29 -132h-496z" />
    <glyph glyph-name="Abreve" unicode="&#x102;" horiz-adv-x="848" 
d="M-132 0l614 1468h227l7 -1468h-186l3 452h-287l-184 -452h-194zM305 612h236l9 504q0 49 2 93t6 83h-6q-9 -37 -22 -80t-33 -95zM621 1621q-75 0 -122 26t-68.5 72.5t-21.5 106.5q0 20 2 39.5t5 36.5h109q0 -51 10.5 -84t33.5 -49t61 -16q59 0 95.5 34t56.5 115h113
q-24 -135 -92.5 -208t-181.5 -73z" />
    <glyph glyph-name="abreve" unicode="&#x103;" horiz-adv-x="875" 
d="M263 -20q-68 0 -116.5 36t-74 105.5t-25.5 168.5q0 91 17 202t51 221.5t87 203t125 148.5t163 56q46 0 82.5 -18t62.5 -54t39 -89h6l46 141h147l-234 -1101h-138l12 156h-5q-36 -55 -73.5 -94.5t-79 -60.5t-92.5 -21zM324 129q67 0 114.5 55t80.5 139.5t55 172.5
q25 98 37 174t12 141q0 76 -29 117t-82 41t-98 -45t-80 -119t-59.5 -162.5t-37 -176.5t-12.5 -160q0 -90 25 -133.5t74 -43.5zM587 1245q-75 0 -122 26t-68.5 72.5t-21.5 106.5q0 20 2 39.5t5 36.5h109q0 -51 10.5 -84t33.5 -49t61 -16q59 0 95.5 34t56.5 115h113
q-24 -135 -92.5 -208t-181.5 -73z" />
    <glyph glyph-name="Aogonek" unicode="&#x104;" horiz-adv-x="848" 
d="M-132 0l614 1468h227l7 -1468h-186l3 452h-287l-184 -452h-194zM305 612h236l9 504q0 49 2 93t6 83h-6q-9 -37 -22 -80t-33 -95zM516 -461q-77 0 -116.5 41.5t-39.5 107.5q0 58 22.5 109.5t68.5 101.5t115 101h114q-60 -53 -97 -98.5t-53.5 -87t-17.5 -83.5
q0 -32 17 -49.5t48 -17.5q15 0 35.5 4t41.5 9l-25 -119q-26 -11 -54 -15t-59 -4z" />
    <glyph glyph-name="aogonek" unicode="&#x105;" horiz-adv-x="875" 
d="M263 -20q-68 0 -116.5 36t-74 105.5t-25.5 168.5q0 91 17 202t51 221.5t87 203t125 148.5t163 56q46 0 82.5 -18t62.5 -54t39 -89h6l46 141h147l-234 -1101h-138l12 156h-5q-36 -55 -73.5 -94.5t-79 -60.5t-92.5 -21zM324 129q67 0 114.5 55t80.5 139.5t55 172.5
q25 98 37 174t12 141q0 76 -29 117t-82 41t-98 -45t-80 -119t-59.5 -162.5t-37 -176.5t-12.5 -160q0 -90 25 -133.5t74 -43.5zM459 -461q-77 0 -116.5 41.5t-39.5 107.5q0 58 22.5 109.5t68.5 101.5t115 101h114q-60 -53 -97 -98.5t-53.5 -87t-17.5 -83.5q0 -32 17 -49.5
t48 -17.5q15 0 35.5 4t41.5 9l-25 -119q-26 -11 -54 -15t-59 -4z" />
    <glyph glyph-name="Cacute" unicode="&#x106;" horiz-adv-x="805" 
d="M405 -20q-109 0 -183 53.5t-111 158.5t-37 260q0 123 25 264t76 277t126.5 247.5t177.5 178t229 66.5q72 0 134.5 -18.5t111.5 -57.5l-91 -144q-34 30 -73 44.5t-83 14.5q-92 0 -164 -62t-125.5 -162t-88.5 -216t-52 -227t-17 -193q0 -170 45 -247t142 -77
q47 0 96.5 13.5t103.5 37.5v-162q-58 -25 -120.5 -37t-121.5 -12zM532 1608l2 20q45 53 86.5 106.5t76.5 105t61 96.5h203l-2 -17q-21 -29 -61 -72t-87 -89t-90.5 -86.5t-73.5 -63.5h-115z" />
    <glyph glyph-name="cacute" unicode="&#x107;" horiz-adv-x="662" 
d="M318 -20q-87 0 -146.5 38t-90.5 113t-31 184q0 98 17.5 208t54 216t93.5 192.5t136 138t182 51.5q57 0 104 -12.5t88 -38.5l-70 -141q-26 20 -59 30.5t-64 10.5q-77 0 -134.5 -63.5t-95.5 -162.5t-57 -208t-19 -201q0 -70 15 -115.5t44.5 -67.5t72.5 -22q38 0 81.5 16
t90.5 44v-150q-41 -25 -96.5 -42.5t-115.5 -17.5zM373 1249l2 20q45 53 86.5 106.5t76.5 105t61 96.5h203l-2 -17q-21 -29 -61 -72t-87 -89t-90.5 -86.5t-73.5 -63.5h-115z" />
    <glyph glyph-name="Ccircumflex" unicode="&#x108;" horiz-adv-x="805" 
d="M405 -20q-109 0 -183 53.5t-111 158.5t-37 260q0 123 25 264t76 277t126.5 247.5t177.5 178t229 66.5q72 0 134.5 -18.5t111.5 -57.5l-91 -144q-34 30 -73 44.5t-83 14.5q-92 0 -164 -62t-125.5 -162t-88.5 -216t-52 -227t-17 -193q0 -170 45 -247t142 -77
q47 0 96.5 13.5t103.5 37.5v-162q-58 -25 -120.5 -37t-121.5 -12zM442 1579l4 21q46 49 89.5 101t82.5 104.5t70 101.5h153q8 -37 28 -95.5t43.5 -116.5t40.5 -95l-4 -21h-98q-18 25 -37 55t-38 63.5t-38 70.5q-53 -57 -101.5 -105t-91.5 -84h-103z" />
    <glyph glyph-name="ccircumflex" unicode="&#x109;" horiz-adv-x="662" 
d="M318 -20q-87 0 -146.5 38t-90.5 113t-31 184q0 98 17.5 208t54 216t93.5 192.5t136 138t182 51.5q57 0 104 -12.5t88 -38.5l-70 -141q-26 20 -59 30.5t-64 10.5q-77 0 -134.5 -63.5t-95.5 -162.5t-57 -208t-19 -201q0 -70 15 -115.5t44.5 -67.5t72.5 -22q38 0 81.5 16
t90.5 44v-150q-41 -25 -96.5 -42.5t-115.5 -17.5zM265 1241l4 21q46 49 89.5 101t82.5 104.5t70 101.5h153q8 -37 28 -95.5t43.5 -116.5t40.5 -95l-4 -21h-98q-18 25 -37 55t-38 63.5t-38 70.5q-53 -57 -101.5 -105t-91.5 -84h-103z" />
    <glyph glyph-name="Cdot" unicode="&#x10a;" horiz-adv-x="805" 
d="M405 -20q-109 0 -183 53.5t-111 158.5t-37 260q0 123 25 264t76 277t126.5 247.5t177.5 178t229 66.5q72 0 134.5 -18.5t111.5 -57.5l-91 -144q-34 30 -73 44.5t-83 14.5q-92 0 -164 -62t-125.5 -162t-88.5 -216t-52 -227t-17 -193q0 -170 45 -247t142 -77
q47 0 96.5 13.5t103.5 37.5v-162q-58 -25 -120.5 -37t-121.5 -12zM748 1625q-43 0 -65 23.5t-22 65.5q0 56 31.5 101t90.5 45q29 0 48 -9.5t28.5 -28.5t9.5 -49q0 -59 -31.5 -103.5t-89.5 -44.5z" />
    <glyph glyph-name="cdot" unicode="&#x10b;" horiz-adv-x="662" 
d="M318 -20q-87 0 -146.5 38t-90.5 113t-31 184q0 98 17.5 208t54 216t93.5 192.5t136 138t182 51.5q57 0 104 -12.5t88 -38.5l-70 -141q-26 20 -59 30.5t-64 10.5q-77 0 -134.5 -63.5t-95.5 -162.5t-57 -208t-19 -201q0 -70 15 -115.5t44.5 -67.5t72.5 -22q38 0 81.5 16
t90.5 44v-150q-41 -25 -96.5 -42.5t-115.5 -17.5zM572 1280q-43 0 -65 23.5t-22 65.5q0 56 31.5 101t90.5 45q29 0 48 -9.5t28.5 -28.5t9.5 -49q0 -59 -31.5 -103.5t-89.5 -44.5z" />
    <glyph glyph-name="Ccaron" unicode="&#x10c;" horiz-adv-x="805" 
d="M405 -20q-109 0 -183 53.5t-111 158.5t-37 260q0 123 25 264t76 277t126.5 247.5t177.5 178t229 66.5q72 0 134.5 -18.5t111.5 -57.5l-91 -144q-34 30 -73 44.5t-83 14.5q-92 0 -164 -62t-125.5 -162t-88.5 -216t-52 -227t-17 -193q0 -170 45 -247t142 -77
q47 0 96.5 13.5t103.5 37.5v-162q-58 -25 -120.5 -37t-121.5 -12zM648 1579q-10 37 -30 95.5t-42.5 116.5t-41.5 94l5 22h99q14 -20 32 -48.5t38.5 -63.5t41.5 -77q53 58 101.5 106t92.5 83h102l-3 -21q-33 -34 -81 -91.5t-93 -116.5t-68 -99h-153z" />
    <glyph glyph-name="ccaron" unicode="&#x10d;" horiz-adv-x="662" 
d="M318 -20q-87 0 -146.5 38t-90.5 113t-31 184q0 98 17.5 208t54 216t93.5 192.5t136 138t182 51.5q57 0 104 -12.5t88 -38.5l-70 -141q-26 20 -59 30.5t-64 10.5q-77 0 -134.5 -63.5t-95.5 -162.5t-57 -208t-19 -201q0 -70 15 -115.5t44.5 -67.5t72.5 -22q38 0 81.5 16
t90.5 44v-150q-41 -25 -96.5 -42.5t-115.5 -17.5zM463 1241q-10 37 -30 95.5t-42.5 116.5t-41.5 94l5 22h99q14 -20 32 -48.5t38.5 -63.5t41.5 -77q53 58 101.5 106t92.5 83h102l-3 -21q-33 -34 -81 -91.5t-93 -116.5t-68 -99h-153z" />
    <glyph glyph-name="Dcaron" unicode="&#x10e;" horiz-adv-x="964" 
d="M0 0l309 1462h245q186 0 284.5 -110t98.5 -325q0 -132 -23.5 -275t-74 -276.5t-131 -241t-193.5 -171t-262 -63.5h-253zM211 162h67q101 0 178 54t132.5 145.5t91 203.5t52.5 228.5t17 220.5q0 151 -54 219.5t-161 68.5h-81zM533 1579q-10 37 -30 95.5t-42.5 116.5
t-41.5 94l5 22h99q14 -20 32 -48.5t38.5 -63.5t41.5 -77q53 58 101.5 106t92.5 83h102l-3 -21q-33 -34 -81 -91.5t-93 -116.5t-68 -99h-153z" />
    <glyph glyph-name="dcaron" unicode="&#x10f;" horiz-adv-x="1027" 
d="M260 -20q-68 0 -115.5 36t-73 105.5t-25.5 168.5q0 90 17 200t51 221.5t86 204t122.5 149t158.5 56.5q48 0 86.5 -17t66 -50.5t39.5 -81.5h6q6 36 12.5 70.5t12.5 66.5t12 61l81 386h171l-330 -1556h-138l12 150h-5q-37 -54 -74.5 -92t-79.5 -58t-93 -20zM323 128
q53 0 95.5 37.5t76 100t57.5 138t39.5 152.5t23 145t7.5 113q0 75 -27.5 115t-83.5 40q-55 0 -101 -47t-80.5 -123.5t-58.5 -166.5t-35.5 -176.5t-11.5 -152.5q0 -89 25 -132t74 -43zM988 1229v19q26 55 47 108.5t37.5 104.5t28.5 95h169l-1 -20q-17 -43 -47 -99.5t-64 -112
t-64 -95.5h-106z" />
    <glyph glyph-name="Dcroat" unicode="&#x110;" horiz-adv-x="965" 
d="M0 0l144 688h-101l31 143h101l134 631h245q186 0 284.5 -110t98.5 -325q0 -134 -24 -277.5t-75 -277t-131.5 -240.5t-193 -169.5t-260.5 -62.5h-253zM211 162h67q106 0 184.5 58.5t133.5 154t88.5 209t49 226.5t15.5 204q0 151 -54 219.5t-161 68.5h-81l-100 -471h170
l-31 -143h-172z" />
    <glyph glyph-name="dcroat" unicode="&#x111;" horiz-adv-x="874" 
d="M261 -20q-68 0 -115.5 36t-73 105.5t-25.5 168.5q0 90 17 200t51 221.5t86 204t122.5 149t158.5 56.5q48 0 86.5 -17t66 -50.5t39.5 -81.5h6q6 33 11.5 64t11 61.5t11.5 58.5l19 90h-190l28 131h191l36 179h171l-36 -179h117l-27 -131h-119l-265 -1246h-138l12 150h-5
q-37 -54 -74.5 -92t-79.5 -58t-93 -20zM324 128q53 0 95.5 37.5t76 100t57.5 138t39.5 152.5t23 145t7.5 113q0 75 -27.5 115t-83.5 40q-55 0 -101 -47t-80.5 -123.5t-58.5 -166.5t-35.5 -176.5t-11.5 -152.5q0 -89 25 -132t74 -43z" />
    <glyph glyph-name="Emacron" unicode="&#x112;" horiz-adv-x="760" 
d="M-1 0l310 1462h542l-33 -158h-365l-97 -462h340l-35 -158h-339l-112 -525h365l-34 -159h-542zM347 1586l27 132h498l-29 -132h-496z" />
    <glyph glyph-name="emacron" unicode="&#x113;" horiz-adv-x="794" 
d="M342 -20q-92 0 -157.5 39.5t-101 115t-35.5 184.5q0 161 35.5 305.5t100 256.5t153 176t195.5 64q105 0 167.5 -59.5t62.5 -172.5q0 -91 -34.5 -164.5t-101 -125.5t-161.5 -80t-216 -28h-15q-7 -37 -11 -75.5t-4 -76.5q0 -113 41 -164.5t123 -51.5q57 0 105.5 15
t109.5 50v-141q-57 -36 -120.5 -51.5t-135.5 -15.5zM259 621h6q121 0 194.5 33t107.5 91.5t34 132.5q0 47 -22.5 74t-69.5 27q-52 0 -100 -45.5t-86.5 -126t-63.5 -186.5zM312 1248l27 132h498l-29 -132h-496z" />
    <glyph glyph-name="Ebreve" unicode="&#x114;" horiz-adv-x="760" 
d="M-1 0l310 1462h542l-33 -158h-365l-97 -462h340l-35 -158h-339l-112 -525h365l-34 -159h-542zM605 1579q-75 0 -122 26t-68.5 72.5t-21.5 106.5q0 20 2 39.5t5 36.5h109q0 -51 10.5 -84t33.5 -49t61 -16q59 0 95.5 34t56.5 115h113q-24 -135 -92.5 -208t-181.5 -73z" />
    <glyph glyph-name="ebreve" unicode="&#x115;" horiz-adv-x="794" 
d="M342 -20q-92 0 -157.5 39.5t-101 115t-35.5 184.5q0 161 35.5 305.5t100 256.5t153 176t195.5 64q105 0 167.5 -59.5t62.5 -172.5q0 -91 -34.5 -164.5t-101 -125.5t-161.5 -80t-216 -28h-15q-7 -37 -11 -75.5t-4 -76.5q0 -113 41 -164.5t123 -51.5q57 0 105.5 15
t109.5 50v-141q-57 -36 -120.5 -51.5t-135.5 -15.5zM259 621h6q121 0 194.5 33t107.5 91.5t34 132.5q0 47 -22.5 74t-69.5 27q-52 0 -100 -45.5t-86.5 -126t-63.5 -186.5zM590 1241q-75 0 -122 26t-68.5 72.5t-21.5 106.5q0 20 2 39.5t5 36.5h109q0 -51 10.5 -84t33.5 -49
t61 -16q59 0 95.5 34t56.5 115h113q-24 -135 -92.5 -208t-181.5 -73z" />
    <glyph glyph-name="Edotaccent" unicode="&#x116;" horiz-adv-x="760" 
d="M-1 0l310 1462h542l-33 -158h-365l-97 -462h340l-35 -158h-339l-112 -525h365l-34 -159h-542zM620 1589q-43 0 -65 23.5t-22 65.5q0 56 31.5 101t90.5 45q29 0 48 -9.5t28.5 -28.5t9.5 -49q0 -59 -31.5 -103.5t-89.5 -44.5z" />
    <glyph glyph-name="edotaccent" unicode="&#x117;" horiz-adv-x="794" 
d="M342 -20q-92 0 -157.5 39.5t-101 115t-35.5 184.5q0 161 35.5 305.5t100 256.5t153 176t195.5 64q105 0 167.5 -59.5t62.5 -172.5q0 -91 -34.5 -164.5t-101 -125.5t-161.5 -80t-216 -28h-15q-7 -37 -11 -75.5t-4 -76.5q0 -113 41 -164.5t123 -51.5q57 0 105.5 15
t109.5 50v-141q-57 -36 -120.5 -51.5t-135.5 -15.5zM259 621h6q121 0 194.5 33t107.5 91.5t34 132.5q0 47 -22.5 74t-69.5 27q-52 0 -100 -45.5t-86.5 -126t-63.5 -186.5zM602 1280q-43 0 -65 23.5t-22 65.5q0 56 31.5 101t90.5 45q29 0 48 -9.5t28.5 -28.5t9.5 -49
q0 -59 -31.5 -103.5t-89.5 -44.5z" />
    <glyph glyph-name="Eogonek" unicode="&#x118;" horiz-adv-x="760" 
d="M-1 0l310 1462h542l-33 -158h-365l-97 -462h340l-35 -158h-339l-112 -525h365l-34 -159h-542zM312 -461q-77 0 -116.5 41.5t-39.5 107.5q0 58 22.5 109.5t68.5 101.5t115 101h114q-60 -53 -97 -98.5t-53.5 -87t-17.5 -83.5q0 -32 17 -49.5t48 -17.5q15 0 35.5 4t41.5 9
l-25 -119q-26 -11 -54 -15t-59 -4z" />
    <glyph glyph-name="eogonek" unicode="&#x119;" horiz-adv-x="794" 
d="M381 -434q-75 0 -113 43t-38 108q0 58 22 109t66.5 100.5t113.5 101.5l143 10q-67 -49 -108.5 -97.5t-61.5 -94.5t-21 -88q0 -32 16 -48.5t45 -16.5q15 0 34.5 3.5t40.5 7.5l-26 -119q-26 -11 -54 -15t-59 -4zM342 -20q-92 0 -157.5 39.5t-101 115t-35.5 184.5
q0 161 35.5 305.5t100 256.5t153 176t195.5 64q105 0 167.5 -59.5t62.5 -172.5q0 -91 -34.5 -164.5t-101 -125.5t-161.5 -80t-216 -28h-15q-7 -37 -11 -75.5t-4 -76.5q0 -113 41 -164.5t123 -51.5q57 0 105.5 15t109.5 50v-141q-57 -36 -120.5 -51.5t-135.5 -15.5zM259 621
h6q121 0 194.5 33t107.5 91.5t34 132.5q0 47 -22.5 74t-69.5 27q-52 0 -100 -45.5t-86.5 -126t-63.5 -186.5z" />
    <glyph glyph-name="Ecaron" unicode="&#x11a;" horiz-adv-x="760" 
d="M-1 0l310 1462h542l-33 -158h-365l-97 -462h340l-35 -158h-339l-112 -525h365l-34 -159h-542zM512 1579q-10 37 -30 95.5t-42.5 116.5t-41.5 94l5 22h99q14 -20 32 -48.5t38.5 -63.5t41.5 -77q53 58 101.5 106t92.5 83h102l-3 -21q-33 -34 -81 -91.5t-93 -116.5t-68 -99
h-153z" />
    <glyph glyph-name="ecaron" unicode="&#x11b;" horiz-adv-x="794" 
d="M342 -20q-92 0 -157.5 39.5t-101 115t-35.5 184.5q0 161 35.5 305.5t100 256.5t153 176t195.5 64q105 0 167.5 -59.5t62.5 -172.5q0 -91 -34.5 -164.5t-101 -125.5t-161.5 -80t-216 -28h-15q-7 -37 -11 -75.5t-4 -76.5q0 -113 41 -164.5t123 -51.5q57 0 105.5 15
t109.5 50v-141q-57 -36 -120.5 -51.5t-135.5 -15.5zM259 621h6q121 0 194.5 33t107.5 91.5t34 132.5q0 47 -22.5 74t-69.5 27q-52 0 -100 -45.5t-86.5 -126t-63.5 -186.5zM477 1241q-10 37 -30 95.5t-42.5 116.5t-41.5 94l5 22h99q14 -20 32 -48.5t38.5 -63.5t41.5 -77
q53 58 101.5 106t92.5 83h102l-3 -21q-33 -34 -81 -91.5t-93 -116.5t-68 -99h-153z" />
    <glyph glyph-name="Gcircumflex" unicode="&#x11c;" horiz-adv-x="1016" 
d="M471 -20q-201 0 -299 118.5t-98 347.5q0 167 31 321t90 284t142.5 227.5t188.5 152t228 54.5q94 0 173 -25.5t137 -66.5l-87 -153q-57 43 -115.5 63.5t-123.5 20.5q-109 0 -198 -77.5t-152 -205t-96.5 -280t-33.5 -304.5q0 -110 25.5 -180.5t76 -103.5t126.5 -33
q41 0 79.5 6t75.5 18l97 459h-177l33 155h354l-156 -733q-83 -31 -165 -48t-156 -17zM495 1579l4 21q46 49 89.5 101t82.5 104.5t70 101.5h153q8 -37 28 -95.5t43.5 -116.5t40.5 -95l-4 -21h-98q-18 25 -37 55t-38 63.5t-38 70.5q-53 -57 -101.5 -105t-91.5 -84h-103z" />
    <glyph glyph-name="gcircumflex" unicode="&#x11d;" horiz-adv-x="814" 
d="M190 -492q-158 -1 -242 63t-83 195q1 110 69 196t189 134q-31 14 -50 48t-19 77q0 54 37 106.5t113 103.5q-39 26 -63 81.5t-24 133.5q0 111 47.5 222t136.5 178q42 34 95.5 54.5t111.5 20.5q45 0 76.5 -8.5t50.5 -17.5h259l-22 -108l-132 -28q13 -22 18.5 -52t5.5 -65
q0 -85 -31.5 -176.5t-85.5 -156.5q-50 -60 -118.5 -94.5t-151.5 -34.5q-24 0 -42 -0.5t-26 -4.5q-54 -25 -80 -63t-26 -70q0 -34 28 -49q11 -4 27 -6.5t36 -3.5h156q81 0 130 -28t71 -79t22 -120q0 -115 -51 -207.5t-136 -149.5q-60 -44 -136.5 -67t-159.5 -24zM197 -358
q58 1 111.5 18.5t94.5 52.5q44 35 71.5 88.5t27.5 112.5q0 26 -6 47.5t-23 37.5q-14 13 -39.5 20.5t-64.5 7.5h-131q-47 0 -95.5 -38t-81 -95t-32.5 -114q0 -80 44 -110t124 -28zM378 507q57 0 102 45.5t74 121.5t35 167q4 45 -1 78.5t-22 52.5q-10 11 -24.5 17t-34.5 6
q-44 0 -81.5 -31t-66 -80.5t-46 -107t-21.5 -111.5q-2 -34 0.5 -63t12.5 -49q20 -46 73 -46zM326 1246l4 21q46 49 89.5 101t82.5 104.5t70 101.5h153q8 -37 28 -95.5t43.5 -116.5t40.5 -95l-4 -21h-98q-18 25 -37 55t-38 63.5t-38 70.5q-53 -57 -101.5 -105t-91.5 -84h-103
z" />
    <glyph glyph-name="Gbreve" unicode="&#x11e;" horiz-adv-x="1016" 
d="M471 -20q-201 0 -299 118.5t-98 347.5q0 167 31 321t90 284t142.5 227.5t188.5 152t228 54.5q94 0 173 -25.5t137 -66.5l-87 -153q-57 43 -115.5 63.5t-123.5 20.5q-109 0 -198 -77.5t-152 -205t-96.5 -280t-33.5 -304.5q0 -110 25.5 -180.5t76 -103.5t126.5 -33
q41 0 79.5 6t75.5 18l97 459h-177l33 155h354l-156 -733q-83 -31 -165 -48t-156 -17zM778 1579q-75 0 -122 26t-68.5 72.5t-21.5 106.5q0 20 2 39.5t5 36.5h109q0 -51 10.5 -84t33.5 -49t61 -16q59 0 95.5 34t56.5 115h113q-24 -135 -92.5 -208t-181.5 -73z" />
    <glyph glyph-name="gbreve" unicode="&#x11f;" horiz-adv-x="814" 
d="M190 -492q-158 -1 -242 63t-83 195q1 110 69 196t189 134q-31 14 -50 48t-19 77q0 54 37 106.5t113 103.5q-39 26 -63 81.5t-24 133.5q0 111 47.5 222t136.5 178q42 34 95.5 54.5t111.5 20.5q45 0 76.5 -8.5t50.5 -17.5h259l-22 -108l-132 -28q13 -22 18.5 -52t5.5 -65
q0 -85 -31.5 -176.5t-85.5 -156.5q-50 -60 -118.5 -94.5t-151.5 -34.5q-24 0 -42 -0.5t-26 -4.5q-54 -25 -80 -63t-26 -70q0 -34 28 -49q11 -4 27 -6.5t36 -3.5h156q81 0 130 -28t71 -79t22 -120q0 -115 -51 -207.5t-136 -149.5q-60 -44 -136.5 -67t-159.5 -24zM197 -358
q58 1 111.5 18.5t94.5 52.5q44 35 71.5 88.5t27.5 112.5q0 26 -6 47.5t-23 37.5q-14 13 -39.5 20.5t-64.5 7.5h-131q-47 0 -95.5 -38t-81 -95t-32.5 -114q0 -80 44 -110t124 -28zM378 507q57 0 102 45.5t74 121.5t35 167q4 45 -1 78.5t-22 52.5q-10 11 -24.5 17t-34.5 6
q-44 0 -81.5 -31t-66 -80.5t-46 -107t-21.5 -111.5q-2 -34 0.5 -63t12.5 -49q20 -46 73 -46zM544 1246q-75 0 -122 26t-68.5 72.5t-21.5 106.5q0 20 2 39.5t5 36.5h109q0 -51 10.5 -84t33.5 -49t61 -16q59 0 95.5 34t56.5 115h113q-24 -135 -92.5 -208t-181.5 -73z" />
    <glyph glyph-name="Gdot" unicode="&#x120;" horiz-adv-x="1016" 
d="M471 -20q-201 0 -299 118.5t-98 347.5q0 167 31 321t90 284t142.5 227.5t188.5 152t228 54.5q94 0 173 -25.5t137 -66.5l-87 -153q-57 43 -115.5 63.5t-123.5 20.5q-109 0 -198 -77.5t-152 -205t-96.5 -280t-33.5 -304.5q0 -110 25.5 -180.5t76 -103.5t126.5 -33
q41 0 79.5 6t75.5 18l97 459h-177l33 155h354l-156 -733q-83 -31 -165 -48t-156 -17zM797 1618q-43 0 -65 23.5t-22 65.5q0 56 31.5 101t90.5 45q29 0 48 -9.5t28.5 -28.5t9.5 -49q0 -59 -31.5 -103.5t-89.5 -44.5z" />
    <glyph glyph-name="gdot" unicode="&#x121;" horiz-adv-x="814" 
d="M190 -492q-158 -1 -242 63t-83 195q1 110 69 196t189 134q-31 14 -50 48t-19 77q0 54 37 106.5t113 103.5q-39 26 -63 81.5t-24 133.5q0 111 47.5 222t136.5 178q42 34 95.5 54.5t111.5 20.5q45 0 76.5 -8.5t50.5 -17.5h259l-22 -108l-132 -28q13 -22 18.5 -52t5.5 -65
q0 -85 -31.5 -176.5t-85.5 -156.5q-50 -60 -118.5 -94.5t-151.5 -34.5q-24 0 -42 -0.5t-26 -4.5q-54 -25 -80 -63t-26 -70q0 -34 28 -49q11 -4 27 -6.5t36 -3.5h156q81 0 130 -28t71 -79t22 -120q0 -115 -51 -207.5t-136 -149.5q-60 -44 -136.5 -67t-159.5 -24zM197 -358
q58 1 111.5 18.5t94.5 52.5q44 35 71.5 88.5t27.5 112.5q0 26 -6 47.5t-23 37.5q-14 13 -39.5 20.5t-64.5 7.5h-131q-47 0 -95.5 -38t-81 -95t-32.5 -114q0 -80 44 -110t124 -28zM378 507q57 0 102 45.5t74 121.5t35 167q4 45 -1 78.5t-22 52.5q-10 11 -24.5 17t-34.5 6
q-44 0 -81.5 -31t-66 -80.5t-46 -107t-21.5 -111.5q-2 -34 0.5 -63t12.5 -49q20 -46 73 -46zM562 1285q-43 0 -65 23.5t-22 65.5q0 56 31.5 101t90.5 45q29 0 48 -9.5t28.5 -28.5t9.5 -49q0 -59 -31.5 -103.5t-89.5 -44.5z" />
    <glyph glyph-name="uni0122" unicode="&#x122;" horiz-adv-x="1016" 
d="M471 -20q-201 0 -299 118.5t-98 347.5q0 167 31 321t90 284t142.5 227.5t188.5 152t228 54.5q94 0 173 -25.5t137 -66.5l-87 -153q-57 43 -115.5 63.5t-123.5 20.5q-109 0 -198 -77.5t-152 -205t-96.5 -280t-33.5 -304.5q0 -110 25.5 -180.5t76 -103.5t126.5 -33
q41 0 79.5 6t75.5 18l97 459h-177l33 155h354l-156 -733q-83 -31 -165 -48t-156 -17zM202 -453v29q22 35 49.5 88.5t52.5 110.5t38 100h167v-20q-15 -44 -50.5 -102.5t-76.5 -114t-75 -91.5h-105z" />
    <glyph glyph-name="uni0123" unicode="&#x123;" horiz-adv-x="814" 
d="M444 1241v21q20 46 54 103.5t73 111.5t76 92h103l1 -24q-21 -30 -49.5 -87.5t-54 -117.5t-37.5 -99h-166zM190 -492q-158 -1 -242 63t-83 195q1 110 69 196t189 134q-31 14 -50 48t-19 77q0 54 37 106.5t113 103.5q-39 26 -63 81.5t-24 133.5q0 111 47.5 222t136.5 178
q42 34 95.5 54.5t111.5 20.5q45 0 76.5 -8.5t50.5 -17.5h259l-22 -108l-132 -28q13 -22 18.5 -52t5.5 -65q0 -85 -31.5 -176.5t-85.5 -156.5q-50 -60 -118.5 -94.5t-151.5 -34.5q-24 0 -42 -0.5t-26 -4.5q-54 -25 -80 -63t-26 -70q0 -34 28 -49q11 -4 27 -6.5t36 -3.5h156
q81 0 130 -28t71 -79t22 -120q0 -115 -51 -207.5t-136 -149.5q-60 -44 -136.5 -67t-159.5 -24zM197 -358q58 1 111.5 18.5t94.5 52.5q44 35 71.5 88.5t27.5 112.5q0 26 -6 47.5t-23 37.5q-14 13 -39.5 20.5t-64.5 7.5h-131q-47 0 -95.5 -38t-81 -95t-32.5 -114
q0 -80 44 -110t124 -28zM378 507q57 0 102 45.5t74 121.5t35 167q4 45 -1 78.5t-22 52.5q-10 11 -24.5 17t-34.5 6q-44 0 -81.5 -31t-66 -80.5t-46 -107t-21.5 -111.5q-2 -34 0.5 -63t12.5 -49q20 -46 73 -46z" />
    <glyph glyph-name="Hcircumflex" unicode="&#x124;" horiz-adv-x="1003" 
d="M-1 0l310 1462h178l-131 -616h387l132 616h178l-312 -1462h-178l145 684h-386l-145 -684h-178zM436 1579l4 21q46 49 89.5 101t82.5 104.5t70 101.5h153q8 -37 28 -95.5t43.5 -116.5t40.5 -95l-4 -21h-98q-18 25 -37 55t-38 63.5t-38 70.5q-53 -57 -101.5 -105t-91.5 -84
h-103z" />
    <glyph glyph-name="hcircumflex" unicode="&#x125;" horiz-adv-x="854" 
d="M-1 0l329 1556h171l-86 -399q-7 -31 -15 -64t-17 -65.5t-19 -64.5h4q29 52 65 87t79.5 53t94.5 18q60 0 103.5 -24.5t67 -72t23.5 -116.5q0 -42 -9.5 -101t-19.5 -112l-148 -695h-171l140 667q12 53 21.5 105t9.5 98q0 44 -22.5 69t-66.5 25q-53 0 -96.5 -37t-77.5 -115
t-60 -204l-130 -608h-170zM170 1700l4 21q46 49 89.5 101t82.5 104.5t70 101.5h153q8 -37 28 -95.5t43.5 -116.5t40.5 -95l-4 -21h-98q-18 25 -37 55t-38 63.5t-38 70.5q-53 -57 -101.5 -105t-91.5 -84h-103z" />
    <glyph glyph-name="Hbar" unicode="&#x126;" horiz-adv-x="998" 
d="M-1 0l229 1085h-130l27 136h133l51 241h178l-52 -241h386l52 241h180l-52 -241h123l-28 -136h-124l-231 -1085h-178l145 684h-386l-145 -684h-178zM355 838h385l53 247h-387z" />
    <glyph glyph-name="hbar" unicode="&#x127;" horiz-adv-x="857" 
d="M-1 0l264 1246h-123l28 131h122l38 179h171l-38 -179h189l-27 -131h-191q-19 -90 -32.5 -145.5t-23.5 -90.5t-19 -63h5q30 51 66 86t79 53t94 18q61 0 104 -24.5t66.5 -72.5t23.5 -117q0 -42 -9.5 -100.5t-20.5 -111.5l-143 -678h-171l137 649q12 53 21 105.5t9 97.5
q0 46 -23 70.5t-65 24.5q-57 0 -100 -38.5t-76 -117t-58 -199.5l-127 -592h-170z" />
    <glyph glyph-name="Itilde" unicode="&#x128;" horiz-adv-x="439" 
d="M-1 0l310 1462h177l-309 -1462h-178zM160 1624q18 81 43.5 139.5t65 90t95.5 31.5q43 0 74 -18t56 -41t48 -41t48 -18q32 0 51.5 26t34.5 94h107q-17 -96 -46 -153.5t-67 -82.5t-83 -25q-41 0 -71.5 18t-56 42t-49.5 42t-50 18q-35 0 -57 -30.5t-35 -91.5h-108z" />
    <glyph glyph-name="itilde" unicode="&#x129;" horiz-adv-x="403" 
d="M-3 0l233 1101h172l-235 -1101h-170zM53 1245q18 81 43.5 139.5t65 90t95.5 31.5q43 0 74 -18t56 -41t48 -41t48 -18q32 0 51.5 26t34.5 94h107q-17 -96 -46 -153.5t-67 -82.5t-83 -25q-41 0 -71.5 18t-56 42t-49.5 42t-50 18q-35 0 -57 -30.5t-35 -91.5h-108z" />
    <glyph glyph-name="Imacron" unicode="&#x12a;" horiz-adv-x="439" 
d="M-1 0l310 1462h177l-309 -1462h-178zM181 1628l27 132h498l-29 -132h-496z" />
    <glyph glyph-name="imacron" unicode="&#x12b;" horiz-adv-x="403" 
d="M-3 0l233 1101h172l-235 -1101h-170zM88 1248l27 132h498l-29 -132h-496z" />
    <glyph glyph-name="Ibreve" unicode="&#x12c;" horiz-adv-x="439" 
d="M-1 0l310 1462h177l-309 -1462h-178zM442 1620q-75 0 -122 26t-68.5 72.5t-21.5 106.5q0 20 2 39.5t5 36.5h109q0 -51 10.5 -84t33.5 -49t61 -16q59 0 95.5 34t56.5 115h113q-24 -135 -92.5 -208t-181.5 -73z" />
    <glyph glyph-name="ibreve" unicode="&#x12d;" horiz-adv-x="403" 
d="M-3 0l233 1101h172l-235 -1101h-170zM354 1241q-75 0 -122 26t-68.5 72.5t-21.5 106.5q0 20 2 39.5t5 36.5h109q0 -51 10.5 -84t33.5 -49t61 -16q59 0 95.5 34t56.5 115h113q-24 -135 -92.5 -208t-181.5 -73z" />
    <glyph glyph-name="Iogonek" unicode="&#x12e;" horiz-adv-x="439" 
d="M-1 0l310 1462h177l-309 -1462h-178zM12 -461q-77 0 -116.5 41.5t-39.5 107.5q0 58 22.5 109.5t68.5 101.5t115 101h114q-60 -53 -97 -98.5t-53.5 -87t-17.5 -83.5q0 -32 17 -49.5t48 -17.5q15 0 35.5 4t41.5 9l-25 -119q-26 -11 -54 -15t-59 -4z" />
    <glyph glyph-name="iogonek" unicode="&#x12f;" horiz-adv-x="403" 
d="M-3 0l233 1101h172l-234 -1101h-171zM361 1280q-41 0 -62.5 21t-21.5 62q0 37 13.5 71.5t41 57.5t69.5 23q40 0 61 -19.5t21 -60.5q0 -63 -33 -109t-89 -46zM-12 -461q-77 0 -116.5 41.5t-39.5 107.5q0 58 22.5 109.5t68.5 101.5t115 101h114q-60 -53 -97 -98.5
t-53.5 -87t-17.5 -83.5q0 -32 17 -49.5t48 -17.5q15 0 35.5 4t41.5 9l-25 -119q-26 -11 -54 -15t-59 -4z" />
    <glyph glyph-name="Idotaccent" unicode="&#x130;" horiz-adv-x="439" 
d="M-1 0l310 1462h177l-309 -1462h-178zM443 1659q-43 0 -65 23.5t-22 65.5q0 56 31.5 101t90.5 45q29 0 48 -9.5t28.5 -28.5t9.5 -49q0 -59 -31.5 -103.5t-89.5 -44.5z" />
    <glyph glyph-name="dotlessi" unicode="&#x131;" horiz-adv-x="403" 
d="M-3 0l233 1101h172l-235 -1101h-170z" />
    <glyph glyph-name="IJ" unicode="&#x132;" horiz-adv-x="864" 
d="M-1 0l310 1462h177l-309 -1462h-178zM277 -398q-46 0 -80 6.5t-61 17.5l39 159q24 -11 47.5 -18t49.5 -7q49 0 80.5 31t52.5 87t37 130l307 1454h178l-314 -1485q-27 -132 -73.5 -215t-111.5 -121.5t-151 -38.5z" />
    <glyph glyph-name="ij" unicode="&#x133;" horiz-adv-x="807" 
d="M-3 0l233 1101h172l-234 -1101h-171zM361 1280q-41 0 -62.5 21t-21.5 62q0 37 13.5 71.5t41 57.5t69.5 23q40 0 61 -19.5t21 -60.5q0 -63 -33 -109t-89 -46zM247 -492q-30 0 -56.5 3.5t-51.5 11.5v155q18 -7 41.5 -11t45.5 -4q45 0 73 22.5t47.5 76.5t37.5 150l252 1189
h171l-256 -1202q-25 -119 -58 -206.5t-90.5 -136t-155.5 -48.5zM767 1280q-42 0 -63 21t-21 62q0 37 13.5 71.5t41 57.5t68.5 23t62 -19.5t21 -60.5q0 -63 -33 -109t-89 -46z" />
    <glyph glyph-name="Jcircumflex" unicode="&#x134;" horiz-adv-x="425" 
d="M-162 -398q-46 0 -80 6.5t-61 17.5l39 159q24 -11 47.5 -18t49.5 -7q49 0 80.5 31t52.5 87t37 130l307 1454h178l-314 -1485q-27 -132 -73.5 -215t-111.5 -121.5t-151 -38.5zM152 1579l4 21q46 49 89.5 101t82.5 104.5t70 101.5h153q8 -37 28 -95.5t43.5 -116.5t40.5 -95
l-4 -21h-98q-18 25 -37 55t-38 63.5t-38 70.5q-53 -57 -101.5 -105t-91.5 -84h-103z" />
    <glyph glyph-name="jcircumflex" unicode="&#x135;" horiz-adv-x="403" 
d="M-156 -492q-30 0 -56.5 3.5t-51.5 11.5v155q18 -7 41.5 -11t45.5 -4q45 0 73 22.5t47.5 76.5t37.5 150l252 1189h171l-256 -1202q-25 -119 -58 -206.5t-90.5 -136t-155.5 -48.5zM73 1241l4 21q46 49 89.5 101t82.5 104.5t70 101.5h153q8 -37 28 -95.5t43.5 -116.5
t40.5 -95l-4 -21h-98q-18 25 -37 55t-38 63.5t-38 70.5q-53 -57 -101.5 -105t-91.5 -84h-103z" />
    <glyph glyph-name="uni0136" unicode="&#x136;" horiz-adv-x="848" 
d="M-1 0l310 1462h178l-152 -716l110 171l379 545h194l-461 -669l166 -793h-194l-126 659l-110 -111l-116 -548h-178zM108 -453v29q22 35 49.5 88.5t52.5 110.5t38 100h167v-20q-15 -44 -50.5 -102.5t-76.5 -114t-75 -91.5h-105z" />
    <glyph glyph-name="uni0137" unicode="&#x137;" horiz-adv-x="761" 
d="M-3 0l332 1556h171l-158 -737q-7 -31 -15 -66t-18 -74.5t-22 -83.5h5l374 506h187l-335 -449l122 -652h-182l-89 511l-123 -134l-77 -377h-172zM65 -453v29q22 35 49.5 88.5t52.5 110.5t38 100h167v-20q-15 -44 -50.5 -102.5t-76.5 -114t-75 -91.5h-105z" />
    <glyph glyph-name="kgreenlandic" unicode="&#x138;" horiz-adv-x="761" 
d="M-3 0l237 1101h171l-63 -283q-11 -46 -24 -102t-31 -121h5l374 506h187l-335 -449l122 -652h-182l-89 511l-123 -134l-77 -377h-172z" />
    <glyph glyph-name="Lacute" unicode="&#x139;" horiz-adv-x="701" 
d="M-1 0l310 1462h178l-277 -1303h359l-32 -159h-538zM422 1608l2 20q45 53 86.5 106.5t76.5 105t61 96.5h203l-2 -17q-21 -29 -61 -72t-87 -89t-90.5 -86.5t-73.5 -63.5h-115z" />
    <glyph glyph-name="lacute" unicode="&#x13a;" horiz-adv-x="398" 
d="M-3 0l332 1556h171l-331 -1556h-172zM317 1693l2 20q45 53 86.5 106.5t76.5 105t61 96.5h203l-2 -17q-21 -29 -61 -72t-87 -89t-90.5 -86.5t-73.5 -63.5h-115z" />
    <glyph glyph-name="uni013B" unicode="&#x13b;" horiz-adv-x="701" 
d="M-1 0l310 1462h178l-277 -1303h359l-32 -159h-538zM28 -453v29q22 35 49.5 88.5t52.5 110.5t38 100h167v-20q-15 -44 -50.5 -102.5t-76.5 -114t-75 -91.5h-105z" />
    <glyph glyph-name="uni013C" unicode="&#x13c;" horiz-adv-x="398" 
d="M-3 0l332 1556h171l-331 -1556h-172zM-130 -453v29q22 35 49.5 88.5t52.5 110.5t38 100h167v-20q-15 -44 -50.5 -102.5t-76.5 -114t-75 -91.5h-105z" />
    <glyph glyph-name="Lcaron" unicode="&#x13d;" horiz-adv-x="701" 
d="M-1 0l310 1462h178l-277 -1303h359l-32 -159h-538zM548 1134v19q26 55 47 108.5t37.5 104.5t28.5 95h169l-1 -20q-17 -43 -47 -99.5t-64 -112t-64 -95.5h-106z" />
    <glyph glyph-name="lcaron" unicode="&#x13e;" horiz-adv-x="564" 
d="M-3 0l332 1556h171l-331 -1556h-172zM525 1229v19q26 55 47 108.5t37.5 104.5t28.5 95h169l-1 -20q-17 -43 -47 -99.5t-64 -112t-64 -95.5h-106z" />
    <glyph glyph-name="Ldot" unicode="&#x13f;" horiz-adv-x="701" 
d="M-1 0l310 1462h178l-277 -1303h359l-32 -159h-538zM562 637q-43 0 -65 23.5t-22 65.5q0 56 31.5 101t90.5 45q29 0 48 -9.5t28.5 -28.5t9.5 -49q0 -59 -31.5 -103.5t-89.5 -44.5z" />
    <glyph glyph-name="ldot" unicode="&#x140;" horiz-adv-x="612" 
d="M-3 0l332 1556h171l-331 -1556h-172zM524 567q-43 0 -65 23.5t-22 65.5q0 56 31.5 101t90.5 45q29 0 48 -9.5t28.5 -28.5t9.5 -49q0 -59 -31.5 -103.5t-89.5 -44.5z" />
    <glyph glyph-name="Lslash" unicode="&#x141;" horiz-adv-x="713" 
d="M16 0l117 551l-114 -66l-67 113l220 139l154 725h177l-124 -585l186 113l71 -110l-298 -191l-111 -530h359l-32 -159h-538z" />
    <glyph glyph-name="lslash" unicode="&#x142;" horiz-adv-x="456" 
d="M17 0l140 653l-118 -65l-51 119l201 109l159 740h171l-140 -654l137 77l53 -119l-224 -121l-158 -739h-170z" />
    <glyph glyph-name="Nacute" unicode="&#x143;" horiz-adv-x="1067" 
d="M-1 0l310 1462h208l190 -1136h6q12 69 24 135.5t23.5 123.5t19.5 96l165 781h172l-312 -1462h-202l-194 1156h-6q-7 -53 -16.5 -110.5t-20.5 -112t-20.5 -100.5t-16.5 -76l-160 -757h-170zM633 1608l2 20q45 53 86.5 106.5t76.5 105t61 96.5h203l-2 -17q-21 -29 -61 -72
t-87 -89t-90.5 -86.5t-73.5 -63.5h-115z" />
    <glyph glyph-name="nacute" unicode="&#x144;" horiz-adv-x="854" 
d="M-3 0l233 1101h139l-18 -146h5q30 53 67.5 90.5t81.5 56.5t94 19q56 0 101 -21.5t72 -68t27 -121.5q0 -42 -8.5 -96.5t-19.5 -108.5l-150 -705h-171l143 676q10 50 19 102t9 92q0 45 -21.5 69.5t-65.5 24.5q-58 0 -103 -44t-78 -127.5t-59 -202.5l-125 -590h-172z
M452 1242l2 20q45 53 86.5 106.5t76.5 105t61 96.5h203l-2 -17q-21 -29 -61 -72t-87 -89t-90.5 -86.5t-73.5 -63.5h-115z" />
    <glyph glyph-name="uni0145" unicode="&#x145;" horiz-adv-x="1067" 
d="M-1 0l310 1462h208l190 -1136h6q12 69 24 135.5t23.5 123.5t19.5 96l165 781h172l-312 -1462h-202l-194 1156h-6q-7 -53 -16.5 -110.5t-20.5 -112t-20.5 -100.5t-16.5 -76l-160 -757h-170zM207 -453v29q22 35 49.5 88.5t52.5 110.5t38 100h167v-20q-15 -44 -50.5 -102.5
t-76.5 -114t-75 -91.5h-105z" />
    <glyph glyph-name="uni0146" unicode="&#x146;" horiz-adv-x="854" 
d="M-3 0l233 1101h139l-18 -146h5q30 53 67.5 90.5t81.5 56.5t94 19q56 0 101 -21.5t72 -68t27 -121.5q0 -42 -8.5 -96.5t-19.5 -108.5l-150 -705h-171l143 676q10 50 19 102t9 92q0 45 -21.5 69.5t-65.5 24.5q-58 0 -103 -44t-78 -127.5t-59 -202.5l-125 -590h-172z
M101 -453v29q22 35 49.5 88.5t52.5 110.5t38 100h167v-20q-15 -44 -50.5 -102.5t-76.5 -114t-75 -91.5h-105z" />
    <glyph glyph-name="Ncaron" unicode="&#x147;" horiz-adv-x="1067" 
d="M-1 0l310 1462h208l190 -1136h6q12 69 24 135.5t23.5 123.5t19.5 96l165 781h172l-312 -1462h-202l-194 1156h-6q-7 -53 -16.5 -110.5t-20.5 -112t-20.5 -100.5t-16.5 -76l-160 -757h-170zM637 1579q-10 37 -30 95.5t-42.5 116.5t-41.5 94l5 22h99q14 -20 32 -48.5
t38.5 -63.5t41.5 -77q53 58 101.5 106t92.5 83h102l-3 -21q-33 -34 -81 -91.5t-93 -116.5t-68 -99h-153z" />
    <glyph glyph-name="ncaron" unicode="&#x148;" horiz-adv-x="854" 
d="M-3 0l233 1101h139l-18 -146h5q30 53 67.5 90.5t81.5 56.5t94 19q56 0 101 -21.5t72 -68t27 -121.5q0 -42 -8.5 -96.5t-19.5 -108.5l-150 -705h-171l143 676q10 50 19 102t9 92q0 45 -21.5 69.5t-65.5 24.5q-58 0 -103 -44t-78 -127.5t-59 -202.5l-125 -590h-172z
M472 1241q-10 37 -30 95.5t-42.5 116.5t-41.5 94l5 22h99q14 -20 32 -48.5t38.5 -63.5t41.5 -77q53 58 101.5 106t92.5 83h102l-3 -21q-33 -34 -81 -91.5t-93 -116.5t-68 -99h-153z" />
    <glyph glyph-name="napostrophe" unicode="&#x149;" horiz-adv-x="965" 
d="M108 0l233 1101h139l-18 -146h5q30 53 67.5 90.5t81.5 56.5t94 19q56 0 101 -21.5t72 -68t27 -121.5q0 -42 -8.5 -96.5t-19.5 -108.5l-150 -705h-171l143 676q10 50 19 102t9 92q0 45 -21.5 69.5t-65.5 24.5q-58 0 -103 -44t-78 -127.5t-59 -202.5l-125 -590h-172z
M24 957q38 82 72.5 166.5t64.5 170t53 168.5h174l7 -21q-31 -83 -68.5 -166t-79 -163.5t-86.5 -154.5h-137z" />
    <glyph glyph-name="Eng" unicode="&#x14a;" horiz-adv-x="1066" 
d="M461 -397q-35 0 -69.5 7t-60.5 19l35 161q24 -12 49.5 -18.5t53.5 -6.5q44 0 74.5 24.5t50.5 74.5t32 124l-211 1191h-7q-4 -32 -9 -66t-11.5 -69t-13.5 -70t-15 -70l-190 -904h-170l310 1462h213l192 -1101h7q6 41 13 82.5t15 82.5l16 82l180 854h172l-306 -1445
q-28 -126 -67 -219t-105.5 -144t-177.5 -51z" />
    <glyph glyph-name="eng" unicode="&#x14b;" horiz-adv-x="853" 
d="M293 -492q-34 0 -60.5 4.5t-46.5 10.5v155q18 -7 42.5 -11t45.5 -4q44 0 71 22t47 76t40 151l161 764q10 50 19 102t9 92q0 45 -21.5 69.5t-65.5 24.5q-58 0 -102.5 -43t-77.5 -123.5t-56 -191.5l-129 -606h-172l233 1101h139l-18 -146h5q30 53 67.5 90.5t81.5 56.5
t94 19q56 0 101 -21.5t72 -68t27 -121.5q0 -42 -8.5 -97t-19.5 -108l-172 -806q-31 -145 -68 -230.5t-93 -123t-145 -37.5z" />
    <glyph glyph-name="Omacron" unicode="&#x14c;" horiz-adv-x="1028" 
d="M400 -20q-111 0 -183.5 47t-108.5 144t-36 245q0 110 16.5 231t50 241t84 227t117.5 190t151.5 131t185.5 48q165 0 244 -104.5t79 -317.5q0 -96 -15 -212.5t-45.5 -238t-78.5 -234t-114.5 -202.5t-152.5 -142.5t-194 -52.5zM413 141q68 0 124.5 45.5t101.5 123
t78.5 174.5t55.5 201t33.5 202t11.5 178q0 133 -39 196t-118 63q-72 0 -130 -48t-103 -128.5t-77.5 -179t-53 -201t-30.5 -195t-10 -158.5q0 -97 17.5 -157.5t52.5 -88t86 -27.5zM452 1586l27 132h498l-29 -132h-496z" />
    <glyph glyph-name="omacron" unicode="&#x14d;" horiz-adv-x="845" 
d="M320 -20q-86 0 -146 38.5t-92 114t-32 184.5q0 83 16 189t50.5 213.5t90.5 199t135.5 147t185.5 55.5q84 0 144 -39.5t91.5 -115.5t31.5 -186q0 -99 -18 -209.5t-54.5 -215.5t-93.5 -189.5t-134 -135t-175 -50.5zM338 129q54 0 98.5 43.5t79 116t57.5 159.5t35 175
t12 161q0 60 -12.5 102.5t-37.5 64.5t-64 22q-58 0 -104 -47t-79.5 -123.5t-55.5 -165.5t-33 -174t-11 -148q0 -90 29 -138t86 -48zM296 1248l27 132h498l-29 -132h-496z" />
    <glyph glyph-name="Obreve" unicode="&#x14e;" horiz-adv-x="1028" 
d="M400 -20q-111 0 -183.5 47t-108.5 144t-36 245q0 110 16.5 231t50 241t84 227t117.5 190t151.5 131t185.5 48q165 0 244 -104.5t79 -317.5q0 -96 -15 -212.5t-45.5 -238t-78.5 -234t-114.5 -202.5t-152.5 -142.5t-194 -52.5zM413 141q68 0 124.5 45.5t101.5 123
t78.5 174.5t55.5 201t33.5 202t11.5 178q0 133 -39 196t-118 63q-72 0 -130 -48t-103 -128.5t-77.5 -179t-53 -201t-30.5 -195t-10 -158.5q0 -97 17.5 -157.5t52.5 -88t86 -27.5zM717 1579q-75 0 -122 26t-68.5 72.5t-21.5 106.5q0 20 2 39.5t5 36.5h109q0 -51 10.5 -84
t33.5 -49t61 -16q59 0 95.5 34t56.5 115h113q-24 -135 -92.5 -208t-181.5 -73z" />
    <glyph glyph-name="obreve" unicode="&#x14f;" horiz-adv-x="845" 
d="M320 -20q-86 0 -146 38.5t-92 114t-32 184.5q0 83 16 189t50.5 213.5t90.5 199t135.5 147t185.5 55.5q84 0 144 -39.5t91.5 -115.5t31.5 -186q0 -99 -18 -209.5t-54.5 -215.5t-93.5 -189.5t-134 -135t-175 -50.5zM338 129q54 0 98.5 43.5t79 116t57.5 159.5t35 175
t12 161q0 60 -12.5 102.5t-37.5 64.5t-64 22q-58 0 -104 -47t-79.5 -123.5t-55.5 -165.5t-33 -174t-11 -148q0 -90 29 -138t86 -48zM573 1241q-75 0 -122 26t-68.5 72.5t-21.5 106.5q0 20 2 39.5t5 36.5h109q0 -51 10.5 -84t33.5 -49t61 -16q59 0 95.5 34t56.5 115h113
q-24 -135 -92.5 -208t-181.5 -73z" />
    <glyph glyph-name="Ohungarumlaut" unicode="&#x150;" horiz-adv-x="1028" 
d="M400 -20q-111 0 -183.5 47t-108.5 144t-36 245q0 110 16.5 231t50 241t84 227t117.5 190t151.5 131t185.5 48q165 0 244 -104.5t79 -317.5q0 -96 -15 -212.5t-45.5 -238t-78.5 -234t-114.5 -202.5t-152.5 -142.5t-194 -52.5zM413 141q68 0 124.5 45.5t101.5 123
t78.5 174.5t55.5 201t33.5 202t11.5 178q0 133 -39 196t-118 63q-72 0 -130 -48t-103 -128.5t-77.5 -179t-53 -201t-30.5 -195t-10 -158.5q0 -97 17.5 -157.5t52.5 -88t86 -27.5zM767 1579l4 21q50 62 92 118t74 104.5t51 84.5h180l-2 -17q-22 -31 -58.5 -72.5t-80.5 -86
t-88 -84t-81 -68.5h-91zM458 1579l4 21q50 62 91.5 119t73.5 105t53 83h178l-2 -17q-20 -32 -56 -73.5t-80.5 -84.5t-90 -82.5t-86.5 -70.5h-85z" />
    <glyph glyph-name="ohungarumlaut" unicode="&#x151;" horiz-adv-x="845" 
d="M320 -20q-86 0 -146 38.5t-92 114t-32 184.5q0 83 16 189t50.5 213.5t90.5 199t135.5 147t185.5 55.5q84 0 144 -39.5t91.5 -115.5t31.5 -186q0 -99 -18 -209.5t-54.5 -215.5t-93.5 -189.5t-134 -135t-175 -50.5zM338 129q54 0 98.5 43.5t79 116t57.5 159.5t35 175
t12 161q0 60 -12.5 102.5t-37.5 64.5t-64 22q-58 0 -104 -47t-79.5 -123.5t-55.5 -165.5t-33 -174t-11 -148q0 -90 29 -138t86 -48zM636 1241l4 21q50 62 92 118t74 104.5t51 84.5h180l-2 -17q-22 -31 -58.5 -72.5t-80.5 -86t-88 -84t-81 -68.5h-91zM327 1241l4 21
q50 62 91.5 119t73.5 105t53 83h178l-2 -17q-20 -32 -56 -73.5t-80.5 -84.5t-90 -82.5t-86.5 -70.5h-85z" />
    <glyph glyph-name="OE" unicode="&#x152;" horiz-adv-x="1209" 
d="M395 -11q-109 0 -181 50.5t-107 144t-35 220.5q0 123 20 266.5t63 285t112.5 259t168 188.5t230.5 71q46 0 89 -3.5t69 -8.5h482l-34 -158h-363l-98 -462h340l-33 -158h-340l-113 -525h365l-33 -159h-475q-20 -3 -53.5 -7t-73.5 -4zM431 151q21 0 36 1.5t23 3.5l243 1147
q-12 3 -29 7.5t-42 4.5q-81 0 -146.5 -60.5t-114 -160t-80.5 -218.5t-48 -238t-16 -217q0 -92 17.5 -152t56.5 -89t100 -29z" />
    <glyph glyph-name="oe" unicode="&#x153;" horiz-adv-x="1306" 
d="M308 -20q-119 0 -188.5 87t-69.5 254q0 75 14.5 178t48 211t87.5 201.5t133.5 151.5t186.5 58q99 0 150.5 -56t66.5 -166q59 104 141 163t171 59q105 0 168 -59.5t63 -172.5q0 -91 -35 -164.5t-101.5 -125.5t-161.5 -80t-216 -28h-17q-7 -37 -10 -76t-3 -76
q0 -113 40.5 -164.5t123.5 -51.5q57 0 111 17t105 48v-138q-57 -34 -122 -52t-136 -18q-69 0 -119 24.5t-82 73t-46 121.5q-53 -102 -128.5 -160.5t-174.5 -58.5zM339 128q53 0 97.5 44.5t78.5 117.5t57.5 161t35.5 176.5t12 161.5q0 92 -28 137t-86 45q-56 0 -100.5 -45
t-79 -119t-57.5 -161.5t-34.5 -174.5t-11.5 -157q0 -95 29.5 -140.5t86.5 -45.5zM776 621h8q121 0 194 33.5t106.5 91.5t33.5 132q0 47 -22.5 74t-70.5 27q-57 0 -108.5 -54.5t-88.5 -136.5t-52 -167z" />
    <glyph glyph-name="Racute" unicode="&#x154;" horiz-adv-x="869" 
d="M0 0l309 1462h229q168 0 256 -83t88 -236q0 -122 -36 -226.5t-103 -176t-160 -97.5l133 -643h-194l-109 607h-107l-128 -607h-178zM339 757h86q71 0 122 31t83.5 83t48.5 117t16 132q0 93 -46 139.5t-135 46.5h-61zM519 1608l2 20q45 53 86.5 106.5t76.5 105t61 96.5h203
l-2 -17q-21 -29 -61 -72t-87 -89t-90.5 -86.5t-73.5 -63.5h-115z" />
    <glyph glyph-name="racute" unicode="&#x155;" horiz-adv-x="578" 
d="M-3 0l233 1101h134l-21 -179h6q31 67 67.5 111t80.5 66t98 22q20 0 39 -3t39 -9l-50 -183q-17 7 -36 10.5t-40 3.5q-54 0 -95.5 -33t-73 -86.5t-53.5 -118t-35 -129.5l-121 -573h-172zM319 1239l2 20q45 53 86.5 106.5t76.5 105t61 96.5h203l-2 -17q-21 -29 -61 -72
t-87 -89t-90.5 -86.5t-73.5 -63.5h-115z" />
    <glyph glyph-name="uni0156" unicode="&#x156;" horiz-adv-x="869" 
d="M0 0l309 1462h229q168 0 256 -83t88 -236q0 -122 -36 -226.5t-103 -176t-160 -97.5l133 -643h-194l-109 607h-107l-128 -607h-178zM339 757h86q71 0 122 31t83.5 83t48.5 117t16 132q0 93 -46 139.5t-135 46.5h-61zM118 -453v29q22 35 49.5 88.5t52.5 110.5t38 100h167
v-20q-15 -44 -50.5 -102.5t-76.5 -114t-75 -91.5h-105z" />
    <glyph glyph-name="uni0157" unicode="&#x157;" horiz-adv-x="578" 
d="M-3 0l233 1101h134l-21 -179h6q31 67 67.5 111t80.5 66t98 22q20 0 39 -3t39 -9l-50 -183q-17 7 -36 10.5t-40 3.5q-54 0 -95.5 -33t-73 -86.5t-53.5 -118t-35 -129.5l-121 -573h-172zM-63 -453v29q22 35 49.5 88.5t52.5 110.5t38 100h167v-20q-15 -44 -50.5 -102.5
t-76.5 -114t-75 -91.5h-105z" />
    <glyph glyph-name="Rcaron" unicode="&#x158;" horiz-adv-x="869" 
d="M0 0l309 1462h229q168 0 256 -83t88 -236q0 -122 -36 -226.5t-103 -176t-160 -97.5l133 -643h-194l-109 607h-107l-128 -607h-178zM339 757h86q71 0 122 31t83.5 83t48.5 117t16 132q0 93 -46 139.5t-135 46.5h-61zM521 1579q-10 37 -30 95.5t-42.5 116.5t-41.5 94l5 22
h99q14 -20 32 -48.5t38.5 -63.5t41.5 -77q53 58 101.5 106t92.5 83h102l-3 -21q-33 -34 -81 -91.5t-93 -116.5t-68 -99h-153z" />
    <glyph glyph-name="rcaron" unicode="&#x159;" horiz-adv-x="578" 
d="M-3 0l233 1101h134l-21 -179h6q31 67 67.5 111t80.5 66t98 22q20 0 39 -3t39 -9l-50 -183q-17 7 -36 10.5t-40 3.5q-54 0 -95.5 -33t-73 -86.5t-53.5 -118t-35 -129.5l-121 -573h-172zM386 1241q-10 37 -30 95.5t-42.5 116.5t-41.5 94l5 22h99q14 -20 32 -48.5
t38.5 -63.5t41.5 -77q53 58 101.5 106t92.5 83h102l-3 -21q-33 -34 -81 -91.5t-93 -116.5t-68 -99h-153z" />
    <glyph glyph-name="Sacute" unicode="&#x15a;" horiz-adv-x="780" 
d="M240 -20q-91 0 -163.5 17.5t-123.5 51.5l27 186q53 -36 122.5 -61.5t141.5 -25.5q52 0 96.5 17t76 49t49.5 80t18 111q0 53 -12.5 94t-45 86t-92.5 106q-56 56 -95.5 109.5t-60.5 116t-21 143.5q0 96 29 174t84 133.5t133.5 85.5t176.5 30q74 0 151 -22t127 -58l-84 -162
q-49 34 -101 54.5t-106 20.5q-47 0 -87.5 -15.5t-71 -46t-48 -74.5t-17.5 -100t18 -100t55.5 -89t95.5 -103q54 -53 89 -107t52.5 -117t17.5 -142q0 -96 -28 -176.5t-82.5 -140t-135 -92.5t-185.5 -33zM484 1608l2 20q45 53 86.5 106.5t76.5 105t61 96.5h203l-2 -17
q-21 -29 -61 -72t-87 -89t-90.5 -86.5t-73.5 -63.5h-115z" />
    <glyph glyph-name="sacute" unicode="&#x15b;" horiz-adv-x="660" 
d="M213 -20q-76 0 -136.5 15t-97.5 37v173q40 -30 100.5 -51.5t114.5 -21.5t92 20t58.5 58.5t20.5 93.5q0 38 -9.5 69t-34.5 65.5t-71 81.5q-46 45 -76.5 89t-45.5 91.5t-15 104.5q0 89 37.5 160.5t108 113.5t170.5 42q80 0 146 -20.5t112 -53.5l-75 -135q-38 31 -85 47.5
t-93 16.5q-67 0 -106 -40t-39 -107q0 -35 8.5 -64.5t31 -60.5t63.5 -73q53 -53 86.5 -97t50 -93.5t16.5 -119.5q0 -101 -39 -178t-113 -120t-180 -43zM354 1239l2 20q45 53 86.5 106.5t76.5 105t61 96.5h203l-2 -17q-21 -29 -61 -72t-87 -89t-90.5 -86.5t-73.5 -63.5h-115z
" />
    <glyph glyph-name="Scircumflex" unicode="&#x15c;" horiz-adv-x="780" 
d="M240 -20q-91 0 -163.5 17.5t-123.5 51.5l27 186q53 -36 122.5 -61.5t141.5 -25.5q52 0 96.5 17t76 49t49.5 80t18 111q0 53 -12.5 94t-45 86t-92.5 106q-56 56 -95.5 109.5t-60.5 116t-21 143.5q0 96 29 174t84 133.5t133.5 85.5t176.5 30q74 0 151 -22t127 -58l-84 -162
q-49 34 -101 54.5t-106 20.5q-47 0 -87.5 -15.5t-71 -46t-48 -74.5t-17.5 -100t18 -100t55.5 -89t95.5 -103q54 -53 89 -107t52.5 -117t17.5 -142q0 -96 -28 -176.5t-82.5 -140t-135 -92.5t-185.5 -33zM326 1579l4 21q46 49 89.5 101t82.5 104.5t70 101.5h153
q8 -37 28 -95.5t43.5 -116.5t40.5 -95l-4 -21h-98q-18 25 -37 55t-38 63.5t-38 70.5q-53 -57 -101.5 -105t-91.5 -84h-103z" />
    <glyph glyph-name="scircumflex" unicode="&#x15d;" horiz-adv-x="660" 
d="M213 -20q-76 0 -136.5 15t-97.5 37v173q40 -30 100.5 -51.5t114.5 -21.5t92 20t58.5 58.5t20.5 93.5q0 38 -9.5 69t-34.5 65.5t-71 81.5q-46 45 -76.5 89t-45.5 91.5t-15 104.5q0 89 37.5 160.5t108 113.5t170.5 42q80 0 146 -20.5t112 -53.5l-75 -135q-38 31 -85 47.5
t-93 16.5q-67 0 -106 -40t-39 -107q0 -35 8.5 -64.5t31 -60.5t63.5 -73q53 -53 86.5 -97t50 -93.5t16.5 -119.5q0 -101 -39 -178t-113 -120t-180 -43zM197 1241l4 21q46 49 89.5 101t82.5 104.5t70 101.5h153q8 -37 28 -95.5t43.5 -116.5t40.5 -95l-4 -21h-98q-18 25 -37 55
t-38 63.5t-38 70.5q-53 -57 -101.5 -105t-91.5 -84h-103z" />
    <glyph glyph-name="Scedilla" unicode="&#x15e;" horiz-adv-x="780" 
d="M240 -20q-91 0 -163.5 17.5t-123.5 51.5l27 186q53 -36 122.5 -61.5t141.5 -25.5q52 0 96.5 17t76 49t49.5 80t18 111q0 53 -12.5 94t-45 86t-92.5 106q-56 56 -95.5 109.5t-60.5 116t-21 143.5q0 96 29 174t84 133.5t133.5 85.5t176.5 30q74 0 151 -22t127 -58l-84 -162
q-49 34 -101 54.5t-106 20.5q-47 0 -87.5 -15.5t-71 -46t-48 -74.5t-17.5 -100t18 -100t55.5 -89t95.5 -103q54 -53 89 -107t52.5 -117t17.5 -142q0 -96 -28 -176.5t-82.5 -140t-135 -92.5t-185.5 -33zM125 -492q-38 0 -70.5 4t-63.5 12v109q19 -6 47 -10t66 -4
q43 0 74 14.5t47.5 40.5t16.5 61q0 43 -34.5 68t-104.5 33l105 164h102l-69 -102q65 -13 103.5 -53.5t38.5 -103.5q0 -76 -34 -128t-92 -78.5t-132 -26.5z" />
    <glyph glyph-name="scedilla" unicode="&#x15f;" horiz-adv-x="660" 
d="M213 -20q-76 0 -136.5 15t-97.5 37v173q40 -30 100.5 -51.5t114.5 -21.5t92 20t58.5 58.5t20.5 93.5q0 38 -9.5 69t-34.5 65.5t-71 81.5q-46 45 -76.5 89t-45.5 91.5t-15 104.5q0 89 37.5 160.5t108 113.5t170.5 42q80 0 146 -20.5t112 -53.5l-75 -135q-38 31 -85 47.5
t-93 16.5q-67 0 -106 -40t-39 -107q0 -35 8.5 -64.5t31 -60.5t63.5 -73q53 -53 86.5 -97t50 -93.5t16.5 -119.5q0 -101 -39 -178t-113 -120t-180 -43zM70 -492q-38 0 -70.5 4t-63.5 12v109q19 -6 47 -10t66 -4q43 0 74 14.5t47.5 40.5t16.5 61q0 43 -34.5 68t-104.5 33
l105 164h102l-69 -102q65 -13 103.5 -53.5t38.5 -103.5q0 -76 -34 -128t-92 -78.5t-132 -26.5z" />
    <glyph glyph-name="Scaron" unicode="&#x160;" horiz-adv-x="780" 
d="M240 -20q-91 0 -163.5 17.5t-123.5 51.5l27 186q53 -36 122.5 -61.5t141.5 -25.5q52 0 96.5 17t76 49t49.5 80t18 111q0 53 -12.5 94t-45 86t-92.5 106q-56 56 -95.5 109.5t-60.5 116t-21 143.5q0 96 29 174t84 133.5t133.5 85.5t176.5 30q74 0 151 -22t127 -58l-84 -162
q-49 34 -101 54.5t-106 20.5q-47 0 -87.5 -15.5t-71 -46t-48 -74.5t-17.5 -100t18 -100t55.5 -89t95.5 -103q54 -53 89 -107t52.5 -117t17.5 -142q0 -96 -28 -176.5t-82.5 -140t-135 -92.5t-185.5 -33zM523 1579q-10 37 -30 95.5t-42.5 116.5t-41.5 94l5 22h99
q14 -20 32 -48.5t38.5 -63.5t41.5 -77q53 58 101.5 106t92.5 83h102l-3 -21q-33 -34 -81 -91.5t-93 -116.5t-68 -99h-153z" />
    <glyph glyph-name="scaron" unicode="&#x161;" horiz-adv-x="660" 
d="M213 -20q-76 0 -136.5 15t-97.5 37v173q40 -30 100.5 -51.5t114.5 -21.5t92 20t58.5 58.5t20.5 93.5q0 38 -9.5 69t-34.5 65.5t-71 81.5q-46 45 -76.5 89t-45.5 91.5t-15 104.5q0 89 37.5 160.5t108 113.5t170.5 42q80 0 146 -20.5t112 -53.5l-75 -135q-38 31 -85 47.5
t-93 16.5q-67 0 -106 -40t-39 -107q0 -35 8.5 -64.5t31 -60.5t63.5 -73q53 -53 86.5 -97t50 -93.5t16.5 -119.5q0 -101 -39 -178t-113 -120t-180 -43zM385 1241q-10 37 -30 95.5t-42.5 116.5t-41.5 94l5 22h99q14 -20 32 -48.5t38.5 -63.5t41.5 -77q53 58 101.5 106t92.5 83
h102l-3 -21q-33 -34 -81 -91.5t-93 -116.5t-68 -99h-153z" />
    <glyph glyph-name="uni0162" unicode="&#x162;" horiz-adv-x="719" 
d="M137 0l277 1302h-251l35 160h679l-36 -160h-249l-277 -1302h-178zM101 -492q-38 0 -70.5 4t-63.5 12v109q19 -6 47 -10t66 -4q43 0 74 14.5t47.5 40.5t16.5 61q0 43 -34.5 68t-104.5 33l105 164h102l-69 -102q65 -13 103.5 -53.5t38.5 -103.5q0 -76 -34 -128t-92 -78.5
t-132 -26.5z" />
    <glyph glyph-name="uni0163" unicode="&#x163;" horiz-adv-x="505" 
d="M219 -20q-89 0 -128 51t-39 139q0 30 5 68.5t15 83.5l134 633h-98l19 96l121 47l90 251h123l-53 -248h159l-31 -146h-159l-137 -647q-7 -31 -11.5 -59t-4.5 -47q0 -36 14 -52.5t47 -16.5q19 0 45 4.5t48 14.5v-140q-34 -16 -78.5 -24t-80.5 -8zM94 -492q-38 0 -70.5 4
t-63.5 12v109q19 -6 47 -10t66 -4q43 0 74 14.5t47.5 40.5t16.5 61q0 43 -34.5 68t-104.5 33l105 164h102l-69 -102q65 -13 103.5 -53.5t38.5 -103.5q0 -76 -34 -128t-92 -78.5t-132 -26.5z" />
    <glyph glyph-name="Tcaron" unicode="&#x164;" horiz-adv-x="719" 
d="M137 0l277 1302h-251l35 160h679l-36 -160h-249l-277 -1302h-178zM471 1579q-10 37 -30 95.5t-42.5 116.5t-41.5 94l5 22h99q14 -20 32 -48.5t38.5 -63.5t41.5 -77q53 58 101.5 106t92.5 83h102l-3 -21q-33 -34 -81 -91.5t-93 -116.5t-68 -99h-153z" />
    <glyph glyph-name="tcaron" unicode="&#x165;" horiz-adv-x="536" 
d="M219 -20q-89 0 -128 51t-39 139q0 30 5 68.5t15 83.5l134 633h-98l19 96l121 47l90 251h123l-53 -248h159l-31 -146h-159l-137 -647q-7 -31 -11.5 -59t-4.5 -47q0 -36 14 -52.5t47 -16.5q19 0 45 4.5t48 14.5v-140q-34 -16 -78.5 -24t-80.5 -8zM515 1214v19
q26 55 47 108.5t37.5 104.5t28.5 95h169l-1 -20q-17 -43 -47 -99.5t-64 -112t-64 -95.5h-106z" />
    <glyph glyph-name="Tbar" unicode="&#x166;" horiz-adv-x="716" 
d="M137 0l144 675h-179l29 138h179l103 489h-249l34 160h678l-35 -160h-250l-104 -489h187l-27 -138h-189l-142 -675h-179z" />
    <glyph glyph-name="tbar" unicode="&#x167;" horiz-adv-x="500" 
d="M217 -20q-87 0 -127 51t-40 137q0 29 5 66t15 82l51 240h-105l28 132h106l56 267h-98l19 96l121 47l90 251h121l-52 -248h160l-31 -146h-160l-58 -267h166l-29 -132h-163l-54 -248q-6 -31 -10 -56.5t-4 -44.5q0 -39 15.5 -56.5t50.5 -17.5q17 0 40.5 4.5t47.5 14.5v-140
q-34 -16 -78.5 -24t-82.5 -8z" />
    <glyph glyph-name="Utilde" unicode="&#x168;" horiz-adv-x="978" 
d="M368 -20q-93 0 -160.5 36.5t-103.5 105.5t-36 167q0 37 5.5 82.5t15.5 91.5l212 999h178l-214 -1006q-8 -39 -12.5 -75.5t-4.5 -67.5q0 -87 37.5 -129.5t105.5 -42.5q69 0 115.5 35.5t79.5 109.5t58 190l213 986h178l-218 -1005q-31 -147 -85 -254.5t-141.5 -165
t-222.5 -57.5zM400 1583q18 81 43.5 139.5t65 90t95.5 31.5q43 0 74 -18t56 -41t48 -41t48 -18q32 0 51.5 26t34.5 94h107q-17 -96 -46 -153.5t-67 -82.5t-83 -25q-41 0 -71.5 18t-56 42t-49.5 42t-50 18q-35 0 -57 -30.5t-35 -91.5h-108z" />
    <glyph glyph-name="utilde" unicode="&#x169;" horiz-adv-x="857" 
d="M250 -20q-65 0 -109.5 25t-67.5 73.5t-23 117.5q0 38 7 88t17 96l154 721h171l-146 -694q-11 -46 -18 -90t-7 -82q0 -47 20.5 -73.5t64.5 -26.5q59 0 104 44.5t79.5 129t58.5 203.5l126 589h170l-232 -1101h-138l13 140h-6q-30 -51 -67.5 -86.5t-80.5 -54.5t-90 -19z
M286 1245q18 81 43.5 139.5t65 90t95.5 31.5q43 0 74 -18t56 -41t48 -41t48 -18q32 0 51.5 26t34.5 94h107q-17 -96 -46 -153.5t-67 -82.5t-83 -25q-41 0 -71.5 18t-56 42t-49.5 42t-50 18q-35 0 -57 -30.5t-35 -91.5h-108z" />
    <glyph glyph-name="Umacron" unicode="&#x16a;" horiz-adv-x="978" 
d="M368 -20q-93 0 -160.5 36.5t-103.5 105.5t-36 167q0 37 5.5 82.5t15.5 91.5l212 999h178l-214 -1006q-8 -39 -12.5 -75.5t-4.5 -67.5q0 -87 37.5 -129.5t105.5 -42.5q69 0 115.5 35.5t79.5 109.5t58 190l213 986h178l-218 -1005q-31 -147 -85 -254.5t-141.5 -165
t-222.5 -57.5zM431 1586l27 132h498l-29 -132h-496z" />
    <glyph glyph-name="umacron" unicode="&#x16b;" horiz-adv-x="858" 
d="M250 -20q-65 0 -109.5 25t-67.5 73.5t-23 117.5q0 38 7 88t17 96l154 721h171l-146 -694q-11 -46 -18 -90t-7 -82q0 -47 20.5 -73.5t64.5 -26.5q59 0 104 44.5t79.5 129t58.5 203.5l126 589h170l-232 -1101h-138l13 140h-6q-30 -51 -67.5 -86.5t-80.5 -54.5t-90 -19z
M310 1248l27 132h498l-29 -132h-496z" />
    <glyph glyph-name="Ubreve" unicode="&#x16c;" horiz-adv-x="978" 
d="M368 -20q-93 0 -160.5 36.5t-103.5 105.5t-36 167q0 37 5.5 82.5t15.5 91.5l212 999h178l-214 -1006q-8 -39 -12.5 -75.5t-4.5 -67.5q0 -87 37.5 -129.5t105.5 -42.5q69 0 115.5 35.5t79.5 109.5t58 190l213 986h178l-218 -1005q-31 -147 -85 -254.5t-141.5 -165
t-222.5 -57.5zM689 1579q-75 0 -122 26t-68.5 72.5t-21.5 106.5q0 20 2 39.5t5 36.5h109q0 -51 10.5 -84t33.5 -49t61 -16q59 0 95.5 34t56.5 115h113q-24 -135 -92.5 -208t-181.5 -73z" />
    <glyph glyph-name="ubreve" unicode="&#x16d;" horiz-adv-x="857" 
d="M250 -20q-65 0 -109.5 25t-67.5 73.5t-23 117.5q0 38 7 88t17 96l154 721h171l-146 -694q-11 -46 -18 -90t-7 -82q0 -47 20.5 -73.5t64.5 -26.5q59 0 104 44.5t79.5 129t58.5 203.5l126 589h170l-232 -1101h-138l13 140h-6q-30 -51 -67.5 -86.5t-80.5 -54.5t-90 -19z
M573 1241q-75 0 -122 26t-68.5 72.5t-21.5 106.5q0 20 2 39.5t5 36.5h109q0 -51 10.5 -84t33.5 -49t61 -16q59 0 95.5 34t56.5 115h113q-24 -135 -92.5 -208t-181.5 -73z" />
    <glyph glyph-name="Uring" unicode="&#x16e;" horiz-adv-x="978" 
d="M368 -20q-93 0 -160.5 36.5t-103.5 105.5t-36 167q0 37 5.5 82.5t15.5 91.5l212 999h178l-214 -1006q-8 -39 -12.5 -75.5t-4.5 -67.5q0 -87 37.5 -129.5t105.5 -42.5q69 0 115.5 35.5t79.5 109.5t58 190l213 986h178l-218 -1005q-31 -147 -85 -254.5t-141.5 -165
t-222.5 -57.5zM704 1585q-99 0 -154.5 56.5t-55.5 152.5q0 92 56 149t154 57q95 0 152.5 -57t58.5 -146q0 -93 -56.5 -152.5t-154.5 -59.5zM706 1682q50 0 80 30.5t30 80.5q0 49 -29.5 80t-80.5 31q-53 0 -81.5 -31t-28.5 -80q0 -50 27.5 -80.5t82.5 -30.5z" />
    <glyph glyph-name="uring" unicode="&#x16f;" horiz-adv-x="857" 
d="M250 -20q-65 0 -109.5 25t-67.5 73.5t-23 117.5q0 38 7 88t17 96l154 721h171l-146 -694q-11 -46 -18 -90t-7 -82q0 -47 20.5 -73.5t64.5 -26.5q59 0 104 44.5t79.5 129t58.5 203.5l126 589h170l-232 -1101h-138l13 140h-6q-30 -51 -67.5 -86.5t-80.5 -54.5t-90 -19z
M592 1247q-99 0 -154.5 56.5t-55.5 152.5q0 92 56 149t154 57q95 0 152.5 -57t58.5 -146q0 -93 -56.5 -152.5t-154.5 -59.5zM594 1344q50 0 80 30.5t30 80.5q0 49 -29.5 80t-80.5 31q-53 0 -81.5 -31t-28.5 -80q0 -50 27.5 -80.5t82.5 -30.5z" />
    <glyph glyph-name="Uhungarumlaut" unicode="&#x170;" horiz-adv-x="978" 
d="M368 -20q-93 0 -160.5 36.5t-103.5 105.5t-36 167q0 37 5.5 82.5t15.5 91.5l212 999h178l-214 -1006q-8 -39 -12.5 -75.5t-4.5 -67.5q0 -87 37.5 -129.5t105.5 -42.5q69 0 115.5 35.5t79.5 109.5t58 190l213 986h178l-218 -1005q-31 -147 -85 -254.5t-141.5 -165
t-222.5 -57.5zM760 1579l4 21q50 62 92 118t74 104.5t51 84.5h180l-2 -17q-22 -31 -58.5 -72.5t-80.5 -86t-88 -84t-81 -68.5h-91zM451 1579l4 21q50 62 91.5 119t73.5 105t53 83h178l-2 -17q-20 -32 -56 -73.5t-80.5 -84.5t-90 -82.5t-86.5 -70.5h-85z" />
    <glyph glyph-name="uhungarumlaut" unicode="&#x171;" horiz-adv-x="857" 
d="M250 -20q-65 0 -109.5 25t-67.5 73.5t-23 117.5q0 38 7 88t17 96l154 721h171l-146 -694q-11 -46 -18 -90t-7 -82q0 -47 20.5 -73.5t64.5 -26.5q59 0 104 44.5t79.5 129t58.5 203.5l126 589h170l-232 -1101h-138l13 140h-6q-30 -51 -67.5 -86.5t-80.5 -54.5t-90 -19z
M631 1241l4 21q50 62 92 118t74 104.5t51 84.5h180l-2 -17q-22 -31 -58.5 -72.5t-80.5 -86t-88 -84t-81 -68.5h-91zM322 1241l4 21q50 62 91.5 119t73.5 105t53 83h178l-2 -17q-20 -32 -56 -73.5t-80.5 -84.5t-90 -82.5t-86.5 -70.5h-85z" />
    <glyph glyph-name="Uogonek" unicode="&#x172;" horiz-adv-x="978" 
d="M368 -20q-93 0 -160.5 36.5t-103.5 105.5t-36 167q0 37 5.5 82.5t15.5 91.5l212 999h178l-214 -1006q-8 -39 -12.5 -75.5t-4.5 -67.5q0 -87 37.5 -129.5t105.5 -42.5q69 0 115.5 35.5t79.5 109.5t58 190l213 986h178l-218 -1005q-31 -147 -85 -254.5t-141.5 -165
t-222.5 -57.5zM325 -461q-77 0 -116.5 41.5t-39.5 107.5q0 58 22.5 109.5t68.5 101.5t115 101h114q-60 -53 -97 -98.5t-53.5 -87t-17.5 -83.5q0 -32 17 -49.5t48 -17.5q15 0 35.5 4t41.5 9l-25 -119q-26 -11 -54 -15t-59 -4z" />
    <glyph glyph-name="uogonek" unicode="&#x173;" horiz-adv-x="857" 
d="M250 -20q-65 0 -109.5 25t-67.5 73.5t-23 117.5q0 38 7 88t17 96l154 721h171l-146 -694q-11 -46 -18 -90t-7 -82q0 -47 20.5 -73.5t64.5 -26.5q59 0 104 44.5t79.5 129t58.5 203.5l126 589h170l-232 -1101h-138l13 140h-6q-30 -51 -67.5 -86.5t-80.5 -54.5t-90 -19z
M455 -461q-77 0 -116.5 41.5t-39.5 107.5q0 58 22.5 109.5t68.5 101.5t115 101h114q-60 -53 -97 -98.5t-53.5 -87t-17.5 -83.5q0 -32 17 -49.5t48 -17.5q15 0 35.5 4t41.5 9l-25 -119q-26 -11 -54 -15t-59 -4z" />
    <glyph glyph-name="Wcircumflex" unicode="&#x174;" horiz-adv-x="1352" 
d="M143 0l36 1462h174l-27 -899q-3 -87 -7.5 -155.5t-8.5 -120.5h4q24 70 50 139.5t53 138.5l352 897h158l-30 -871q-3 -94 -7.5 -165t-9.5 -139h4q18 54 36 102t36 95.5t36 96.5l343 881h181l-577 -1462h-210l32 892q1 31 3 65.5t5 70.5t6 73h-4q-16 -49 -33 -98t-36 -96
l-351 -907h-208zM595 1579l4 21q46 49 89.5 101t82.5 104.5t70 101.5h153q8 -37 28 -95.5t43.5 -116.5t40.5 -95l-4 -21h-98q-18 25 -37 55t-38 63.5t-38 70.5q-53 -57 -101.5 -105t-91.5 -84h-103z" />
    <glyph glyph-name="wcircumflex" unicode="&#x175;" horiz-adv-x="1134" 
d="M109 0l21 1101h167l-18 -602q-2 -61 -6 -119t-9 -111h4q10 33 22.5 70t26 73.5t25.5 67.5l243 621h193l-21 -601q-1 -56 -5.5 -118.5t-7.5 -120.5h4q15 43 29 86t29.5 86t32.5 87l222 581h173l-441 -1101h-198l26 668q1 32 3 64.5t4.5 66t5.5 66.5h-4q-9 -28 -18.5 -55
t-18.5 -53t-20 -54l-270 -703h-194zM442 1241l4 21q46 49 89.5 101t82.5 104.5t70 101.5h153q8 -37 28 -95.5t43.5 -116.5t40.5 -95l-4 -21h-98q-18 25 -37 55t-38 63.5t-38 70.5q-53 -57 -101.5 -105t-91.5 -84h-103z" />
    <glyph glyph-name="Ycircumflex" unicode="&#x176;" horiz-adv-x="753" 
d="M157 0l117 562l-99 900h186l51 -661l329 661h190l-476 -895l-121 -567h-177zM303 1579l4 21q46 49 89.5 101t82.5 104.5t70 101.5h153q8 -37 28 -95.5t43.5 -116.5t40.5 -95l-4 -21h-98q-18 25 -37 55t-38 63.5t-38 70.5q-53 -57 -101.5 -105t-91.5 -84h-103z" />
    <glyph glyph-name="ycircumflex" unicode="&#x177;" horiz-adv-x="720" 
d="M-74 -493q-36 0 -63.5 5.5t-49.5 14.5l25 154q21 -8 41.5 -13t42.5 -5q58 0 93.5 43.5t70.5 123.5l79 179l-31 1092h172l2 -603q0 -37 -0.5 -76.5t-2 -79.5t-4.5 -79h6q12 40 26 79.5t28 75t25 61.5l263 622h179l-579 -1305q-40 -88 -83 -153t-100.5 -100.5t-139.5 -35.5
zM224 1241l4 21q46 49 89.5 101t82.5 104.5t70 101.5h153q8 -37 28 -95.5t43.5 -116.5t40.5 -95l-4 -21h-98q-18 25 -37 55t-38 63.5t-38 70.5q-53 -57 -101.5 -105t-91.5 -84h-103z" />
    <glyph glyph-name="Ydieresis" unicode="&#x178;" horiz-adv-x="753" 
d="M157 0l117 562l-99 900h186l51 -661l329 661h190l-476 -895l-121 -567h-177zM718 1629q-37 0 -57 19.5t-20 58.5q0 53 30.5 95t84.5 42q34 0 53 -18.5t19 -55.5q0 -61 -31.5 -101t-78.5 -40zM405 1629q-36 0 -56 19.5t-20 58.5q0 53 30 95t85 42q22 0 37.5 -8t24 -24.5
t8.5 -41.5q0 -61 -31 -101t-78 -40z" />
    <glyph glyph-name="Zacute" unicode="&#x179;" horiz-adv-x="709" 
d="M-83 0l28 135l659 1169h-400l34 158h600l-29 -136l-661 -1167h425l-32 -159h-624zM445 1608l2 20q45 53 86.5 106.5t76.5 105t61 96.5h203l-2 -17q-21 -29 -61 -72t-87 -89t-90.5 -86.5t-73.5 -63.5h-115z" />
    <glyph glyph-name="zacute" unicode="&#x17a;" horiz-adv-x="600" 
d="M-75 0l24 113l490 841h-291l31 147h484l-27 -121l-482 -832h319l-33 -148h-515zM321 1239l2 20q45 53 86.5 106.5t76.5 105t61 96.5h203l-2 -17q-21 -29 -61 -72t-87 -89t-90.5 -86.5t-73.5 -63.5h-115z" />
    <glyph glyph-name="Zdotaccent" unicode="&#x17b;" horiz-adv-x="709" 
d="M-83 0l28 135l659 1169h-400l34 158h600l-29 -136l-661 -1167h425l-32 -159h-624zM560 1618q-43 0 -65 23.5t-22 65.5q0 56 31.5 101t90.5 45q29 0 48 -9.5t28.5 -28.5t9.5 -49q0 -59 -31.5 -103.5t-89.5 -44.5z" />
    <glyph glyph-name="zdotaccent" unicode="&#x17c;" horiz-adv-x="600" 
d="M-75 0l24 113l490 841h-291l31 147h484l-27 -121l-482 -832h319l-33 -148h-515zM452 1280q-43 0 -65 23.5t-22 65.5q0 56 31.5 101t90.5 45q29 0 48 -9.5t28.5 -28.5t9.5 -49q0 -59 -31.5 -103.5t-89.5 -44.5z" />
    <glyph glyph-name="Zcaron" unicode="&#x17d;" horiz-adv-x="709" 
d="M-83 0l28 135l659 1169h-400l34 158h600l-29 -136l-661 -1167h425l-32 -159h-624zM470 1579q-10 37 -30 95.5t-42.5 116.5t-41.5 94l5 22h99q14 -20 32 -48.5t38.5 -63.5t41.5 -77q53 58 101.5 106t92.5 83h102l-3 -21q-33 -34 -81 -91.5t-93 -116.5t-68 -99h-153z" />
    <glyph glyph-name="zcaron" unicode="&#x17e;" horiz-adv-x="600" 
d="M-75 0l24 113l490 841h-291l31 147h484l-27 -121l-482 -832h319l-33 -148h-515zM350 1241q-10 37 -30 95.5t-42.5 116.5t-41.5 94l5 22h99q14 -20 32 -48.5t38.5 -63.5t41.5 -77q53 58 101.5 106t92.5 83h102l-3 -21q-33 -34 -81 -91.5t-93 -116.5t-68 -99h-153z" />
    <glyph glyph-name="longs" unicode="&#x17f;" horiz-adv-x="430" 
d="M-156 -492q-30 0 -56 4t-52 12v154q17 -7 41.5 -11t47.5 -4q72 0 99 57.5t49 164.5l285 1334q20 98 52 177t89 125t151 46q41 0 81.5 -8.5t75.5 -26.5l-62 -138q-19 12 -41 16.5t-42 4.5q-44 0 -70 -31t-41.5 -83t-28.5 -115l-281 -1315q-23 -104 -55 -186t-88.5 -129.5
t-153.5 -47.5z" />
    <glyph glyph-name="florin" unicode="&#x192;" horiz-adv-x="814" 
d="M21 -492q-39 0 -68 6.5t-53 16.5v151q27 -11 57.5 -17t51.5 -6q59 0 85.5 49t52.5 164l202 949h-137l20 93l147 53l39 171q29 128 66 203.5t92 108.5t138 33q42 0 81.5 -10.5t83.5 -30.5l-67 -138q-29 15 -51 21t-45 6q-55 0 -82 -52t-50 -155l-32 -157h170l-31 -146
h-170l-204 -945q-27 -127 -63 -208.5t-91 -120.5t-142 -39z" />
    <glyph glyph-name="Ohorn" unicode="&#x1a0;" horiz-adv-x="1043" 
d="M400 -20q-111 0 -183.5 47t-108.5 144t-36 245q0 113 17 234.5t51 241.5t84.5 226.5t117.5 189t151 129.5t184 47q111 0 182.5 -50.5t104.5 -153.5q65 33 103.5 103t55.5 173h154l9 -21q-28 -146 -96.5 -244t-193.5 -146q2 -19 3 -39.5t1 -43.5q0 -115 -17 -239.5
t-51 -245.5t-84.5 -229t-117 -190.5t-149.5 -130t-181 -47.5zM413 141q68 0 124 46t101 124t78.5 175.5t56 201t34 201.5t11.5 176q0 133 -39 196t-118 63q-66 0 -121.5 -44.5t-100.5 -120t-79 -170t-57 -197t-34.5 -200.5t-11.5 -178q0 -97 17.5 -157.5t52.5 -88t86 -27.5z
" />
    <glyph glyph-name="ohorn" unicode="&#x1a1;" horiz-adv-x="888" 
d="M312 -20q-85 0 -145 39t-92.5 114.5t-32.5 183.5q0 103 19.5 214.5t57.5 216.5t95.5 189t134 134t171.5 50q81 0 139 -37.5t90 -111.5q43 22 74 62.5t51 98t31 130.5h155l6 -22q-19 -102 -55.5 -179.5t-92.5 -129t-136 -76.5q3 -21 4 -40t1 -36q0 -105 -19.5 -217
t-58.5 -216t-96.5 -187t-132.5 -131.5t-168 -48.5zM330 128q55 0 99.5 45.5t78.5 119.5t57.5 162t35 176t11.5 158q0 61 -12.5 101.5t-37.5 60.5t-64 20q-55 0 -100 -47.5t-79 -123.5t-57 -165.5t-35 -175t-12 -150.5q0 -90 29 -135.5t86 -45.5z" />
    <glyph glyph-name="Uhorn" unicode="&#x1af;" horiz-adv-x="1075" 
d="M368 -20q-93 0 -160.5 36.5t-103.5 105.5t-36 167q0 37 5.5 82.5t15.5 91.5l212 999h178l-214 -1006q-8 -39 -12.5 -75.5t-4.5 -67.5q0 -87 37.5 -129.5t105.5 -42.5q69 0 115.5 35.5t79.5 109.5t58 190l213 986h178l-47 -210q50 13 85.5 53t60 104t38.5 147h156l6 -21
q-17 -88 -48 -160t-76.5 -124t-107.5 -83.5t-141 -40.5l-144 -670q-31 -148 -85.5 -255t-142.5 -164.5t-221 -57.5z" />
    <glyph glyph-name="uhorn" unicode="&#x1b0;" horiz-adv-x="960" 
d="M243 -20q-63 0 -106.5 25t-66.5 73.5t-23 117.5q0 40 7 90t18 98l152 717h172l-150 -694q-9 -46 -15.5 -89.5t-6.5 -78.5q0 -49 21.5 -75.5t62.5 -26.5q59 0 104.5 44t79.5 128t58 203l127 589h171l-30 -140q51 13 86 53t58 103.5t37 145.5h154l8 -22q-16 -84 -45 -154.5
t-74 -124.5t-107 -86.5t-144 -41.5l-177 -834h-136l11 140h-5q-30 -51 -68 -86.5t-81 -54.5t-92 -19z" />
    <glyph glyph-name="uni01EA" unicode="&#x1ea;" horiz-adv-x="1028" 
d="M400 -20q-111 0 -183.5 47t-108.5 144t-36 245q0 110 16.5 231t50 241t84 227t117.5 190t151.5 131t185.5 48q165 0 244 -104.5t79 -317.5q0 -96 -15 -212.5t-45.5 -238t-78.5 -234t-114.5 -202.5t-152.5 -142.5t-194 -52.5zM413 141q68 0 124.5 45.5t101.5 123
t78.5 174.5t55.5 201t33.5 202t11.5 178q0 133 -39 196t-118 63q-72 0 -130 -48t-103 -128.5t-77.5 -179t-53 -201t-30.5 -195t-10 -158.5q0 -97 17.5 -157.5t52.5 -88t86 -27.5zM336 -461q-77 0 -116.5 41.5t-39.5 107.5q0 58 22.5 109.5t68.5 101.5t115 101h114
q-60 -53 -97 -98.5t-53.5 -87t-17.5 -83.5q0 -32 17 -49.5t48 -17.5q15 0 35.5 4t41.5 9l-25 -119q-26 -11 -54 -15t-59 -4z" />
    <glyph glyph-name="uni01EB" unicode="&#x1eb;" horiz-adv-x="845" 
d="M320 -20q-86 0 -146 38.5t-92 114t-32 184.5q0 83 16 189t50.5 213.5t90.5 199t135.5 147t185.5 55.5q84 0 144 -39.5t91.5 -115.5t31.5 -186q0 -99 -18 -209.5t-54.5 -215.5t-93.5 -189.5t-134 -135t-175 -50.5zM338 129q54 0 98.5 43.5t79 116t57.5 159.5t35 175
t12 161q0 60 -12.5 102.5t-37.5 64.5t-64 22q-58 0 -104 -47t-79.5 -123.5t-55.5 -165.5t-33 -174t-11 -148q0 -90 29 -138t86 -48zM247 -461q-77 0 -116.5 41.5t-39.5 107.5q0 58 22.5 109.5t68.5 101.5t115 101h114q-60 -53 -97 -98.5t-53.5 -87t-17.5 -83.5
q0 -32 17 -49.5t48 -17.5q15 0 35.5 4t41.5 9l-25 -119q-26 -11 -54 -15t-59 -4z" />
    <glyph glyph-name="uni01EC" unicode="&#x1ec;" horiz-adv-x="1028" 
d="M400 -20q-111 0 -183.5 47t-108.5 144t-36 245q0 110 16.5 231t50 241t84 227t117.5 190t151.5 131t185.5 48q165 0 244 -104.5t79 -317.5q0 -96 -15 -212.5t-45.5 -238t-78.5 -234t-114.5 -202.5t-152.5 -142.5t-194 -52.5zM413 141q68 0 124.5 45.5t101.5 123
t78.5 174.5t55.5 201t33.5 202t11.5 178q0 133 -39 196t-118 63q-72 0 -130 -48t-103 -128.5t-77.5 -179t-53 -201t-30.5 -195t-10 -158.5q0 -97 17.5 -157.5t52.5 -88t86 -27.5zM463 1613l27 132h498l-29 -132h-496zM336 -461q-77 0 -116.5 41.5t-39.5 107.5
q0 58 22.5 109.5t68.5 101.5t115 101h114q-60 -53 -97 -98.5t-53.5 -87t-17.5 -83.5q0 -32 17 -49.5t48 -17.5q15 0 35.5 4t41.5 9l-25 -119q-26 -11 -54 -15t-59 -4z" />
    <glyph glyph-name="uni01ED" unicode="&#x1ed;" horiz-adv-x="845" 
d="M320 -20q-86 0 -146 38.5t-92 114t-32 184.5q0 83 16 189t50.5 213.5t90.5 199t135.5 147t185.5 55.5q84 0 144 -39.5t91.5 -115.5t31.5 -186q0 -99 -18 -209.5t-54.5 -215.5t-93.5 -189.5t-134 -135t-175 -50.5zM338 129q54 0 98.5 43.5t79 116t57.5 159.5t35 175
t12 161q0 60 -12.5 102.5t-37.5 64.5t-64 22q-58 0 -104 -47t-79.5 -123.5t-55.5 -165.5t-33 -174t-11 -148q0 -90 29 -138t86 -48zM307 1248l27 132h498l-29 -132h-496zM247 -461q-77 0 -116.5 41.5t-39.5 107.5q0 58 22.5 109.5t68.5 101.5t115 101h114q-60 -53 -97 -98.5
t-53.5 -87t-17.5 -83.5q0 -32 17 -49.5t48 -17.5q15 0 35.5 4t41.5 9l-25 -119q-26 -11 -54 -15t-59 -4z" />
    <glyph glyph-name="uni01F0" unicode="&#x1f0;" horiz-adv-x="403" 
d="M-156 -492q-30 0 -56.5 3.5t-51.5 11.5v155q18 -7 41.5 -11t45.5 -4q45 0 73 22.5t47.5 76.5t37.5 150l252 1189h171l-256 -1202q-25 -119 -58 -206.5t-90.5 -136t-155.5 -48.5zM259 1241q-10 37 -30 95.5t-42.5 116.5t-41.5 94l5 22h99q14 -20 32 -48.5t38.5 -63.5
t41.5 -77q53 58 101.5 106t92.5 83h102l-3 -21q-33 -34 -81 -91.5t-93 -116.5t-68 -99h-153z" />
    <glyph glyph-name="Aringacute" unicode="&#x1fa;" horiz-adv-x="848" 
d="M-129 0l555 1289q-31 20 -48 55t-17 81q0 94 56.5 150.5t156.5 56.5q94 0 152 -58.5t58 -144.5q0 -60 -26.5 -102.5t-71.5 -61.5l33 -1265h-185l-8 433h-280l-181 -433h-194zM307 595h228l-1 441v77.5t3 76.5h-6q-7 -36 -20 -74.5t-28 -76.5zM573 1316q49 0 79.5 29.5
t30.5 77.5q0 49 -29.5 80t-80.5 31q-50 0 -78.5 -31t-28.5 -80q0 -48 25 -77.5t82 -29.5zM521 1688l1 15q35 38 70.5 79t68 83.5t59.5 86.5h210v-14q-32 -36 -82.5 -83.5t-104 -92.5t-96.5 -74h-126z" />
    <glyph glyph-name="aringacute" unicode="&#x1fb;" horiz-adv-x="876" 
d="M266 -20q-71 0 -120 34.5t-73.5 102t-24.5 165.5q0 90 16.5 202t50.5 224t87.5 205.5t125.5 150.5t165 57q43 0 78.5 -16t62.5 -49.5t43 -85.5h6l43 131h147l-234 -1101h-137l10 149h-6q-37 -53 -75.5 -91t-79 -58t-85.5 -20zM321 130q67 0 115.5 54.5t82.5 139t58 172.5
q24 98 35.5 173t11.5 142q0 76 -29.5 117t-82.5 41t-98 -46t-79.5 -121t-59.5 -165t-37 -180t-12 -165q0 -81 21 -121.5t74 -40.5zM589 1195q-98 0 -154.5 56t-56.5 151q0 94 57 151t154 57q93 0 151.5 -55.5t60.5 -147.5q0 -96 -57 -154t-155 -58zM589 1293q49 0 80 29
t31 80q0 49 -29.5 80.5t-81.5 31.5q-51 0 -80 -31.5t-29 -80.5q0 -55 26.5 -82t82.5 -27zM562 1680l2 17q31 36 63.5 76t65.5 84t62 93h218v-14q-30 -34 -79.5 -80.5t-105 -93.5t-103.5 -82h-123z" />
    <glyph glyph-name="AEacute" unicode="&#x1fc;" horiz-adv-x="1158" 
d="M-137 0l696 1462h692l-34 -158h-364l-97 -462h341l-35 -158h-341l-111 -525h365l-33 -159h-542l97 453h-234l-210 -453h-190zM337 614h195l146 689h-26zM690 1608l2 20q45 53 86.5 106.5t76.5 105t61 96.5h203l-2 -17q-21 -29 -61 -72t-87 -89t-90.5 -86.5t-73.5 -63.5
h-115z" />
    <glyph glyph-name="aeacute" unicode="&#x1fd;" horiz-adv-x="1277" 
d="M253 -20q-64 0 -110 36t-71 105.5t-25 168.5q0 114 20.5 231.5t58.5 225t92 192t122.5 133.5t149.5 49q41 0 76 -15.5t61 -48t40 -83.5h4l33 127h125l-25 -122q43 57 100.5 99.5t133.5 42.5q101 0 159.5 -61t58.5 -171q0 -93 -35 -166.5t-101.5 -125.5t-161.5 -79
t-215 -27h-15q-8 -37 -12 -75.5t-4 -76.5q0 -102 38 -159t128 -57q56 0 111 17.5t118 54.5l-22 -150q-59 -35 -114.5 -50t-125.5 -15q-85 0 -138 39.5t-71 109.5l-27 -129h-125l25 150h-4q-34 -53 -72 -91t-82.5 -58.5t-97.5 -20.5zM324 128q46 0 83.5 30t67 81t52 116
t38.5 136q23 97 34 176.5t11 147.5q0 75 -25 114.5t-73 39.5t-91.5 -41t-79.5 -111t-62 -157t-40 -180t-14 -177q0 -89 25 -132t74 -43zM752 621h7q120 0 194 33.5t107.5 91.5t33.5 132q0 47 -22.5 74t-70.5 27q-55 0 -102.5 -47.5t-84.5 -128.5t-62 -182zM651 1239l2 20
q45 53 86.5 106.5t76.5 105t61 96.5h203l-2 -17q-21 -29 -61 -72t-87 -89t-90.5 -86.5t-73.5 -63.5h-115z" />
    <glyph glyph-name="Oslashacute" unicode="&#x1fe;" horiz-adv-x="1029" 
d="M76 -99l-92 53l131 208q-21 49 -32 112.5t-11 141.5q0 110 16.5 231t50 241t83.5 227t117.5 190t152.5 131t186 48q72 0 127 -23t93 -69l99 159l94 -57l-127 -200q19 -45 27.5 -104t8.5 -128q0 -96 -15 -212.5t-45.5 -238t-78.5 -234t-114.5 -202.5t-153 -142.5
t-194.5 -52.5q-70 0 -124 22t-92 65zM413 141q63 0 117 40.5t97 110t75.5 157.5t55.5 184.5t36 190t16 172.5q2 20 2.5 38.5t-0.5 34.5l-529 -838q19 -46 51.5 -68t78.5 -22zM262 383l534 844q-20 49 -53 73t-82 24q-68 0 -123.5 -43.5t-98.5 -116t-75 -162.5t-53.5 -185
t-33.5 -182.5t-15 -153.5q-1 -27 -1.5 -51.5t1.5 -46.5zM607 1608l2 20q45 53 86.5 106.5t76.5 105t61 96.5h203l-2 -17q-21 -29 -61 -72t-87 -89t-90.5 -86.5t-73.5 -63.5h-115z" />
    <glyph glyph-name="oslashacute" unicode="&#x1ff;" horiz-adv-x="845" 
d="M65 -124l-88 55l115 182q-19 39 -30.5 90t-11.5 114q0 78 15.5 183t49.5 213.5t89.5 201t136 149.5t187.5 57q50 0 90 -15.5t71 -46.5l88 142l90 -54l-109 -174q18 -39 27.5 -86.5t9.5 -106.5q0 -86 -16.5 -192t-51.5 -212.5t-91 -196t-134 -144.5t-182 -55
q-46 0 -85.5 13t-70.5 39zM338 123q51 0 93.5 37.5t76.5 100.5t58 140.5t38.5 159t18.5 154.5q2 17 1.5 34t-2.5 31l-375 -605q16 -26 39 -39t52 -13zM223 302l381 615q-14 30 -38.5 45.5t-58.5 15.5q-52 0 -95 -40t-76.5 -106.5t-58 -147t-38.5 -163.5t-17 -154
q-1 -18 -1 -34.5t2 -30.5zM441 1239l2 20q45 53 86.5 106.5t76.5 105t61 96.5h203l-2 -17q-21 -29 -61 -72t-87 -89t-90.5 -86.5t-73.5 -63.5h-115z" />
    <glyph glyph-name="uni0218" unicode="&#x218;" horiz-adv-x="780" 
d="M240 -20q-91 0 -163.5 17.5t-123.5 51.5l27 186q53 -36 122.5 -61.5t141.5 -25.5q52 0 96.5 17t76 49t49.5 80t18 111q0 53 -12.5 94t-45 86t-92.5 106q-56 56 -95.5 109.5t-60.5 116t-21 143.5q0 96 29 174t84 133.5t133.5 85.5t176.5 30q74 0 151 -22t127 -58l-84 -162
q-49 34 -101 54.5t-106 20.5q-47 0 -87.5 -15.5t-71 -46t-48 -74.5t-17.5 -100t18 -100t55.5 -89t95.5 -103q54 -53 89 -107t52.5 -117t17.5 -142q0 -96 -28 -176.5t-82.5 -140t-135 -92.5t-185.5 -33zM55 -453v29q22 35 49.5 88.5t52.5 110.5t38 100h167v-20
q-15 -44 -50.5 -102.5t-76.5 -114t-75 -91.5h-105z" />
    <glyph glyph-name="uni0219" unicode="&#x219;" horiz-adv-x="660" 
d="M213 -20q-76 0 -136.5 15t-97.5 37v173q40 -30 100.5 -51.5t114.5 -21.5t92 20t58.5 58.5t20.5 93.5q0 38 -9.5 69t-34.5 65.5t-71 81.5q-46 45 -76.5 89t-45.5 91.5t-15 104.5q0 89 37.5 160.5t108 113.5t170.5 42q80 0 146 -20.5t112 -53.5l-75 -135q-38 31 -85 47.5
t-93 16.5q-67 0 -106 -40t-39 -107q0 -35 8.5 -64.5t31 -60.5t63.5 -73q53 -53 86.5 -97t50 -93.5t16.5 -119.5q0 -101 -39 -178t-113 -120t-180 -43zM0 -453v29q22 35 49.5 88.5t52.5 110.5t38 100h167v-20q-15 -44 -50.5 -102.5t-76.5 -114t-75 -91.5h-105z" />
    <glyph glyph-name="uni021A" unicode="&#x21a;" horiz-adv-x="719" 
d="M137 0l277 1302h-251l35 160h679l-36 -160h-249l-277 -1302h-178zM27 -453v29q22 35 49.5 88.5t52.5 110.5t38 100h167v-20q-15 -44 -50.5 -102.5t-76.5 -114t-75 -91.5h-105z" />
    <glyph glyph-name="uni021B" unicode="&#x21b;" horiz-adv-x="505" 
d="M219 -20q-89 0 -128 51t-39 139q0 30 5 68.5t15 83.5l134 633h-98l19 96l121 47l90 251h123l-53 -248h159l-31 -146h-159l-137 -647q-7 -31 -11.5 -59t-4.5 -47q0 -36 14 -52.5t47 -16.5q19 0 45 4.5t48 14.5v-140q-34 -16 -78.5 -24t-80.5 -8zM-58 -453v29
q22 35 49.5 88.5t52.5 110.5t38 100h167v-20q-15 -44 -50.5 -102.5t-76.5 -114t-75 -91.5h-105z" />
    <glyph glyph-name="uni0237" unicode="&#x237;" horiz-adv-x="403" 
d="M-156 -492q-30 0 -56.5 3.5t-51.5 11.5v155q18 -7 41.5 -11t45.5 -4q45 0 73 22.5t47.5 76.5t37.5 150l252 1189h171l-256 -1202q-25 -119 -58 -206.5t-90.5 -136t-155.5 -48.5z" />
    <glyph glyph-name="uni0259" unicode="&#x259;" horiz-adv-x="794" 
d="M244 -20q-104 0 -167 59t-63 171q0 92 34.5 165.5t101 126t162 80t216.5 27.5h16q7 38 10.5 76t3.5 76q0 112 -41 164.5t-124 52.5q-57 0 -109.5 -17.5t-117.5 -55.5l22 154q55 32 115 47t134 15q92 0 157 -40t99.5 -116t34.5 -184q0 -162 -35.5 -306.5t-100.5 -255.5
t-153.5 -175t-194.5 -64zM270 121q51 0 98.5 45.5t86.5 126t63 185.5h-11q-120 0 -192.5 -33t-105.5 -90.5t-33 -132.5q0 -49 24 -75t70 -26z" />
    <glyph glyph-name="uni02BC" unicode="&#x2bc;" horiz-adv-x="366" 
d="M113 957q38 82 72.5 166.5t64.5 170t53 168.5h174l7 -21q-31 -83 -68.5 -166t-79 -163.5t-86.5 -154.5h-137z" />
    <glyph glyph-name="circumflex" unicode="&#x2c6;" horiz-adv-x="671" 
d="M229 1241l4 21q46 49 89.5 101t82.5 104.5t70 101.5h153q8 -37 28 -95.5t43.5 -116.5t40.5 -95l-4 -21h-98q-18 25 -37 55t-38 63.5t-38 70.5q-53 -57 -101.5 -105t-91.5 -84h-103z" />
    <glyph glyph-name="caron" unicode="&#x2c7;" horiz-adv-x="672" 
d="M408 1241q-10 37 -30 95.5t-42.5 116.5t-41.5 94l5 22h99q14 -20 32 -48.5t38.5 -63.5t41.5 -77q53 58 101.5 106t92.5 83h102l-3 -21q-33 -34 -81 -91.5t-93 -116.5t-68 -99h-153z" />
    <glyph glyph-name="macron" unicode="&#x2c9;" horiz-adv-x="662" 
d="M231 1248l27 132h498l-29 -132h-496z" />
    <glyph glyph-name="breve" unicode="&#x2d8;" horiz-adv-x="643" 
d="M493 1241q-75 0 -122 26t-68.5 72.5t-21.5 106.5q0 20 2 39.5t5 36.5h109q0 -51 10.5 -84t33.5 -49t61 -16q59 0 95.5 34t56.5 115h113q-24 -135 -92.5 -208t-181.5 -73z" />
    <glyph glyph-name="dotaccent" unicode="&#x2d9;" horiz-adv-x="367" 
d="M347 1280q-43 0 -65 23.5t-22 65.5q0 56 31.5 101t90.5 45q29 0 48 -9.5t28.5 -28.5t9.5 -49q0 -59 -31.5 -103.5t-89.5 -44.5z" />
    <glyph glyph-name="ring" unicode="&#x2da;" horiz-adv-x="597" 
d="M491 1247q-99 0 -154.5 56.5t-55.5 152.5q0 92 56 149t154 57q95 0 152.5 -57t58.5 -146q0 -93 -56.5 -152.5t-154.5 -59.5zM493 1344q50 0 80 30.5t30 80.5q0 49 -29.5 80t-80.5 31q-53 0 -81.5 -31t-28.5 -80q0 -50 27.5 -80.5t82.5 -30.5z" />
    <glyph glyph-name="ogonek" unicode="&#x2db;" horiz-adv-x="467" 
d="M61 -461q-77 0 -116.5 41.5t-39.5 107.5q0 58 22.5 109.5t68.5 101.5t115 101h114q-60 -53 -97 -98.5t-53.5 -87t-17.5 -83.5q0 -32 17 -49.5t48 -17.5q15 0 35.5 4t41.5 9l-25 -119q-26 -11 -54 -15t-59 -4z" />
    <glyph glyph-name="tilde" unicode="&#x2dc;" horiz-adv-x="731" 
d="M229 1245q18 81 43.5 139.5t65 90t95.5 31.5q43 0 74 -18t56 -41t48 -41t48 -18q32 0 51.5 26t34.5 94h107q-17 -96 -46 -153.5t-67 -82.5t-83 -25q-41 0 -71.5 18t-56 42t-49.5 42t-50 18q-35 0 -57 -30.5t-35 -91.5h-108z" />
    <glyph glyph-name="hungarumlaut" unicode="&#x2dd;" horiz-adv-x="806" 
d="M538 1241l4 21q50 62 92 118t74 104.5t51 84.5h180l-2 -17q-22 -31 -58.5 -72.5t-80.5 -86t-88 -84t-81 -68.5h-91zM229 1241l4 21q50 62 91.5 119t73.5 105t53 83h178l-2 -17q-20 -32 -56 -73.5t-80.5 -84.5t-90 -82.5t-86.5 -70.5h-85z" />
    <glyph glyph-name="uni02F3" unicode="&#x2f3;" horiz-adv-x="675" 
d="M186 -534q-99 0 -155 56.5t-56 150.5q0 93 58 150t153 57q89 0 149.5 -56t60.5 -148t-56.5 -151t-153.5 -59zM184 -437q53 0 82 30.5t29 79.5t-29 80t-82 31t-81 -31t-28 -80q0 -50 27 -80t82 -30z" />
    <glyph glyph-name="gravecomb" unicode="&#x300;" 
d="M-395 1241q-27 37 -62.5 93t-67.5 114.5t-47 101.5v18h195q13 -48 27.5 -98t31.5 -101.5t39 -106.5l-3 -21h-113z" />
    <glyph glyph-name="acutecomb" unicode="&#x301;" 
d="M-504 1241l2 20q45 53 86.5 106.5t76.5 105t61 96.5h203l-2 -17q-21 -29 -61 -72t-87 -89t-90.5 -86.5t-73.5 -63.5h-115z" />
    <glyph glyph-name="uni0302" unicode="&#x302;" 
d="M-117 1241l4 21q46 49 89.5 101t82.5 104.5t70 101.5h153q8 -37 28 -95.5t43.5 -116.5t40.5 -95l-4 -21h-98q-18 25 -37 55t-38 63.5t-38 70.5q-53 -57 -101.5 -105t-91.5 -84h-103z" />
    <glyph glyph-name="tildecomb" unicode="&#x303;" 
d="M-702 1245q18 81 43.5 139.5t65 90t95.5 31.5q43 0 74 -18t56 -41t48 -41t48 -18q32 0 51.5 26t34.5 94h107q-17 -96 -46 -153.5t-67 -82.5t-83 -25q-41 0 -71.5 18t-56 42t-49.5 42t-50 18q-35 0 -57 -30.5t-35 -91.5h-108z" />
    <glyph glyph-name="uni0304" unicode="&#x304;" 
d="M-96 1248l27 132h498l-29 -132h-496z" />
    <glyph glyph-name="uni0306" unicode="&#x306;" 
d="M163 1241q-75 0 -122 26t-68.5 72.5t-21.5 106.5q0 20 2 39.5t5 36.5h109q0 -51 10.5 -84t33.5 -49t61 -16q59 0 95.5 34t56.5 115h113q-24 -135 -92.5 -208t-181.5 -73z" />
    <glyph glyph-name="uni0307" unicode="&#x307;" 
d="M170 1280q-43 0 -65 23.5t-22 65.5q0 56 31.5 101t90.5 45q29 0 48 -9.5t28.5 -28.5t9.5 -49q0 -59 -31.5 -103.5t-89.5 -44.5z" />
    <glyph glyph-name="uni0308" unicode="&#x308;" 
d="M318 1291q-37 0 -57 19.5t-20 58.5q0 53 30.5 95t84.5 42q34 0 53 -18.5t19 -55.5q0 -61 -31.5 -101t-78.5 -40zM5 1291q-36 0 -56 19.5t-20 58.5q0 53 30 95t85 42q22 0 37.5 -8t24 -24.5t8.5 -41.5q0 -61 -31 -101t-78 -40z" />
    <glyph glyph-name="hookabovecomb" unicode="&#x309;" 
d="M-420 1213l28 162q47 3 79 17t49 39.5t17 61.5q0 39 -23.5 58t-57.5 19q-23 0 -44.5 -3.5t-39.5 -9.5v108q29 10 62.5 16.5t69.5 6.5q82 0 130.5 -46t48.5 -123q0 -82 -50.5 -136.5t-142.5 -70.5l-30 -99h-96z" />
    <glyph glyph-name="uni030A" unicode="&#x30a;" 
d="M188 1247q-99 0 -154.5 56.5t-55.5 152.5q0 92 56 149t154 57q95 0 152.5 -57t58.5 -146q0 -93 -56.5 -152.5t-154.5 -59.5zM190 1344q50 0 80 30.5t30 80.5q0 49 -29.5 80t-80.5 31q-53 0 -81.5 -31t-28.5 -80q0 -50 27.5 -80.5t82.5 -30.5z" />
    <glyph glyph-name="uni030B" unicode="&#x30b;" 
d="M146 1241l4 21q50 62 92 118t74 104.5t51 84.5h180l-2 -17q-22 -31 -58.5 -72.5t-80.5 -86t-88 -84t-81 -68.5h-91zM-163 1241l4 21q50 62 91.5 119t73.5 105t53 83h178l-2 -17q-20 -32 -56 -73.5t-80.5 -84.5t-90 -82.5t-86.5 -70.5h-85z" />
    <glyph glyph-name="uni030C" unicode="&#x30c;" 
d="M72 1241q-10 37 -30 95.5t-42.5 116.5t-41.5 94l5 22h99q14 -20 32 -48.5t38.5 -63.5t41.5 -77q53 58 101.5 106t92.5 83h102l-3 -21q-33 -34 -81 -91.5t-93 -116.5t-68 -99h-153z" />
    <glyph glyph-name="uni030F" unicode="&#x30f;" 
d="M-307 1241q-35 43 -70 97.5t-61.5 110.5t-39.5 101l2 18h166q13 -50 27 -99.5t30.5 -100.5t34.5 -104l-5 -23h-84zM-589 1241q-32 41 -66 96.5t-61.5 112t-39.5 100.5l2 18h167q12 -48 26 -102t31.5 -107t35.5 -95l-6 -23h-89z" />
    <glyph glyph-name="uni0312" unicode="&#x312;" 
d="M-21 957l-7 21q33 87 70.5 171t79 163.5t85.5 149.5h137q-23 -49 -50 -114t-54 -135.5t-50 -137.5t-37 -118h-174z" />
    <glyph glyph-name="dotbelowcomb" unicode="&#x323;" 
d="M-654 -369q-44 0 -66 23t-22 65q0 56 31.5 101.5t90.5 45.5q30 0 48.5 -10t28 -29.5t9.5 -48.5q0 -58 -31.5 -102.5t-88.5 -44.5z" />
    <glyph glyph-name="uni0326" unicode="&#x326;" 
d="M137 -453v29q22 35 49.5 88.5t52.5 110.5t38 100h167v-20q-15 -44 -50.5 -102.5t-76.5 -114t-75 -91.5h-105z" />
    <glyph glyph-name="uni0327" unicode="&#x327;" 
d="M-264 -492q-38 0 -70.5 4t-63.5 12v109q19 -6 47 -10t66 -4q43 0 74 14.5t47.5 40.5t16.5 61q0 43 -34.5 68t-104.5 33l105 164h102l-69 -102q65 -13 103.5 -53.5t38.5 -103.5q0 -76 -34 -128t-92 -78.5t-132 -26.5z" />
    <glyph glyph-name="uni0328" unicode="&#x328;" 
d="M-172 -461q-77 0 -116.5 41.5t-39.5 107.5q0 58 22.5 109.5t68.5 101.5t115 101h114q-60 -53 -97 -98.5t-53.5 -87t-17.5 -83.5q0 -32 17 -49.5t48 -17.5q15 0 35.5 4t41.5 9l-25 -119q-26 -11 -54 -15t-59 -4z" />
    <glyph glyph-name="tonos" unicode="&#x384;" horiz-adv-x="974" 
d="M481 1241l5 24q16 28 37.5 71.5t44 92t42 93t30.5 73.5h170l-4 -20q-15 -27 -43.5 -72t-62 -95.5t-64 -95.5t-49.5 -71h-106z" />
    <glyph glyph-name="dieresistonos" unicode="&#x385;" horiz-adv-x="986" 
d="M532 1399v19q18 36 43 93.5t47.5 114t33.5 90.5h153l-2 -17q-16 -36 -51.5 -95.5t-73.5 -116.5t-65 -88h-85zM376 1291q-36 0 -54 19.5t-18 58.5q0 53 28.5 95t80.5 42q32 0 49.5 -18.5t17.5 -55.5q0 -61 -30 -101t-74 -40zM784 1291q-35 0 -53 19.5t-18 58.5
q0 53 28.5 95t80.5 42q31 0 49 -18.5t18 -55.5q0 -61 -30 -101t-75 -40z" />
    <glyph glyph-name="Alphatonos" unicode="&#x386;" horiz-adv-x="866" 
d="M-115 0l614 1468h227l7 -1468h-186l3 452h-287l-184 -452h-194zM322 612h236l9 504q0 49 2 93t6 83h-6q-9 -37 -22 -80t-33 -95zM66 1109l5 24q16 28 37.5 71.5t44 92t42 93t30.5 73.5h170l-4 -20q-15 -27 -43.5 -72t-62 -95.5t-64 -95.5t-49.5 -71h-106z" />
    <glyph glyph-name="anoteleia" unicode="&#x387;" horiz-adv-x="429" 
d="M281 849q-43 0 -67.5 22.5t-24.5 67.5q0 66 36 117.5t103 51.5q41 0 64 -25t23 -69q0 -70 -40 -117.5t-94 -47.5z" />
    <glyph glyph-name="Epsilontonos" unicode="&#x388;" horiz-adv-x="954" 
d="M193 0l310 1462h542l-33 -158h-365l-97 -462h340l-35 -158h-339l-112 -525h365l-34 -159h-542zM87 1109l5 24q16 28 37.5 71.5t44 92t42 93t30.5 73.5h170l-4 -20q-15 -27 -43.5 -72t-62 -95.5t-64 -95.5t-49.5 -71h-106z" />
    <glyph glyph-name="Etatonos" unicode="&#x389;" horiz-adv-x="1199" 
d="M193 0l310 1462h178l-131 -616h387l132 616h178l-312 -1462h-178l145 684h-386l-145 -684h-178zM87 1109l5 24q16 28 37.5 71.5t44 92t42 93t30.5 73.5h170l-4 -20q-15 -27 -43.5 -72t-62 -95.5t-64 -95.5t-49.5 -71h-106z" />
    <glyph glyph-name="Iotatonos" unicode="&#x38a;" horiz-adv-x="631" 
d="M190 0l310 1462h177l-309 -1462h-178zM87 1109l5 24q16 28 37.5 71.5t44 92t42 93t30.5 73.5h170l-4 -20q-15 -27 -43.5 -72t-62 -95.5t-64 -95.5t-49.5 -71h-106z" />
    <glyph glyph-name="Omicrontonos" unicode="&#x38c;" horiz-adv-x="1130" 
d="M503 -20q-111 0 -183.5 47t-108.5 144t-36 245q0 110 16.5 231t50 241t84 227t117.5 190t151.5 131t185.5 48q165 0 244 -104.5t79 -317.5q0 -96 -15 -212.5t-45.5 -238t-78.5 -234t-114.5 -202.5t-152.5 -142.5t-194 -52.5zM516 141q68 0 124.5 45.5t101.5 123
t78.5 174.5t55.5 201t33.5 202t11.5 178q0 133 -39 196t-118 63q-72 0 -130 -48t-103 -128.5t-77.5 -179t-53 -201t-30.5 -195t-10 -158.5q0 -97 17.5 -157.5t52.5 -88t86 -27.5zM87 1109l5 24q16 28 37.5 71.5t44 92t42 93t30.5 73.5h170l-4 -20q-15 -27 -43.5 -72
t-62 -95.5t-64 -95.5t-49.5 -71h-106z" />
    <glyph glyph-name="Upsilontonos" unicode="&#x38e;" horiz-adv-x="1019" 
d="M422 0l117 562l-99 900h186l51 -661l329 661h190l-476 -895l-121 -567h-177zM72 1109l5 24q16 28 37.5 71.5t44 92t42 93t30.5 73.5h170l-4 -20q-15 -27 -43.5 -72t-62 -95.5t-64 -95.5t-49.5 -71h-106z" />
    <glyph glyph-name="Omegatonos" unicode="&#x38f;" horiz-adv-x="1162" 
d="M87 1109l5 24q16 28 37.5 71.5t44 92t42 93t30.5 73.5h170l-4 -20q-15 -27 -43.5 -72t-62 -95.5t-64 -95.5t-49.5 -71h-106zM44 0l33 159h249q-36 46 -61.5 109.5t-38 138t-12.5 153.5q0 124 24.5 254t72 249.5t118.5 214.5t163.5 150.5t205.5 55.5q115 0 190.5 -50
t113 -141t37.5 -213q0 -136 -26 -269t-75 -254.5t-118.5 -222.5t-157.5 -175h254l-36 -159h-411l33 156q82 70 147 173t110 226t69 252t24 251q0 88 -19.5 147t-57.5 89t-96 30q-81 0 -144.5 -57t-110 -149.5t-77.5 -202t-46 -215.5t-15 -189q0 -111 22 -198.5t69 -156.5
l-33 -156h-400z" />
    <glyph glyph-name="iotadieresistonos" unicode="&#x390;" horiz-adv-x="488" 
d="M209 -20q-82 0 -124 44.5t-42 125.5q0 26 5 63t14 74l173 814h171l-177 -829q-6 -23 -9 -43t-3 -38q0 -27 12.5 -42.5t37.5 -15.5q19 0 42 6t46 15v-139q-34 -16 -73 -25.5t-73 -9.5zM304 1399v19q18 36 43 93.5t47.5 114t33.5 90.5h153l-2 -17q-16 -36 -51.5 -95.5
t-73.5 -116.5t-65 -88h-85zM148 1291q-36 0 -54 19.5t-18 58.5q0 53 28.5 95t80.5 42q32 0 49.5 -18.5t17.5 -55.5q0 -61 -30 -101t-74 -40zM556 1291q-35 0 -53 19.5t-18 58.5q0 53 28.5 95t80.5 42q31 0 49 -18.5t18 -55.5q0 -61 -30 -101t-75 -40z" />
    <glyph glyph-name="Alpha" unicode="&#x391;" horiz-adv-x="848" 
d="M-132 0l614 1468h227l7 -1468h-186l3 452h-287l-184 -452h-194zM305 612h236l9 504q0 49 2 93t6 83h-6q-9 -37 -22 -80t-33 -95z" />
    <glyph glyph-name="Beta" unicode="&#x392;" horiz-adv-x="894" 
d="M-1 0l309 1462h281q91 0 163.5 -31t115 -94.5t42.5 -161.5q0 -91 -29.5 -174.5t-90.5 -145t-157 -87.5v-6q77 -23 118.5 -96.5t41.5 -171.5q0 -134 -52.5 -247t-155.5 -180t-254 -67h-332zM211 156h120q98 0 159 47.5t89.5 125.5t28.5 170q0 96 -45 142.5t-124 46.5h-116
zM355 839h110q83 0 140 43.5t87 114.5t30 151t-41.5 120.5t-126.5 40.5h-100z" />
    <glyph glyph-name="Gamma" unicode="&#x393;" horiz-adv-x="679" 
d="M-1 0l310 1462h521l-33 -160h-345l-275 -1302h-178z" />
    <glyph glyph-name="uni0394" unicode="&#x394;" horiz-adv-x="843" 
d="M-83 0l2 124l578 1343h223l16 -1345l-22 -122h-797zM121 163h434l5 874q1 29 1.5 57t1 57.5t1 63t1.5 72.5q-9 -28 -22 -69.5t-30 -89.5t-38 -97z" />
    <glyph glyph-name="Epsilon" unicode="&#x395;" horiz-adv-x="760" 
d="M-1 0l310 1462h542l-33 -158h-365l-97 -462h340l-35 -158h-339l-112 -525h365l-34 -159h-542z" />
    <glyph glyph-name="Zeta" unicode="&#x396;" horiz-adv-x="709" 
d="M-83 0l28 135l659 1169h-400l34 158h600l-29 -136l-661 -1167h425l-32 -159h-624z" />
    <glyph glyph-name="Eta" unicode="&#x397;" horiz-adv-x="1003" 
d="M-1 0l310 1462h178l-131 -616h387l132 616h178l-312 -1462h-178l145 684h-386l-145 -684h-178z" />
    <glyph glyph-name="Theta" unicode="&#x398;" horiz-adv-x="1062" 
d="M408 -20q-113 0 -187.5 47t-111.5 144t-37 245q0 97 16 213t48 236t82.5 230.5t119 198t157 139t197.5 51.5q163 0 248.5 -103t85.5 -319q0 -116 -18 -241t-53 -246t-87 -228.5t-121 -189.5t-153.5 -129.5t-185.5 -47.5zM421 141q72 0 131.5 48t106.5 128.5t82.5 180
t58.5 203.5t34.5 199t11.5 165q0 133 -42 196t-125 63q-75 0 -136 -48t-107.5 -129t-81 -179.5t-56.5 -201t-33 -194.5t-11 -158q0 -97 19.5 -157.5t56.5 -88t91 -27.5zM412 673l34 155h245l-34 -155h-245z" />
    <glyph glyph-name="Iota" unicode="&#x399;" horiz-adv-x="439" 
d="M-1 0l310 1462h177l-309 -1462h-178z" />
    <glyph glyph-name="Kappa" unicode="&#x39a;" horiz-adv-x="848" 
d="M-1 0l310 1462h178l-152 -716l110 171l379 545h194l-461 -669l166 -793h-194l-126 659l-110 -111l-116 -548h-178z" />
    <glyph glyph-name="Lambda" unicode="&#x39b;" horiz-adv-x="840" 
d="M-133 0l625 1467h211l9 -1467h-185l7 958q0 59 2.5 124t5.5 128q-24 -74 -54.5 -151.5t-65.5 -165.5l-367 -893h-188z" />
    <glyph glyph-name="Mu" unicode="&#x39c;" horiz-adv-x="1340" 
d="M-1 0l310 1462h245l43 -1167h4l526 1167h262l-311 -1462h-175l205 964l14 60t15 61t15 63h-4l-524 -1148h-171l-44 1146h-5q-7 -42 -13.5 -79.5t-12.5 -72t-13 -69.5l-197 -925h-169z" />
    <glyph glyph-name="Nu" unicode="&#x39d;" horiz-adv-x="1067" 
d="M-1 0l310 1462h208l190 -1136h6q12 69 24 135.5t23.5 123.5t19.5 96l165 781h172l-312 -1462h-202l-194 1156h-6q-7 -53 -16.5 -110.5t-20.5 -112t-20.5 -100.5t-16.5 -76l-160 -757h-170z" />
    <glyph glyph-name="Xi" unicode="&#x39e;" horiz-adv-x="754" 
d="M-50 0l34 159h602l-33 -159h-603zM153 687l32 159h491l-35 -159h-488zM244 1304l34 158h568l-33 -158h-569z" />
    <glyph glyph-name="Omicron" unicode="&#x39f;" horiz-adv-x="1028" 
d="M400 -20q-111 0 -183.5 47t-108.5 144t-36 245q0 110 16.5 231t50 241t84 227t117.5 190t151.5 131t185.5 48q165 0 244 -104.5t79 -317.5q0 -96 -15 -212.5t-45.5 -238t-78.5 -234t-114.5 -202.5t-152.5 -142.5t-194 -52.5zM413 141q68 0 124.5 45.5t101.5 123
t78.5 174.5t55.5 201t33.5 202t11.5 178q0 133 -39 196t-118 63q-72 0 -130 -48t-103 -128.5t-77.5 -179t-53 -201t-30.5 -195t-10 -158.5q0 -97 17.5 -157.5t52.5 -88t86 -27.5z" />
    <glyph glyph-name="Pi" unicode="&#x3a0;" horiz-adv-x="991" 
d="M-1 0l310 1462h732l-310 -1462h-177l275 1302h-378l-274 -1302h-178z" />
    <glyph glyph-name="Rho" unicode="&#x3a1;" horiz-adv-x="839" 
d="M0 0l309 1462h231q113 0 188.5 -39.5t113 -111.5t37.5 -171q0 -119 -32 -223.5t-94.5 -183t-154 -123.5t-210.5 -45h-91l-119 -565h-178zM330 724h57q101 0 169.5 50.5t103.5 139t35 204.5q0 93 -46 139.5t-138 46.5h-58z" />
    <glyph glyph-name="Sigma" unicode="&#x3a3;" horiz-adv-x="757" 
d="M-73 0l29 147l434 619l-173 548l31 148h610l-32 -158h-412l167 -541l-421 -604h451l-32 -159h-652z" />
    <glyph glyph-name="Tau" unicode="&#x3a4;" horiz-adv-x="719" 
d="M137 0l277 1302h-251l35 160h679l-36 -160h-249l-277 -1302h-178z" />
    <glyph glyph-name="Upsilon" unicode="&#x3a5;" horiz-adv-x="753" 
d="M157 0l117 562l-99 900h186l51 -661l329 661h190l-476 -895l-121 -567h-177z" />
    <glyph glyph-name="Phi" unicode="&#x3a6;" horiz-adv-x="1190" 
d="M365 -20l49 225q-102 7 -176 52t-113 130t-39 212q0 145 37.5 271t109.5 222t176.5 151.5t237.5 59.5l37 180h174l-37 -180q101 -6 174.5 -53t113 -132t39.5 -206q0 -147 -39 -274.5t-113 -224t-177.5 -151.5t-231.5 -57l-49 -225h-173zM445 359l170 789
q-91 -2 -157.5 -51.5t-109 -130t-63 -175t-20.5 -187.5q0 -81 21 -134t61 -80t98 -31zM619 359q83 2 148 49t109 125t67.5 174.5t23.5 197.5q0 81 -22 134.5t-62 80.5t-97 28z" />
    <glyph glyph-name="Chi" unicode="&#x3a7;" horiz-adv-x="783" 
d="M-120 0l443 766l-103 696h185l60 -524l275 524h189l-402 -713l108 -749h-190l-57 572l-319 -572h-189z" />
    <glyph glyph-name="Psi" unicode="&#x3a8;" horiz-adv-x="1182" 
d="M366 0l93 433h-2q-97 5 -165.5 39.5t-104 103.5t-35.5 175q0 51 7.5 112t21.5 128l100 471h177l-103 -487q-13 -63 -20 -113.5t-7 -90.5q0 -68 21 -106.5t57.5 -54t82.5 -16.5h4l183 868h175l-184 -868h4q95 0 150 46.5t85.5 128t52.5 185.5l109 508h177l-110 -526
q-24 -114 -59 -206.5t-90 -158.5t-139.5 -102t-208.5 -36h-5l-91 -433h-176z" />
    <glyph glyph-name="uni03A9" unicode="&#x3a9;" horiz-adv-x="1040" 
d="M-78 0l33 159h249q-36 46 -61.5 109.5t-38 138t-12.5 153.5q0 124 24.5 254t72 249.5t118.5 214.5t163.5 150.5t205.5 55.5q115 0 190.5 -50t113 -141t37.5 -213q0 -136 -26 -269t-75 -254.5t-118.5 -222.5t-157.5 -175h254l-36 -159h-411l33 156q82 70 147 173t110 226
t69 252t24 251q0 88 -19.5 147t-57.5 89t-96 30q-81 0 -144.5 -57t-110 -149.5t-77.5 -202t-46 -215.5t-15 -189q0 -111 22 -198.5t69 -156.5l-33 -156h-400z" />
    <glyph glyph-name="Iotadieresis" unicode="&#x3aa;" horiz-adv-x="439" 
d="M-1 0l310 1462h177l-309 -1462h-178zM598 1671q-37 0 -57 19.5t-20 58.5q0 53 30.5 95t84.5 42q34 0 53 -18.5t19 -55.5q0 -61 -31.5 -101t-78.5 -40zM285 1671q-36 0 -56 19.5t-20 58.5q0 53 30 95t85 42q22 0 37.5 -8t24 -24.5t8.5 -41.5q0 -61 -31 -101t-78 -40z" />
    <glyph glyph-name="Upsilondieresis" unicode="&#x3ab;" horiz-adv-x="753" 
d="M157 0l117 562l-99 900h186l51 -661l329 661h190l-476 -895l-121 -567h-177zM718 1629q-37 0 -57 19.5t-20 58.5q0 53 30.5 95t84.5 42q34 0 53 -18.5t19 -55.5q0 -61 -31.5 -101t-78.5 -40zM405 1629q-36 0 -56 19.5t-20 58.5q0 53 30 95t85 42q22 0 37.5 -8t24 -24.5
t8.5 -41.5q0 -61 -31 -101t-78 -40z" />
    <glyph glyph-name="alphatonos" unicode="&#x3ac;" horiz-adv-x="909" 
d="M267 -20q-103 0 -160 80.5t-57 227.5q0 109 19 225.5t56 224.5t91.5 194.5t123.5 137.5t153 51q77 0 129.5 -44.5t71.5 -126.5h6q12 29 24.5 57t26.5 52.5t27 41.5h144q-25 -49 -47 -108.5t-41 -129t-36 -150.5l-86 -403q-7 -36 -12 -68t-5 -58q0 -31 11.5 -42.5
t32.5 -11.5q12 0 26 3t28 10v-138q-23 -10 -55 -17.5t-57 -7.5q-70 0 -103.5 27.5t-43 68.5t-5.5 79h-6q-37 -57 -76 -96t-83 -59t-97 -20zM326 128q67 0 116 56.5t83 141.5t54 168q23 97 35 173.5t12 138.5q0 82 -29 122.5t-86 40.5q-55 0 -100.5 -48t-80 -125.5
t-57.5 -167t-35 -174t-12 -145.5q0 -92 24.5 -136.5t75.5 -44.5zM500 1241l5 24q16 28 37.5 71.5t44 92t42 93t30.5 73.5h170l-4 -20q-15 -27 -43.5 -72t-62 -95.5t-64 -95.5t-49.5 -71h-106z" />
    <glyph glyph-name="epsilontonos" unicode="&#x3ad;" horiz-adv-x="671" 
d="M278 -20q-91 0 -153 31.5t-93 91t-31 144.5q0 82 29 152.5t86 119.5t139 66l2 7q-47 25 -74 77.5t-27 128.5q0 90 39 163.5t111.5 116.5t174.5 43q69 0 128.5 -17t109.5 -54l-81 -131q-32 27 -71.5 41t-80.5 14q-77 0 -121 -53.5t-44 -137.5q0 -69 31 -103t96 -34h58
l-29 -136h-72q-72 0 -122 -31t-76.5 -84t-26.5 -118q0 -71 33.5 -109.5t105.5 -38.5q51 0 99 15t102 46v-149q-53 -31 -115.5 -46t-126.5 -15zM420 1241l5 24q16 28 37.5 71.5t44 92t42 93t30.5 73.5h170l-4 -20q-15 -27 -43.5 -72t-62 -95.5t-64 -95.5t-49.5 -71h-106z" />
    <glyph glyph-name="etatonos" unicode="&#x3ae;" horiz-adv-x="855" 
d="M344 -492l249 1168q10 50 19 102t9 92q0 45 -21.5 69.5t-65.5 24.5q-58 0 -103 -44t-78 -127.5t-59 -202.5l-125 -590h-172l233 1101h139l-18 -146h5q30 53 67.5 90.5t81.5 56.5t94 19q56 0 101 -21.5t72 -68t27 -121.5q0 -42 -8.5 -96.5t-19.5 -108.5l-256 -1197h-171z
M499 1241l5 24q16 28 37.5 71.5t44 92t42 93t30.5 73.5h170l-4 -20q-15 -27 -43.5 -72t-62 -95.5t-64 -95.5t-49.5 -71h-106z" />
    <glyph glyph-name="iotatonos" unicode="&#x3af;" horiz-adv-x="481" 
d="M209 -20q-82 0 -124 44.5t-42 125.5q0 26 5 63t14 74l173 814h171l-177 -829q-6 -23 -9 -43t-3 -38q0 -27 12.5 -42.5t37.5 -15.5q19 0 42 6t46 15v-139q-34 -16 -73 -25.5t-73 -9.5zM276 1241l5 24q16 28 37.5 71.5t44 92t42 93t30.5 73.5h170l-4 -20q-15 -27 -43.5 -72
t-62 -95.5t-64 -95.5t-49.5 -71h-106z" />
    <glyph glyph-name="upsilondieresistonos" unicode="&#x3b0;" horiz-adv-x="855" 
d="M307 -18q-129 0 -189.5 66.5t-60.5 186.5q0 47 10 110.5t23 134.5l134 621h172l-138 -644q-12 -54 -20.5 -106t-8.5 -94q0 -59 25.5 -90.5t70.5 -31.5q59 0 105.5 47.5t81 128t58.5 181.5t39 209.5t23 212t9 187.5h170q-2 -149 -16.5 -306t-48.5 -302t-91 -260.5
t-142.5 -183t-205.5 -67.5zM505 1399v19q18 36 43 93.5t47.5 114t33.5 90.5h153l-2 -17q-16 -36 -51.5 -95.5t-73.5 -116.5t-65 -88h-85zM349 1291q-36 0 -54 19.5t-18 58.5q0 53 28.5 95t80.5 42q32 0 49.5 -18.5t17.5 -55.5q0 -61 -30 -101t-74 -40zM757 1291
q-35 0 -53 19.5t-18 58.5q0 53 28.5 95t80.5 42q31 0 49 -18.5t18 -55.5q0 -61 -30 -101t-75 -40z" />
    <glyph glyph-name="alpha" unicode="&#x3b1;" horiz-adv-x="909" 
d="M267 -20q-103 0 -160 80.5t-57 227.5q0 109 19 225.5t56 224.5t91.5 194.5t123.5 137.5t153 51q77 0 129.5 -44.5t71.5 -126.5h6q12 29 24.5 57t26.5 52.5t27 41.5h144q-25 -49 -47 -108.5t-41 -129t-36 -150.5l-86 -403q-7 -36 -12 -68t-5 -58q0 -31 11.5 -42.5
t32.5 -11.5q12 0 26 3t28 10v-138q-23 -10 -55 -17.5t-57 -7.5q-70 0 -103.5 27.5t-43 68.5t-5.5 79h-6q-37 -57 -76 -96t-83 -59t-97 -20zM326 128q67 0 116 56.5t83 141.5t54 168q23 97 35 173.5t12 138.5q0 82 -29 122.5t-86 40.5q-55 0 -100.5 -48t-80 -125.5
t-57.5 -167t-35 -174t-12 -145.5q0 -92 24.5 -136.5t75.5 -44.5z" />
    <glyph glyph-name="beta" unicode="&#x3b2;" horiz-adv-x="875" 
d="M-106 -492l353 1667q27 124 71 211.5t118 134t188 46.5q85 0 145.5 -35t93 -99t32.5 -150q0 -113 -31.5 -210t-96 -164t-163.5 -87q90 -18 137.5 -101.5t47.5 -194.5q0 -94 -24.5 -190.5t-74.5 -177t-126 -129.5t-180 -49q-63 0 -117.5 18t-89.5 48l-118 -538h-165z
M361 134q71 0 120 38t78 98t42 127.5t13 125.5q0 103 -39.5 159t-112.5 56h-38l33 151h28q61 0 105 34.5t72 91.5t41.5 123.5t13.5 129.5q0 73 -30 111t-89 38q-47 0 -81.5 -26t-58 -78.5t-41.5 -130.5l-207 -979q26 -32 67.5 -50.5t83.5 -18.5z" />
    <glyph glyph-name="gamma" unicode="&#x3b3;" horiz-adv-x="710" 
d="M-12 -492q18 82 41.5 163t52.5 162.5t61 162.5l-19 1105h173l-1 -546q0 -31 -0.5 -69t-2 -78.5t-4 -79.5t-6.5 -73h8q25 78 51.5 150t62.5 155l226 541h182l-459 -1042q-42 -96 -79.5 -196t-65 -192t-42.5 -163h-179z" />
    <glyph glyph-name="delta" unicode="&#x3b4;" horiz-adv-x="865" 
d="M344 -20q-99 0 -166 40.5t-101 115t-34 177.5q0 139 48.5 260.5t140 214.5t216.5 145q-53 75 -85.5 147t-32.5 159q0 97 43 169.5t119.5 113t178.5 40.5q94 0 165 -25.5t110 -57.5l-84 -139q-46 35 -94 53.5t-103 18.5q-76 0 -119 -44t-43 -119q0 -49 20.5 -94.5t53 -90
t65.5 -92.5q46 -67 75.5 -134t43 -138.5t13.5 -151.5q0 -112 -26 -214t-79 -182t-134 -126t-191 -46zM359 128q66 0 111.5 42t73.5 106t40.5 134.5t12.5 127.5q0 91 -20.5 165t-63.5 137q-67 -31 -121 -86.5t-93 -127t-59.5 -150.5t-20.5 -157q0 -85 36 -138t104 -53z" />
    <glyph glyph-name="epsilon" unicode="&#x3b5;" horiz-adv-x="671" 
d="M278 -20q-91 0 -153 31.5t-93 91t-31 144.5q0 82 29 152.5t86 119.5t139 66l2 7q-47 25 -74 77.5t-27 128.5q0 90 39 163.5t111.5 116.5t174.5 43q69 0 128.5 -17t109.5 -54l-81 -131q-32 27 -71.5 41t-80.5 14q-77 0 -121 -53.5t-44 -137.5q0 -69 31 -103t96 -34h58
l-29 -136h-72q-72 0 -122 -31t-76.5 -84t-26.5 -118q0 -71 33.5 -109.5t105.5 -38.5q51 0 99 15t102 46v-149q-53 -31 -115.5 -46t-126.5 -15z" />
    <glyph glyph-name="zeta" unicode="&#x3b6;" horiz-adv-x="644" 
d="M135 -403q35 38 72 87t62.5 102t25.5 102q0 46 -31.5 78.5t-76.5 64.5q-48 36 -83.5 73.5t-55 88.5t-19.5 127q0 141 48 284.5t130 284t184.5 274t211.5 254.5q-31 -5 -67 -7t-80 -2h-164l32 148h505l-26 -121q-108 -121 -213.5 -256.5t-191 -276t-136 -275.5t-50.5 -254
q0 -57 18.5 -96.5t51 -71t73.5 -64.5q34 -24 63 -52.5t47 -64.5t18 -83q0 -63 -22.5 -122.5t-60 -114.5t-85.5 -107h-180z" />
    <glyph glyph-name="eta" unicode="&#x3b7;" horiz-adv-x="855" 
d="M344 -492l249 1168q10 50 19 102t9 92q0 45 -21.5 69.5t-65.5 24.5q-58 0 -103 -44t-78 -127.5t-59 -202.5l-125 -590h-172l233 1101h139l-18 -146h5q30 53 67.5 90.5t81.5 56.5t94 19q56 0 101 -21.5t72 -68t27 -121.5q0 -42 -8.5 -96.5t-19.5 -108.5l-256 -1197h-171z
" />
    <glyph glyph-name="theta" unicode="&#x3b8;" horiz-adv-x="867" 
d="M322 -21q-85 0 -143.5 41.5t-87.5 127t-29 217.5q0 68 7 146.5t21.5 165.5t34.5 178q30 132 74 260.5t104.5 233.5t140 167.5t179.5 62.5q82 0 139.5 -39t88.5 -123t31 -220q0 -102 -17.5 -233t-49 -265.5t-74.5 -245.5q-37 -104 -81 -191t-95.5 -150t-111.5 -98
t-131 -35zM333 124q51 0 96 46.5t83.5 129t71.5 191t61 232.5h-372q-24 -123 -35.5 -219t-11.5 -159q0 -117 28 -169t79 -52zM305 866h369q18 110 28 200t10 155q0 111 -25.5 162t-79.5 51q-48 0 -90.5 -41.5t-80.5 -118t-70.5 -180.5t-60.5 -228z" />
    <glyph glyph-name="iota" unicode="&#x3b9;" horiz-adv-x="481" 
d="M209 -20q-82 0 -124 44.5t-42 125.5q0 26 5 63t14 74l173 814h171l-177 -829q-6 -23 -9 -43t-3 -38q0 -27 12.5 -42.5t37.5 -15.5q19 0 42 6t46 15v-139q-34 -16 -73 -25.5t-73 -9.5z" />
    <glyph glyph-name="kappa" unicode="&#x3ba;" horiz-adv-x="761" 
d="M-3 0l237 1101h171l-63 -283q-11 -46 -24 -102t-31 -121h5l374 506h187l-335 -449l122 -652h-182l-89 511l-123 -134l-77 -377h-172z" />
    <glyph glyph-name="lambda" unicode="&#x3bb;" horiz-adv-x="762" 
d="M586 -20q-72 0 -112 29.5t-55.5 85.5t-15.5 135l4 390q1 48 1.5 93.5t2.5 92.5q-5 -16 -11 -34t-12 -35.5t-12.5 -34.5t-13.5 -33l-290 -669h-178l499 1088l2 214q0 67 -18.5 94t-58.5 27q-15 0 -29 -3t-33 -10v144q21 6 54 11.5t62 5.5q76 0 117.5 -32.5t59 -93.5
t18.5 -145l1 -1047q0 -43 6 -69t19.5 -37.5t33.5 -11.5q16 0 29.5 2.5t30.5 8.5v-151q-20 -6 -50 -10.5t-51 -4.5z" />
    <glyph glyph-name="uni03BC" unicode="&#x3bc;" horiz-adv-x="855" 
d="M-108 -492l337 1593h170l-145 -694q-10 -46 -16 -83.5t-6 -69.5q0 -57 21.5 -87t65.5 -30q55 0 97.5 37t76.5 117.5t61 210.5l128 599h170l-232 -1101h-135l7 126h-4q-28 -51 -59.5 -83.5t-67 -47.5t-74.5 -15q-43 0 -71.5 20.5t-44.5 56.5h-4q-1 -24 -3.5 -47.5
t-6.5 -47.5t-9 -50l-86 -404h-170z" />
    <glyph glyph-name="nu" unicode="&#x3bd;" horiz-adv-x="753" 
d="M127 0l6 1101h174l-10 -640q-1 -63 -3 -126t-4 -120q77 113 143.5 253t119.5 300t89 333h177q-42 -205 -112 -394t-169 -365.5t-232 -341.5h-179z" />
    <glyph glyph-name="xi" unicode="&#x3be;" horiz-adv-x="669" 
d="M133 -403q37 40 77 92t68 106.5t26 102.5q-1 44 -25.5 72.5t-71.5 57.5q-56 35 -95.5 77t-59.5 100t-20 141q0 108 35 207t106 171t179 98l1 6q-69 31 -99.5 84t-30.5 129q0 61 18 120t51.5 109.5t82.5 88.5t111 57q-35 -4 -65 -6t-57 -2h-87l33 148h501l-31 -144h-59
q-59 0 -109 -20t-89.5 -54.5t-67 -80t-42 -97.5t-14.5 -105q0 -83 40 -122.5t122 -39.5h74l-31 -151h-83q-98 0 -167 -47.5t-105 -130.5t-36 -189q0 -60 15 -97.5t45.5 -65.5t76.5 -58q40 -25 70 -52.5t46 -64t16 -89.5q0 -60 -20.5 -119t-58.5 -116.5t-90 -115.5h-180z" />
    <glyph glyph-name="omicron" unicode="&#x3bf;" horiz-adv-x="845" 
d="M320 -20q-86 0 -146 38.5t-92 114t-32 184.5q0 83 16 189t50.5 213.5t90.5 199t135.5 147t185.5 55.5q84 0 144 -39.5t91.5 -115.5t31.5 -186q0 -99 -18 -209.5t-54.5 -215.5t-93.5 -189.5t-134 -135t-175 -50.5zM338 129q54 0 98.5 43.5t79 116t57.5 159.5t35 175
t12 161q0 60 -12.5 102.5t-37.5 64.5t-64 22q-58 0 -104 -47t-79.5 -123.5t-55.5 -165.5t-33 -174t-11 -148q0 -90 29 -138t86 -48z" />
    <glyph glyph-name="pi" unicode="&#x3c0;" horiz-adv-x="907" 
d="M637 -14q-77 0 -121 43t-44 131q0 29 5 66t13 76l139 652h-231l-204 -954h-171l204 954h-144l16 75l113 72h756l-29 -147h-139l-143 -669q-4 -23 -7 -44t-3 -42q0 -30 14 -44.5t41 -14.5q17 0 34.5 5.5t30.5 10.5v-138q-28 -16 -62.5 -24t-67.5 -8z" />
    <glyph glyph-name="rho" unicode="&#x3c1;" horiz-adv-x="862" 
d="M-104 -492l233 1115q36 167 86.5 277.5t129 165.5t194.5 55q92 0 154.5 -39.5t94.5 -114.5t32 -179q0 -91 -17 -199.5t-51.5 -216t-86.5 -196.5t-123.5 -142.5t-162.5 -53.5q-70 0 -120.5 23.5t-81.5 62.5q-4 -33 -11.5 -71t-15.5 -76l-85 -411h-169zM354 131
q59 0 105.5 45.5t81 119.5t57 161.5t33.5 173.5t11 154q0 90 -30.5 138t-89.5 48q-56 0 -96.5 -38.5t-72.5 -122.5t-60 -222l-77 -371q19 -37 54.5 -61.5t83.5 -24.5z" />
    <glyph glyph-name="uni03C2" unicode="&#x3c2;" horiz-adv-x="662" 
d="M158 -403q50 58 85 108t53 93t18 81q0 31 -11 56t-33.5 48t-56.5 47q-61 46 -96.5 90.5t-51.5 104t-17 146.5q0 93 18.5 196t57 201.5t96.5 178.5t137 127t178 47q58 0 108 -13t89 -38l-67 -138q-28 17 -60 27t-63 10q-61 0 -111 -40.5t-87.5 -106.5t-63.5 -143
t-39 -152.5t-13 -132.5q0 -63 14.5 -105.5t43 -74t68.5 -63.5q43 -31 75.5 -63t51.5 -72t19 -98q0 -48 -18.5 -101t-54.5 -108t-87 -112h-182z" />
    <glyph glyph-name="sigma" unicode="&#x3c3;" horiz-adv-x="875" 
d="M321 -20q-126 0 -198.5 89t-72.5 250q0 99 18.5 208t58 211t102 184t151.5 130.5t206 48.5h361l-30 -148h-172q15 -43 24.5 -95t9.5 -117q0 -94 -17.5 -199t-53.5 -205t-90.5 -180.5t-128.5 -128.5t-168 -48zM341 128q57 0 100.5 43t75.5 114.5t53 159t30.5 178.5
t9.5 172q0 48 -2.5 88t-7.5 70h-39q-88 0 -152 -61t-104.5 -158t-59.5 -206.5t-19 -207.5q0 -95 28 -143.5t87 -48.5z" />
    <glyph glyph-name="tau" unicode="&#x3c4;" horiz-adv-x="591" 
d="M293 -23q-90 0 -140 48.5t-50 142.5q0 34 5.5 74.5t17.5 91.5l133 619h-185l16 76l113 72h474l-31 -148h-216l-135 -641q-7 -31 -11.5 -55.5t-4.5 -48.5q0 -38 19.5 -57.5t54.5 -19.5q22 0 45.5 6.5t44.5 14.5v-139q-33 -18 -73 -27t-77 -9z" />
    <glyph glyph-name="upsilon" unicode="&#x3c5;" horiz-adv-x="855" 
d="M307 -18q-129 0 -189.5 66.5t-60.5 186.5q0 47 10 110.5t23 134.5l134 621h172l-138 -644q-12 -54 -20.5 -106t-8.5 -94q0 -59 25.5 -90.5t70.5 -31.5q59 0 105.5 47.5t81 128t58.5 181.5t39 209.5t23 212t9 187.5h170q-2 -149 -16.5 -306t-48.5 -302t-91 -260.5
t-142.5 -183t-205.5 -67.5z" />
    <glyph glyph-name="phi" unicode="&#x3c6;" horiz-adv-x="1122" 
d="M247 -492l100 476q-85 12 -151.5 57t-104.5 128t-38 207q0 132 36.5 263t105.5 252.5t167 224.5l120 -86q-74 -86 -131.5 -190t-90 -220t-32.5 -241q0 -75 18 -126.5t52.5 -81.5t81.5 -38l137 659q33 151 105.5 240.5t202.5 89.5q115 0 181 -81t66 -241q0 -110 -22 -223
t-67 -217t-112 -187t-156 -134t-200 -56l-100 -475h-168zM548 132q80 10 139 59.5t99.5 124t65 161t35.5 171.5t11 154q0 85 -22.5 128t-64.5 43q-44 0 -74 -42.5t-53 -157.5z" />
    <glyph glyph-name="chi" unicode="&#x3c7;" horiz-adv-x="734" 
d="M-245 -492l474 856l-8 473q0 63 -13 95.5t-48 32.5q-17 0 -33.5 -4t-32.5 -10l18 150q19 7 49 10.5t60 3.5q91 0 127.5 -57.5t40.5 -163.5l-3 -289l248 496h185l-420 -769l9 -548q0 -64 13.5 -93t46.5 -29q14 0 33 4.5t34 12.5v-144q-30 -12 -63.5 -19.5t-64.5 -7.5
q-56 0 -92 24.5t-53.5 78.5t-20.5 141v349l-302 -593h-184z" />
    <glyph glyph-name="psi" unicode="&#x3c8;" horiz-adv-x="1068" 
d="M224 -492l102 474q-133 15 -202 94.5t-69 222.5q0 50 8.5 110.5t22.5 130.5l121 561h171l-124 -584q-14 -58 -21.5 -109.5t-7.5 -98.5q0 -86 32.5 -126.5t100.5 -47.5l302 1424h167l-300 -1422q80 0 138 64.5t96.5 171t61.5 234.5t33 257.5t11 236.5h167
q-1 -148 -15 -304.5t-48 -301.5t-94.5 -260.5t-155 -184t-228.5 -70.5l-100 -472h-169z" />
    <glyph glyph-name="omega" unicode="&#x3c9;" horiz-adv-x="1059" 
d="M223 -20q-95 0 -143.5 74t-48.5 211q0 128 32.5 274.5t88.5 291.5t123 270h173q-69 -134 -124.5 -281t-88 -289.5t-32.5 -265.5q0 -65 18.5 -95.5t47.5 -30.5q58 0 90 76.5t66 244.5l55 257h168l-56 -257q-10 -53 -17.5 -94t-11 -73t-3.5 -59q0 -48 14.5 -71.5
t42.5 -23.5q44 0 80.5 54.5t64 142.5t46.5 191t28.5 202t9.5 172q0 61 -2.5 110.5t-6.5 89.5h172q3 -36 5.5 -86t2.5 -116q0 -104 -13.5 -227.5t-43 -245.5t-77 -223t-115.5 -162t-159 -61q-60 0 -96.5 23t-53 62t-16.5 86q-37 -84 -91 -127.5t-129 -43.5z" />
    <glyph glyph-name="iotadieresis" unicode="&#x3ca;" horiz-adv-x="481" 
d="M209 -20q-82 0 -124 44.5t-42 125.5q0 26 5 63t14 74l173 814h171l-177 -829q-6 -23 -9 -43t-3 -38q0 -27 12.5 -42.5t37.5 -15.5q19 0 42 6t46 15v-139q-34 -16 -73 -25.5t-73 -9.5zM502 1291q-37 0 -57 19.5t-20 58.5q0 53 30.5 95t84.5 42q34 0 53 -18.5t19 -55.5
q0 -61 -31.5 -101t-78.5 -40zM189 1291q-36 0 -56 19.5t-20 58.5q0 53 30 95t85 42q22 0 37.5 -8t24 -24.5t8.5 -41.5q0 -61 -31 -101t-78 -40z" />
    <glyph glyph-name="upsilondieresis" unicode="&#x3cb;" horiz-adv-x="855" 
d="M307 -18q-129 0 -189.5 66.5t-60.5 186.5q0 47 10 110.5t23 134.5l134 621h172l-138 -644q-12 -54 -20.5 -106t-8.5 -94q0 -59 25.5 -90.5t70.5 -31.5q59 0 105.5 47.5t81 128t58.5 181.5t39 209.5t23 212t9 187.5h170q-2 -149 -16.5 -306t-48.5 -302t-91 -260.5
t-142.5 -183t-205.5 -67.5zM697 1291q-37 0 -57 19.5t-20 58.5q0 53 30.5 95t84.5 42q34 0 53 -18.5t19 -55.5q0 -61 -31.5 -101t-78.5 -40zM384 1291q-36 0 -56 19.5t-20 58.5q0 53 30 95t85 42q22 0 37.5 -8t24 -24.5t8.5 -41.5q0 -61 -31 -101t-78 -40z" />
    <glyph glyph-name="omicrontonos" unicode="&#x3cc;" horiz-adv-x="845" 
d="M320 -20q-86 0 -146 38.5t-92 114t-32 184.5q0 83 16 189t50.5 213.5t90.5 199t135.5 147t185.5 55.5q84 0 144 -39.5t91.5 -115.5t31.5 -186q0 -99 -18 -209.5t-54.5 -215.5t-93.5 -189.5t-134 -135t-175 -50.5zM338 129q54 0 98.5 43.5t79 116t57.5 159.5t35 175
t12 161q0 60 -12.5 102.5t-37.5 64.5t-64 22q-58 0 -104 -47t-79.5 -123.5t-55.5 -165.5t-33 -174t-11 -148q0 -90 29 -138t86 -48zM450 1241l5 24q16 28 37.5 71.5t44 92t42 93t30.5 73.5h170l-4 -20q-15 -27 -43.5 -72t-62 -95.5t-64 -95.5t-49.5 -71h-106z" />
    <glyph glyph-name="upsilontonos" unicode="&#x3cd;" horiz-adv-x="855" 
d="M307 -18q-129 0 -189.5 66.5t-60.5 186.5q0 47 10 110.5t23 134.5l134 621h172l-138 -644q-12 -54 -20.5 -106t-8.5 -94q0 -59 25.5 -90.5t70.5 -31.5q59 0 105.5 47.5t81 128t58.5 181.5t39 209.5t23 212t9 187.5h170q-2 -149 -16.5 -306t-48.5 -302t-91 -260.5
t-142.5 -183t-205.5 -67.5zM462 1241l5 24q16 28 37.5 71.5t44 92t42 93t30.5 73.5h170l-4 -20q-15 -27 -43.5 -72t-62 -95.5t-64 -95.5t-49.5 -71h-106z" />
    <glyph glyph-name="omegatonos" unicode="&#x3ce;" horiz-adv-x="1059" 
d="M223 -20q-95 0 -143.5 74t-48.5 211q0 128 32.5 274.5t88.5 291.5t123 270h173q-69 -134 -124.5 -281t-88 -289.5t-32.5 -265.5q0 -65 18.5 -95.5t47.5 -30.5q58 0 90 76.5t66 244.5l55 257h168l-56 -257q-10 -53 -17.5 -94t-11 -73t-3.5 -59q0 -48 14.5 -71.5
t42.5 -23.5q44 0 80.5 54.5t64 142.5t46.5 191t28.5 202t9.5 172q0 61 -2.5 110.5t-6.5 89.5h172q3 -36 5.5 -86t2.5 -116q0 -104 -13.5 -227.5t-43 -245.5t-77 -223t-115.5 -162t-159 -61q-60 0 -96.5 23t-53 62t-16.5 86q-37 -84 -91 -127.5t-129 -43.5zM570 1241l5 24
q16 28 37.5 71.5t44 92t42 93t30.5 73.5h170l-4 -20q-15 -27 -43.5 -72t-62 -95.5t-64 -95.5t-49.5 -71h-106z" />
    <glyph glyph-name="uni03D1" unicode="&#x3d1;" horiz-adv-x="954" 
d="M314 -20q-70 0 -128 21.5t-92.5 71t-34.5 131.5q0 65 17 129t36 125q17 53 30.5 99t13.5 80q0 27 -10.5 40.5t-31.5 13.5q-15 0 -33.5 -5t-38.5 -15v147q26 11 63.5 19t74.5 8q67 0 109.5 -39.5t42.5 -118.5q0 -42 -14.5 -95t-33.5 -110q-19 -64 -34.5 -127.5
t-15.5 -121.5q0 -51 23 -79.5t72 -28.5q44 0 84.5 27t78 81.5t71.5 137t64.5 193.5t57.5 250q-122 1 -210.5 45t-136 127.5t-47.5 200.5q0 101 37.5 190.5t110 145.5t178.5 56q102 0 164.5 -43.5t91 -128.5t28.5 -208q0 -57 -4.5 -114t-11.5 -122h114l-31 -150h-112
q-32 -169 -71.5 -303t-87.5 -233.5t-105.5 -165.5t-126.5 -98.5t-151 -32.5zM712 963q9 67 13.5 124t4.5 106q0 108 -25 174.5t-92 66.5q-48 0 -81 -36.5t-50.5 -92.5t-17.5 -114q0 -78 30 -128t86 -74.5t132 -25.5z" />
    <glyph glyph-name="uni03D2" unicode="&#x3d2;" horiz-adv-x="744" 
d="M157 0l117 562l-99 900h183l51 -661q39 89 77 170t73 152.5t66.5 130t58.5 100.5q37 62 75 91.5t97 29.5q28 0 51.5 -5.5t39.5 -14.5l-26 -151q-11 6 -22 9t-24 3q-31 0 -56.5 -29t-66.5 -100q-33 -63 -68.5 -135t-73 -152t-77 -166t-81.5 -178l-118 -556h-177z" />
    <glyph glyph-name="uni03D6" unicode="&#x3d6;" horiz-adv-x="1118" 
d="M249 -20q-95 0 -144 74t-49 211q0 106 25 227t65.5 240.5t87.5 220.5h-149l16 76l116 72h990l-34 -148h-141q2 -26 3.5 -54.5t1.5 -61.5q0 -101 -15.5 -218t-46.5 -230t-79 -205.5t-113 -148t-147 -55.5t-123 45.5t-41 136.5q-41 -92 -92.5 -137t-130.5 -45zM295 139
q43 0 70.5 43t47 116t38.5 162l44 206h167l-42 -206q-11 -53 -19 -94t-12 -73t-4 -59q0 -48 15 -71.5t43 -23.5q43 0 78 50t62.5 130.5t46 175t28 185t9.5 159.5q0 28 -0.5 57t-3.5 57h-453q-51 -109 -91.5 -228t-64 -237t-23.5 -223q0 -65 17 -95.5t47 -30.5z" />
    <glyph glyph-name="uni0400" unicode="&#x400;" horiz-adv-x="760" 
d="M-1 0l310 1462h542l-33 -158h-365l-97 -462h340l-35 -158h-339l-112 -525h365l-34 -159h-542zM573 1611q-27 37 -62.5 93t-67.5 114.5t-47 101.5v18h195q13 -48 27.5 -98t31.5 -101.5t39 -106.5l-3 -21h-113z" />
    <glyph glyph-name="uni0401" unicode="&#x401;" horiz-adv-x="760" 
d="M-1 0l310 1462h542l-33 -158h-365l-97 -462h340l-35 -158h-339l-112 -525h365l-34 -159h-542zM756 1629q-37 0 -57 19.5t-20 58.5q0 53 30.5 95t84.5 42q34 0 53 -18.5t19 -55.5q0 -61 -31.5 -101t-78.5 -40zM443 1629q-36 0 -56 19.5t-20 58.5q0 53 30 95t85 42
q22 0 37.5 -8t24 -24.5t8.5 -41.5q0 -61 -31 -101t-78 -40z" />
    <glyph glyph-name="uni0402" unicode="&#x402;" horiz-adv-x="952" 
d="M501 -20q-33 0 -67.5 6t-63.5 17l31 155q20 -10 41 -14.5t43 -4.5q45 0 72 24t42 66t25 93l50 223q5 22 7.5 45.5t2.5 43.5q0 53 -30.5 80t-102.5 27h-110l-159 -741h-178l277 1302h-217l34 160h638l-35 -160h-242l-85 -400h111q141 0 209 -60.5t68 -173.5q0 -28 -4 -63
t-12 -72l-55 -263q-19 -92 -55 -157t-92.5 -99t-142.5 -34z" />
    <glyph glyph-name="uni0403" unicode="&#x403;" horiz-adv-x="679" 
d="M-1 0l310 1462h521l-33 -160h-345l-275 -1302h-178zM440 1608l2 20q45 53 86.5 106.5t76.5 105t61 96.5h203l-2 -17q-21 -29 -61 -72t-87 -89t-90.5 -86.5t-73.5 -63.5h-115z" />
    <glyph glyph-name="uni0404" unicode="&#x404;" horiz-adv-x="849" 
d="M418 -20q-116 0 -192.5 53.5t-113.5 160t-37 265.5q0 135 27.5 278t81 276.5t131.5 240t178.5 169t222.5 62.5q80 0 144 -19t111 -57l-92 -144q-36 30 -75.5 44.5t-85.5 14.5q-78 0 -142 -43.5t-114 -115t-86 -156.5t-59 -168h391l-34 -159h-394q-9 -58 -14.5 -113.5
t-5.5 -104.5q0 -104 18 -176.5t61 -110t117 -37.5q31 0 65.5 7t70.5 20t71 28v-160q-36 -17 -79.5 -29.5t-86.5 -19t-79 -6.5z" />
    <glyph glyph-name="uni0405" unicode="&#x405;" horiz-adv-x="780" 
d="M240 -20q-91 0 -163.5 17.5t-123.5 51.5l27 186q53 -36 122.5 -61.5t141.5 -25.5q52 0 96.5 17t76 49t49.5 80t18 111q0 53 -12.5 94t-45 86t-92.5 106q-56 56 -95.5 109.5t-60.5 116t-21 143.5q0 96 29 174t84 133.5t133.5 85.5t176.5 30q74 0 151 -22t127 -58l-84 -162
q-49 34 -101 54.5t-106 20.5q-47 0 -87.5 -15.5t-71 -46t-48 -74.5t-17.5 -100t18 -100t55.5 -89t95.5 -103q54 -53 89 -107t52.5 -117t17.5 -142q0 -96 -28 -176.5t-82.5 -140t-135 -92.5t-185.5 -33z" />
    <glyph glyph-name="uni0406" unicode="&#x406;" horiz-adv-x="439" 
d="M-1 0l310 1462h177l-309 -1462h-178z" />
    <glyph glyph-name="uni0407" unicode="&#x407;" horiz-adv-x="439" 
d="M-1 0l310 1462h177l-309 -1462h-178zM596 1671q-37 0 -57 19.5t-20 58.5q0 53 30.5 95t84.5 42q34 0 53 -18.5t19 -55.5q0 -61 -31.5 -101t-78.5 -40zM283 1671q-36 0 -56 19.5t-20 58.5q0 53 30 95t85 42q22 0 37.5 -8t24 -24.5t8.5 -41.5q0 -61 -31 -101t-78 -40z" />
    <glyph glyph-name="uni0408" unicode="&#x408;" horiz-adv-x="425" 
d="M-162 -398q-46 0 -80 6.5t-61 17.5l39 159q24 -11 47.5 -18t49.5 -7q49 0 80.5 31t52.5 87t37 130l307 1454h178l-314 -1485q-27 -132 -73.5 -215t-111.5 -121.5t-151 -38.5z" />
    <glyph glyph-name="uni0409" unicode="&#x409;" horiz-adv-x="1334" 
d="M-24 -13q-23 0 -47.5 4t-45.5 11v159q19 -8 38 -12.5t36 -4.5q34 0 60 15.5t52.5 62t57.5 138.5q27 68 62.5 177.5t79 253t93 313t104.5 358.5h522l-128 -607h48q111 0 186 -36.5t113.5 -108.5t38.5 -178q0 -100 -27 -195t-85 -171t-150.5 -121t-223.5 -45h-257l273 1294
h-190q-39 -141 -83 -291.5t-86.5 -289t-79 -247.5t-59.5 -171q-43 -117 -85 -184.5t-93.5 -95.5t-123.5 -28zM712 157h77q73 0 124.5 29t85 79.5t49 115.5t15.5 139q0 94 -47.5 136t-143.5 42h-45z" />
    <glyph glyph-name="uni040A" unicode="&#x40a;" horiz-adv-x="1314" 
d="M0 0l309 1462h178l-131 -612h308l131 612h177l-127 -607h38q112 0 188.5 -37.5t115 -110t38.5 -180.5q0 -113 -31 -209.5t-92.5 -167.5t-153 -110.5t-212.5 -39.5h-249l145 693h-308l-146 -693h-178zM698 157h74q86 0 146 45t92 126t32 190q0 93 -49.5 136.5t-149.5 43.5
h-30z" />
    <glyph glyph-name="uni040B" unicode="&#x40b;" horiz-adv-x="968" 
d="M113 0l276 1302h-217l33 160h638l-33 -160h-243l-85 -400h112q138 0 203.5 -62.5t65.5 -168.5q0 -38 -5.5 -77t-12.5 -73l-111 -521h-178l118 545q5 24 7 48t2 44q0 55 -30.5 79.5t-97.5 24.5h-106l-159 -741h-177z" />
    <glyph glyph-name="uni040C" unicode="&#x40c;" horiz-adv-x="839" 
d="M0 0l309 1462h178l-149 -703l481 703h195l-503 -713l207 -749h-190l-193 745l-157 -745h-178zM527 1608l2 20q45 53 86.5 106.5t76.5 105t61 96.5h203l-2 -17q-21 -29 -61 -72t-87 -89t-90.5 -86.5t-73.5 -63.5h-115z" />
    <glyph glyph-name="uni040D" unicode="&#x40d;" horiz-adv-x="1074" 
d="M-1 0l310 1462h173l-135 -640q-16 -77 -33.5 -158t-36 -161.5t-40.5 -157.5h7l672 1117h209l-309 -1462h-174l132 628q19 84 39 175.5t40.5 176t39.5 146.5h-7l-675 -1126h-212zM726 1611q-27 37 -62.5 93t-67.5 114.5t-47 101.5v18h195q13 -48 27.5 -98t31.5 -101.5
t39 -106.5l-3 -21h-113z" />
    <glyph glyph-name="uni040E" unicode="&#x40e;" horiz-adv-x="749" 
d="M46 -18q-41 0 -70 6t-52 16v160q22 -14 51 -19.5t54 -5.5q32 0 57.5 12.5t49.5 44.5t52 87.5t66 141.5l-77 1037h181l30 -583q2 -33 4 -75t4 -81t2 -64q20 51 42.5 108.5t49.5 116.5l259 578h188l-539 -1144q-46 -101 -96.5 -176.5t-112 -117.5t-143.5 -42zM589 1602
q-81 0 -134.5 27.5t-79.5 78.5t-26 120q0 17 2 39.5t6 42.5h140q-1 -18 -3.5 -38t-2.5 -39q0 -57 26 -87.5t81 -30.5q68 0 108 50t60 145h143q-22 -106 -65.5 -174t-106.5 -101t-148 -33z" />
    <glyph glyph-name="uni040F" unicode="&#x40f;" horiz-adv-x="991" 
d="M196 -396l83 396h-278l311 1462h178l-278 -1303h376l277 1303h178l-311 -1462h-278l-85 -396h-173z" />
    <glyph glyph-name="uni0410" unicode="&#x410;" horiz-adv-x="848" 
d="M-132 0l614 1468h227l7 -1468h-186l3 452h-287l-184 -452h-194zM305 612h236l9 504q0 49 2 93t6 83h-6q-9 -37 -22 -80t-33 -95z" />
    <glyph glyph-name="uni0411" unicode="&#x411;" horiz-adv-x="846" 
d="M0 0l309 1462h584l-34 -161h-406l-95 -446h66q111 0 187 -37t114.5 -109.5t38.5 -181.5q0 -112 -30.5 -207.5t-92.5 -167.5t-154 -112t-214 -40h-273zM210 157h100q86 0 146 45t92 126t32 190q0 94 -51 137t-150 43h-54z" />
    <glyph glyph-name="uni0412" unicode="&#x412;" horiz-adv-x="894" 
d="M-1 0l309 1462h281q91 0 163.5 -31t115 -94.5t42.5 -161.5q0 -91 -29.5 -174.5t-90.5 -145t-157 -87.5v-6q77 -23 118.5 -96.5t41.5 -171.5q0 -134 -52.5 -247t-155.5 -180t-254 -67h-332zM211 156h120q98 0 159 47.5t89.5 125.5t28.5 170q0 96 -45 142.5t-124 46.5h-116
zM355 839h110q83 0 140 43.5t87 114.5t30 151t-41.5 120.5t-126.5 40.5h-100z" />
    <glyph glyph-name="uni0413" unicode="&#x413;" horiz-adv-x="679" 
d="M-1 0l310 1462h521l-33 -160h-345l-275 -1302h-178z" />
    <glyph glyph-name="uni0414" unicode="&#x414;" horiz-adv-x="974" 
d="M-193 -396l119 555h81q72 130 141 281t131 317.5t115 344.5t94 360h524l-278 -1303h122l-118 -555h-175l85 396h-583l-83 -396h-175zM195 159h363l245 1147h-183q-38 -160 -88 -319t-106 -309.5t-115 -282t-116 -236.5z" />
    <glyph glyph-name="uni0415" unicode="&#x415;" horiz-adv-x="760" 
d="M-1 0l310 1462h542l-33 -158h-365l-97 -462h340l-35 -158h-339l-112 -525h365l-34 -159h-542z" />
    <glyph glyph-name="uni0416" unicode="&#x416;" horiz-adv-x="1190" 
d="M-137 0l501 765l-189 697h183l179 -703l149 703h174l-149 -701l464 701h193l-488 -712l184 -750h-187l-169 747l-158 -747h-173l157 747l-474 -747h-197z" />
    <glyph glyph-name="uni0417" unicode="&#x417;" horiz-adv-x="813" 
d="M224 -20q-91 0 -155.5 14t-112.5 40v184q48 -37 113.5 -58t141.5 -21q77 0 133.5 25t93.5 69.5t55 104t18 128.5q0 111 -55.5 163t-157.5 52h-112l34 159h112q99 0 168 43t105 116t36 162q0 75 -40.5 119t-121.5 44q-70 0 -122.5 -25.5t-102.5 -65.5l-68 132
q74 57 154.5 87.5t179.5 30.5q94 0 161.5 -36t103.5 -102t36 -159q0 -105 -38 -193t-108.5 -147t-168.5 -80l-2 -6q54 -15 97 -52.5t68 -98t25 -146.5q0 -102 -32.5 -189.5t-93.5 -153.5t-148 -103t-196 -37z" />
    <glyph glyph-name="uni0418" unicode="&#x418;" horiz-adv-x="1074" 
d="M-1 0l310 1462h173l-135 -640q-16 -77 -33.5 -158t-36 -161.5t-40.5 -157.5h7l672 1117h209l-309 -1462h-174l132 628q19 84 39 175.5t40.5 176t39.5 146.5h-7l-675 -1126h-212z" />
    <glyph glyph-name="uni0419" unicode="&#x419;" horiz-adv-x="1074" 
d="M-1 0l310 1462h173l-135 -640q-16 -77 -33.5 -158t-36 -161.5t-40.5 -157.5h7l672 1117h209l-309 -1462h-174l132 628q19 84 39 175.5t40.5 176t39.5 146.5h-7l-675 -1126h-212zM749 1602q-81 0 -134.5 27.5t-79.5 78.5t-26 120q0 17 2 39.5t6 42.5h140q-1 -18 -3.5 -38
t-2.5 -39q0 -57 26 -87.5t81 -30.5q68 0 108 50t60 145h143q-22 -106 -65.5 -174t-106.5 -101t-148 -33z" />
    <glyph glyph-name="uni041A" unicode="&#x41a;" horiz-adv-x="839" 
d="M0 0l309 1462h178l-149 -703l481 703h195l-503 -713l207 -749h-190l-193 745l-157 -745h-178z" />
    <glyph glyph-name="uni041B" unicode="&#x41b;" horiz-adv-x="953" 
d="M-13 -13q-25 0 -51 4t-47 11v159q19 -8 39 -12.5t41 -4.5q28 0 53 14.5t47.5 48.5t43.5 91q28 75 68.5 201t89.5 284.5t100.5 333t101.5 345.5h552l-311 -1462h-178l276 1294h-219q-30 -104 -64.5 -225t-72 -245.5t-73.5 -240t-68.5 -210.5t-57.5 -156q-35 -80 -72 -131
t-84.5 -75t-113.5 -24z" />
    <glyph glyph-name="uni041C" unicode="&#x41c;" horiz-adv-x="1340" 
d="M-1 0l310 1462h245l43 -1167h4l526 1167h262l-311 -1462h-175l205 964l14 60t15 61t15 63h-4l-524 -1148h-171l-44 1146h-5q-7 -42 -13.5 -79.5t-12.5 -72t-13 -69.5l-197 -925h-169z" />
    <glyph glyph-name="uni041D" unicode="&#x41d;" horiz-adv-x="1003" 
d="M-1 0l310 1462h178l-131 -616h387l132 616h178l-312 -1462h-178l145 684h-386l-145 -684h-178z" />
    <glyph glyph-name="uni041E" unicode="&#x41e;" horiz-adv-x="1028" 
d="M400 -20q-111 0 -183.5 47t-108.5 144t-36 245q0 110 16.5 231t50 241t84 227t117.5 190t151.5 131t185.5 48q165 0 244 -104.5t79 -317.5q0 -96 -15 -212.5t-45.5 -238t-78.5 -234t-114.5 -202.5t-152.5 -142.5t-194 -52.5zM413 141q68 0 124.5 45.5t101.5 123
t78.5 174.5t55.5 201t33.5 202t11.5 178q0 133 -39 196t-118 63q-72 0 -130 -48t-103 -128.5t-77.5 -179t-53 -201t-30.5 -195t-10 -158.5q0 -97 17.5 -157.5t52.5 -88t86 -27.5z" />
    <glyph glyph-name="uni041F" unicode="&#x41f;" horiz-adv-x="991" 
d="M-1 0l310 1462h732l-310 -1462h-177l275 1302h-378l-274 -1302h-178z" />
    <glyph glyph-name="uni0420" unicode="&#x420;" horiz-adv-x="839" 
d="M0 0l309 1462h231q113 0 188.5 -39.5t113 -111.5t37.5 -171q0 -119 -32 -223.5t-94.5 -183t-154 -123.5t-210.5 -45h-91l-119 -565h-178zM330 724h57q101 0 169.5 50.5t103.5 139t35 204.5q0 93 -46 139.5t-138 46.5h-58z" />
    <glyph glyph-name="uni0421" unicode="&#x421;" horiz-adv-x="805" 
d="M405 -20q-109 0 -183 53.5t-111 158.5t-37 260q0 123 25 264t76 277t126.5 247.5t177.5 178t229 66.5q72 0 134.5 -18.5t111.5 -57.5l-91 -144q-34 30 -73 44.5t-83 14.5q-92 0 -164 -62t-125.5 -162t-88.5 -216t-52 -227t-17 -193q0 -170 45 -247t142 -77
q47 0 96.5 13.5t103.5 37.5v-162q-58 -25 -120.5 -37t-121.5 -12z" />
    <glyph glyph-name="uni0422" unicode="&#x422;" horiz-adv-x="719" 
d="M137 0l277 1302h-251l35 160h679l-36 -160h-249l-277 -1302h-178z" />
    <glyph glyph-name="uni0423" unicode="&#x423;" horiz-adv-x="749" 
d="M46 -18q-41 0 -70 6t-52 16v160q22 -14 51 -19.5t54 -5.5q32 0 57.5 12.5t49.5 44.5t52 87.5t66 141.5l-77 1037h181l30 -583q2 -33 4 -75t4 -81t2 -64q20 51 42.5 108.5t49.5 116.5l259 578h188l-539 -1144q-46 -101 -96.5 -176.5t-112 -117.5t-143.5 -42z" />
    <glyph glyph-name="uni0424" unicode="&#x424;" horiz-adv-x="1190" 
d="M365 -20l49 225q-102 7 -176 52t-113 130t-39 212q0 145 37.5 271t109.5 222t176.5 151.5t237.5 59.5l37 180h174l-37 -180q101 -6 174.5 -53t113 -132t39.5 -206q0 -147 -39 -274.5t-113 -224t-177.5 -151.5t-231.5 -57l-49 -225h-173zM445 359l170 789
q-91 -2 -157.5 -51.5t-109 -130t-63 -175t-20.5 -187.5q0 -81 21 -134t61 -80t98 -31zM619 359q83 2 148 49t109 125t67.5 174.5t23.5 197.5q0 81 -22 134.5t-62 80.5t-97 28z" />
    <glyph glyph-name="uni0425" unicode="&#x425;" horiz-adv-x="783" 
d="M-120 0l443 766l-103 696h185l60 -524l275 524h189l-402 -713l108 -749h-190l-57 572l-319 -572h-189z" />
    <glyph glyph-name="uni0426" unicode="&#x426;" horiz-adv-x="1041" 
d="M610 -396l85 396h-689l311 1462h178l-277 -1303h380l276 1303h178l-276 -1303h128l-120 -555h-174z" />
    <glyph glyph-name="uni0427" unicode="&#x427;" horiz-adv-x="959" 
d="M511 0l125 592q-62 -35 -131 -60t-131 -25q-76 0 -128.5 29.5t-79 84t-26.5 130.5q0 35 5.5 75t13.5 77l120 559h177l-115 -540q-7 -37 -11 -65t-4 -56q0 -68 30.5 -100t89.5 -32t115 22.5t107 53.5l152 717h178l-309 -1462h-178z" />
    <glyph glyph-name="uni0428" unicode="&#x428;" horiz-adv-x="1398" 
d="M-1 0l310 1462h178l-278 -1303h309l276 1303h178l-276 -1303h307l277 1303h177l-310 -1462h-1148z" />
    <glyph glyph-name="uni0429" unicode="&#x429;" horiz-adv-x="1437" 
d="M1017 -396l85 396h-1103l310 1462h178l-278 -1303h309l276 1303h178l-276 -1303h307l278 1303h178l-278 -1303h129l-120 -555h-173z" />
    <glyph glyph-name="uni042A" unicode="&#x42a;" horiz-adv-x="980" 
d="M127 0l274 1299h-253l35 163h431l-127 -607h65q111 0 186 -36.5t114 -109t39 -182.5t-31 -206t-91 -168t-149.5 -112.5t-207.5 -40.5h-285zM338 157h99q87 0 147.5 45t92 126t31.5 190q0 94 -49 137t-140 43h-65z" />
    <glyph glyph-name="uni042B" unicode="&#x42b;" horiz-adv-x="1275" 
d="M0 0l308 1462h178l-128 -607h70q111 0 185.5 -36t113 -108t38.5 -179q0 -102 -28.5 -197t-87 -170.5t-150.5 -120t-219 -44.5h-280zM210 157h96q72 0 124 29t85.5 79.5t50 115.5t16.5 139q0 94 -49 136t-148 42h-60zM831 0l312 1462h177l-311 -1462h-178z" />
    <glyph glyph-name="uni042C" unicode="&#x42c;" horiz-adv-x="851" 
d="M0 0l307 1462h178l-127 -607h69q111 0 186 -36.5t113.5 -108.5t38.5 -178q0 -102 -28.5 -197t-87 -170.5t-150.5 -120t-219 -44.5h-280zM210 157h96q72 0 124 29t85.5 79.5t50 115.5t16.5 139q0 94 -50 136t-141 42h-66z" />
    <glyph glyph-name="uni042D" unicode="&#x42d;" horiz-adv-x="856" 
d="M195 -20q-72 0 -127 12.5t-101 36.5v166q36 -19 74 -31t76.5 -18t74.5 -6q97 0 174.5 61t134.5 181t91 297h-399l35 160h390q7 42 10.5 86.5t3.5 86.5q0 103 -22 172.5t-64.5 104.5t-103.5 35q-51 0 -98.5 -14.5t-101.5 -45.5l-50 142q64 37 133.5 58t145.5 21
q108 0 185.5 -53.5t117.5 -159t40 -264.5q0 -132 -21.5 -275t-67.5 -277t-118.5 -241.5t-175 -171t-236.5 -63.5z" />
    <glyph glyph-name="uni042E" unicode="&#x42e;" horiz-adv-x="1351" 
d="M761 -20q-99 0 -164.5 43t-98 133.5t-32.5 232.5q0 59 8 134t25 161h-177l-145 -684h-178l310 1462h178l-131 -619h173q30 122 74 236t106 205.5t143 145.5t185 54q142 0 217 -97.5t75 -301.5q0 -92 -14.5 -209t-44.5 -241.5t-75.5 -241t-109 -209.5t-144.5 -148.5
t-180 -55.5zM769 141q64 0 116 52.5t94 140t73 192.5t51.5 212.5t31 200.5t10.5 154q0 116 -31.5 173.5t-97.5 57.5q-62 0 -114 -51t-93.5 -136t-73 -188.5t-52.5 -209t-31.5 -198.5t-10.5 -156q0 -89 14.5 -143t43 -77.5t70.5 -23.5z" />
    <glyph glyph-name="uni042F" unicode="&#x42f;" horiz-adv-x="871" 
d="M-115 0l426 652q-69 35 -108 109t-39 184q0 107 30.5 200.5t92.5 165t154 111.5t215 40h261l-309 -1462h-178l128 606h-89l-382 -606h-202zM521 758h70l116 550h-80q-72 0 -125 -29t-87 -78.5t-50.5 -112.5t-16.5 -130q0 -99 44.5 -149.5t128.5 -50.5z" />
    <glyph glyph-name="uni0430" unicode="&#x430;" horiz-adv-x="875" 
d="M263 -20q-68 0 -116.5 36t-74 105.5t-25.5 168.5q0 91 17 202t51 221.5t87 203t125 148.5t163 56q46 0 82.5 -18t62.5 -54t39 -89h6l46 141h147l-234 -1101h-138l12 156h-5q-36 -55 -73.5 -94.5t-79 -60.5t-92.5 -21zM324 129q67 0 114.5 55t80.5 139.5t55 172.5
q25 98 37 174t12 141q0 76 -29 117t-82 41t-98 -45t-80 -119t-59.5 -162.5t-37 -176.5t-12.5 -160q0 -90 25 -133.5t74 -43.5z" />
    <glyph glyph-name="uni0431" unicode="&#x431;" horiz-adv-x="836" 
d="M317 -20q-79 0 -139.5 35t-94 113t-33.5 205q0 107 16.5 244t54 281.5t100 276t155 229.5t218.5 139q30 11 66.5 20t79 17t91.5 15t104 13v-158q-56 -5 -107.5 -11.5t-100.5 -17t-100 -27.5q-81 -27 -141.5 -94t-103.5 -162t-75 -208h8q43 62 102.5 97t123.5 35
q73 0 124 -34.5t78 -104.5t27 -174q0 -122 -30 -249.5t-87.5 -236.5t-142 -176t-193.5 -67zM326 129q51 0 93 38.5t74 101.5t54 138.5t33 151t11 137.5q0 72 -21.5 126.5t-87.5 54.5q-37 0 -76.5 -23t-75 -64t-61.5 -96q-22 -105 -35 -197.5t-13 -171.5q0 -66 12.5 -109.5
t35.5 -65t57 -21.5z" />
    <glyph glyph-name="uni0432" unicode="&#x432;" horiz-adv-x="873" 
d="M354 -20q-92 0 -161 37t-107 113t-38 194q0 96 16 204.5t52.5 213.5t96 191t146 137t202.5 51q84 0 145 -28.5t94.5 -83.5t33.5 -135t-30 -142.5t-86.5 -103.5t-137.5 -59l-2 -6q69 -15 112.5 -73t43.5 -158q0 -95 -43.5 -174.5t-128.5 -128.5t-208 -49zM375 117
q58 0 100.5 29.5t66 79t23.5 107.5q0 51 -18.5 88.5t-56 58t-95.5 20.5h-157q-6 -39 -10.5 -82.5t-4.5 -90.5q0 -118 40.5 -164t111.5 -46zM266 633h155q70 0 122.5 27t82.5 77.5t30 121.5q0 60 -29 92t-86 32q-65 0 -117 -41.5t-91 -120t-67 -188.5z" />
    <glyph glyph-name="uni0433" unicode="&#x433;" horiz-adv-x="666" 
d="M277 -20q-81 0 -143 26t-97.5 82t-37.5 145q0 74 19.5 133t54.5 105t84 84t108 72q61 36 109 71t76.5 77.5t28.5 101.5q0 49 -29.5 73t-77.5 24q-52 0 -94 -17t-80 -39l-44 130q58 36 119.5 54.5t125.5 18.5q83 0 139 -28.5t85.5 -82t29.5 -129.5q0 -68 -19.5 -122
t-54 -96.5t-81 -78t-100.5 -66.5q-83 -48 -131 -88t-68.5 -83.5t-20.5 -100.5q0 -59 36 -88t95 -29q37 0 72 8.5t68.5 23t64.5 32.5v-153q-54 -30 -115 -45t-122 -15z" />
    <glyph glyph-name="uni0434" unicode="&#x434;" horiz-adv-x="865" 
d="M336 -20q-94 0 -157.5 39.5t-96 114t-32.5 178.5q0 80 14.5 178t45 196.5t80.5 180.5t121 132t166 50q43 0 79 -12.5t63.5 -33t44.5 -44.5h4q3 34 4 72.5t1 69.5q0 168 -44.5 247.5t-139.5 79.5q-41 0 -83.5 -13t-87.5 -38l-41 138q55 30 117.5 45.5t122.5 15.5
q116 0 188 -60t106.5 -170t34.5 -262q0 -101 -10 -221.5t-32.5 -244.5t-60.5 -238t-94.5 -204t-133.5 -143t-179 -53zM344 125q55 0 100.5 43t80.5 115.5t59.5 161t39.5 180.5t21 173q-13 32 -36 56t-52 37.5t-64 13.5q-56 0 -99.5 -41t-75 -107.5t-52.5 -146t-30.5 -157.5
t-9.5 -140q0 -100 29 -144t89 -44z" />
    <glyph glyph-name="uni0435" unicode="&#x435;" horiz-adv-x="794" 
d="M342 -20q-92 0 -157.5 39.5t-101 115t-35.5 184.5q0 161 35.5 305.5t100 256.5t153 176t195.5 64q105 0 167.5 -59.5t62.5 -172.5q0 -91 -34.5 -164.5t-101 -125.5t-161.5 -80t-216 -28h-15q-7 -37 -11 -75.5t-4 -76.5q0 -113 41 -164.5t123 -51.5q57 0 105.5 15
t109.5 50v-141q-57 -36 -120.5 -51.5t-135.5 -15.5zM259 621h6q121 0 194.5 33t107.5 91.5t34 132.5q0 47 -22.5 74t-69.5 27q-52 0 -100 -45.5t-86.5 -126t-63.5 -186.5z" />
    <glyph glyph-name="uni0436" unicode="&#x436;" horiz-adv-x="1296" 
d="M-12 -16q-21 0 -41.5 2t-40.5 7l41 147q8 -3 18.5 -4.5t27.5 -1.5q63 0 111.5 45.5t83.5 120.5t57.5 162t33 170.5t10.5 145.5q0 101 -31 146t-91 45q-11 0 -23.5 -1.5t-24.5 -5.5v144q17 6 39 9t46 3q123 0 188.5 -80.5t65.5 -239.5q0 -38 -3 -80.5t-10 -87.5h132
l102 471h164l-100 -471h128q22 96 58 183.5t88.5 156t123 108.5t160.5 40q19 0 38 -1.5t37 -5.5l-39 -149q-8 4 -17 5t-25 1q-59 0 -106.5 -43t-83.5 -114.5t-60 -157t-36 -172.5t-12 -159q0 -98 31.5 -144t93.5 -46q13 0 25.5 1.5t24.5 5.5v-144q-18 -5 -40.5 -8t-45.5 -3
q-84 0 -141.5 35.5t-87.5 107t-30 176.5q0 42 4.5 89t10.5 97h-131l-102 -489h-166l104 489h-126q-29 -121 -70.5 -214.5t-96 -158.5t-121 -98.5t-145.5 -33.5z" />
    <glyph glyph-name="uni0437" unicode="&#x437;" horiz-adv-x="661" 
d="M194 -20q-72 0 -132.5 15t-105.5 43v164q53 -37 109 -56t112 -19q67 0 112 29.5t67 81t22 118.5q0 76 -37 115t-106 39h-85l30 136h74q59 0 104 28t70 75t25 103q0 63 -28 93.5t-82 30.5q-39 0 -77 -12t-77 -35l-45 130q61 36 118.5 49t119.5 13q79 0 133.5 -28t82 -81.5
t27.5 -129.5q0 -73 -26 -132.5t-72.5 -101t-109.5 -61.5l-2 -8q65 -19 101 -78.5t36 -149.5q0 -103 -42.5 -187t-122.5 -134t-193 -50z" />
    <glyph glyph-name="uni0438" unicode="&#x438;" horiz-adv-x="857" 
d="M250 -20q-65 0 -109.5 25t-67.5 73.5t-23 117.5q0 38 7 88t17 96l154 721h171l-146 -694q-11 -46 -18 -90t-7 -82q0 -47 20.5 -73.5t64.5 -26.5q59 0 104 44.5t79.5 129t58.5 203.5l126 589h170l-232 -1101h-138l13 140h-6q-30 -51 -67.5 -86.5t-80.5 -54.5t-90 -19z" />
    <glyph glyph-name="uni0439" unicode="&#x439;" horiz-adv-x="857" 
d="M250 -20q-65 0 -109.5 25t-67.5 73.5t-23 117.5q0 38 7 88t17 96l154 721h171l-146 -694q-11 -46 -18 -90t-7 -82q0 -47 20.5 -73.5t64.5 -26.5q59 0 104 44.5t79.5 129t58.5 203.5l126 589h170l-232 -1101h-138l13 140h-6q-30 -51 -67.5 -86.5t-80.5 -54.5t-90 -19z
M565 1233q-81 0 -134.5 27.5t-79.5 78.5t-26 120q0 17 2 39.5t6 42.5h140q-1 -18 -3.5 -38t-2.5 -39q0 -57 26 -87.5t81 -30.5q68 0 108 50t60 145h143q-22 -106 -65.5 -174t-106.5 -101t-148 -33z" />
    <glyph glyph-name="uni043A" unicode="&#x43a;" horiz-adv-x="752" 
d="M-1 0l233 1101h172l-111 -517l364 517h191l-388 -532l174 -569h-184l-162 562l-119 -562h-170z" />
    <glyph glyph-name="uni043B" unicode="&#x43b;" horiz-adv-x="813" 
d="M-16 -13q-27 0 -45.5 4.5t-36.5 12.5v150q13 -7 28 -10.5t32 -3.5q32 1 60 20t52.5 65t48.5 127t49 207q27 139 63 242t86.5 172t124 103t176.5 34q59 0 109 -4.5t107 -12.5l-231 -1093h-172l203 954q-12 2 -24.5 3t-27.5 1q-69 0 -114 -47t-78.5 -146t-68.5 -258
q-28 -131 -58 -228t-68.5 -161.5t-90.5 -97t-124 -33.5z" />
    <glyph glyph-name="uni043C" unicode="&#x43c;" horiz-adv-x="1069" 
d="M-3 0l237 1101h230l1 -837h4l358 837h239l-233 -1101h-165l126 587q14 63 27 120.5t28 117.5h-3l-361 -825h-141l-10 825h-2q-11 -55 -20.5 -106t-20.5 -106l-132 -613h-162z" />
    <glyph glyph-name="uni043D" unicode="&#x43d;" horiz-adv-x="865" 
d="M-2 0l234 1101h172l-97 -455h286l95 455h171l-234 -1101h-170l107 497h-288l-105 -497h-171z" />
    <glyph glyph-name="uni043E" unicode="&#x43e;" horiz-adv-x="845" 
d="M320 -20q-86 0 -146 38.5t-92 114t-32 184.5q0 83 16 189t50.5 213.5t90.5 199t135.5 147t185.5 55.5q84 0 144 -39.5t91.5 -115.5t31.5 -186q0 -99 -18 -209.5t-54.5 -215.5t-93.5 -189.5t-134 -135t-175 -50.5zM338 129q54 0 98.5 43.5t79 116t57.5 159.5t35 175
t12 161q0 60 -12.5 102.5t-37.5 64.5t-64 22q-58 0 -104 -47t-79.5 -123.5t-55.5 -165.5t-33 -174t-11 -148q0 -90 29 -138t86 -48z" />
    <glyph glyph-name="uni043F" unicode="&#x43f;" horiz-adv-x="854" 
d="M-3 0l233 1101h139l-18 -146h5q30 53 67.5 90.5t81.5 56.5t94 19q56 0 101 -21.5t72 -68t27 -121.5q0 -42 -8.5 -96.5t-19.5 -108.5l-150 -705h-171l143 676q10 50 19 102t9 92q0 45 -21.5 69.5t-65.5 24.5q-58 0 -103 -44t-78 -127.5t-59 -202.5l-125 -590h-172z" />
    <glyph glyph-name="uni0440" unicode="&#x440;" horiz-adv-x="865" 
d="M-101 -478l332 1579h142l-19 -159h6q37 60 76 100t82 59.5t92 19.5q69 0 116 -34t72 -103t25 -173q0 -94 -17.5 -206t-52.5 -222t-88 -201.5t-124 -146.5t-160 -55q-47 0 -84 19t-62.5 53.5t-37.5 80.5h-6q-7 -53 -16 -104.5t-19 -93.5l-88 -413h-169zM359 131
q53 0 98.5 45t80.5 119t59.5 162.5t37 177.5t12.5 162q0 91 -24.5 134.5t-74.5 43.5q-49 0 -90 -36t-74 -95.5t-58 -133t-42 -150.5t-25.5 -147t-8.5 -121q0 -79 27.5 -120t81.5 -41z" />
    <glyph glyph-name="uni0441" unicode="&#x441;" horiz-adv-x="662" 
d="M318 -20q-87 0 -146.5 38t-90.5 113t-31 184q0 98 17.5 208t54 216t93.5 192.5t136 138t182 51.5q57 0 104 -12.5t88 -38.5l-70 -141q-26 20 -59 30.5t-64 10.5q-77 0 -134.5 -63.5t-95.5 -162.5t-57 -208t-19 -201q0 -70 15 -115.5t44.5 -67.5t72.5 -22q38 0 81.5 16
t90.5 44v-150q-41 -25 -96.5 -42.5t-115.5 -17.5z" />
    </font>
</defs>
</svg>
