<?xml version="1.0" standalone="no"?>
<!DOCTYPE svg PUBLIC "-//W3C//DTD SVG 1.1//EN" "http://www.w3.org/Graphics/SVG/1.1/DTD/svg11.dtd" >
<svg xmlns="http://www.w3.org/2000/svg" xmlns:xlink="http://www.w3.org/1999/xlink" version="1.1">
<metadata>
Created by FontForge 20170731 at Wed Feb 10 17:54:38 2021
 By Aleksey,,,
Copyright 2020 The Open Sans Project Authors (https://github.com/googlefonts/opensans)
</metadata>
<defs>
<font id="OpenSansCondensed-Regular" horiz-adv-x="0" >
  <font-face 
    font-family="Open Sans Condensed"
    font-weight="400"
    font-stretch="condensed"
    units-per-em="2048"
    panose-1="0 0 0 0 0 0 0 0 0 0"
    ascent="1638"
    descent="-410"
    x-height="1098"
    cap-height="1462"
    bbox="-1068 -546 1982 2140"
    underline-thickness="50"
    underline-position="-175"
    unicode-range="U+000D-FFFD"
  />
<missing-glyph horiz-adv-x="1229" 
 />
    <glyph glyph-name="f_f" unicode="ff" horiz-adv-x="1017" 
d="M479 968h-173v-968h-153v968h-135v83l135 52v74q0 125 21.5 212t75 132.5t147.5 45.5q44 0 81.5 -8t77.5 -24l-40 -124q-28 10 -52.5 15.5t-48.5 5.5q-62 0 -84.5 -54.5t-24.5 -196.5v-83h173v-130zM988 968h-173v-968h-153v968h-135v83l135 52v74q0 125 21.5 212
t75 132.5t147.5 45.5q44 0 81.5 -8t77.5 -24l-40 -124q-28 10 -52.5 15.5t-48.5 5.5q-62 0 -84.5 -54.5t-24.5 -196.5v-83h173v-130z" />
    <glyph glyph-name="fi" unicode="fi" horiz-adv-x="929" 
d="M479 968h-173v-968h-153v968h-135v83l135 52v74q0 125 21.5 212t75 132.5t147.5 45.5q44 0 81.5 -8t77.5 -24l-40 -124q-28 10 -52.5 15.5t-48.5 5.5q-62 0 -84.5 -54.5t-24.5 -196.5v-83h173v-130zM796 1098v-1098h-153v1098h153zM722 1510q47 0 68.5 -30t21.5 -83
q0 -52 -23 -82t-67 -30q-43 0 -68 30t-25 82q0 55 24 84t69 29z" />
    <glyph glyph-name="fl" unicode="fl" horiz-adv-x="927" 
d="M479 968h-173v-968h-153v968h-135v83l135 52v74q0 125 21.5 212t75 132.5t147.5 45.5q44 0 81.5 -8t77.5 -24l-40 -124q-28 10 -52.5 15.5t-48.5 5.5q-62 0 -84.5 -54.5t-24.5 -196.5v-83h173v-130zM795 0h-154v1556h154v-1556z" />
    <glyph glyph-name="f_f_i" unicode="ffi" horiz-adv-x="1438" 
d="M479 968h-173v-968h-153v968h-135v83l135 52v74q0 125 21.5 212t75 132.5t147.5 45.5q44 0 81.5 -8t77.5 -24l-40 -124q-28 10 -52.5 15.5t-48.5 5.5q-62 0 -84.5 -54.5t-24.5 -196.5v-83h173v-130zM986 968h-173v-968h-153v968h-135v83l135 52v74q0 125 21.5 212
t75 132.5t147.5 45.5q44 0 81.5 -8t77.5 -24l-40 -124q-28 10 -52.5 15.5t-48.5 5.5q-62 0 -84.5 -54.5t-24.5 -196.5v-83h173v-130zM1302 1098v-1098h-153v1098h153zM1228 1510q47 0 68.5 -30t21.5 -83q0 -52 -23 -82t-67 -30q-43 0 -68 30t-25 82q0 55 24 84t69 29z" />
    <glyph glyph-name="f_f_l" unicode="ffl" horiz-adv-x="1434" 
d="M479 968h-173v-968h-153v968h-135v83l135 52v74q0 125 21.5 212t75 132.5t147.5 45.5q44 0 81.5 -8t77.5 -24l-40 -124q-28 10 -52.5 15.5t-48.5 5.5q-62 0 -84.5 -54.5t-24.5 -196.5v-83h173v-130zM986 968h-173v-968h-153v968h-135v83l135 52v74q0 125 21.5 212
t75 132.5t147.5 45.5q44 0 81.5 -8t77.5 -24l-40 -124q-28 10 -52.5 15.5t-48.5 5.5q-62 0 -84.5 -54.5t-24.5 -196.5v-83h173v-130zM1301 0h-154v1556h154v-1556z" />
    <glyph glyph-name=".notdef" horiz-adv-x="1229" 
 />
    <glyph glyph-name=".null" 
 />
    <glyph glyph-name="nonmarkingreturn" horiz-adv-x="682" 
 />
    <glyph glyph-name="NULL" 
 />
    <glyph glyph-name="NULL" 
 />
    <glyph glyph-name="CR" unicode="&#xd;" horiz-adv-x="380" 
 />
    <glyph glyph-name="space" unicode=" " horiz-adv-x="380" 
 />
    <glyph glyph-name="exclam" unicode="!" horiz-adv-x="472" 
d="M294 405h-116l-36 1057h186zM133 107q0 61 26 93t78 32q48 0 76 -29.5t28 -95.5q0 -64 -29.5 -94t-74.5 -30q-51 0 -77.5 31.5t-26.5 92.5z" />
    <glyph glyph-name="quotedbl" unicode="&#x22;" horiz-adv-x="757" 
d="M299 1462l-30 -528h-116l-32 528h178zM638 1462l-30 -528h-116l-32 528h178z" />
    <glyph glyph-name="numbersign" unicode="#" horiz-adv-x="934" 
d="M714 927l-42 -354h179v-125h-193l-57 -448h-120l56 448h-210l-53 -448h-117l53 448h-171v125h186l42 354h-181v122h197l49 413h120l-51 -413h209l52 413h116l-51 -413h171v-122h-184zM343 573h209l44 354h-210z" />
    <glyph glyph-name="dollar" unicode="$" horiz-adv-x="871" 
d="M386 -119v218q-91 2 -169.5 21t-134.5 47v149q57 -34 138 -59t166 -27v460q-108 44 -175.5 93t-99 114t-31.5 156q0 95 38.5 167.5t107.5 116.5t160 52v167h95v-163q78 -4 147.5 -21.5t133.5 -49.5l-45 -124q-54 28 -111 43t-125 19v-462q105 -44 174 -91.5t103.5 -109.5
t34.5 -150q0 -135 -81.5 -226t-230.5 -114v-226h-95zM481 237q86 16 131 70t45 130q0 52 -18.5 89.5t-57 67.5t-100.5 57v-414zM386 839v419q-53 -8 -91 -35t-58 -69.5t-20 -97.5q0 -56 17 -94t54 -66.5t98 -56.5z" />
    <glyph glyph-name="percent" unicode="%" horiz-adv-x="1339" 
d="M316 1483q112 0 173.5 -118t61.5 -339q0 -220 -61 -340.5t-174 -120.5t-173 121t-60 340q0 221 59 339t174 118zM314 1369q-55 0 -79 -85.5t-24 -257.5t24.5 -258t80.5 -86q55 0 80.5 85t25.5 259q0 173 -27.5 258t-80.5 85zM984 1462l-508 -1462h-125l508 1462h125z
M1023 899q112 0 173.5 -118t61.5 -339q0 -225 -62 -342.5t-173 -117.5q-112 0 -172.5 120t-60.5 340q0 227 60 342t173 115zM1021 785q-55 0 -79.5 -85t-24.5 -258q0 -172 24.5 -258t81.5 -86q56 0 80 87.5t24 256.5q0 167 -26.5 255t-79.5 88z" />
    <glyph glyph-name="ampersand" unicode="&#x26;" horiz-adv-x="956" 
d="M415 1483q77 0 131 -36t82.5 -104t28.5 -165q0 -127 -45 -224.5t-137 -181.5l214 -363q26 55 41.5 126t17.5 153h157q-6 -100 -38.5 -216t-82.5 -202l176 -270h-185l-89 155q-43 -55 -91 -94t-104.5 -60t-126.5 -21q-102 0 -169.5 50.5t-101 138.5t-33.5 200
q0 88 24 161.5t74.5 138.5t129.5 126q-42 70 -68 130t-38.5 122.5t-12.5 136.5q0 93 30 160t85.5 103t130.5 36zM360 690q-52 -46 -83.5 -93t-45.5 -101t-14 -122q0 -118 46 -185t122 -67q66 0 119 39t100 118zM412 1357q-45 0 -70 -45.5t-25 -130.5q0 -74 22.5 -157
t62.5 -144q62 56 87 133t25 168q0 87 -26 131.5t-76 44.5z" />
    <glyph glyph-name="quotesingle" unicode="'" horiz-adv-x="416" 
d="M299 1462l-30 -528h-116l-32 528h178z" />
    <glyph glyph-name="parenleft" unicode="(" horiz-adv-x="590" 
d="M100 567q0 173 34 335.5t99.5 307.5t158.5 264h136q-134 -199 -203 -429.5t-69 -475.5q0 -162 31.5 -319.5t92 -303t146.5 -270.5h-134q-95 116 -160 257t-98.5 301.5t-33.5 332.5z" />
    <glyph glyph-name="parenright" unicode=")" horiz-adv-x="590" 
d="M489 568q0 -169 -33.5 -330t-98.5 -304t-159 -258h-135q87 126 147.5 272.5t92 304.5t31.5 317q0 166 -31.5 323.5t-92 303.5t-148.5 277h136q94 -118 158.5 -264t98.5 -309t34 -333z" />
    <glyph glyph-name="asterisk" unicode="*" horiz-adv-x="800" 
d="M481 1559l-29 -266l244 76l28 -147l-241 -25l173 -225l-130 -78l-124 245l-130 -245l-126 78l168 225l-238 23l30 146l242 -73l-25 266h158z" />
    <glyph glyph-name="plus" unicode="+" horiz-adv-x="874" 
d="M502 788h307v-131h-307v-412h-131v412h-310v131h310v415h131v-415z" />
    <glyph glyph-name="comma" unicode="," horiz-adv-x="452" 
d="M331 230l13 -22q-19 -83 -42 -165t-50 -160.5t-60 -151.5h-118q23 84 41.5 171t32 171t20.5 157h163z" />
    <glyph glyph-name="hyphen" unicode="-" horiz-adv-x="559" 
d="M55 476v154h449v-154h-449z" />
    <glyph glyph-name="period" unicode="." horiz-adv-x="453" 
d="M122 107q0 61 26.5 93t77.5 32q49 0 77 -29.5t28 -95.5q0 -64 -29 -94t-76 -30q-49 0 -76.5 31.5t-27.5 92.5z" />
    <glyph glyph-name="slash" unicode="/" horiz-adv-x="750" 
d="M722 1467l-535 -1472h-147l538 1472h144z" />
    <glyph glyph-name="zero" unicode="0" horiz-adv-x="871" 
d="M784 731q0 -176 -19.5 -315t-61.5 -236t-108.5 -148t-159.5 -51q-111 0 -189 68.5t-119.5 232t-41.5 449.5q0 250 38.5 417t116 251t195.5 84q120 0 197 -84.5t114.5 -251.5t37.5 -416zM246 731q0 -201 19 -335.5t61 -202.5t109 -68t109 68.5t61.5 203.5t19.5 334
t-20 334t-61.5 204t-108.5 69t-109 -68t-61 -202.5t-19 -336.5z" />
    <glyph glyph-name="one" unicode="1" horiz-adv-x="871" 
d="M590 0h-158v1004q0 44 1 88.5t3 90.5l4 92q-13 -19 -35 -43t-55 -56l-130 -126l-90 98l324 314h136v-1462z" />
    <glyph glyph-name="two" unicode="2" horiz-adv-x="871" 
d="M774 0h-704v117l289 426q85 125 134.5 216t71 172.5t21.5 177.5q0 107 -51.5 169t-147.5 62q-64 0 -116.5 -23t-107.5 -76l-81 110q50 47 99 76t102.5 42.5t116.5 13.5q108 0 185.5 -46t118.5 -129t41 -193q0 -117 -27 -215t-81.5 -194.5t-137.5 -210.5l-243 -345v-7h518
v-143z" />
    <glyph glyph-name="three" unicode="3" horiz-adv-x="871" 
d="M748 1127q0 -88 -28 -159t-81.5 -121.5t-131.5 -78.5v-8q128 -28 196.5 -121.5t68.5 -240.5q0 -124 -46.5 -218.5t-135 -147t-215.5 -52.5q-88 0 -159.5 14t-136.5 45v158q64 -38 136 -58.5t145 -20.5q126 0 186.5 80t60.5 208q0 92 -34 154.5t-101 94t-166 31.5h-75v138
h81q86 0 148.5 36t96.5 100.5t34 150.5q0 111 -53 172t-150 61q-48 0 -88 -12t-76.5 -35t-74.5 -57l-77 110q77 71 157 102t179 31q158 0 249 -95.5t91 -260.5z" />
    <glyph glyph-name="four" unicode="4" horiz-adv-x="871" 
d="M843 322h-155v-322h-156v322h-498v130l485 1022h169v-1017h155v-135zM532 457v590q0 23 1 52t2 59.5t2 58.5t2 49h-7q-16 -48 -34.5 -93t-36.5 -87l-286 -629h357z" />
    <glyph glyph-name="five" unicode="5" horiz-adv-x="871" 
d="M426 896q112 0 191 -54t121 -150t42 -223q0 -145 -47.5 -255t-139.5 -172t-228 -62q-83 0 -149 15.5t-116 45.5v158q56 -37 121.5 -59t131.5 -22q91 0 149.5 47.5t87.5 126t29 172.5q0 145 -63.5 221t-182.5 76q-50 0 -99 -9.5t-98 -24.5l-63 61l44 674h545v-144h-413
l-30 -442q42 10 84.5 15t82.5 5z" />
    <glyph glyph-name="six" unicode="6" horiz-adv-x="871" 
d="M91 622q0 166 17.5 302t53 240t91.5 175t132.5 107t175.5 36q43 0 81.5 -5.5t69.5 -16.5v-141q-32 11 -68.5 16.5t-77.5 5.5q-100 0 -170.5 -66t-108.5 -196.5t-44 -325.5h8q21 50 54 88t78.5 59.5t101.5 21.5q102 0 168.5 -61.5t99.5 -165.5t33 -234q0 -138 -37.5 -247
t-112.5 -172t-187 -63q-87 0 -154 42t-112.5 123.5t-68.5 201.5t-23 276zM447 121q86 0 134 84t48 253q0 158 -45 240.5t-136 82.5q-64 0 -107.5 -36.5t-65.5 -96t-22 -130.5q0 -62 10 -131t32 -129.5t59.5 -98.5t92.5 -38z" />
    <glyph glyph-name="seven" unicode="7" horiz-adv-x="871" 
d="M192 0l442 1317h-568v145h728v-118l-436 -1344h-166z" />
    <glyph glyph-name="eight" unicode="8" horiz-adv-x="871" 
d="M438 1483q104 0 178 -42t113.5 -118t39.5 -180q0 -82 -25.5 -150.5t-76.5 -125t-128 -102.5q78 -52 137 -109t92.5 -127t33.5 -160q0 -115 -44 -202.5t-124.5 -137t-189.5 -49.5q-118 0 -202 47t-128 132.5t-44 199.5q0 88 27 160.5t81.5 132.5t135.5 112
q-70 53 -116.5 112t-69.5 125t-23 140q0 103 41 180t116 119.5t176 42.5zM226 358q0 -107 55 -176t155 -69q103 0 156 71.5t53 183.5q0 54 -19 104.5t-59.5 98t-105.5 92.5l-40 28q-69 -45 -112 -93.5t-63 -106.5t-20 -133zM435 1349q-81 0 -129 -58t-48 -160
q0 -63 20 -113.5t59 -93t97 -82.5q63 40 102.5 83.5t58.5 94t19 111.5q0 102 -47 160t-132 58z" />
    <glyph glyph-name="nine" unicode="9" horiz-adv-x="871" 
d="M771 851q0 -168 -18 -305.5t-55 -243t-93.5 -177t-133 -108.5t-173.5 -37q-37 0 -82.5 6.5t-74.5 14.5v144q32 -12 70 -18.5t84 -6.5q115 0 184.5 81.5t102.5 215.5t37 291h-7q-21 -49 -54 -87t-78 -59.5t-101 -21.5q-103 0 -170 61t-99.5 165.5t-32.5 233.5
q0 138 38 247.5t114.5 172.5t193.5 63q85 0 150 -41.5t109 -122t66.5 -198t22.5 -270.5zM422 1340q-92 0 -139 -83.5t-47 -252.5q0 -157 45 -240.5t136 -83.5q66 0 109 39.5t64 102.5t21 135q0 53 -8 118.5t-28 126t-57 99.5t-96 39z" />
    <glyph glyph-name="colon" unicode=":" horiz-adv-x="456" 
d="M124 108q0 60 26 92t78 32q49 0 76.5 -29.5t27.5 -94.5q0 -64 -28.5 -94.5t-75.5 -30.5q-52 0 -78 32t-26 93zM124 979q0 62 26 93.5t78 31.5q51 0 77.5 -31t26.5 -93q0 -64 -29 -95.5t-75 -31.5q-51 0 -77.5 32.5t-26.5 93.5z" />
    <glyph glyph-name="semicolon" unicode=";" horiz-adv-x="456" 
d="M331 230l13 -22q-18 -83 -41 -165t-50.5 -160.5t-60.5 -151.5h-118q24 88 42.5 174.5t32 168.5t21.5 156h161zM125 980q0 61 26 92.5t78 31.5q51 0 78 -31.5t27 -92.5q0 -64 -29.5 -95.5t-75.5 -31.5q-51 0 -77.5 32.5t-26.5 94.5z" />
    <glyph glyph-name="less" unicode="&#x3c;" horiz-adv-x="874" 
d="M812 274l-753 411v92l753 403v-149l-578 -301l578 -308v-148z" />
    <glyph glyph-name="equal" unicode="=" horiz-adv-x="874" 
d="M61 875v131h748v-131h-748zM61 437v129h748v-129h-748z" />
    <glyph glyph-name="greater" unicode="&#x3e;" horiz-adv-x="874" 
d="M61 422l579 307l-579 302v149l753 -403v-92l-753 -411v148z" />
    <glyph glyph-name="question" unicode="?" horiz-adv-x="639" 
d="M198 405v58q0 71 9.5 127t33 107t65.5 105q48 63 78 115t43.5 104.5t13.5 114.5q0 103 -42 154.5t-116 51.5q-56 0 -102 -18.5t-96 -53.5l-59 122q62 45 128 68t136 23q147 0 226 -86.5t79 -248.5q0 -89 -18 -154t-55 -125t-94 -135q-42 -55 -65 -99t-32 -88t-9 -101v-41
h-124zM159 107q0 61 26.5 93t76.5 32q49 0 77 -29.5t28 -94.5q0 -64 -29 -94.5t-76 -30.5q-49 0 -76 31.5t-27 92.5z" />
    <glyph glyph-name="at" unicode="@" horiz-adv-x="1322" 
d="M1229 736q0 -122 -17 -216t-49.5 -158.5t-79.5 -97.5t-107 -33q-81 0 -122 50t-49 140h-10q-22 -97 -64.5 -143.5t-106.5 -46.5q-103 0 -159 96.5t-56 273.5q0 152 35 257t101.5 159.5t162.5 54.5q50 0 100 -9t94 -27l-16 -421q-1 -31 -3 -64t-2 -52q0 -79 24.5 -115
t67.5 -36q42 0 70.5 41t43 128t14.5 223q0 186 -50 326.5t-141 219t-215 77.5q-126 0 -215 -66.5t-145 -177.5t-82.5 -246t-26.5 -271q0 -185 44.5 -336t138 -239.5t239.5 -88.5q76 0 150 21.5t129 54.5v-121q-61 -34 -128.5 -50.5t-153.5 -16.5q-176 0 -298 89.5t-185 260
t-63 413.5q0 204 43 367.5t122 280t189 178t243 59.5q168 0 287.5 -99t182.5 -266t63 -373zM539 597q0 -124 26.5 -186.5t76.5 -62.5q48 0 74 80t36 258l14 271q-13 6 -30 8t-37 2q-49 0 -85 -42.5t-55.5 -124.5t-19.5 -203z" />
    <glyph glyph-name="A" unicode="A" horiz-adv-x="906" 
d="M737 0l-110 470h-347l-110 -470h-170l353 1462h193l360 -1462h-169zM597 617l-112 496q-7 37 -13.5 72.5t-12 69t-10.5 65.5q-3 -32 -8 -66t-12 -68.5t-15 -70.5l-109 -498h292z" />
    <glyph glyph-name="B" unicode="B" horiz-adv-x="967" 
d="M151 1462h319q191 0 289 -87t98 -263q0 -94 -24 -164.5t-70.5 -114.5t-115.5 -59v-8q82 -19 135 -64t79 -115.5t26 -168.5q0 -126 -43 -220t-125.5 -146t-201.5 -52h-366v1462zM310 832h158q119 0 173 66.5t54 199.5q0 111 -57 169.5t-173 58.5h-155v-494zM310 696v-557
h189q110 0 166.5 71.5t56.5 215.5q0 90 -29 150t-83 90t-130 30h-170z" />
    <glyph glyph-name="C" unicode="C" horiz-adv-x="906" 
d="M596 1340q-87 0 -149.5 -49t-102 -134.5t-58 -195t-18.5 -230.5q0 -188 41.5 -324t117.5 -209.5t179 -73.5q62 0 117 16t101 39v-144q-48 -28 -107 -41.5t-129 -13.5q-149 0 -258 90t-168 258.5t-59 404.5q0 155 29.5 291t90 240t152.5 162.5t216 58.5q72 0 138.5 -18.5
t127.5 -53.5l-57 -135q-46 29 -97 45.5t-107 16.5z" />
    <glyph glyph-name="D" unicode="D" horiz-adv-x="1047" 
d="M945 749q0 -247 -57 -413.5t-169.5 -251t-280.5 -84.5h-287v1462h299q163 0 273 -81t166 -240t56 -392zM779 741q0 191 -37 320t-111 194t-187 65h-134v-1177h122q181 0 264 150.5t83 447.5z" />
    <glyph glyph-name="E" unicode="E" horiz-adv-x="818" 
d="M726 0h-575v1462h575v-142h-416v-485h391v-143h-391v-547h416v-145z" />
    <glyph glyph-name="F" unicode="F" horiz-adv-x="772" 
d="M310 0h-159v1462h575v-142h-416v-546h392v-144h-392v-630z" />
    <glyph glyph-name="G" unicode="G" horiz-adv-x="1110" 
d="M629 766h371v-715q-89 -35 -184 -53t-192 -18q-179 0 -294.5 98.5t-171 269t-55.5 386.5q0 219 60.5 388t183 265t307.5 96q90 0 173 -23.5t156 -70.5l-57 -135q-68 44 -134.5 65t-134.5 21q-127 0 -213 -71t-130 -207t-44 -332q0 -172 37.5 -309.5t118.5 -217t211 -79.5
q58 0 110.5 8.5t97.5 24.5v466h-216v143z" />
    <glyph glyph-name="H" unicode="H" horiz-adv-x="1081" 
d="M932 0h-159v692h-463v-692h-159v1462h159v-625h463v625h159v-1462z" />
    <glyph glyph-name="I" unicode="I" horiz-adv-x="458" 
d="M151 0v1462h159v-1462h-159z" />
    <glyph glyph-name="J" unicode="J" horiz-adv-x="450" 
d="M32 -391q-36 0 -69 5t-62 17v143q25 -9 54 -15t60 -6q47 0 75.5 25.5t42 81t13.5 146.5v1456h159v-1470q0 -139 -31 -223t-92 -122t-150 -38z" />
    <glyph glyph-name="K" unicode="K" horiz-adv-x="900" 
d="M908 0h-178l-314 686l-106 -130v-556h-159v1462h159v-742q12 29 40 81.5t71 128.5l295 532h173l-365 -646z" />
    <glyph glyph-name="L" unicode="L" horiz-adv-x="753" 
d="M151 0v1462h159v-1317h408v-145h-567z" />
    <glyph glyph-name="M" unicode="M" horiz-adv-x="1455" 
d="M654 0l-355 1242h-8q4 -67 6.5 -120.5t3.5 -92.5t1 -64v-965h-151v1462h225l349 -1216h6l350 1216h228v-1462h-156v961q0 27 1 67t3.5 93.5t4.5 120.5h-7l-355 -1242h-146z" />
    <glyph glyph-name="N" unicode="N" horiz-adv-x="1150" 
d="M1002 0h-193l-510 1210h-8q4 -53 6.5 -102.5t3.5 -95.5t1 -90v-922h-151v1462h192l511 -1192h6q-3 59 -5.5 111t-3.5 97.5t-1 83.5v900h152v-1462z" />
    <glyph glyph-name="O" unicode="O" horiz-adv-x="1117" 
d="M1016 733q0 -157 -25 -293.5t-78.5 -240t-140.5 -161.5t-211 -58q-126 0 -214 59.5t-141.5 163.5t-78 241t-24.5 291q0 250 51.5 416t153.5 249t253 83q164 0 264 -99.5t145.5 -269.5t45.5 -381zM268 733q0 -199 33.5 -334.5t98.5 -204.5t159 -69q96 0 160 67.5t96.5 203
t32.5 337.5q0 301 -72 453t-215 152q-98 0 -163 -68.5t-97.5 -203t-32.5 -333.5z" />
    <glyph glyph-name="P" unicode="P" horiz-adv-x="896" 
d="M413 1462q215 0 317.5 -104t102.5 -324q0 -113 -26.5 -198.5t-79 -143.5t-132 -87.5t-186.5 -29.5h-99v-575h-159v1462h262zM407 1322h-97v-606h85q97 0 157.5 32t89 102t28.5 182q0 155 -64 222.5t-199 67.5z" />
    <glyph glyph-name="Q" unicode="Q" horiz-adv-x="1117" 
d="M1016 733q0 -190 -31.5 -333.5t-92.5 -238t-149 -139.5l219 -370h-189l-180 332q-7 -1 -19.5 -2.5t-22.5 -1.5q-123 0 -208.5 60t-138.5 165t-77 241t-24 289q0 250 51.5 416t153.5 249t254 83q146 0 247 -83.5t154 -250t53 -416.5zM268 733q0 -199 33 -334.5t98 -204.5
t160 -69q96 0 160 67.5t96.5 203t32.5 337.5q0 302 -72 453.5t-214 151.5q-99 0 -164 -68.5t-97.5 -203.5t-32.5 -333z" />
    <glyph glyph-name="R" unicode="R" horiz-adv-x="931" 
d="M401 1462q148 0 244 -44.5t143 -135t47 -228.5q0 -98 -24 -175t-74 -132t-130 -90l297 -657h-177l-264 617h-153v-617h-159v1462h250zM402 1318h-92v-567h114q119 0 183.5 73.5t64.5 221.5q0 144 -65 208t-205 64z" />
    <glyph glyph-name="S" unicode="S" horiz-adv-x="841" 
d="M762 399q0 -124 -47.5 -218.5t-133 -147.5t-201.5 -53q-57 0 -110 6.5t-100.5 20.5t-90.5 35v165q68 -38 147.5 -58t147.5 -20q73 0 123 34.5t76.5 92.5t26.5 128q0 74 -22 124.5t-72 91.5t-135 85q-64 35 -116 72t-89 83.5t-57 109.5t-20 150q-2 115 45.5 201.5
t132 134.5t193.5 47q83 0 158.5 -20.5t130.5 -49.5l-52 -146q-61 33 -120.5 49.5t-113.5 16.5q-67 0 -114.5 -29t-73 -79.5t-25.5 -117.5q0 -77 22.5 -127t73 -89t133.5 -84q95 -50 158 -107.5t94 -130.5t31 -170z" />
    <glyph glyph-name="T" unicode="T" horiz-adv-x="770" 
d="M463 0h-159v1318h-285v144h730v-144h-286v-1318z" />
    <glyph glyph-name="U" unicode="U" horiz-adv-x="1061" 
d="M923 1462v-1005q0 -167 -45 -272.5t-131.5 -155t-213.5 -49.5q-193 0 -294 116t-101 360v1006h159v-1007q0 -176 61.5 -253t174.5 -77q75 0 126 33t77 106t26 193v1005h161z" />
    <glyph glyph-name="V" unicode="V" horiz-adv-x="886" 
d="M886 1462l-353 -1462h-184l-349 1462h166l227 -1010q10 -42 18.5 -88.5t16 -93t13.5 -89.5q6 43 13.5 89t17 93t19.5 92l229 1007h166z" />
    <glyph glyph-name="W" unicode="W" horiz-adv-x="1457" 
d="M1449 1462l-301 -1462h-190l-191 956q-3 19 -7.5 46t-9 61.5t-10.5 77t-12 93.5q-4 -34 -8 -68.5t-9 -69.5t-10.5 -69.5t-12.5 -68.5l-188 -958h-188l-304 1462h161l184 -925q10 -54 19 -104t16.5 -95.5t13 -84t8.5 -69.5q6 43 13 88.5t14.5 91t15 88.5t14.5 81l187 929
h150l184 -927q8 -39 15.5 -80t14 -84t13.5 -90t13 -98q8 65 17.5 126.5t19.5 119t20 108.5l187 925h161z" />
    <glyph glyph-name="X" unicode="X" horiz-adv-x="804" 
d="M791 0h-171l-209 610l-231 -610h-165l309 764l-271 698h165l195 -557l198 557h167l-274 -709z" />
    <glyph glyph-name="Y" unicode="Y" horiz-adv-x="786" 
d="M394 760l225 702h167l-314 -893v-569h-159v565l-313 897h166z" />
    <glyph glyph-name="Z" unicode="Z" horiz-adv-x="731" 
d="M690 0h-637v124l453 1194h-443v144h614v-126l-454 -1191h467v-145z" />
    <glyph glyph-name="bracketleft" unicode="[" horiz-adv-x="638" 
d="M573 -329h-423v1803h423v-130h-277v-1543h277v-130z" />
    <glyph glyph-name="backslash" unicode="\" horiz-adv-x="750" 
d="M183 1467l537 -1472h-147l-534 1472h144z" />
    <glyph glyph-name="bracketright" unicode="]" horiz-adv-x="638" 
d="M64 -199h278v1543h-278v130h424v-1803h-424v130z" />
    <glyph glyph-name="asciicircum" unicode="^" horiz-adv-x="895" 
d="M32 689l370 771h94l370 -771h-152l-265 574l-269 -574h-148z" />
    <glyph glyph-name="underscore" unicode="_" horiz-adv-x="885" 
d="M889 -293h-893v121h893v-121z" />
    <glyph glyph-name="grave" unicode="`" horiz-adv-x="536" 
d="M266 1568q23 -48 55.5 -104t67.5 -108.5t65 -91.5v-23h-99q-31 27 -69.5 65.5t-77.5 82t-72 85.5t-54 76v18h184z" />
    <glyph glyph-name="a" unicode="a" horiz-adv-x="841" 
d="M428 1118q152 0 217 -97t65 -281v-740h-117l-23 156h-4q-26 -56 -62 -95.5t-82 -60t-106 -20.5q-85 0 -139 45t-80 118.5t-26 158.5q0 163 94 253t267 98l125 8v75q0 132 -36 193t-116 61q-46 0 -96.5 -16t-109.5 -51l-49 116q62 40 132.5 59.5t145.5 19.5zM559 548
l-102 -7q-116 -7 -172.5 -65.5t-56.5 -169.5q0 -103 37 -152t102 -49q91 0 141.5 88t50.5 243v112z" />
    <glyph glyph-name="b" unicode="b" horiz-adv-x="937" 
d="M288 1556v-458q0 -32 -1.5 -71.5t-3.5 -83.5h7q41 86 102.5 129.5t140.5 43.5q157 0 238.5 -143.5t81.5 -421.5q0 -184 -36.5 -311.5t-107 -193.5t-172.5 -66q-81 0 -142 40.5t-105 125.5h-9l-22 -146h-125v1556h154zM500 981q-84 0 -130 -53.5t-64 -146.5t-18 -212v-47
q0 -208 53.5 -308.5t159.5 -100.5q98 0 146 107t48 333q0 212 -46.5 320t-148.5 108z" />
    <glyph glyph-name="c" unicode="c" horiz-adv-x="703" 
d="M451 -20q-121 0 -201.5 63t-120.5 188t-40 310q0 181 40.5 310t122.5 198t205 69q62 0 111.5 -13t92.5 -37l-49 -127q-37 20 -73.5 30t-71.5 10q-72 0 -121 -49.5t-74.5 -146.5t-25.5 -242q0 -141 24.5 -236t74 -143.5t123.5 -48.5q44 0 89.5 12.5t91.5 36.5v-130
q-42 -26 -97.5 -40t-100.5 -14z" />
    <glyph glyph-name="d" unicode="d" horiz-adv-x="937" 
d="M407 -20q-157 0 -238.5 144.5t-81.5 421.5q0 275 82 423.5t233 148.5q53 0 100 -20.5t84.5 -58t63.5 -90.5h7q-2 46 -3.5 82.5t-1.5 68.5v456h153v-1556h-123l-21 148h-9q-28 -52 -63.5 -90t-80 -58t-101.5 -20zM441 111q104 0 157.5 97t53.5 287v75q0 209 -51.5 310
t-161.5 101q-100 0 -147.5 -111.5t-47.5 -323.5q0 -214 47.5 -324.5t149.5 -110.5z" />
    <glyph glyph-name="e" unicode="e" horiz-adv-x="847" 
d="M436 1116q112 0 184.5 -65t108 -175t35.5 -245v-109h-523q2 -205 63.5 -308t185.5 -103q59 0 116 18t118 58v-138q-57 -35 -119 -52t-132 -17q-137 0 -222 73.5t-123.5 201t-38.5 288.5q0 184 39 312t116.5 194.5t191.5 66.5zM436 990q-87 0 -136 -84.5t-57 -260.5h377
q0 93 -19.5 171.5t-60 126t-104.5 47.5z" />
    <glyph glyph-name="f" unicode="f" horiz-adv-x="509" 
d="M479 968h-173v-968h-153v968h-135v83l135 52v74q0 125 21.5 212t75 132.5t147.5 45.5q44 0 81.5 -8t77.5 -24l-40 -124q-28 10 -52.5 15.5t-48.5 5.5q-62 0 -84.5 -54.5t-24.5 -196.5v-83h173v-130z" />
    <glyph glyph-name="g" unicode="g" horiz-adv-x="790" 
d="M351 -492q-157 0 -247 80t-90 224q0 113 54 185t139 96q-42 20 -68.5 60t-26.5 95q0 56 26.5 102t74.5 88q-64 38 -101 122t-37 193q0 112 36.5 193.5t105.5 126.5t165 45q30 0 53 -3t41 -8t32 -12h272v-99l-147 -18q28 -45 41 -102.5t13 -116.5q0 -169 -80 -265.5
t-226 -96.5q-45 0 -72 9q-27 -25 -47.5 -57t-20.5 -79q0 -29 13.5 -51t39.5 -34t64 -12h158q123 0 189.5 -71t66.5 -216q0 -180 -108.5 -279t-312.5 -99zM363 -370q87 0 145.5 26.5t88 80.5t29.5 134q0 65 -20.5 100t-58.5 48t-91 13h-131q-46 0 -83.5 -20.5t-59.5 -65.5
t-22 -120q0 -97 54.5 -146.5t148.5 -49.5zM382 511q72 0 111.5 62t39.5 182q0 126 -40.5 188t-112.5 62q-70 0 -110 -66.5t-40 -186.5q0 -115 38 -178t114 -63z" />
    <glyph glyph-name="h" unicode="h" horiz-adv-x="923" 
d="M288 1556v-452q0 -44 -2.5 -84.5t-8.5 -76.5h11q20 54 55.5 93t82.5 60.5t101 21.5q92 0 151 -42.5t87 -125t28 -204.5v-746h-154v716q0 142 -34 203t-110 61q-70 0 -116 -43t-68.5 -132.5t-22.5 -229.5v-575h-154v1556h154z" />
    <glyph glyph-name="i" unicode="i" horiz-adv-x="424" 
d="M289 1098v-1098h-153v1098h153zM215 1510q47 0 68.5 -30t21.5 -83q0 -52 -23 -82t-67 -30q-43 0 -68 30t-25 82q0 55 24 84t69 29z" />
    <glyph glyph-name="j" unicode="j" horiz-adv-x="424" 
d="M72 -492q-28 0 -52 5t-44 13v137q17 -7 35.5 -11.5t34.5 -4.5q49 0 69 42t20 133v1276h154v-1276q0 -108 -25 -177.5t-73.5 -102.5t-118.5 -34zM122 1397q0 55 24 84t69 29q46 0 68 -30t22 -83q0 -52 -23 -82t-67 -30q-43 0 -68 30t-25 82z" />
    <glyph glyph-name="k" unicode="k" horiz-adv-x="800" 
d="M288 1556v-777q0 -58 -2 -113t-7 -111h7q17 34 34 65t36 60l251 418h166l-265 -422l284 -676h-165l-223 552l-116 -145v-407h-154v1556h154z" />
    <glyph glyph-name="l" unicode="l" horiz-adv-x="420" 
d="M288 0h-154v1556h154v-1556z" />
    <glyph glyph-name="m" unicode="m" horiz-adv-x="1380" 
d="M996 1118q129 0 191.5 -93.5t62.5 -284.5v-740h-154v713q0 144 -36.5 206.5t-105.5 62.5q-100 0 -143 -94t-43 -272v-616h-152v715q0 98 -16 156.5t-47.5 84.5t-79.5 26q-74 0 -114 -51t-55.5 -140t-15.5 -203v-588h-154v1098h123l18 -156h9q21 56 54 95t78.5 60
t102.5 21q95 0 149.5 -51.5t72.5 -129.5h11q38 92 95 136.5t149 44.5z" />
    <glyph glyph-name="n" unicode="n" horiz-adv-x="923" 
d="M529 1118q130 0 197 -91t67 -279v-748h-154v717q0 133 -34.5 199t-108.5 66q-108 0 -158 -96t-50 -308v-578h-154v1098h123l17 -159h10q23 55 59 95t83 62t103 22z" />
    <glyph glyph-name="o" unicode="o" horiz-adv-x="902" 
d="M815 550q0 -130 -22 -235t-67 -180t-114 -115t-163 -40q-90 0 -158 40t-113 114.5t-68 180t-23 235.5q0 182 39 308.5t120 193t206 66.5q117 0 198 -64.5t123 -191t42 -312.5zM244 550q0 -143 22 -240t68.5 -146t118.5 -49q71 0 116.5 48t67.5 144.5t22 242.5
q0 143 -22 239.5t-67.5 145t-117.5 48.5q-110 0 -159 -108.5t-49 -324.5z" />
    <glyph glyph-name="p" unicode="p" horiz-adv-x="937" 
d="M531 1118q158 0 239.5 -141.5t81.5 -425.5q0 -183 -36.5 -310.5t-106.5 -194t-170 -66.5q-56 0 -104 21.5t-85 61t-62 92.5h-7q2 -40 4.5 -77t2.5 -70v-498h-154v1588h125l19 -161h9q28 61 64.5 101t81.5 60t98 20zM498 985q-70 0 -116.5 -44t-70 -132.5t-23.5 -222.5
v-53q0 -142 23.5 -235t71 -138t117.5 -45q64 0 107.5 46t65.5 142t22 246q0 217 -45.5 326.5t-151.5 109.5z" />
    <glyph glyph-name="q" unicode="q" horiz-adv-x="937" 
d="M651 -490v464q0 32 2 80t6 108h-8q-43 -90 -104.5 -136t-144.5 -46q-151 0 -233 143t-82 420q0 190 38.5 317.5t110.5 192.5t173 65q81 0 140 -42t101 -131h9l17 153h129v-1588h-154zM444 115q67 0 113 43.5t70 128t24 208.5v70q0 214 -51.5 315t-160.5 101
q-100 0 -147.5 -113t-47.5 -326q0 -223 50 -325t150 -102z" />
    <glyph glyph-name="r" unicode="r" horiz-adv-x="614" 
d="M501 1117q23 0 46 -3.5t48 -11.5l-24 -158q-18 8 -38 11t-43 3q-45 0 -82.5 -29.5t-64.5 -82.5t-41.5 -123t-13.5 -151v-572h-154v1098h120l21 -195h10q23 63 54 111t71.5 75.5t90.5 27.5z" />
    <glyph glyph-name="s" unicode="s" horiz-adv-x="688" 
d="M622 290q0 -99 -36 -168.5t-104.5 -105.5t-166.5 -36q-76 0 -139 18t-107 43v160q44 -36 109 -59.5t132 -23.5q77 0 118.5 44t41.5 123q0 47 -17 81.5t-54.5 66t-98.5 66.5q-68 42 -120.5 87t-81.5 103.5t-29 142.5q0 128 83.5 207t220.5 79q69 0 130.5 -17.5
t116.5 -52.5l-58 -124q-42 29 -89.5 46t-97.5 17q-73 0 -115.5 -41t-42.5 -110q0 -46 17 -79t56 -64t103 -70q68 -43 119.5 -87.5t80.5 -102.5t29 -143z" />
    <glyph glyph-name="t" unicode="t" horiz-adv-x="519" 
d="M392 116q25 0 50 5.5t48 15.5v-126q-31 -14 -67 -22.5t-80 -8.5q-71 0 -116.5 32t-67 95.5t-21.5 159.5v702h-102v84l109 41l41 253h106v-249h186v-129h-186v-684q0 -85 20.5 -127t79.5 -42z" />
    <glyph glyph-name="u" unicode="u" horiz-adv-x="923" 
d="M789 1098v-1098h-123l-17 156h-11q-22 -54 -57.5 -93.5t-81.5 -61t-103 -21.5q-96 0 -154.5 48t-85 137t-26.5 212v721h154v-692q0 -148 34.5 -218t105.5 -70q77 0 123 42.5t67 129t21 219.5v589h154z" />
    <glyph glyph-name="v" unicode="v" horiz-adv-x="741" 
d="M283 0l-275 1098h158l151 -667q14 -60 25.5 -123t21.5 -131h8q5 39 15 94t26 122l162 705h158l-279 -1098h-171z" />
    <glyph glyph-name="w" unicode="w" horiz-adv-x="1218" 
d="M781 0l-132 681q-5 28 -10 58t-9.5 60t-8.5 59.5t-8 57.5h-5q-4 -29 -8.5 -59.5t-9 -60.5t-9.5 -59t-10 -56l-140 -681h-176l-237 1098h154l117 -572q10 -54 20 -110.5t19 -113t17 -112.5h6l10.5 73.5t12 80t14.5 86t18 90.5l119 578h171l118 -581q9 -38 17.5 -88
t17.5 -110t19 -129h6q3 30 8 65t12 76.5t16 88.5l140 678h150l-242 -1098h-177z" />
    <glyph glyph-name="x" unicode="x" horiz-adv-x="751" 
d="M289 566l-243 532h165l168 -407l171 407h163l-245 -540l255 -558h-163l-185 433l-184 -433h-161z" />
    <glyph glyph-name="y" unicode="y" horiz-adv-x="746" 
d="M12 1098h159l155 -642q9 -42 17.5 -82t16 -79.5t12.5 -79.5h8q8 58 20 117.5t28 124.5l151 641h158l-326 -1274q-29 -110 -68 -180t-91.5 -103t-124.5 -33q-24 0 -48 5t-51 12v137q19 -7 39.5 -11t39.5 -4q38 0 65 19.5t48 64.5t41 123l39 154z" />
    <glyph glyph-name="z" unicode="z" horiz-adv-x="611" 
d="M567 0h-515v106l333 860h-311v132h479v-113l-330 -854h344v-131z" />
    <glyph glyph-name="braceleft" unicode="{" horiz-adv-x="738" 
d="M649 -329q-121 2 -200 36.5t-117.5 105.5t-38.5 181v311q0 71 -19 116.5t-64 67t-124 21.5v119q71 0 117 18t68 62.5t22 123.5v314q0 107 37 177t115.5 105.5t203.5 37.5v-125q-69 -2 -115 -22t-68.5 -63.5t-22.5 -116.5v-314q0 -113 -42 -174t-143 -79v-8
q104 -19 144.5 -82t40.5 -172v-312q0 -70 21 -114.5t66.5 -65.5t118.5 -22v-126z" />
    <glyph glyph-name="bar" unicode="|" horiz-adv-x="823" 
d="M340 1563h143v-2049h-143v2049z" />
    <glyph glyph-name="braceright" unicode="}" horiz-adv-x="738" 
d="M86 -329v126q74 1 119.5 21.5t66.5 65t21 115.5v312q0 113 42.5 174t141.5 80v8q-99 18 -141.5 79t-42.5 174v314q0 73 -23.5 116.5t-69.5 63.5t-114 22v125q121 -2 200 -36t118 -104t39 -180v-314q0 -69 18 -114.5t63 -67.5t125 -22v-119q-75 0 -120.5 -20t-65.5 -65
t-20 -120v-311q0 -107 -36.5 -178t-115.5 -107t-205 -38z" />
    <glyph glyph-name="asciitilde" unicode="~" horiz-adv-x="874" 
d="M419 659q-46 26 -88.5 41.5t-80.5 15.5q-46 0 -95 -31.5t-96 -88.5v149q41 49 89.5 75.5t109.5 26.5q56 0 101.5 -17t97.5 -44q50 -27 90.5 -41.5t78.5 -14.5q47 0 98 32.5t92 84.5v-148q-39 -46 -89 -72t-108 -26q-60 0 -102.5 15t-97.5 43z" />
    <glyph glyph-name="uni00A0" unicode="&#xa0;" horiz-adv-x="380" 
 />
    <glyph glyph-name="exclamdown" unicode="&#xa1;" horiz-adv-x="472" 
d="M177 680h117l34 -1066h-186zM343 979q0 -65 -28.5 -95t-75.5 -30q-52 0 -78 31.5t-26 93.5q0 60 25.5 93t78.5 33q46 0 75 -31t29 -95z" />
    <glyph glyph-name="cent" unicode="&#xa2;" horiz-adv-x="875" 
d="M555 1483v-166q50 -4 92.5 -16.5t78.5 -32.5l-48 -130q-37 21 -75 30.5t-68 9.5q-78 0 -127.5 -49t-73 -145.5t-23.5 -239.5q0 -145 24.5 -239.5t73.5 -141t124 -46.5q44 0 90.5 13.5t92.5 36.5v-133q-31 -19 -71 -32t-89 -19v-203h-102v204q-102 14 -168.5 83.5
t-99 189.5t-32.5 285q0 166 33 287.5t99 193.5t166 89v171h103z" />
    <glyph glyph-name="sterling" unicode="&#xa3;" horiz-adv-x="869" 
d="M532 1483q71 0 132.5 -21.5t117.5 -63.5l-61 -124q-52 35 -95 50.5t-87 15.5q-79 0 -114 -57t-35 -184v-304h251v-124h-251v-245q0 -67 -14 -120.5t-42 -93.5t-70 -67h525v-145h-700v133q47 22 79 61t48.5 96.5t16.5 135.5v245h-151v124h151v306q0 126 32.5 211t99 128
t167.5 43z" />
    <glyph glyph-name="currency" unicode="&#xa4;" horiz-adv-x="1131" 
d="M170 723q0 65 19.5 124t58.5 111l-135 138l80 78l133 -138q53 41 112 61.5t126 20.5q65 0 124.5 -19t111.5 -61l135 136l82 -77l-135 -137q38 -51 58 -111t20 -126q0 -65 -19.5 -125.5t-58.5 -113.5l134 -136l-79 -78l-137 135q-52 -38 -112 -57.5t-124 -19.5
q-69 0 -128.5 20t-109.5 60l-133 -136l-78 80l133 134q-40 53 -59 112.5t-19 124.5zM279 723q0 -80 38 -145.5t103 -103.5t145 -38q83 0 148 39t102.5 104.5t37.5 143.5t-40 143.5t-105.5 105.5t-143.5 40q-77 0 -142 -39t-104 -104.5t-39 -145.5z" />
    <glyph glyph-name="yen" unicode="&#xa5;" horiz-adv-x="871" 
d="M434 765l192 697h162l-246 -782h203v-113h-233v-182h233v-113h-233v-272h-159v272h-229v113h229v182h-229v113h197l-244 782h161z" />
    <glyph glyph-name="brokenbar" unicode="&#xa6;" horiz-adv-x="823" 
d="M340 1555h143v-799h-143v799zM340 314h143v-801h-143v801z" />
    <glyph glyph-name="section" unicode="&#xa7;" horiz-adv-x="749" 
d="M82 838q0 80 41 139t111 92q-66 47 -99.5 103.5t-33.5 125.5q0 122 84 190t211 68q70 0 124.5 -14.5t112.5 -47.5l-50 -110q-51 30 -95 44t-91 14q-73 0 -115 -37.5t-42 -99.5q0 -46 20 -79t58.5 -60t92.5 -58q78 -41 131.5 -82.5t81.5 -93t28 -123.5q0 -78 -33 -141
t-88 -98q62 -49 89.5 -103t27.5 -122q0 -130 -87 -207t-231 -77q-74 0 -136 17t-112 48v135q31 -24 72 -43t86 -29.5t87 -10.5q83 0 132 45.5t49 114.5q0 52 -21 85t-66.5 63t-121.5 73q-77 44 -125 84.5t-70 87t-22 107.5zM215 856q0 -42 19 -73.5t52.5 -57.5t76.5 -52
l78 -42q38 25 58.5 64t20.5 92q0 48 -15 80.5t-56.5 65t-122.5 78.5q-52 -19 -81.5 -59.5t-29.5 -95.5z" />
    <glyph glyph-name="dieresis" unicode="&#xa8;" horiz-adv-x="1074" 
d="M288 1367q0 50 24 74t60 24q35 0 58.5 -24.5t23.5 -73.5q0 -51 -23.5 -76.5t-58.5 -25.5q-36 0 -60 25.5t-24 76.5zM616 1367q0 50 24.5 74t59.5 24q36 0 60.5 -24.5t24.5 -73.5q0 -51 -24.5 -76.5t-60.5 -25.5q-37 0 -60.5 25.5t-23.5 76.5z" />
    <glyph glyph-name="copyright" unicode="&#xa9;" horiz-adv-x="1700" 
d="M849 -20q-173 0 -312 59t-237 163t-150 239.5t-52 289.5q0 168 58 306t161 238t239.5 154t293.5 54q167 0 305 -57.5t238 -160t154.5 -239.5t54.5 -295q0 -163 -56 -300.5t-157.5 -238.5t-239 -156.5t-300.5 -55.5zM881 276q-193 0 -300.5 117t-107.5 334q0 141 50 243.5
t143 158t223 55.5q66 0 130 -14t125 -43l-50 -107q-52 25 -102.5 36t-99.5 11q-132 0 -206 -87t-74 -247q0 -175 71 -257.5t208 -82.5q50 0 105 12t112 37v-117q-53 -24 -110.5 -36.5t-116.5 -12.5zM849 82q144 0 262 50t203.5 138.5t131.5 206.5t46 254q0 141 -48 259.5
t-134.5 206t-203.5 135.5t-256 48q-144 0 -262 -49.5t-203 -138t-131.5 -206.5t-46.5 -255q0 -145 48.5 -264t135.5 -205t204 -133t254 -47z" />
    <glyph glyph-name="ordfeminine" unicode="&#xaa;" horiz-adv-x="609" 
d="M309 1479q103 0 150 -57t47 -170v-454h-82l-20 102q-34 -58 -79 -86t-106 -28q-50 0 -87.5 25.5t-58 70.5t-20.5 102q0 69 28.5 113t84.5 67t137 29l85 6v57q0 65 -22.5 95t-75.5 30q-37 0 -73 -12t-75 -33l-36 88q49 27 98.5 41t104.5 14zM388 1118l-62 -6
q-82 -6 -118.5 -35t-36.5 -91q0 -52 22.5 -78t65.5 -26q61 0 95 49t34 134v53z" />
    <glyph glyph-name="guillemotleft" unicode="&#xab;" horiz-adv-x="930" 
d="M73 558l294 393l108 -55l-221 -352l221 -348l-108 -59l-294 392v29zM456 558l296 393l105 -55l-219 -352l220 -348l-106 -59l-296 392v29z" />
    <glyph glyph-name="logicalnot" unicode="&#xac;" horiz-adv-x="874" 
d="M794 788v-542h-133v411h-599v131h732z" />
    <glyph glyph-name="uni00AD" unicode="&#xad;" horiz-adv-x="559" 
d="M55 476v154h449v-154h-449z" />
    <glyph glyph-name="registered" unicode="&#xae;" horiz-adv-x="1700" 
d="M583 297v878h239q151 0 234 -63t83 -194q0 -90 -38 -149t-113 -91l197 -381h-149l-171 350h-147v-350h-135zM716 751h98q84 0 134 39t50 122q0 79 -45.5 115t-137.5 36h-99v-312zM849 -20q-173 0 -312 59t-237 163t-150 239.5t-52 289.5q0 168 58 306t161 238t239.5 154
t293.5 54q167 0 305 -57.5t238 -160t154.5 -239.5t54.5 -295q0 -163 -56 -300.5t-157.5 -238.5t-239 -156.5t-300.5 -55.5zM849 82q144 0 262 50t203.5 138.5t131.5 206.5t46 254q0 141 -48 259.5t-134.5 206t-203.5 135.5t-256 48q-144 0 -262 -49.5t-203 -138
t-131.5 -206.5t-46.5 -255q0 -145 48.5 -264t135.5 -205t204 -133t254 -47z" />
    <glyph glyph-name="overscore" unicode="&#xaf;" horiz-adv-x="882" 
d="M889 1556h-897v123h897v-123z" />
    <glyph glyph-name="degree" unicode="&#xb0;" horiz-adv-x="746" 
d="M372 937q-80 0 -143 33t-98.5 94.5t-35.5 144.5q0 84 36.5 145t99.5 94t141 33q80 0 143 -33t99.5 -94t36.5 -145t-37 -145t-100 -94t-142 -33zM374 1037q75 0 120.5 47t45.5 125q0 77 -44.5 124.5t-121.5 47.5q-82 0 -125 -50t-43 -122q0 -80 47.5 -126t120.5 -46z" />
    <glyph glyph-name="plusminus" unicode="&#xb1;" horiz-adv-x="874" 
d="M62 0v130h747v-130h-747zM502 821h307v-131h-307v-412h-131v412h-310v131h310v415h131v-415z" />
    <glyph glyph-name="uni00B2" unicode="&#xb2;" horiz-adv-x="637" 
d="M551 850h-498v107l180 223q57 69 95 122t57 101.5t19 103.5q0 56 -32.5 91.5t-93.5 35.5q-43 0 -82.5 -20.5t-77.5 -62.5l-66 84q45 53 104.5 82.5t132.5 29.5q117 0 181 -63.5t64 -169.5q0 -72 -25 -133t-76.5 -128t-130.5 -159l-109 -135h358v-109z" />
    <glyph glyph-name="uni00B3" unicode="&#xb3;" horiz-adv-x="637" 
d="M286 1746q112 0 177 -59t65 -164q0 -76 -36.5 -129t-102.5 -79v-7q82 -25 123.5 -80t41.5 -145q0 -115 -80 -181.5t-209 -66.5q-55 0 -107 11.5t-100 35.5v125q47 -30 98.5 -44.5t108.5 -14.5q85 0 124 39.5t39 103.5q0 78 -45 118t-137 40h-70v106h66q80 0 122.5 41.5
t42.5 111.5q0 59 -34.5 92t-98.5 33q-44 0 -82.5 -17t-78.5 -55l-62 89q53 47 111 71.5t124 24.5z" />
    <glyph glyph-name="acute" unicode="&#xb4;" horiz-adv-x="535" 
d="M453 1568v-18q-20 -33 -53 -74.5t-72 -85t-78 -82.5t-70 -67h-98v23q40 55 74 107t62 101.5t51 95.5h184z" />
    <glyph glyph-name="uni00B5" unicode="&#xb5;" horiz-adv-x="927" 
d="M793 1098v-1098h-123l-17 159h-10q-19 -54 -50.5 -94.5t-71.5 -62.5t-86 -22q-52 0 -89 24.5t-60 76.5h-6q2 -37 4 -72t3 -67t1 -60v-372h-154v1588h154v-707q0 -136 34.5 -204.5t105.5 -68.5q77 0 123 45t67 134.5t21 222.5v578h154z" />
    <glyph glyph-name="paragraph" unicode="&#xb6;" horiz-adv-x="977" 
d="M804 -260h-112v1707h-141v-1707h-110v837q-17 -9 -35.5 -13.5t-41.5 -4.5q-80 0 -133 55.5t-78.5 165t-25.5 272.5q0 166 29 278t91.5 169t160.5 57h396v-1816z" />
    <glyph glyph-name="periodcentered" unicode="&#xb7;" horiz-adv-x="453" 
d="M122 717q0 61 26.5 93t77.5 32q49 0 77 -29.5t28 -95.5q0 -64 -29 -94t-76 -30q-49 0 -76.5 31.5t-27.5 92.5z" />
    <glyph glyph-name="cedilla" unicode="&#xb8;" horiz-adv-x="419" 
d="M377 -283q0 -101 -63.5 -155t-176.5 -54q-35 0 -64 3.5t-49 9.5v103q20 -6 43.5 -9t46.5 -3q67 0 100.5 29t33.5 76q0 56 -43 83.5t-117 37.5l70 162h95l-46 -105q55 -11 93 -35t57.5 -60t19.5 -83z" />
    <glyph glyph-name="uni00B9" unicode="&#xb9;" horiz-adv-x="637" 
d="M434 1726v-876h-124v546q0 31 1 62t2.5 62.5t4.5 62.5q-16 -16 -29.5 -27t-24.5 -19l-121 -91l-65 86l253 194h103z" />
    <glyph glyph-name="ordmasculine" unicode="&#xba;" horiz-adv-x="638" 
d="M574 1135q0 -166 -65 -258t-188 -92q-126 0 -192.5 92.5t-66.5 257.5q0 163 69 253.5t191 90.5q79 0 135.5 -39t86.5 -115.5t30 -189.5zM187 1134q0 -127 32.5 -187t99.5 -60q72 0 103.5 60.5t31.5 186.5q0 124 -31.5 183.5t-102.5 59.5q-63 0 -98 -59t-35 -184z" />
    <glyph glyph-name="guillemotright" unicode="&#xbb;" horiz-adv-x="928" 
d="M857 529l-296 -392l-106 59l219 348l-219 352l106 55l296 -393v-29zM477 529l-298 -392l-104 59l217 348l-217 352l104 55l298 -393v-29z" />
    <glyph glyph-name="onequarter" unicode="&#xbc;" horiz-adv-x="1443" 
d="M310 0l746 1462h134l-748 -1462h-132zM287 586v548q0 31 1 62t2.5 62.5t4.5 62.5q-17 -16 -30.5 -27.5t-23.5 -20.5l-121 -89l-65 84l252 194h105v-876h-125zM1183 0v194h-333v92l330 595h123v-581h106v-106h-106v-194h-120zM970 300h213v266q0 51 0.5 89.5t2.5 63.5
q-6 -19 -16.5 -42.5t-27.5 -55.5z" />
    <glyph glyph-name="onehalf" unicode="&#xbd;" horiz-adv-x="1514" 
d="M285 0l746 1462h134l-748 -1462h-132zM287 586v548q0 23 0.5 46.5t1.5 47t2.5 47t3.5 46.5q-17 -16 -30.5 -27.5t-23.5 -20.5l-121 -89l-65 84l252 194h105v-876h-125zM930 0v109l181 220q57 69 95.5 121.5t57.5 101t19 103.5q0 58 -33 93.5t-95 35.5q-43 0 -82.5 -20
t-78.5 -63l-65 84q44 53 104 82.5t132 29.5q118 0 182 -63.5t64 -168.5q0 -73 -24 -132t-68 -118t-105 -133l-144 -171h359v-111h-499z" />
    <glyph glyph-name="threequarters" unicode="&#xbe;" horiz-adv-x="1471" 
d="M339 0l746 1462h134l-748 -1462h-132zM263 570q-55 0 -107 12.5t-100 37.5v123q47 -28 98.5 -43t108.5 -15q85 0 124 39t39 103q0 78 -45.5 119t-136.5 41h-70v106h66q80 0 122.5 41.5t42.5 111.5q0 59 -34.5 92.5t-98.5 33.5q-44 0 -82.5 -19t-78.5 -55l-62 88
q53 48 111 72.5t124 24.5q111 0 176 -59t65 -165q0 -75 -36.5 -128t-101.5 -80v-8q82 -22 123.5 -77.5t41.5 -144.5q0 -116 -80.5 -183.5t-208.5 -67.5zM1210 0v194h-332v92l330 595h122v-581h107v-106h-107v-194h-120zM997 300h213v266q0 51 0.5 89.5t3.5 63.5
q-6 -19 -17 -42.5t-28 -55.5z" />
    <glyph glyph-name="questiondown" unicode="&#xbf;" horiz-adv-x="639" 
d="M441 680v-58q0 -71 -9.5 -127t-33 -106.5t-65.5 -105.5q-48 -63 -77.5 -115t-43.5 -104t-14 -115q0 -103 42 -154.5t116 -51.5q56 0 102.5 18.5t95.5 53.5l59 -122q-61 -45 -127 -68t-137 -23q-147 0 -226 86.5t-79 248.5q0 89 18 154t55.5 125t93.5 135q42 55 65 99
t32 88.5t9 100.5v41h124zM480 978q0 -61 -26.5 -93t-76.5 -32q-49 0 -77 29.5t-28 94.5t29 95t76 30q50 0 76.5 -31.5t26.5 -92.5z" />
    <glyph glyph-name="Agrave" unicode="&#xc0;" horiz-adv-x="906" 
d="M737 0l-110 470h-347l-110 -470h-170l353 1462h193l360 -1462h-169zM597 617l-112 496q-7 37 -13.5 72.5t-12 69t-10.5 65.5q-3 -32 -8 -66t-12 -68.5t-15 -70.5l-109 -498h292zM327 1905q23 -48 55.5 -104t67.5 -108.5t65 -91.5v-23h-99q-31 27 -69.5 65.5t-77.5 82
t-72 85.5t-54 76v18h184z" />
    <glyph glyph-name="Aacute" unicode="&#xc1;" horiz-adv-x="906" 
d="M737 0l-110 470h-347l-110 -470h-170l353 1462h193l360 -1462h-169zM597 617l-112 496q-7 37 -13.5 72.5t-12 69t-10.5 65.5q-3 -32 -8 -66t-12 -68.5t-15 -70.5l-109 -498h292zM723 1905v-18q-20 -33 -53 -74.5t-72 -85t-78 -82.5t-70 -67h-98v23q40 55 74 107t62 101.5
t51 95.5h184z" />
    <glyph glyph-name="Acircumflex" unicode="&#xc2;" horiz-adv-x="906" 
d="M737 0l-110 470h-347l-110 -470h-170l353 1462h193l360 -1462h-169zM597 617l-112 496q-7 37 -13.5 72.5t-12 69t-10.5 65.5q-3 -32 -8 -66t-12 -68.5t-15 -70.5l-109 -498h292zM521 1905q22 -46 54.5 -101t68 -109t66.5 -97v-20h-85q-43 41 -87 93t-90 107
q-46 -54 -92.5 -108.5t-83.5 -91.5h-86v20q36 48 71 102.5t65.5 107.5t50.5 97h148z" />
    <glyph glyph-name="Atilde" unicode="&#xc3;" horiz-adv-x="906" 
d="M737 0l-110 470h-347l-110 -470h-170l353 1462h193l360 -1462h-169zM597 617l-112 496q-7 37 -13.5 72.5t-12 69t-10.5 65.5q-3 -32 -8 -66t-12 -68.5t-15 -70.5l-109 -498h292zM156 1579q5 48 16 92t30.5 77.5t49.5 53t71 19.5q38 0 72 -18t66 -41.5t62 -41.5t59 -18
q32 0 48.5 33t25.5 88h98q-7 -118 -52 -180t-113 -62q-37 0 -73 18t-68.5 42t-61.5 42t-54 18q-28 0 -49.5 -32t-30.5 -90h-96z" />
    <glyph glyph-name="Adieresis" unicode="&#xc4;" horiz-adv-x="906" 
d="M737 0l-110 470h-347l-110 -470h-170l353 1462h193l360 -1462h-169zM597 617l-112 496q-7 37 -13.5 72.5t-12 69t-10.5 65.5q-3 -32 -8 -66t-12 -68.5t-15 -70.5l-109 -498h292zM203 1704q0 50 24 74t60 24q35 0 58.5 -24.5t23.5 -73.5q0 -51 -23.5 -76.5t-58.5 -25.5
q-36 0 -60 25.5t-24 76.5zM531 1704q0 50 24.5 74t59.5 24q36 0 60.5 -24.5t24.5 -73.5q0 -51 -24.5 -76.5t-60.5 -25.5q-37 0 -60.5 25.5t-23.5 76.5z" />
    <glyph glyph-name="Aring" unicode="&#xc5;" horiz-adv-x="906" 
d="M737 0l-110 470h-347l-110 -470h-170l353 1462h193l360 -1462h-169zM597 617l-112 496q-7 37 -13.5 72.5t-12 69t-10.5 65.5q-3 -32 -8 -66t-12 -68.5t-15 -70.5l-109 -498h292zM453 1377q-97 0 -154 55.5t-57 146.5q0 92 57 147.5t154 55.5q92 0 151.5 -54.5
t59.5 -145.5q0 -92 -57.5 -148.5t-153.5 -56.5zM455 1472q49 0 80 29t31 77q0 50 -29 81t-82 31q-51 0 -82 -31t-31 -80q0 -48 28 -77.5t85 -29.5z" />
    <glyph glyph-name="AE" unicode="&#xc6;" horiz-adv-x="1252" 
d="M1156 0h-583v470h-270l-134 -470h-173l438 1462h722v-144h-424v-483h398v-143h-398v-547h424v-145zM342 617h233v699h-33z" />
    <glyph glyph-name="Ccedilla" unicode="&#xc7;" horiz-adv-x="906" 
d="M596 1340q-87 0 -149.5 -49t-102 -134.5t-58 -195t-18.5 -230.5q0 -188 41.5 -324t117.5 -209.5t179 -73.5q62 0 117 16t101 39v-144q-48 -28 -107 -41.5t-129 -13.5q-149 0 -258 90t-168 258.5t-59 404.5q0 155 29.5 291t90 240t152.5 162.5t216 58.5q72 0 138.5 -18.5
t127.5 -53.5l-57 -135q-46 29 -97 45.5t-107 16.5zM724 -283q0 -101 -63.5 -155t-176.5 -54q-35 0 -64 3.5t-49 9.5v103q20 -6 43.5 -9t46.5 -3q67 0 100.5 29t33.5 76q0 56 -43 83.5t-117 37.5l70 162h95l-46 -105q55 -11 93 -35t57.5 -60t19.5 -83z" />
    <glyph glyph-name="Egrave" unicode="&#xc8;" horiz-adv-x="818" 
d="M726 0h-575v1462h575v-142h-416v-485h391v-143h-391v-547h416v-145zM337 1905q23 -48 55.5 -104t67.5 -108.5t65 -91.5v-23h-99q-31 27 -69.5 65.5t-77.5 82t-72 85.5t-54 76v18h184z" />
    <glyph glyph-name="Eacute" unicode="&#xc9;" horiz-adv-x="818" 
d="M726 0h-575v1462h575v-142h-416v-485h391v-143h-391v-547h416v-145zM703 1905v-18q-20 -33 -53 -74.5t-72 -85t-78 -82.5t-70 -67h-98v23q40 55 74 107t62 101.5t51 95.5h184z" />
    <glyph glyph-name="Ecircumflex" unicode="&#xca;" horiz-adv-x="818" 
d="M726 0h-575v1462h575v-142h-416v-485h391v-143h-391v-547h416v-145zM510 1905q22 -46 54.5 -101t68 -109t66.5 -97v-20h-85q-43 41 -87 93t-90 107q-46 -54 -92.5 -108.5t-83.5 -91.5h-86v20q36 48 71 102.5t65.5 107.5t50.5 97h148z" />
    <glyph glyph-name="Edieresis" unicode="&#xcb;" horiz-adv-x="818" 
d="M726 0h-575v1462h575v-142h-416v-485h391v-143h-391v-547h416v-145zM184 1704q0 50 24 74t60 24q35 0 58.5 -24.5t23.5 -73.5q0 -51 -23.5 -76.5t-58.5 -25.5q-36 0 -60 25.5t-24 76.5zM512 1704q0 50 24.5 74t59.5 24q36 0 60.5 -24.5t24.5 -73.5q0 -51 -24.5 -76.5
t-60.5 -25.5q-37 0 -60.5 25.5t-23.5 76.5z" />
    <glyph glyph-name="Igrave" unicode="&#xcc;" horiz-adv-x="458" 
d="M151 0v1462h159v-1462h-159zM146 1914q23 -48 55.5 -104t67.5 -108.5t65 -91.5v-23h-99q-31 27 -69.5 65.5t-77.5 82t-72 85.5t-54 76v18h184z" />
    <glyph glyph-name="Iacute" unicode="&#xcd;" horiz-adv-x="458" 
d="M151 0v1462h159v-1462h-159zM490 1914v-18q-20 -33 -53 -74.5t-72 -85t-78 -82.5t-70 -67h-98v23q40 55 74 107t62 101.5t51 95.5h184z" />
    <glyph glyph-name="Icircumflex" unicode="&#xce;" horiz-adv-x="458" 
d="M151 0v1462h159v-1462h-159zM303 1910q22 -46 54.5 -101t68 -109t66.5 -97v-20h-85q-43 41 -87 93t-90 107q-46 -54 -92.5 -108.5t-83.5 -91.5h-86v20q36 48 71 102.5t65.5 107.5t50.5 97h148z" />
    <glyph glyph-name="Idieresis" unicode="&#xcf;" horiz-adv-x="458" 
d="M151 0v1462h159v-1462h-159zM-20 1710q0 50 24 74t60 24q35 0 58.5 -24.5t23.5 -73.5q0 -51 -23.5 -76.5t-58.5 -25.5q-36 0 -60 25.5t-24 76.5zM308 1710q0 50 24.5 74t59.5 24q36 0 60.5 -24.5t24.5 -73.5q0 -51 -24.5 -76.5t-60.5 -25.5q-37 0 -60.5 25.5t-23.5 76.5z
" />
    <glyph glyph-name="Eth" unicode="&#xd0;" horiz-adv-x="1049" 
d="M449 1462q163 0 273 -81t166.5 -240t56.5 -392q0 -247 -57 -413.5t-169.5 -251t-280.5 -84.5h-288v687h-105v129h105v646h299zM445 1320h-133v-504h207v-129h-207v-544h122q180 0 263 150.5t83 447.5q0 191 -36.5 320t-111 194t-187.5 65z" />
    <glyph glyph-name="Ntilde" unicode="&#xd1;" horiz-adv-x="1150" 
d="M1002 0h-193l-510 1210h-8q4 -53 6.5 -102.5t3.5 -95.5t1 -90v-922h-151v1462h192l511 -1192h6q-3 59 -5.5 111t-3.5 97.5t-1 83.5v900h152v-1462zM286 1579q5 48 16 92t30.5 77.5t49.5 53t71 19.5q38 0 72 -18t66 -41.5t62 -41.5t59 -18q32 0 48.5 33t25.5 88h98
q-7 -118 -52 -180t-113 -62q-37 0 -73 18t-68.5 42t-61.5 42t-54 18q-28 0 -49.5 -32t-30.5 -90h-96z" />
    <glyph glyph-name="Ograve" unicode="&#xd2;" horiz-adv-x="1117" 
d="M1016 733q0 -157 -25 -293.5t-78.5 -240t-140.5 -161.5t-211 -58q-126 0 -214 59.5t-141.5 163.5t-78 241t-24.5 291q0 250 51.5 416t153.5 249t253 83q164 0 264 -99.5t145.5 -269.5t45.5 -381zM268 733q0 -199 33.5 -334.5t98.5 -204.5t159 -69q96 0 160 67.5t96.5 203
t32.5 337.5q0 301 -72 453t-215 152q-98 0 -163 -68.5t-97.5 -203t-32.5 -333.5zM441 1905q23 -48 55.5 -104t67.5 -108.5t65 -91.5v-23h-99q-31 27 -69.5 65.5t-77.5 82t-72 85.5t-54 76v18h184z" />
    <glyph glyph-name="Oacute" unicode="&#xd3;" horiz-adv-x="1117" 
d="M1016 733q0 -157 -25 -293.5t-78.5 -240t-140.5 -161.5t-211 -58q-126 0 -214 59.5t-141.5 163.5t-78 241t-24.5 291q0 250 51.5 416t153.5 249t253 83q164 0 264 -99.5t145.5 -269.5t45.5 -381zM268 733q0 -199 33.5 -334.5t98.5 -204.5t159 -69q96 0 160 67.5t96.5 203
t32.5 337.5q0 301 -72 453t-215 152q-98 0 -163 -68.5t-97.5 -203t-32.5 -333.5zM828 1905v-18q-20 -33 -53 -74.5t-72 -85t-78 -82.5t-70 -67h-98v23q40 55 74 107t62 101.5t51 95.5h184z" />
    <glyph glyph-name="Ocircumflex" unicode="&#xd4;" horiz-adv-x="1117" 
d="M1016 733q0 -157 -25 -293.5t-78.5 -240t-140.5 -161.5t-211 -58q-126 0 -214 59.5t-141.5 163.5t-78 241t-24.5 291q0 250 51.5 416t153.5 249t253 83q164 0 264 -99.5t145.5 -269.5t45.5 -381zM268 733q0 -199 33.5 -334.5t98.5 -204.5t159 -69q96 0 160 67.5t96.5 203
t32.5 337.5q0 301 -72 453t-215 152q-98 0 -163 -68.5t-97.5 -203t-32.5 -333.5zM632 1905q22 -46 54.5 -101t68 -109t66.5 -97v-20h-85q-43 41 -87 93t-90 107q-46 -54 -92.5 -108.5t-83.5 -91.5h-86v20q36 48 71 102.5t65.5 107.5t50.5 97h148z" />
    <glyph glyph-name="Otilde" unicode="&#xd5;" horiz-adv-x="1117" 
d="M1016 733q0 -157 -25 -293.5t-78.5 -240t-140.5 -161.5t-211 -58q-126 0 -214 59.5t-141.5 163.5t-78 241t-24.5 291q0 250 51.5 416t153.5 249t253 83q164 0 264 -99.5t145.5 -269.5t45.5 -381zM268 733q0 -199 33.5 -334.5t98.5 -204.5t159 -69q96 0 160 67.5t96.5 203
t32.5 337.5q0 301 -72 453t-215 152q-98 0 -163 -68.5t-97.5 -203t-32.5 -333.5zM267 1579q5 48 16 92t30.5 77.5t49.5 53t71 19.5q38 0 72 -18t66 -41.5t62 -41.5t59 -18q32 0 48.5 33t25.5 88h98q-7 -118 -52 -180t-113 -62q-37 0 -73 18t-68.5 42t-61.5 42t-54 18
q-28 0 -49.5 -32t-30.5 -90h-96z" />
    <glyph glyph-name="Odieresis" unicode="&#xd6;" horiz-adv-x="1117" 
d="M1016 733q0 -157 -25 -293.5t-78.5 -240t-140.5 -161.5t-211 -58q-126 0 -214 59.5t-141.5 163.5t-78 241t-24.5 291q0 250 51.5 416t153.5 249t253 83q164 0 264 -99.5t145.5 -269.5t45.5 -381zM268 733q0 -199 33.5 -334.5t98.5 -204.5t159 -69q96 0 160 67.5t96.5 203
t32.5 337.5q0 301 -72 453t-215 152q-98 0 -163 -68.5t-97.5 -203t-32.5 -333.5zM316 1704q0 50 24 74t60 24q35 0 58.5 -24.5t23.5 -73.5q0 -51 -23.5 -76.5t-58.5 -25.5q-36 0 -60 25.5t-24 76.5zM644 1704q0 50 24.5 74t59.5 24q36 0 60.5 -24.5t24.5 -73.5
q0 -51 -24.5 -76.5t-60.5 -25.5q-37 0 -60.5 25.5t-23.5 76.5z" />
    <glyph glyph-name="multiply" unicode="&#xd7;" horiz-adv-x="874" 
d="M717 1095l91 -87l-282 -285l276 -281l-87 -87l-280 279l-280 -281l-87 89l278 281l-278 278l88 90l279 -279z" />
    <glyph glyph-name="Oslash" unicode="&#xd8;" horiz-adv-x="1123" 
d="M1021 733q0 -179 -28.5 -319t-85 -236.5t-142 -147t-199.5 -50.5q-79 0 -144 26t-116 75l-90 -182l-99 44l113 227q-64 105 -93 245.5t-29 319.5q0 250 52 416t154 249t252 83q80 0 147 -28t119 -84l89 173l99 -48l-111 -218q57 -96 84.5 -232.5t27.5 -312.5zM857 733
q0 108 -10 199.5t-31 161.5l-440 -870q35 -51 82.5 -76.5t105.5 -25.5q98 0 163 68.5t97.5 204.5t32.5 338zM272 733q0 -122 12.5 -218t37.5 -167l442 877q-36 59 -85 87t-113 28q-98 0 -163.5 -69t-98 -204t-32.5 -334z" />
    <glyph glyph-name="Ugrave" unicode="&#xd9;" horiz-adv-x="1061" 
d="M923 1462v-1005q0 -167 -45 -272.5t-131.5 -155t-213.5 -49.5q-193 0 -294 116t-101 360v1006h159v-1007q0 -176 61.5 -253t174.5 -77q75 0 126 33t77 106t26 193v1005h161zM426 1905q23 -48 55.5 -104t67.5 -108.5t65 -91.5v-23h-99q-31 27 -69.5 65.5t-77.5 82
t-72 85.5t-54 76v18h184z" />
    <glyph glyph-name="Uacute" unicode="&#xda;" horiz-adv-x="1061" 
d="M923 1462v-1005q0 -167 -45 -272.5t-131.5 -155t-213.5 -49.5q-193 0 -294 116t-101 360v1006h159v-1007q0 -176 61.5 -253t174.5 -77q75 0 126 33t77 106t26 193v1005h161zM811 1905v-18q-20 -33 -53 -74.5t-72 -85t-78 -82.5t-70 -67h-98v23q40 55 74 107t62 101.5
t51 95.5h184z" />
    <glyph glyph-name="Ucircumflex" unicode="&#xdb;" horiz-adv-x="1061" 
d="M923 1462v-1005q0 -167 -45 -272.5t-131.5 -155t-213.5 -49.5q-193 0 -294 116t-101 360v1006h159v-1007q0 -176 61.5 -253t174.5 -77q75 0 126 33t77 106t26 193v1005h161zM603 1905q22 -46 54.5 -101t68 -109t66.5 -97v-20h-85q-43 41 -87 93t-90 107
q-46 -54 -92.5 -108.5t-83.5 -91.5h-86v20q36 48 71 102.5t65.5 107.5t50.5 97h148z" />
    <glyph glyph-name="Udieresis" unicode="&#xdc;" horiz-adv-x="1061" 
d="M923 1462v-1005q0 -167 -45 -272.5t-131.5 -155t-213.5 -49.5q-193 0 -294 116t-101 360v1006h159v-1007q0 -176 61.5 -253t174.5 -77q75 0 126 33t77 106t26 193v1005h161zM283 1703q0 50 24 74t60 24q35 0 58.5 -24.5t23.5 -73.5q0 -51 -23.5 -76.5t-58.5 -25.5
q-36 0 -60 25.5t-24 76.5zM611 1703q0 50 24.5 74t59.5 24q36 0 60.5 -24.5t24.5 -73.5q0 -51 -24.5 -76.5t-60.5 -25.5q-37 0 -60.5 25.5t-23.5 76.5z" />
    <glyph glyph-name="Yacute" unicode="&#xdd;" horiz-adv-x="786" 
d="M394 760l225 702h167l-314 -893v-569h-159v565l-313 897h166zM641 1905v-18q-20 -33 -53 -74.5t-72 -85t-78 -82.5t-70 -67h-98v23q40 55 74 107t62 101.5t51 95.5h184z" />
    <glyph glyph-name="Thorn" unicode="&#xde;" horiz-adv-x="884" 
d="M828 784q0 -110 -25 -196.5t-76 -146.5t-129.5 -91t-185.5 -31h-102v-319h-159v1462h159v-256h104q212 0 313 -103.5t101 -318.5zM310 461h86q99 0 158.5 34t86 104t26.5 177q0 152 -61 220t-195 68h-101v-603z" />
    <glyph glyph-name="germandbls" unicode="&#xdf;" horiz-adv-x="918" 
d="M757 1269q0 -62 -19 -110t-46.5 -87.5t-55.5 -74t-47 -70.5t-19 -78q0 -37 13 -69t38.5 -65t61.5 -73q63 -67 100.5 -118t53.5 -101t16 -116q0 -100 -33.5 -173.5t-98 -113.5t-158.5 -40q-51 0 -103.5 13t-92.5 41v150q27 -18 55.5 -33t60 -24t67.5 -9q72 0 110 48
t38 130q0 46 -13.5 84t-42.5 77t-76 86q-56 58 -88.5 108.5t-46 97.5t-13.5 93q0 57 19 99t46.5 77l55 70t46.5 77.5t19 99.5q0 79 -36 122.5t-109 43.5q-56 0 -94 -30t-57.5 -88t-19.5 -142v-1171h-154v1176q0 122 39 209.5t112.5 134.5t176.5 47q93 0 159 -35t101 -101.5
t35 -161.5z" />
    <glyph glyph-name="agrave" unicode="&#xe0;" horiz-adv-x="841" 
d="M428 1118q152 0 217 -97t65 -281v-740h-117l-23 156h-4q-26 -56 -62 -95.5t-82 -60t-106 -20.5q-85 0 -139 45t-80 118.5t-26 158.5q0 163 94 253t267 98l125 8v75q0 132 -36 193t-116 61q-46 0 -96.5 -16t-109.5 -51l-49 116q62 40 132.5 59.5t145.5 19.5zM559 548
l-102 -7q-116 -7 -172.5 -65.5t-56.5 -169.5q0 -103 37 -152t102 -49q91 0 141.5 88t50.5 243v112zM371 1568q23 -48 55.5 -104t67.5 -108.5t65 -91.5v-23h-99q-31 27 -69.5 65.5t-77.5 82t-72 85.5t-54 76v18h184z" />
    <glyph glyph-name="aacute" unicode="&#xe1;" horiz-adv-x="841" 
d="M428 1118q152 0 217 -97t65 -281v-740h-117l-23 156h-4q-26 -56 -62 -95.5t-82 -60t-106 -20.5q-85 0 -139 45t-80 118.5t-26 158.5q0 163 94 253t267 98l125 8v75q0 132 -36 193t-116 61q-46 0 -96.5 -16t-109.5 -51l-49 116q62 40 132.5 59.5t145.5 19.5zM559 548
l-102 -7q-116 -7 -172.5 -65.5t-56.5 -169.5q0 -103 37 -152t102 -49q91 0 141.5 88t50.5 243v112zM661 1568v-18q-20 -33 -53 -74.5t-72 -85t-78 -82.5t-70 -67h-98v23q40 55 74 107t62 101.5t51 95.5h184z" />
    <glyph glyph-name="acircumflex" unicode="&#xe2;" horiz-adv-x="841" 
d="M428 1118q152 0 217 -97t65 -281v-740h-117l-23 156h-4q-26 -56 -62 -95.5t-82 -60t-106 -20.5q-85 0 -139 45t-80 118.5t-26 158.5q0 163 94 253t267 98l125 8v75q0 132 -36 193t-116 61q-46 0 -96.5 -16t-109.5 -51l-49 116q62 40 132.5 59.5t145.5 19.5zM559 548
l-102 -7q-116 -7 -172.5 -65.5t-56.5 -169.5q0 -103 37 -152t102 -49q91 0 141.5 88t50.5 243v112zM505 1568q22 -46 54.5 -101t68 -109t66.5 -97v-20h-85q-43 41 -87 93t-90 107q-46 -54 -92.5 -108.5t-83.5 -91.5h-86v20q36 48 71 102.5t65.5 107.5t50.5 97h148z" />
    <glyph glyph-name="atilde" unicode="&#xe3;" horiz-adv-x="841" 
d="M428 1118q152 0 217 -97t65 -281v-740h-117l-23 156h-4q-26 -56 -62 -95.5t-82 -60t-106 -20.5q-85 0 -139 45t-80 118.5t-26 158.5q0 163 94 253t267 98l125 8v75q0 132 -36 193t-116 61q-46 0 -96.5 -16t-109.5 -51l-49 116q62 40 132.5 59.5t145.5 19.5zM559 548
l-102 -7q-116 -7 -172.5 -65.5t-56.5 -169.5q0 -103 37 -152t102 -49q91 0 141.5 88t50.5 243v112zM133 1243q5 48 16 92t30.5 77.5t49.5 53t71 19.5q38 0 72 -18t66 -41.5t62 -41.5t59 -18q32 0 48.5 33t25.5 88h98q-7 -118 -52 -180t-113 -62q-37 0 -73 18t-68.5 42
t-61.5 42t-54 18q-28 0 -49.5 -32t-30.5 -90h-96z" />
    <glyph glyph-name="adieresis" unicode="&#xe4;" horiz-adv-x="841" 
d="M428 1118q152 0 217 -97t65 -281v-740h-117l-23 156h-4q-26 -56 -62 -95.5t-82 -60t-106 -20.5q-85 0 -139 45t-80 118.5t-26 158.5q0 163 94 253t267 98l125 8v75q0 132 -36 193t-116 61q-46 0 -96.5 -16t-109.5 -51l-49 116q62 40 132.5 59.5t145.5 19.5zM559 548
l-102 -7q-116 -7 -172.5 -65.5t-56.5 -169.5q0 -103 37 -152t102 -49q91 0 141.5 88t50.5 243v112zM182 1367q0 50 24 74t60 24q35 0 58.5 -24.5t23.5 -73.5q0 -51 -23.5 -76.5t-58.5 -25.5q-36 0 -60 25.5t-24 76.5zM510 1367q0 50 24.5 74t59.5 24q36 0 60.5 -24.5
t24.5 -73.5q0 -51 -24.5 -76.5t-60.5 -25.5q-37 0 -60.5 25.5t-23.5 76.5z" />
    <glyph glyph-name="aring" unicode="&#xe5;" horiz-adv-x="841" 
d="M428 1118q152 0 217 -97t65 -281v-740h-117l-23 156h-4q-26 -56 -62 -95.5t-82 -60t-106 -20.5q-85 0 -139 45t-80 118.5t-26 158.5q0 163 94 253t267 98l125 8v75q0 132 -36 193t-116 61q-46 0 -96.5 -16t-109.5 -51l-49 116q62 40 132.5 59.5t145.5 19.5zM559 548
l-102 -7q-116 -7 -172.5 -65.5t-56.5 -169.5q0 -103 37 -152t102 -49q91 0 141.5 88t50.5 243v112zM432 1249q-97 0 -154 55.5t-57 146.5q0 92 57 147.5t154 55.5q92 0 151.5 -54.5t59.5 -145.5q0 -92 -57.5 -148.5t-153.5 -56.5zM434 1344q49 0 80 29t31 77q0 50 -29 81
t-82 31q-51 0 -82 -31t-31 -80q0 -48 28 -77.5t85 -29.5z" />
    <glyph glyph-name="ae" unicode="&#xe6;" horiz-adv-x="1318" 
d="M905 1116q113 0 185 -65t106.5 -174.5t34.5 -244.5v-109h-522q3 -208 64 -311t179 -103q59 0 119.5 18.5t119.5 55.5v-135q-55 -34 -117.5 -51t-134.5 -17q-73 0 -135.5 27t-109.5 78.5t-74 124.5q-32 -79 -75.5 -130t-98 -75.5t-121.5 -24.5q-88 0 -144.5 44.5
t-83 118.5t-26.5 160q0 109 42.5 185t123.5 118t196 47l124 7v81q0 125 -37 187t-114 62q-45 0 -96 -16t-110 -51l-50 117q55 34 121.5 56t145.5 22q91 0 148.5 -40t85.5 -123q41 78 104.5 119.5t149.5 41.5zM559 547l-101 -6q-118 -7 -174 -64t-56 -171q0 -101 36 -150.5
t103 -49.5q60 0 103 39t66 111t23 171v120zM904 988q-85 0 -135.5 -84.5t-57.5 -258.5h377q0 97 -19.5 174.5t-60 123t-104.5 45.5z" />
    <glyph glyph-name="ccedilla" unicode="&#xe7;" horiz-adv-x="703" 
d="M451 -20q-121 0 -201.5 63t-120.5 188t-40 310q0 181 40.5 310t122.5 198t205 69q62 0 111.5 -13t92.5 -37l-49 -127q-37 20 -73.5 30t-71.5 10q-72 0 -121 -49.5t-74.5 -146.5t-25.5 -242q0 -141 24.5 -236t74 -143.5t123.5 -48.5q44 0 89.5 12.5t91.5 36.5v-130
q-42 -26 -97.5 -40t-100.5 -14zM619 -283q0 -101 -63.5 -155t-176.5 -54q-35 0 -64 3.5t-49 9.5v103q20 -6 43.5 -9t46.5 -3q67 0 100.5 29t33.5 76q0 56 -43 83.5t-117 37.5l70 162h95l-46 -105q55 -11 93 -35t57.5 -60t19.5 -83z" />
    <glyph glyph-name="egrave" unicode="&#xe8;" horiz-adv-x="847" 
d="M436 1116q112 0 184.5 -65t108 -175t35.5 -245v-109h-523q2 -205 63.5 -308t185.5 -103q59 0 116 18t118 58v-138q-57 -35 -119 -52t-132 -17q-137 0 -222 73.5t-123.5 201t-38.5 288.5q0 184 39 312t116.5 194.5t191.5 66.5zM436 990q-87 0 -136 -84.5t-57 -260.5h377
q0 93 -19.5 171.5t-60 126t-104.5 47.5zM369 1568q23 -48 55.5 -104t67.5 -108.5t65 -91.5v-23h-99q-31 27 -69.5 65.5t-77.5 82t-72 85.5t-54 76v18h184z" />
    <glyph glyph-name="eacute" unicode="&#xe9;" horiz-adv-x="847" 
d="M436 1116q112 0 184.5 -65t108 -175t35.5 -245v-109h-523q2 -205 63.5 -308t185.5 -103q59 0 116 18t118 58v-138q-57 -35 -119 -52t-132 -17q-137 0 -222 73.5t-123.5 201t-38.5 288.5q0 184 39 312t116.5 194.5t191.5 66.5zM436 990q-87 0 -136 -84.5t-57 -260.5h377
q0 93 -19.5 171.5t-60 126t-104.5 47.5zM701 1568v-18q-20 -33 -53 -74.5t-72 -85t-78 -82.5t-70 -67h-98v23q40 55 74 107t62 101.5t51 95.5h184z" />
    <glyph glyph-name="ecircumflex" unicode="&#xea;" horiz-adv-x="847" 
d="M436 1116q112 0 184.5 -65t108 -175t35.5 -245v-109h-523q2 -205 63.5 -308t185.5 -103q59 0 116 18t118 58v-138q-57 -35 -119 -52t-132 -17q-137 0 -222 73.5t-123.5 201t-38.5 288.5q0 184 39 312t116.5 194.5t191.5 66.5zM436 990q-87 0 -136 -84.5t-57 -260.5h377
q0 93 -19.5 171.5t-60 126t-104.5 47.5zM503 1568q22 -46 54.5 -101t68 -109t66.5 -97v-20h-85q-43 41 -87 93t-90 107q-46 -54 -92.5 -108.5t-83.5 -91.5h-86v20q36 48 71 102.5t65.5 107.5t50.5 97h148z" />
    <glyph glyph-name="edieresis" unicode="&#xeb;" horiz-adv-x="847" 
d="M436 1116q112 0 184.5 -65t108 -175t35.5 -245v-109h-523q2 -205 63.5 -308t185.5 -103q59 0 116 18t118 58v-138q-57 -35 -119 -52t-132 -17q-137 0 -222 73.5t-123.5 201t-38.5 288.5q0 184 39 312t116.5 194.5t191.5 66.5zM436 990q-87 0 -136 -84.5t-57 -260.5h377
q0 93 -19.5 171.5t-60 126t-104.5 47.5zM181 1367q0 50 24 74t60 24q35 0 58.5 -24.5t23.5 -73.5q0 -51 -23.5 -76.5t-58.5 -25.5q-36 0 -60 25.5t-24 76.5zM509 1367q0 50 24.5 74t59.5 24q36 0 60.5 -24.5t24.5 -73.5q0 -51 -24.5 -76.5t-60.5 -25.5q-37 0 -60.5 25.5
t-23.5 76.5z" />
    <glyph glyph-name="igrave" unicode="&#xec;" horiz-adv-x="422" 
d="M288 0h-154v1098h154v-1098zM149 1568q23 -48 55.5 -104t67.5 -108.5t65 -91.5v-23h-99q-31 27 -69.5 65.5t-77.5 82t-72 85.5t-54 76v18h184z" />
    <glyph glyph-name="iacute" unicode="&#xed;" horiz-adv-x="422" 
d="M288 0h-154v1098h154v-1098zM480 1568v-18q-20 -33 -53 -74.5t-72 -85t-78 -82.5t-70 -67h-98v23q40 55 74 107t62 101.5t51 95.5h184z" />
    <glyph glyph-name="icircumflex" unicode="&#xee;" horiz-adv-x="422" 
d="M288 0h-154v1098h154v-1098zM283 1568q22 -46 54.5 -101t68 -109t66.5 -97v-20h-85q-43 41 -87 93t-90 107q-46 -54 -92.5 -108.5t-83.5 -91.5h-86v20q36 48 71 102.5t65.5 107.5t50.5 97h148z" />
    <glyph glyph-name="idieresis" unicode="&#xef;" horiz-adv-x="422" 
d="M288 0h-154v1098h154v-1098zM-39 1367q0 50 24 74t60 24q35 0 58.5 -24.5t23.5 -73.5q0 -51 -23.5 -76.5t-58.5 -25.5q-36 0 -60 25.5t-24 76.5zM289 1367q0 50 24.5 74t59.5 24q36 0 60.5 -24.5t24.5 -73.5q0 -51 -24.5 -76.5t-60.5 -25.5q-37 0 -60.5 25.5t-23.5 76.5z
" />
    <glyph glyph-name="eth" unicode="&#xf0;" horiz-adv-x="904" 
d="M321 1560q38 -22 75 -49.5t74 -61.5l171 111l61 -88l-159 -98q91 -104 151.5 -231t91.5 -279.5t31 -333.5t-41.5 -303.5t-123 -184.5t-201.5 -62t-201 68t-122 180.5t-41 246.5q0 158 42.5 268t118.5 167.5t177 57.5q45 0 82.5 -11.5t67 -33t50.5 -53.5l6 2
q-22 118 -71.5 224t-125.5 197l-158 -102l-60 86l149 96q-28 29 -57 53t-58 44zM457 833q-69 0 -117 -41.5t-73 -122t-25 -199.5q0 -100 22.5 -181t70 -128.5t121.5 -47.5q110 0 158.5 94.5t48.5 278.5q0 73 -13 136t-39 110.5t-64.5 74t-89.5 26.5z" />
    <glyph glyph-name="ntilde" unicode="&#xf1;" horiz-adv-x="923" 
d="M529 1118q130 0 197 -91t67 -279v-748h-154v717q0 133 -34.5 199t-108.5 66q-108 0 -158 -96t-50 -308v-578h-154v1098h123l17 -159h10q23 55 59 95t83 62t103 22zM177 1244q5 48 16 92t30.5 77.5t49.5 53t71 19.5q38 0 72 -18t66 -41.5t62 -41.5t59 -18q32 0 48.5 33
t25.5 88h98q-7 -118 -52 -180t-113 -62q-37 0 -73 18t-68.5 42t-61.5 42t-54 18q-28 0 -49.5 -32t-30.5 -90h-96z" />
    <glyph glyph-name="ograve" unicode="&#xf2;" horiz-adv-x="902" 
d="M815 550q0 -130 -22 -235t-67 -180t-114 -115t-163 -40q-90 0 -158 40t-113 114.5t-68 180t-23 235.5q0 182 39 308.5t120 193t206 66.5q117 0 198 -64.5t123 -191t42 -312.5zM244 550q0 -143 22 -240t68.5 -146t118.5 -49q71 0 116.5 48t67.5 144.5t22 242.5
q0 143 -22 239.5t-67.5 145t-117.5 48.5q-110 0 -159 -108.5t-49 -324.5zM389 1568q23 -48 55.5 -104t67.5 -108.5t65 -91.5v-23h-99q-31 27 -69.5 65.5t-77.5 82t-72 85.5t-54 76v18h184z" />
    <glyph glyph-name="oacute" unicode="&#xf3;" horiz-adv-x="902" 
d="M815 550q0 -130 -22 -235t-67 -180t-114 -115t-163 -40q-90 0 -158 40t-113 114.5t-68 180t-23 235.5q0 182 39 308.5t120 193t206 66.5q117 0 198 -64.5t123 -191t42 -312.5zM244 550q0 -143 22 -240t68.5 -146t118.5 -49q71 0 116.5 48t67.5 144.5t22 242.5
q0 143 -22 239.5t-67.5 145t-117.5 48.5q-110 0 -159 -108.5t-49 -324.5zM717 1568v-18q-20 -33 -53 -74.5t-72 -85t-78 -82.5t-70 -67h-98v23q40 55 74 107t62 101.5t51 95.5h184z" />
    <glyph glyph-name="ocircumflex" unicode="&#xf4;" horiz-adv-x="902" 
d="M815 550q0 -130 -22 -235t-67 -180t-114 -115t-163 -40q-90 0 -158 40t-113 114.5t-68 180t-23 235.5q0 182 39 308.5t120 193t206 66.5q117 0 198 -64.5t123 -191t42 -312.5zM244 550q0 -143 22 -240t68.5 -146t118.5 -49q71 0 116.5 48t67.5 144.5t22 242.5
q0 143 -22 239.5t-67.5 145t-117.5 48.5q-110 0 -159 -108.5t-49 -324.5zM522 1568q22 -46 54.5 -101t68 -109t66.5 -97v-20h-85q-43 41 -87 93t-90 107q-46 -54 -92.5 -108.5t-83.5 -91.5h-86v20q36 48 71 102.5t65.5 107.5t50.5 97h148z" />
    <glyph glyph-name="otilde" unicode="&#xf5;" horiz-adv-x="902" 
d="M815 550q0 -130 -22 -235t-67 -180t-114 -115t-163 -40q-90 0 -158 40t-113 114.5t-68 180t-23 235.5q0 182 39 308.5t120 193t206 66.5q117 0 198 -64.5t123 -191t42 -312.5zM244 550q0 -143 22 -240t68.5 -146t118.5 -49q71 0 116.5 48t67.5 144.5t22 242.5
q0 143 -22 239.5t-67.5 145t-117.5 48.5q-110 0 -159 -108.5t-49 -324.5zM151 1243q5 48 16 92t30.5 77.5t49.5 53t71 19.5q38 0 72 -18t66 -41.5t62 -41.5t59 -18q32 0 48.5 33t25.5 88h98q-7 -118 -52 -180t-113 -62q-37 0 -73 18t-68.5 42t-61.5 42t-54 18
q-28 0 -49.5 -32t-30.5 -90h-96z" />
    <glyph glyph-name="odieresis" unicode="&#xf6;" horiz-adv-x="902" 
d="M815 550q0 -130 -22 -235t-67 -180t-114 -115t-163 -40q-90 0 -158 40t-113 114.5t-68 180t-23 235.5q0 182 39 308.5t120 193t206 66.5q117 0 198 -64.5t123 -191t42 -312.5zM244 550q0 -143 22 -240t68.5 -146t118.5 -49q71 0 116.5 48t67.5 144.5t22 242.5
q0 143 -22 239.5t-67.5 145t-117.5 48.5q-110 0 -159 -108.5t-49 -324.5zM201 1367q0 50 24 74t60 24q35 0 58.5 -24.5t23.5 -73.5q0 -51 -23.5 -76.5t-58.5 -25.5q-36 0 -60 25.5t-24 76.5zM529 1367q0 50 24.5 74t59.5 24q36 0 60.5 -24.5t24.5 -73.5q0 -51 -24.5 -76.5
t-60.5 -25.5q-37 0 -60.5 25.5t-23.5 76.5z" />
    <glyph glyph-name="divide" unicode="&#xf7;" horiz-adv-x="874" 
d="M61 658v130h748v-130h-748zM438 235q-48 0 -73 31t-25 90q0 60 24.5 90.5t73.5 30.5q48 0 72 -30.5t24 -90.5q0 -61 -26 -91t-70 -30zM438 967q-48 0 -73 30.5t-25 89.5t24.5 90t73.5 31q48 0 72 -31t24 -90q0 -61 -26 -90.5t-70 -29.5z" />
    <glyph glyph-name="oslash" unicode="&#xf8;" horiz-adv-x="909" 
d="M819 550q0 -183 -42.5 -310.5t-124 -193.5t-199.5 -66q-55 0 -102.5 16.5t-84.5 48.5l-90 -183l-94 46l109 217q-51 77 -75.5 183t-24.5 242q0 281 93 424.5t273 143.5q57 0 104.5 -18t87.5 -56l79 156l94 -46l-95 -192q47 -75 69.5 -178.5t22.5 -233.5zM245 550
q0 -84 8 -151t23 -114l317 632q-25 35 -59 52.5t-77 17.5q-112 0 -162 -109.5t-50 -327.5zM670 550q0 78 -8 140.5t-20 108.5l-314 -628q24 -31 56.5 -46.5t70.5 -15.5q74 0 121.5 49t70.5 147t23 245z" />
    <glyph glyph-name="ugrave" unicode="&#xf9;" horiz-adv-x="923" 
d="M789 1098v-1098h-123l-17 156h-11q-22 -54 -57.5 -93.5t-81.5 -61t-103 -21.5q-96 0 -154.5 48t-85 137t-26.5 212v721h154v-692q0 -148 34.5 -218t105.5 -70q77 0 123 42.5t67 129t21 219.5v589h154zM402 1568q23 -48 55.5 -104t67.5 -108.5t65 -91.5v-23h-99
q-31 27 -69.5 65.5t-77.5 82t-72 85.5t-54 76v18h184z" />
    <glyph glyph-name="uacute" unicode="&#xfa;" horiz-adv-x="923" 
d="M789 1098v-1098h-123l-17 156h-11q-22 -54 -57.5 -93.5t-81.5 -61t-103 -21.5q-96 0 -154.5 48t-85 137t-26.5 212v721h154v-692q0 -148 34.5 -218t105.5 -70q77 0 123 42.5t67 129t21 219.5v589h154zM733 1568v-18q-20 -33 -53 -74.5t-72 -85t-78 -82.5t-70 -67h-98v23
q40 55 74 107t62 101.5t51 95.5h184z" />
    <glyph glyph-name="ucircumflex" unicode="&#xfb;" horiz-adv-x="923" 
d="M789 1098v-1098h-123l-17 156h-11q-22 -54 -57.5 -93.5t-81.5 -61t-103 -21.5q-96 0 -154.5 48t-85 137t-26.5 212v721h154v-692q0 -148 34.5 -218t105.5 -70q77 0 123 42.5t67 129t21 219.5v589h154zM536 1568q22 -46 54.5 -101t68 -109t66.5 -97v-20h-85q-43 41 -87 93
t-90 107q-46 -54 -92.5 -108.5t-83.5 -91.5h-86v20q36 48 71 102.5t65.5 107.5t50.5 97h148z" />
    <glyph glyph-name="udieresis" unicode="&#xfc;" horiz-adv-x="923" 
d="M789 1098v-1098h-123l-17 156h-11q-22 -54 -57.5 -93.5t-81.5 -61t-103 -21.5q-96 0 -154.5 48t-85 137t-26.5 212v721h154v-692q0 -148 34.5 -218t105.5 -70q77 0 123 42.5t67 129t21 219.5v589h154zM214 1367q0 50 24 74t60 24q35 0 58.5 -24.5t23.5 -73.5
q0 -51 -23.5 -76.5t-58.5 -25.5q-36 0 -60 25.5t-24 76.5zM542 1367q0 50 24.5 74t59.5 24q36 0 60.5 -24.5t24.5 -73.5q0 -51 -24.5 -76.5t-60.5 -25.5q-37 0 -60.5 25.5t-23.5 76.5z" />
    <glyph glyph-name="yacute" unicode="&#xfd;" horiz-adv-x="746" 
d="M12 1098h159l155 -642q9 -42 17.5 -82t16 -79.5t12.5 -79.5h8q8 58 20 117.5t28 124.5l151 641h158l-326 -1274q-29 -110 -68 -180t-91.5 -103t-124.5 -33q-24 0 -48 5t-51 12v137q19 -7 39.5 -11t39.5 -4q38 0 65 19.5t48 64.5t41 123l39 154zM642 1568v-18
q-20 -33 -53 -74.5t-72 -85t-78 -82.5t-70 -67h-98v23q40 55 74 107t62 101.5t51 95.5h184z" />
    <glyph glyph-name="thorn" unicode="&#xfe;" horiz-adv-x="937" 
d="M852 551q0 -183 -36.5 -310.5t-106.5 -194t-170 -66.5q-56 0 -104.5 21.5t-85.5 61t-61 92.5h-7q2 -27 4 -52.5t3.5 -49t1.5 -45.5v-498h-156v2046h154v-447q0 -43 -1.5 -85.5t-5.5 -86.5h6q28 61 64.5 101t81.5 60t98 20q158 0 239.5 -144.5t81.5 -422.5zM695 549
q0 224 -46.5 329t-150.5 105q-105 0 -157.5 -97t-52.5 -300v-53q0 -215 53 -316.5t159 -101.5q75 0 117.5 57t60 155.5t17.5 221.5z" />
    <glyph glyph-name="ydieresis" unicode="&#xff;" horiz-adv-x="746" 
d="M12 1098h159l155 -642q9 -42 17.5 -82t16 -79.5t12.5 -79.5h8q8 58 20 117.5t28 124.5l151 641h158l-326 -1274q-29 -110 -68 -180t-91.5 -103t-124.5 -33q-24 0 -48 5t-51 12v137q19 -7 39.5 -11t39.5 -4q38 0 65 19.5t48 64.5t41 123l39 154zM124 1367q0 50 24 74
t60 24q35 0 58.5 -24.5t23.5 -73.5q0 -51 -23.5 -76.5t-58.5 -25.5q-36 0 -60 25.5t-24 76.5zM452 1367q0 50 24.5 74t59.5 24q36 0 60.5 -24.5t24.5 -73.5q0 -51 -24.5 -76.5t-60.5 -25.5q-37 0 -60.5 25.5t-23.5 76.5z" />
    <glyph glyph-name="Amacron" unicode="&#x100;" horiz-adv-x="906" 
d="M737 0l-110 470h-347l-110 -470h-170l353 1462h193l360 -1462h-169zM597 617l-112 496q-7 37 -13.5 72.5t-12 69t-10.5 65.5q-3 -32 -8 -66t-12 -68.5t-15 -70.5l-109 -498h292zM696 1740v-118h-489v118h489z" />
    <glyph glyph-name="amacron" unicode="&#x101;" horiz-adv-x="841" 
d="M428 1118q152 0 217 -97t65 -281v-740h-117l-23 156h-4q-26 -56 -62 -95.5t-82 -60t-106 -20.5q-85 0 -139 45t-80 118.5t-26 158.5q0 163 94 253t267 98l125 8v75q0 132 -36 193t-116 61q-46 0 -96.5 -16t-109.5 -51l-49 116q62 40 132.5 59.5t145.5 19.5zM559 548
l-102 -7q-116 -7 -172.5 -65.5t-56.5 -169.5q0 -103 37 -152t102 -49q91 0 141.5 88t50.5 243v112zM677 1376v-118h-489v118h489z" />
    <glyph glyph-name="Abreve" unicode="&#x102;" horiz-adv-x="906" 
d="M737 0l-110 470h-347l-110 -470h-170l353 1462h193l360 -1462h-169zM597 617l-112 496q-7 37 -13.5 72.5t-12 69t-10.5 65.5q-3 -32 -8 -66t-12 -68.5t-15 -70.5l-109 -498h292zM694 1876q-1 -83 -32.5 -143t-87 -92.5t-129.5 -32.5q-109 0 -172.5 67t-68.5 201h101
q5 -49 22.5 -82.5t48.5 -50.5t73 -17t72.5 16.5t49 50t22.5 83.5h101z" />
    <glyph glyph-name="abreve" unicode="&#x103;" horiz-adv-x="841" 
d="M428 1118q152 0 217 -97t65 -281v-740h-117l-23 156h-4q-26 -56 -62 -95.5t-82 -60t-106 -20.5q-85 0 -139 45t-80 118.5t-26 158.5q0 163 94 253t267 98l125 8v75q0 132 -36 193t-116 61q-46 0 -96.5 -16t-109.5 -51l-49 116q62 40 132.5 59.5t145.5 19.5zM559 548
l-102 -7q-116 -7 -172.5 -65.5t-56.5 -169.5q0 -103 37 -152t102 -49q91 0 141.5 88t50.5 243v112zM674 1512q-1 -83 -32.5 -143t-87 -92.5t-129.5 -32.5q-109 0 -172.5 67t-68.5 201h101q5 -49 22.5 -82.5t48.5 -50.5t73 -17t72.5 16.5t49 50t22.5 83.5h101z" />
    <glyph glyph-name="Aogonek" unicode="&#x104;" horiz-adv-x="906" 
d="M737 0l-110 470h-347l-110 -470h-170l353 1462h193l360 -1462h-169zM597 617l-112 496q-7 37 -13.5 72.5t-12 69t-10.5 65.5q-3 -32 -8 -66t-12 -68.5t-15 -70.5l-109 -498h292zM726 -244q0 -50 24 -76t68 -26q23 0 38.5 4t26.5 8v-107q-17 -7 -41 -11.5t-53 -4.5
q-95 0 -143 48t-48 139q0 52 19.5 103.5t57 100t89.5 90.5l89 -24q-70 -70 -98.5 -127t-28.5 -117z" />
    <glyph glyph-name="aogonek" unicode="&#x105;" horiz-adv-x="841" 
d="M428 1118q152 0 217 -97t65 -281v-740h-117l-23 156h-4q-26 -56 -62 -95.5t-82 -60t-106 -20.5q-85 0 -139 45t-80 118.5t-26 158.5q0 163 94 253t267 98l125 8v75q0 132 -36 193t-116 61q-46 0 -96.5 -16t-109.5 -51l-49 116q62 40 132.5 59.5t145.5 19.5zM559 548
l-102 -7q-116 -7 -172.5 -65.5t-56.5 -169.5q0 -103 37 -152t102 -49q91 0 141.5 88t50.5 243v112zM571 -244q0 -50 24 -76t68 -26q23 0 38.5 4t26.5 8v-107q-17 -7 -41 -11.5t-53 -4.5q-95 0 -143 48t-48 139q0 52 19.5 103.5t57 100t89.5 90.5l89 -24q-70 -70 -98.5 -127
t-28.5 -117z" />
    <glyph glyph-name="Cacute" unicode="&#x106;" horiz-adv-x="906" 
d="M596 1340q-87 0 -149.5 -49t-102 -134.5t-58 -195t-18.5 -230.5q0 -188 41.5 -324t117.5 -209.5t179 -73.5q62 0 117 16t101 39v-144q-48 -28 -107 -41.5t-129 -13.5q-149 0 -258 90t-168 258.5t-59 404.5q0 155 29.5 291t90 240t152.5 162.5t216 58.5q72 0 138.5 -18.5
t127.5 -53.5l-57 -135q-46 29 -97 45.5t-107 16.5zM837 1932v-18q-20 -33 -53 -74.5t-72 -85t-78 -82.5t-70 -67h-98v23q40 55 74 107t62 101.5t51 95.5h184z" />
    <glyph glyph-name="cacute" unicode="&#x107;" horiz-adv-x="703" 
d="M451 -20q-121 0 -201.5 63t-120.5 188t-40 310q0 181 40.5 310t122.5 198t205 69q62 0 111.5 -13t92.5 -37l-49 -127q-37 20 -73.5 30t-71.5 10q-72 0 -121 -49.5t-74.5 -146.5t-25.5 -242q0 -141 24.5 -236t74 -143.5t123.5 -48.5q44 0 89.5 12.5t91.5 36.5v-130
q-42 -26 -97.5 -40t-100.5 -14zM692 1568v-18q-20 -33 -53 -74.5t-72 -85t-78 -82.5t-70 -67h-98v23q40 55 74 107t62 101.5t51 95.5h184z" />
    <glyph glyph-name="Ccircumflex" unicode="&#x108;" horiz-adv-x="906" 
d="M596 1340q-87 0 -149.5 -49t-102 -134.5t-58 -195t-18.5 -230.5q0 -188 41.5 -324t117.5 -209.5t179 -73.5q62 0 117 16t101 39v-144q-48 -28 -107 -41.5t-129 -13.5q-149 0 -258 90t-168 258.5t-59 404.5q0 155 29.5 291t90 240t152.5 162.5t216 58.5q72 0 138.5 -18.5
t127.5 -53.5l-57 -135q-46 29 -97 45.5t-107 16.5zM638 1932q22 -46 54.5 -101t68 -109t66.5 -97v-20h-85q-43 41 -87 93t-90 107q-46 -54 -92.5 -108.5t-83.5 -91.5h-86v20q36 48 71 102.5t65.5 107.5t50.5 97h148z" />
    <glyph glyph-name="ccircumflex" unicode="&#x109;" horiz-adv-x="703" 
d="M451 -20q-121 0 -201.5 63t-120.5 188t-40 310q0 181 40.5 310t122.5 198t205 69q62 0 111.5 -13t92.5 -37l-49 -127q-37 20 -73.5 30t-71.5 10q-72 0 -121 -49.5t-74.5 -146.5t-25.5 -242q0 -141 24.5 -236t74 -143.5t123.5 -48.5q44 0 89.5 12.5t91.5 36.5v-130
q-42 -26 -97.5 -40t-100.5 -14zM496 1568q22 -46 54.5 -101t68 -109t66.5 -97v-20h-85q-43 41 -87 93t-90 107q-46 -54 -92.5 -108.5t-83.5 -91.5h-86v20q36 48 71 102.5t65.5 107.5t50.5 97h148z" />
    <glyph glyph-name="Cdot" unicode="&#x10a;" horiz-adv-x="906" 
d="M596 1340q-87 0 -149.5 -49t-102 -134.5t-58 -195t-18.5 -230.5q0 -188 41.5 -324t117.5 -209.5t179 -73.5q62 0 117 16t101 39v-144q-48 -28 -107 -41.5t-129 -13.5q-149 0 -258 90t-168 258.5t-59 404.5q0 155 29.5 291t90 240t152.5 162.5t216 58.5q72 0 138.5 -18.5
t127.5 -53.5l-57 -135q-46 29 -97 45.5t-107 16.5zM573 1870q46 0 67.5 -30t21.5 -83q0 -52 -22.5 -82t-66.5 -30q-43 0 -68 30t-25 82q0 55 23.5 84t69.5 29z" />
    <glyph glyph-name="cdot" unicode="&#x10b;" horiz-adv-x="703" 
d="M451 -20q-121 0 -201.5 63t-120.5 188t-40 310q0 181 40.5 310t122.5 198t205 69q62 0 111.5 -13t92.5 -37l-49 -127q-37 20 -73.5 30t-71.5 10q-72 0 -121 -49.5t-74.5 -146.5t-25.5 -242q0 -141 24.5 -236t74 -143.5t123.5 -48.5q44 0 89.5 12.5t91.5 36.5v-130
q-42 -26 -97.5 -40t-100.5 -14zM429 1510q46 0 67.5 -30t21.5 -83q0 -52 -22.5 -82t-66.5 -30q-43 0 -68 30t-25 82q0 55 23.5 84t69.5 29z" />
    <glyph glyph-name="Ccaron" unicode="&#x10c;" horiz-adv-x="906" 
d="M596 1340q-87 0 -149.5 -49t-102 -134.5t-58 -195t-18.5 -230.5q0 -188 41.5 -324t117.5 -209.5t179 -73.5q62 0 117 16t101 39v-144q-48 -28 -107 -41.5t-129 -13.5q-149 0 -258 90t-168 258.5t-59 404.5q0 155 29.5 291t90 240t152.5 162.5t216 58.5q72 0 138.5 -18.5
t127.5 -53.5l-57 -135q-46 29 -97 45.5t-107 16.5zM491 1605q-22 46 -52.5 99.5t-65 107.5t-69.5 100v20h86q38 -37 84 -91.5t91 -108.5q51 62 87.5 103.5t88.5 96.5h85v-20q-30 -42 -65.5 -95.5t-68.5 -109t-55 -102.5h-146z" />
    <glyph glyph-name="ccaron" unicode="&#x10d;" horiz-adv-x="703" 
d="M451 -20q-121 0 -201.5 63t-120.5 188t-40 310q0 181 40.5 310t122.5 198t205 69q62 0 111.5 -13t92.5 -37l-49 -127q-37 20 -73.5 30t-71.5 10q-72 0 -121 -49.5t-74.5 -146.5t-25.5 -242q0 -141 24.5 -236t74 -143.5t123.5 -48.5q44 0 89.5 12.5t91.5 36.5v-130
q-42 -26 -97.5 -40t-100.5 -14zM350 1241q-22 46 -52.5 99.5t-65 107.5t-69.5 100v20h86q38 -37 84 -91.5t91 -108.5q51 62 87.5 103.5t88.5 96.5h85v-20q-30 -42 -65.5 -95.5t-68.5 -109t-55 -102.5h-146z" />
    <glyph glyph-name="Dcaron" unicode="&#x10e;" horiz-adv-x="1047" 
d="M945 749q0 -247 -57 -413.5t-169.5 -251t-280.5 -84.5h-287v1462h299q163 0 273 -81t166 -240t56 -392zM779 741q0 191 -37 320t-111 194t-187 65h-134v-1177h122q181 0 264 150.5t83 447.5zM431 1605q-22 46 -52.5 99.5t-65 107.5t-69.5 100v20h86q38 -37 84 -91.5
t91 -108.5q51 62 87.5 103.5t88.5 96.5h85v-20q-30 -42 -65.5 -95.5t-68.5 -109t-55 -102.5h-146z" />
    <glyph glyph-name="dcaron" unicode="&#x10f;" horiz-adv-x="937" 
d="M407 -20q-157 0 -238.5 144.5t-81.5 421.5q0 275 82 423.5t233 148.5q53 0 100 -20.5t84.5 -58t63.5 -90.5h7q-2 46 -3.5 82.5t-1.5 68.5v456h153v-1556h-123l-21 148h-9q-28 -52 -63.5 -90t-80 -58t-101.5 -20zM441 111q104 0 157.5 97t53.5 287v75q0 209 -51.5 310
t-161.5 101q-100 0 -147.5 -111.5t-47.5 -323.5q0 -214 47.5 -324.5t149.5 -110.5zM1097 1556v-20q-9 -43 -30 -102.5t-46 -115.5t-47 -90h-85v23q4 16 11 56t14.5 88.5t13 92.5t6.5 68h163z" />
    <glyph glyph-name="Dcroat" unicode="&#x110;" horiz-adv-x="1049" 
d="M449 1462q163 0 273 -81t166.5 -240t56.5 -392q0 -247 -57 -413.5t-169.5 -251t-280.5 -84.5h-288v687h-105v129h105v646h299zM445 1320h-133v-504h207v-129h-207v-544h122q180 0 263 150.5t83 447.5q0 191 -36.5 320t-111 194t-187.5 65z" />
    <glyph glyph-name="dcroat" unicode="&#x111;" horiz-adv-x="940" 
d="M407 -20q-157 0 -238.5 144t-81.5 417t82 418.5t233 145.5q53 0 100 -20t84.5 -57.5t63.5 -90.5h7q-2 44 -3.5 81.5t-1.5 68.5v165h-234v119h234v185h153v-185h121v-119h-121v-1252h-123l-21 149h-11q-28 -54 -63 -91.5t-79 -57.5t-101 -20zM441 111q104 0 157.5 97.5
t53.5 297.5v57q0 206 -51.5 304.5t-161.5 98.5q-100 0 -147.5 -108.5t-47.5 -318.5q0 -211 47.5 -319.5t149.5 -108.5z" />
    <glyph glyph-name="Emacron" unicode="&#x112;" horiz-adv-x="818" 
d="M726 0h-575v1462h575v-142h-416v-485h391v-143h-391v-547h416v-145zM685 1740v-118h-489v118h489z" />
    <glyph glyph-name="emacron" unicode="&#x113;" horiz-adv-x="847" 
d="M436 1116q112 0 184.5 -65t108 -175t35.5 -245v-109h-523q2 -205 63.5 -308t185.5 -103q59 0 116 18t118 58v-138q-57 -35 -119 -52t-132 -17q-137 0 -222 73.5t-123.5 201t-38.5 288.5q0 184 39 312t116.5 194.5t191.5 66.5zM436 990q-87 0 -136 -84.5t-57 -260.5h377
q0 93 -19.5 171.5t-60 126t-104.5 47.5zM673 1376v-118h-489v118h489z" />
    <glyph glyph-name="Ebreve" unicode="&#x114;" horiz-adv-x="818" 
d="M726 0h-575v1462h575v-142h-416v-485h391v-143h-391v-547h416v-145zM684 1876q-1 -83 -32.5 -143t-87 -92.5t-129.5 -32.5q-109 0 -172.5 67t-68.5 201h101q5 -49 22.5 -82.5t48.5 -50.5t73 -17t72.5 16.5t49 50t22.5 83.5h101z" />
    <glyph glyph-name="ebreve" unicode="&#x115;" horiz-adv-x="847" 
d="M436 1116q112 0 184.5 -65t108 -175t35.5 -245v-109h-523q2 -205 63.5 -308t185.5 -103q59 0 116 18t118 58v-138q-57 -35 -119 -52t-132 -17q-137 0 -222 73.5t-123.5 201t-38.5 288.5q0 184 39 312t116.5 194.5t191.5 66.5zM436 990q-87 0 -136 -84.5t-57 -260.5h377
q0 93 -19.5 171.5t-60 126t-104.5 47.5zM674 1512q-1 -83 -32.5 -143t-87 -92.5t-129.5 -32.5q-109 0 -172.5 67t-68.5 201h101q5 -49 22.5 -82.5t48.5 -50.5t73 -17t72.5 16.5t49 50t22.5 83.5h101z" />
    <glyph glyph-name="Edotaccent" unicode="&#x116;" horiz-adv-x="818" 
d="M726 0h-575v1462h575v-142h-416v-485h391v-143h-391v-547h416v-145zM447 1872q46 0 67.5 -30t21.5 -83q0 -52 -22.5 -82t-66.5 -30q-43 0 -68 30t-25 82q0 55 23.5 84t69.5 29z" />
    <glyph glyph-name="edotaccent" unicode="&#x117;" horiz-adv-x="847" 
d="M436 1116q112 0 184.5 -65t108 -175t35.5 -245v-109h-523q2 -205 63.5 -308t185.5 -103q59 0 116 18t118 58v-138q-57 -35 -119 -52t-132 -17q-137 0 -222 73.5t-123.5 201t-38.5 288.5q0 184 39 312t116.5 194.5t191.5 66.5zM436 990q-87 0 -136 -84.5t-57 -260.5h377
q0 93 -19.5 171.5t-60 126t-104.5 47.5zM438 1510q46 0 67.5 -30t21.5 -83q0 -52 -22.5 -82t-66.5 -30q-43 0 -68 30t-25 82q0 55 23.5 84t69.5 29z" />
    <glyph glyph-name="Eogonek" unicode="&#x118;" horiz-adv-x="818" 
d="M726 0h-575v1462h575v-142h-416v-485h391v-143h-391v-547h416v-145zM548 -244q0 -50 24 -76t68 -26q23 0 38.5 4t26.5 8v-107q-17 -7 -41 -11.5t-53 -4.5q-95 0 -143 48t-48 139q0 52 19.5 103.5t57 100t89.5 90.5l89 -24q-70 -70 -98.5 -127t-28.5 -117z" />
    <glyph glyph-name="eogonek" unicode="&#x119;" horiz-adv-x="847" 
d="M553 -245q0 -48 24.5 -72.5t68.5 -24.5q20 0 39 3.5t31 7.5v-108q-21 -8 -47.5 -12.5t-53.5 -4.5q-95 0 -142 49t-47 140q0 52 20 101t55 92.5t80 77.5l143 45q-53 -51 -91.5 -103.5t-59 -101t-20.5 -89.5zM436 1116q112 0 184.5 -65t108 -175t35.5 -245v-109h-523
q2 -205 63.5 -308t185.5 -103q59 0 116 18t118 58v-138q-57 -35 -119 -52t-132 -17q-137 0 -222 73.5t-123.5 201t-38.5 288.5q0 184 39 312t116.5 194.5t191.5 66.5zM436 990q-87 0 -136 -84.5t-57 -260.5h377q0 93 -19.5 171.5t-60 126t-104.5 47.5z" />
    <glyph glyph-name="Ecaron" unicode="&#x11a;" horiz-adv-x="818" 
d="M726 0h-575v1462h575v-142h-416v-485h391v-143h-391v-547h416v-145zM365 1605q-22 46 -52.5 99.5t-65 107.5t-69.5 100v20h86q38 -37 84 -91.5t91 -108.5q51 62 87.5 103.5t88.5 96.5h85v-20q-30 -42 -65.5 -95.5t-68.5 -109t-55 -102.5h-146z" />
    <glyph glyph-name="ecaron" unicode="&#x11b;" horiz-adv-x="847" 
d="M436 1116q112 0 184.5 -65t108 -175t35.5 -245v-109h-523q2 -205 63.5 -308t185.5 -103q59 0 116 18t118 58v-138q-57 -35 -119 -52t-132 -17q-137 0 -222 73.5t-123.5 201t-38.5 288.5q0 184 39 312t116.5 194.5t191.5 66.5zM436 990q-87 0 -136 -84.5t-57 -260.5h377
q0 93 -19.5 171.5t-60 126t-104.5 47.5zM354 1241q-22 46 -52.5 99.5t-65 107.5t-69.5 100v20h86q38 -37 84 -91.5t91 -108.5q51 62 87.5 103.5t88.5 96.5h85v-20q-30 -42 -65.5 -95.5t-68.5 -109t-55 -102.5h-146z" />
    <glyph glyph-name="Gcircumflex" unicode="&#x11c;" horiz-adv-x="1110" 
d="M629 766h371v-715q-89 -35 -184 -53t-192 -18q-179 0 -294.5 98.5t-171 269t-55.5 386.5q0 219 60.5 388t183 265t307.5 96q90 0 173 -23.5t156 -70.5l-57 -135q-68 44 -134.5 65t-134.5 21q-127 0 -213 -71t-130 -207t-44 -332q0 -172 37.5 -309.5t118.5 -217t211 -79.5
q58 0 110.5 8.5t97.5 24.5v466h-216v143zM700 1932q22 -46 54.5 -101t68 -109t66.5 -97v-20h-85q-43 41 -87 93t-90 107q-46 -54 -92.5 -108.5t-83.5 -91.5h-86v20q36 48 71 102.5t65.5 107.5t50.5 97h148z" />
    <glyph glyph-name="gcircumflex" unicode="&#x11d;" horiz-adv-x="790" 
d="M351 -492q-157 0 -247 80t-90 224q0 113 54 185t139 96q-42 20 -68.5 60t-26.5 95q0 56 26.5 102t74.5 88q-64 38 -101 122t-37 193q0 112 36.5 193.5t105.5 126.5t165 45q30 0 53 -3t41 -8t32 -12h272v-99l-147 -18q28 -45 41 -102.5t13 -116.5q0 -169 -80 -265.5
t-226 -96.5q-45 0 -72 9q-27 -25 -47.5 -57t-20.5 -79q0 -29 13.5 -51t39.5 -34t64 -12h158q123 0 189.5 -71t66.5 -216q0 -180 -108.5 -279t-312.5 -99zM363 -370q87 0 145.5 26.5t88 80.5t29.5 134q0 65 -20.5 100t-58.5 48t-91 13h-131q-46 0 -83.5 -20.5t-59.5 -65.5
t-22 -120q0 -97 54.5 -146.5t148.5 -49.5zM382 511q72 0 111.5 62t39.5 182q0 126 -40.5 188t-112.5 62q-70 0 -110 -66.5t-40 -186.5q0 -115 38 -178t114 -63zM453 1568q22 -46 54.5 -101t68 -109t66.5 -97v-20h-85q-43 41 -87 93t-90 107q-46 -54 -92.5 -108.5
t-83.5 -91.5h-86v20q36 48 71 102.5t65.5 107.5t50.5 97h148z" />
    <glyph glyph-name="Gbreve" unicode="&#x11e;" horiz-adv-x="1110" 
d="M629 766h371v-715q-89 -35 -184 -53t-192 -18q-179 0 -294.5 98.5t-171 269t-55.5 386.5q0 219 60.5 388t183 265t307.5 96q90 0 173 -23.5t156 -70.5l-57 -135q-68 44 -134.5 65t-134.5 21q-127 0 -213 -71t-130 -207t-44 -332q0 -172 37.5 -309.5t118.5 -217t211 -79.5
q58 0 110.5 8.5t97.5 24.5v466h-216v143zM874 1876q-1 -83 -32.5 -143t-87 -92.5t-129.5 -32.5q-109 0 -172.5 67t-68.5 201h101q5 -49 22.5 -82.5t48.5 -50.5t73 -17t72.5 16.5t49 50t22.5 83.5h101z" />
    <glyph glyph-name="gbreve" unicode="&#x11f;" horiz-adv-x="790" 
d="M351 -492q-157 0 -247 80t-90 224q0 113 54 185t139 96q-42 20 -68.5 60t-26.5 95q0 56 26.5 102t74.5 88q-64 38 -101 122t-37 193q0 112 36.5 193.5t105.5 126.5t165 45q30 0 53 -3t41 -8t32 -12h272v-99l-147 -18q28 -45 41 -102.5t13 -116.5q0 -169 -80 -265.5
t-226 -96.5q-45 0 -72 9q-27 -25 -47.5 -57t-20.5 -79q0 -29 13.5 -51t39.5 -34t64 -12h158q123 0 189.5 -71t66.5 -216q0 -180 -108.5 -279t-312.5 -99zM363 -370q87 0 145.5 26.5t88 80.5t29.5 134q0 65 -20.5 100t-58.5 48t-91 13h-131q-46 0 -83.5 -20.5t-59.5 -65.5
t-22 -120q0 -97 54.5 -146.5t148.5 -49.5zM382 511q72 0 111.5 62t39.5 182q0 126 -40.5 188t-112.5 62q-70 0 -110 -66.5t-40 -186.5q0 -115 38 -178t114 -63zM625 1512q-1 -83 -32.5 -143t-87 -92.5t-129.5 -32.5q-109 0 -172.5 67t-68.5 201h101q5 -49 22.5 -82.5
t48.5 -50.5t73 -17t72.5 16.5t49 50t22.5 83.5h101z" />
    <glyph glyph-name="Gdot" unicode="&#x120;" horiz-adv-x="1110" 
d="M629 766h371v-715q-89 -35 -184 -53t-192 -18q-179 0 -294.5 98.5t-171 269t-55.5 386.5q0 219 60.5 388t183 265t307.5 96q90 0 173 -23.5t156 -70.5l-57 -135q-68 44 -134.5 65t-134.5 21q-127 0 -213 -71t-130 -207t-44 -332q0 -172 37.5 -309.5t118.5 -217t211 -79.5
q58 0 110.5 8.5t97.5 24.5v466h-216v143zM638 1874q46 0 67.5 -30t21.5 -83q0 -52 -22.5 -82t-66.5 -30q-43 0 -68 30t-25 82q0 55 23.5 84t69.5 29z" />
    <glyph glyph-name="gdot" unicode="&#x121;" horiz-adv-x="790" 
d="M351 -492q-157 0 -247 80t-90 224q0 113 54 185t139 96q-42 20 -68.5 60t-26.5 95q0 56 26.5 102t74.5 88q-64 38 -101 122t-37 193q0 112 36.5 193.5t105.5 126.5t165 45q30 0 53 -3t41 -8t32 -12h272v-99l-147 -18q28 -45 41 -102.5t13 -116.5q0 -169 -80 -265.5
t-226 -96.5q-45 0 -72 9q-27 -25 -47.5 -57t-20.5 -79q0 -29 13.5 -51t39.5 -34t64 -12h158q123 0 189.5 -71t66.5 -216q0 -180 -108.5 -279t-312.5 -99zM363 -370q87 0 145.5 26.5t88 80.5t29.5 134q0 65 -20.5 100t-58.5 48t-91 13h-131q-46 0 -83.5 -20.5t-59.5 -65.5
t-22 -120q0 -97 54.5 -146.5t148.5 -49.5zM382 511q72 0 111.5 62t39.5 182q0 126 -40.5 188t-112.5 62q-70 0 -110 -66.5t-40 -186.5q0 -115 38 -178t114 -63zM382 1510q46 0 67.5 -30t21.5 -83q0 -52 -22.5 -82t-66.5 -30q-43 0 -68 30t-25 82q0 55 23.5 84t69.5 29z" />
    <glyph glyph-name="uni0122" unicode="&#x122;" horiz-adv-x="1110" 
d="M629 766h371v-715q-89 -35 -184 -53t-192 -18q-179 0 -294.5 98.5t-171 269t-55.5 386.5q0 219 60.5 388t183 265t307.5 96q90 0 173 -23.5t156 -70.5l-57 -135q-68 44 -134.5 65t-134.5 21q-127 0 -213 -71t-130 -207t-44 -332q0 -172 37.5 -309.5t118.5 -217t211 -79.5
q58 0 110.5 8.5t97.5 24.5v466h-216v143zM724 -125v-20q-14 -50 -36 -105.5t-49 -108t-55 -94.5h-86v23q12 37 26 93t26 113.5t16 98.5h158z" />
    <glyph glyph-name="uni0123" unicode="&#x123;" horiz-adv-x="790" 
d="M525 1569v-23q-15 -37 -32.5 -94.5t-30.5 -114.5t-16 -96h-158v21q11 48 33 104t52.5 109.5t63.5 93.5h88zM351 -492q-157 0 -247 80t-90 224q0 113 54 185t139 96q-42 20 -68.5 60t-26.5 95q0 56 26.5 102t74.5 88q-64 38 -101 122t-37 193q0 112 36.5 193.5
t105.5 126.5t165 45q30 0 53 -3t41 -8t32 -12h272v-99l-147 -18q28 -45 41 -102.5t13 -116.5q0 -169 -80 -265.5t-226 -96.5q-45 0 -72 9q-27 -25 -47.5 -57t-20.5 -79q0 -29 13.5 -51t39.5 -34t64 -12h158q123 0 189.5 -71t66.5 -216q0 -180 -108.5 -279t-312.5 -99z
M363 -370q87 0 145.5 26.5t88 80.5t29.5 134q0 65 -20.5 100t-58.5 48t-91 13h-131q-46 0 -83.5 -20.5t-59.5 -65.5t-22 -120q0 -97 54.5 -146.5t148.5 -49.5zM382 511q72 0 111.5 62t39.5 182q0 126 -40.5 188t-112.5 62q-70 0 -110 -66.5t-40 -186.5q0 -115 38 -178
t114 -63z" />
    <glyph glyph-name="Hcircumflex" unicode="&#x124;" horiz-adv-x="1081" 
d="M932 0h-159v692h-463v-692h-159v1462h159v-625h463v625h159v-1462zM616 1932q22 -46 54.5 -101t68 -109t66.5 -97v-20h-85q-43 41 -87 93t-90 107q-46 -54 -92.5 -108.5t-83.5 -91.5h-86v20q36 48 71 102.5t65.5 107.5t50.5 97h148z" />
    <glyph glyph-name="hcircumflex" unicode="&#x125;" horiz-adv-x="923" 
d="M288 1556v-452q0 -44 -2.5 -84.5t-8.5 -76.5h11q20 54 55.5 93t82.5 60.5t101 21.5q92 0 151 -42.5t87 -125t28 -204.5v-746h-154v716q0 142 -34 203t-110 61q-70 0 -116 -43t-68.5 -132.5t-22.5 -229.5v-575h-154v1556h154zM285 2027q22 -46 54.5 -101t68 -109t66.5 -97
v-20h-85q-43 41 -87 93t-90 107q-46 -54 -92.5 -108.5t-83.5 -91.5h-86v20q36 48 71 102.5t65.5 107.5t50.5 97h148z" />
    <glyph glyph-name="Hbar" unicode="&#x126;" horiz-adv-x="1082" 
d="M148 0v1089h-152v125h152v248h159v-248h464v248h159v-248h154v-125h-154v-1089h-159v690h-464v-690h-159zM310 839h463v250h-463v-250z" />
    <glyph glyph-name="hbar" unicode="&#x127;" horiz-adv-x="925" 
d="M290 1556v-188h238v-121h-238v-172q0 -37 -3 -72.5t-8 -72.5h11q20 53 55 92.5t82 61t101 21.5q92 0 151 -42t87.5 -124.5t28.5 -205.5v-733h-154v702q0 141 -35 202.5t-111 61.5q-68 0 -114.5 -41t-69.5 -129.5t-23 -232.5v-563h-152v1247h-121v121h121v188h154z" />
    <glyph glyph-name="Itilde" unicode="&#x128;" horiz-adv-x="458" 
d="M151 0v1462h159v-1462h-159zM-67 1606q5 48 16 92t30.5 77.5t49.5 53t71 19.5q38 0 72 -18t66 -41.5t62 -41.5t59 -18q32 0 48.5 33t25.5 88h98q-7 -118 -52 -180t-113 -62q-37 0 -73 18t-68.5 42t-61.5 42t-54 18q-28 0 -49.5 -32t-30.5 -90h-96z" />
    <glyph glyph-name="itilde" unicode="&#x129;" horiz-adv-x="422" 
d="M288 0h-154v1098h154v-1098zM-89 1242q5 48 16 92t30.5 77.5t49.5 53t71 19.5q38 0 72 -18t66 -41.5t62 -41.5t59 -18q32 0 48.5 33t25.5 88h98q-7 -118 -52 -180t-113 -62q-37 0 -73 18t-68.5 42t-61.5 42t-54 18q-28 0 -49.5 -32t-30.5 -90h-96z" />
    <glyph glyph-name="Imacron" unicode="&#x12a;" horiz-adv-x="458" 
d="M151 0v1462h159v-1462h-159zM473 1740v-118h-489v118h489z" />
    <glyph glyph-name="imacron" unicode="&#x12b;" horiz-adv-x="422" 
d="M288 0h-154v1098h154v-1098zM456 1376v-118h-489v118h489z" />
    <glyph glyph-name="Ibreve" unicode="&#x12c;" horiz-adv-x="458" 
d="M151 0v1462h159v-1462h-159zM476 1876q-1 -83 -32.5 -143t-87 -92.5t-129.5 -32.5q-109 0 -172.5 67t-68.5 201h101q5 -49 22.5 -82.5t48.5 -50.5t73 -17t72.5 16.5t49 50t22.5 83.5h101z" />
    <glyph glyph-name="ibreve" unicode="&#x12d;" horiz-adv-x="422" 
d="M288 0h-154v1098h154v-1098zM453 1512q-1 -83 -32.5 -143t-87 -92.5t-129.5 -32.5q-109 0 -172.5 67t-68.5 201h101q5 -49 22.5 -82.5t48.5 -50.5t73 -17t72.5 16.5t49 50t22.5 83.5h101z" />
    <glyph glyph-name="Iogonek" unicode="&#x12e;" horiz-adv-x="458" 
d="M151 0v1462h159v-1462h-159zM183 -244q0 -50 24 -76t68 -26q23 0 38.5 4t26.5 8v-107q-17 -7 -41 -11.5t-53 -4.5q-95 0 -143 48t-48 139q0 52 19.5 103.5t57 100t89.5 90.5l89 -24q-70 -70 -98.5 -127t-28.5 -117z" />
    <glyph glyph-name="iogonek" unicode="&#x12f;" horiz-adv-x="424" 
d="M289 1098v-1098h-153v1098h153zM215 1510q47 0 68.5 -30t21.5 -83q0 -52 -23 -82t-67 -30q-43 0 -68 30t-25 82q0 55 24 84t69 29zM150 -244q0 -50 24 -76t68 -26q23 0 38.5 4t26.5 8v-107q-17 -7 -41 -11.5t-53 -4.5q-95 0 -143 48t-48 139q0 52 19.5 103.5t57 100
t89.5 90.5l89 -24q-70 -70 -98.5 -127t-28.5 -117z" />
    <glyph glyph-name="Idotaccent" unicode="&#x130;" horiz-adv-x="458" 
d="M151 0v1462h159v-1462h-159zM232 1870q46 0 67.5 -30t21.5 -83q0 -52 -22.5 -82t-66.5 -30q-43 0 -68 30t-25 82q0 55 23.5 84t69.5 29z" />
    <glyph glyph-name="dotlessi" unicode="&#x131;" horiz-adv-x="422" 
d="M288 0h-154v1098h154v-1098z" />
    <glyph glyph-name="IJ" unicode="&#x132;" horiz-adv-x="909" 
d="M151 0v1462h159v-1462h-159zM490 -391q-36 0 -69 5t-62 17v143q25 -9 54 -15t60 -6q47 0 75.5 25.5t42 81t13.5 146.5v1456h159v-1470q0 -139 -31 -223t-92 -122t-150 -38z" />
    <glyph glyph-name="ij" unicode="&#x133;" horiz-adv-x="847" 
d="M289 1098v-1098h-153v1098h153zM215 1510q47 0 68.5 -30t21.5 -83q0 -52 -23 -82t-67 -30q-43 0 -68 30t-25 82q0 55 24 84t69 29zM495 -492q-28 0 -52 5t-44 13v137q17 -7 35.5 -11.5t34.5 -4.5q49 0 69 42t20 133v1276h154v-1276q0 -108 -25 -177.5t-73.5 -102.5
t-118.5 -34zM545 1397q0 55 24 84t69 29q46 0 68 -30t22 -83q0 -52 -23 -82t-67 -30q-43 0 -68 30t-25 82z" />
    <glyph glyph-name="Jcircumflex" unicode="&#x134;" horiz-adv-x="450" 
d="M32 -391q-36 0 -69 5t-62 17v143q25 -9 54 -15t60 -6q47 0 75.5 25.5t42 81t13.5 146.5v1456h159v-1470q0 -139 -31 -223t-92 -122t-150 -38zM298 1930q22 -46 54.5 -101t68 -109t66.5 -97v-20h-85q-43 41 -87 93t-90 107q-46 -54 -92.5 -108.5t-83.5 -91.5h-86v20
q36 48 71 102.5t65.5 107.5t50.5 97h148z" />
    <glyph glyph-name="jcircumflex" unicode="&#x135;" horiz-adv-x="424" 
d="M72 -492q-27 0 -53.5 5.5t-42.5 12.5v137q17 -7 35.5 -11.5t34.5 -4.5q49 0 69 42t20 130v1279h154v-1276q0 -105 -25 -175t-73.5 -104.5t-118.5 -34.5zM285 1568q22 -46 54.5 -101t68 -109t66.5 -97v-20h-85q-43 41 -87 93t-90 107q-46 -54 -92.5 -108.5t-83.5 -91.5
h-86v20q36 48 71 102.5t65.5 107.5t50.5 97h148z" />
    <glyph glyph-name="uni0136" unicode="&#x136;" horiz-adv-x="900" 
d="M908 0h-178l-314 686l-106 -130v-556h-159v1462h159v-742q12 29 40 81.5t71 128.5l295 532h173l-365 -646zM602 -125v-20q-14 -50 -36 -105.5t-49 -108t-55 -94.5h-86v23q12 37 26 93t26 113.5t16 98.5h158z" />
    <glyph glyph-name="uni0137" unicode="&#x137;" horiz-adv-x="800" 
d="M288 1556v-777q0 -58 -2 -113t-7 -111h7q17 34 34 65t36 60l251 418h166l-265 -422l284 -676h-165l-223 552l-116 -145v-407h-154v1556h154zM525 -125v-20q-14 -50 -36 -105.5t-49 -108t-55 -94.5h-86v23q12 37 26 93t26 113.5t16 98.5h158z" />
    <glyph glyph-name="kgreenlandic" unicode="&#x138;" horiz-adv-x="800" 
d="M773 1098l-265 -423l284 -675h-165l-223 552l-116 -144v-408h-154v1098h154v-320q0 -61 -2.5 -116t-6.5 -106h7q14 28 28.5 55t27.5 51l265 436h166z" />
    <glyph glyph-name="Lacute" unicode="&#x139;" horiz-adv-x="753" 
d="M151 0v1462h159v-1317h408v-145h-567zM506 1932v-18q-20 -33 -53 -74.5t-72 -85t-78 -82.5t-70 -67h-98v23q40 55 74 107t62 101.5t51 95.5h184z" />
    <glyph glyph-name="lacute" unicode="&#x13a;" horiz-adv-x="420" 
d="M288 0h-154v1556h154v-1556zM487 2027v-18q-20 -33 -53 -74.5t-72 -85t-78 -82.5t-70 -67h-98v23q40 55 74 107t62 101.5t51 95.5h184z" />
    <glyph glyph-name="uni013B" unicode="&#x13b;" horiz-adv-x="753" 
d="M151 0v1462h159v-1317h408v-145h-567zM532 -125v-20q-14 -50 -36 -105.5t-49 -108t-55 -94.5h-86v23q12 37 26 93t26 113.5t16 98.5h158z" />
    <glyph glyph-name="uni013C" unicode="&#x13c;" horiz-adv-x="420" 
d="M288 0h-154v1556h154v-1556zM305 -125v-20q-14 -50 -36 -105.5t-49 -108t-55 -94.5h-86v23q12 37 26 93t26 113.5t16 98.5h158z" />
    <glyph glyph-name="Lcaron" unicode="&#x13d;" horiz-adv-x="753" 
d="M151 0v1462h159v-1317h408v-145h-567zM749 1462v-20q-9 -43 -30 -102.5t-46 -115.5t-47 -90h-85v23q4 16 11 56t14.5 88.5t13 92.5t6.5 68h163z" />
    <glyph glyph-name="lcaron" unicode="&#x13e;" horiz-adv-x="421" 
d="M288 0h-154v1556h154v-1556zM572 1556v-20q-9 -43 -30 -102.5t-46 -115.5t-47 -90h-85v23q4 16 11 56t14.5 88.5t13 92.5t6.5 68h163z" />
    <glyph glyph-name="Ldot" unicode="&#x13f;" horiz-adv-x="753" 
d="M151 0v1462h159v-1317h408v-145h-567zM601 919q46 0 67.5 -30t21.5 -83q0 -52 -22.5 -82t-66.5 -30q-43 0 -68 30t-25 82q0 55 23.5 84t69.5 29z" />
    <glyph glyph-name="ldot" unicode="&#x140;" horiz-adv-x="540" 
d="M288 0h-154v1556h154v-1556zM484 938q46 0 67.5 -30t21.5 -83q0 -52 -22.5 -82t-66.5 -30q-43 0 -68 30t-25 82q0 55 23.5 84t69.5 29z" />
    <glyph glyph-name="Lslash" unicode="&#x141;" horiz-adv-x="768" 
d="M162 0v503l-98 -63l-76 104l174 116v802h159v-695l230 146l72 -105l-302 -196v-467h406v-145h-565z" />
    <glyph glyph-name="lslash" unicode="&#x142;" horiz-adv-x="454" 
d="M150 0v628l-117 -85l-73 102l190 142v769h153v-657l120 88l78 -101l-198 -146v-740h-153z" />
    <glyph glyph-name="Nacute" unicode="&#x143;" horiz-adv-x="1150" 
d="M1002 0h-193l-510 1210h-8q4 -53 6.5 -102.5t3.5 -95.5t1 -90v-922h-151v1462h192l511 -1192h6q-3 59 -5.5 111t-3.5 97.5t-1 83.5v900h152v-1462zM840 1932v-18q-20 -33 -53 -74.5t-72 -85t-78 -82.5t-70 -67h-98v23q40 55 74 107t62 101.5t51 95.5h184z" />
    <glyph glyph-name="nacute" unicode="&#x144;" horiz-adv-x="923" 
d="M529 1118q130 0 197 -91t67 -279v-748h-154v717q0 133 -34.5 199t-108.5 66q-108 0 -158 -96t-50 -308v-578h-154v1098h123l17 -159h10q23 55 59 95t83 62t103 22zM747 1568v-18q-20 -33 -53 -74.5t-72 -85t-78 -82.5t-70 -67h-98v23q40 55 74 107t62 101.5t51 95.5h184z
" />
    <glyph glyph-name="uni0145" unicode="&#x145;" horiz-adv-x="1150" 
d="M1002 0h-193l-510 1210h-8q4 -53 6.5 -102.5t3.5 -95.5t1 -90v-922h-151v1462h192l511 -1192h6q-3 59 -5.5 111t-3.5 97.5t-1 83.5v900h152v-1462zM670 -125v-20q-14 -50 -36 -105.5t-49 -108t-55 -94.5h-86v23q12 37 26 93t26 113.5t16 98.5h158z" />
    <glyph glyph-name="uni0146" unicode="&#x146;" horiz-adv-x="923" 
d="M529 1118q130 0 197 -91t67 -279v-748h-154v717q0 133 -34.5 199t-108.5 66q-108 0 -158 -96t-50 -308v-578h-154v1098h123l17 -159h10q23 55 59 95t83 62t103 22zM558 -125v-20q-14 -50 -36 -105.5t-49 -108t-55 -94.5h-86v23q12 37 26 93t26 113.5t16 98.5h158z" />
    <glyph glyph-name="Ncaron" unicode="&#x147;" horiz-adv-x="1150" 
d="M1002 0h-193l-510 1210h-8q4 -53 6.5 -102.5t3.5 -95.5t1 -90v-922h-151v1462h192l511 -1192h6q-3 59 -5.5 111t-3.5 97.5t-1 83.5v900h152v-1462zM500 1605q-22 46 -52.5 99.5t-65 107.5t-69.5 100v20h86q38 -37 84 -91.5t91 -108.5q51 62 87.5 103.5t88.5 96.5h85v-20
q-30 -42 -65.5 -95.5t-68.5 -109t-55 -102.5h-146z" />
    <glyph glyph-name="ncaron" unicode="&#x148;" horiz-adv-x="923" 
d="M529 1118q130 0 197 -91t67 -279v-748h-154v717q0 133 -34.5 199t-108.5 66q-108 0 -158 -96t-50 -308v-578h-154v1098h123l17 -159h10q23 55 59 95t83 62t103 22zM404 1241q-22 46 -52.5 99.5t-65 107.5t-69.5 100v20h86q38 -37 84 -91.5t91 -108.5q51 62 87.5 103.5
t88.5 96.5h85v-20q-30 -42 -65.5 -95.5t-68.5 -109t-55 -102.5h-146z" />
    <glyph glyph-name="napostrophe" unicode="&#x149;" horiz-adv-x="1048" 
d="M653 1118q130 0 197 -91t67 -279v-748h-154v717q0 133 -34.5 199t-108.5 66q-108 0 -158 -96t-50 -308v-578h-154v1098h123l17 -159h10q23 55 59 95t83 62t103 22zM257 1462l15 -22q-19 -83 -42.5 -163t-51 -158t-60.5 -155h-118q17 62 31.5 127.5t27 130.5t21.5 126
t14 114h163z" />
    <glyph glyph-name="Eng" unicode="&#x14a;" horiz-adv-x="1151" 
d="M734 -391q-36 0 -68.5 5t-60.5 17v143q24 -9 54 -15t61 -6q45 0 74 25t43 80t14 146l-554 1219h-6q4 -52 6 -101.5t3.5 -95.5t1.5 -90v-936h-151v1462h192l511 -1124h6q-2 56 -4.5 106.5t-3.5 95.5t-1 84v838h152v-1456q0 -133 -29.5 -221.5t-89 -132t-150.5 -43.5z" />
    <glyph glyph-name="eng" unicode="&#x14b;" horiz-adv-x="923" 
d="M576 -492q-25 0 -48.5 5t-46.5 13v137q19 -7 37 -11.5t34 -4.5q44 0 65.5 43.5t21.5 133.5v893q0 130 -36.5 194.5t-112.5 64.5q-67 0 -112 -39t-67.5 -126.5t-22.5 -231.5v-579h-154v1098h123l18 -159h7q23 54 59 94.5t84 62.5t104 22q97 0 154.5 -48t83.5 -136.5
t26 -210.5v-898q0 -98 -23.5 -169.5t-71.5 -109.5t-122 -38z" />
    <glyph glyph-name="Omacron" unicode="&#x14c;" horiz-adv-x="1117" 
d="M1016 733q0 -157 -25 -293.5t-78.5 -240t-140.5 -161.5t-211 -58q-126 0 -214 59.5t-141.5 163.5t-78 241t-24.5 291q0 250 51.5 416t153.5 249t253 83q164 0 264 -99.5t145.5 -269.5t45.5 -381zM268 733q0 -199 33.5 -334.5t98.5 -204.5t159 -69q96 0 160 67.5t96.5 203
t32.5 337.5q0 301 -72 453t-215 152q-98 0 -163 -68.5t-97.5 -203t-32.5 -333.5zM804 1740v-118h-489v118h489z" />
    <glyph glyph-name="omacron" unicode="&#x14d;" horiz-adv-x="902" 
d="M815 550q0 -130 -22 -235t-67 -180t-114 -115t-163 -40q-90 0 -158 40t-113 114.5t-68 180t-23 235.5q0 182 39 308.5t120 193t206 66.5q117 0 198 -64.5t123 -191t42 -312.5zM244 550q0 -143 22 -240t68.5 -146t118.5 -49q71 0 116.5 48t67.5 144.5t22 242.5
q0 143 -22 239.5t-67.5 145t-117.5 48.5q-110 0 -159 -108.5t-49 -324.5zM696 1376v-118h-489v118h489z" />
    <glyph glyph-name="Obreve" unicode="&#x14e;" horiz-adv-x="1117" 
d="M1016 733q0 -157 -25 -293.5t-78.5 -240t-140.5 -161.5t-211 -58q-126 0 -214 59.5t-141.5 163.5t-78 241t-24.5 291q0 250 51.5 416t153.5 249t253 83q164 0 264 -99.5t145.5 -269.5t45.5 -381zM268 733q0 -199 33.5 -334.5t98.5 -204.5t159 -69q96 0 160 67.5t96.5 203
t32.5 337.5q0 301 -72 453t-215 152q-98 0 -163 -68.5t-97.5 -203t-32.5 -333.5zM802 1876q-1 -83 -32.5 -143t-87 -92.5t-129.5 -32.5q-109 0 -172.5 67t-68.5 201h101q5 -49 22.5 -82.5t48.5 -50.5t73 -17t72.5 16.5t49 50t22.5 83.5h101z" />
    <glyph glyph-name="obreve" unicode="&#x14f;" horiz-adv-x="902" 
d="M815 550q0 -130 -22 -235t-67 -180t-114 -115t-163 -40q-90 0 -158 40t-113 114.5t-68 180t-23 235.5q0 182 39 308.5t120 193t206 66.5q117 0 198 -64.5t123 -191t42 -312.5zM244 550q0 -143 22 -240t68.5 -146t118.5 -49q71 0 116.5 48t67.5 144.5t22 242.5
q0 143 -22 239.5t-67.5 145t-117.5 48.5q-110 0 -159 -108.5t-49 -324.5zM694 1512q-1 -83 -32.5 -143t-87 -92.5t-129.5 -32.5q-109 0 -172.5 67t-68.5 201h101q5 -49 22.5 -82.5t48.5 -50.5t73 -17t72.5 16.5t49 50t22.5 83.5h101z" />
    <glyph glyph-name="Ohungarumlaut" unicode="&#x150;" horiz-adv-x="1117" 
d="M1016 733q0 -157 -25 -293.5t-78.5 -240t-140.5 -161.5t-211 -58q-126 0 -214 59.5t-141.5 163.5t-78 241t-24.5 291q0 250 51.5 416t153.5 249t253 83q164 0 264 -99.5t145.5 -269.5t45.5 -381zM268 733q0 -199 33.5 -334.5t98.5 -204.5t159 -69q96 0 160 67.5t96.5 203
t32.5 337.5q0 301 -72 453t-215 152q-98 0 -163 -68.5t-97.5 -203t-32.5 -333.5zM952 1933v-19q-16 -32 -46 -74t-65.5 -86t-71.5 -83t-65 -66h-79v22q31 45 64.5 104.5t61.5 115t41 86.5h160zM664 1933v-19q-17 -34 -44.5 -74.5t-62 -82.5t-71.5 -81t-73 -71h-75v22
q31 48 63.5 106.5t60.5 112t43 87.5h159z" />
    <glyph glyph-name="ohungarumlaut" unicode="&#x151;" horiz-adv-x="902" 
d="M815 550q0 -130 -22 -235t-67 -180t-114 -115t-163 -40q-90 0 -158 40t-113 114.5t-68 180t-23 235.5q0 182 39 308.5t120 193t206 66.5q117 0 198 -64.5t123 -191t42 -312.5zM244 550q0 -143 22 -240t68.5 -146t118.5 -49q71 0 116.5 48t67.5 144.5t22 242.5
q0 143 -22 239.5t-67.5 145t-117.5 48.5q-110 0 -159 -108.5t-49 -324.5zM845 1569v-19q-16 -32 -46 -74t-65.5 -86t-71.5 -83t-65 -66h-79v22q31 45 64.5 104.5t61.5 115t41 86.5h160zM557 1569v-19q-17 -34 -44.5 -74.5t-62 -82.5t-71.5 -81t-73 -71h-75v22
q31 48 63.5 106.5t60.5 112t43 87.5h159z" />
    <glyph glyph-name="OE" unicode="&#x152;" horiz-adv-x="1314" 
d="M598 1472q35 0 65.5 -3t58.5 -7h499v-142h-421v-485h396v-143h-396v-547h421v-145h-498l-62 -6t-68 -3q-166 0 -275 87t-162 253t-53 404q0 234 53.5 398.5t163 251.5t278.5 87zM597 1328q-97 -2 -160.5 -45.5t-100 -121.5t-51.5 -186.5t-15 -241.5q0 -181 30 -314.5
t102.5 -206.5t199.5 -76q12 0 22 2t17 3v1179q-8 5 -19 6.5t-25 1.5z" />
    <glyph glyph-name="oe" unicode="&#x153;" horiz-adv-x="1420" 
d="M1010 1116q114 0 185 -65.5t104.5 -175.5t33.5 -244v-109h-524q1 -208 63.5 -310.5t186.5 -102.5q59 0 116 17.5t118 56.5v-135q-55 -34 -116 -51t-132 -17q-112 0 -188 54t-122 157q-40 -102 -111 -156.5t-175 -54.5q-117 0 -198 68t-122.5 196t-41.5 306
q0 185 40.5 311.5t122 191.5t204.5 65q99 0 168.5 -53t110.5 -156q28 68 67 114t91.5 69.5t118.5 23.5zM454 983q-111 0 -160.5 -108.5t-49.5 -324.5q0 -144 23 -241.5t69.5 -146.5t115.5 -49q72 0 117.5 48t67.5 145t22 244q0 144 -22 240t-67 144.5t-116 48.5zM1007 988
q-87 0 -137.5 -84t-58.5 -260h380q0 96 -19.5 174t-60 124t-104.5 46z" />
    <glyph glyph-name="Racute" unicode="&#x154;" horiz-adv-x="931" 
d="M401 1462q148 0 244 -44.5t143 -135t47 -228.5q0 -98 -24 -175t-74 -132t-130 -90l297 -657h-177l-264 617h-153v-617h-159v1462h250zM402 1318h-92v-567h114q119 0 183.5 73.5t64.5 221.5q0 144 -65 208t-205 64zM743 1932v-18q-20 -33 -53 -74.5t-72 -85t-78 -82.5
t-70 -67h-98v23q40 55 74 107t62 101.5t51 95.5h184z" />
    <glyph glyph-name="racute" unicode="&#x155;" horiz-adv-x="614" 
d="M501 1117q23 0 46 -3.5t48 -11.5l-24 -158q-18 8 -38 11t-43 3q-45 0 -82.5 -29.5t-64.5 -82.5t-41.5 -123t-13.5 -151v-572h-154v1098h120l21 -195h10q23 63 54 111t71.5 75.5t90.5 27.5zM624 1568v-18q-20 -33 -53 -74.5t-72 -85t-78 -82.5t-70 -67h-98v23
q40 55 74 107t62 101.5t51 95.5h184z" />
    <glyph glyph-name="uni0156" unicode="&#x156;" horiz-adv-x="931" 
d="M401 1462q148 0 244 -44.5t143 -135t47 -228.5q0 -98 -24 -175t-74 -132t-130 -90l297 -657h-177l-264 617h-153v-617h-159v1462h250zM402 1318h-92v-567h114q119 0 183.5 73.5t64.5 221.5q0 144 -65 208t-205 64zM584 -125v-20q-14 -50 -36 -105.5t-49 -108t-55 -94.5
h-86v23q12 37 26 93t26 113.5t16 98.5h158z" />
    <glyph glyph-name="uni0157" unicode="&#x157;" horiz-adv-x="614" 
d="M501 1117q23 0 46 -3.5t48 -11.5l-24 -158q-18 8 -38 11t-43 3q-45 0 -82.5 -29.5t-64.5 -82.5t-41.5 -123t-13.5 -151v-572h-154v1098h120l21 -195h10q23 63 54 111t71.5 75.5t90.5 27.5zM313 -125v-20q-14 -50 -36 -105.5t-49 -108t-55 -94.5h-86v23q12 37 26 93
t26 113.5t16 98.5h158z" />
    <glyph glyph-name="Rcaron" unicode="&#x158;" horiz-adv-x="931" 
d="M401 1462q148 0 244 -44.5t143 -135t47 -228.5q0 -98 -24 -175t-74 -132t-130 -90l297 -657h-177l-264 617h-153v-617h-159v1462h250zM402 1318h-92v-567h114q119 0 183.5 73.5t64.5 221.5q0 144 -65 208t-205 64zM396 1605q-22 46 -52.5 99.5t-65 107.5t-69.5 100v20h86
q38 -37 84 -91.5t91 -108.5q51 62 87.5 103.5t88.5 96.5h85v-20q-30 -42 -65.5 -95.5t-68.5 -109t-55 -102.5h-146z" />
    <glyph glyph-name="rcaron" unicode="&#x159;" horiz-adv-x="614" 
d="M501 1117q23 0 46 -3.5t48 -11.5l-24 -158q-18 8 -38 11t-43 3q-45 0 -82.5 -29.5t-64.5 -82.5t-41.5 -123t-13.5 -151v-572h-154v1098h120l21 -195h10q23 63 54 111t71.5 75.5t90.5 27.5zM281 1241q-22 46 -52.5 99.5t-65 107.5t-69.5 100v20h86q38 -37 84 -91.5
t91 -108.5q51 62 87.5 103.5t88.5 96.5h85v-20q-30 -42 -65.5 -95.5t-68.5 -109t-55 -102.5h-146z" />
    <glyph glyph-name="Sacute" unicode="&#x15a;" horiz-adv-x="841" 
d="M762 399q0 -124 -47.5 -218.5t-133 -147.5t-201.5 -53q-57 0 -110 6.5t-100.5 20.5t-90.5 35v165q68 -38 147.5 -58t147.5 -20q73 0 123 34.5t76.5 92.5t26.5 128q0 74 -22 124.5t-72 91.5t-135 85q-64 35 -116 72t-89 83.5t-57 109.5t-20 150q-2 115 45.5 201.5
t132 134.5t193.5 47q83 0 158.5 -20.5t130.5 -49.5l-52 -146q-61 33 -120.5 49.5t-113.5 16.5q-67 0 -114.5 -29t-73 -79.5t-25.5 -117.5q0 -77 22.5 -127t73 -89t133.5 -84q95 -50 158 -107.5t94 -130.5t31 -170zM707 1932v-18q-20 -33 -53 -74.5t-72 -85t-78 -82.5
t-70 -67h-98v23q40 55 74 107t62 101.5t51 95.5h184z" />
    <glyph glyph-name="sacute" unicode="&#x15b;" horiz-adv-x="688" 
d="M622 290q0 -99 -36 -168.5t-104.5 -105.5t-166.5 -36q-76 0 -139 18t-107 43v160q44 -36 109 -59.5t132 -23.5q77 0 118.5 44t41.5 123q0 47 -17 81.5t-54.5 66t-98.5 66.5q-68 42 -120.5 87t-81.5 103.5t-29 142.5q0 128 83.5 207t220.5 79q69 0 130.5 -17.5
t116.5 -52.5l-58 -124q-42 29 -89.5 46t-97.5 17q-73 0 -115.5 -41t-42.5 -110q0 -46 17 -79t56 -64t103 -70q68 -43 119.5 -87.5t80.5 -102.5t29 -143zM631 1568v-18q-20 -33 -53 -74.5t-72 -85t-78 -82.5t-70 -67h-98v23q40 55 74 107t62 101.5t51 95.5h184z" />
    <glyph glyph-name="Scircumflex" unicode="&#x15c;" horiz-adv-x="841" 
d="M762 399q0 -124 -47.5 -218.5t-133 -147.5t-201.5 -53q-57 0 -110 6.5t-100.5 20.5t-90.5 35v165q68 -38 147.5 -58t147.5 -20q73 0 123 34.5t76.5 92.5t26.5 128q0 74 -22 124.5t-72 91.5t-135 85q-64 35 -116 72t-89 83.5t-57 109.5t-20 150q-2 115 45.5 201.5
t132 134.5t193.5 47q83 0 158.5 -20.5t130.5 -49.5l-52 -146q-61 33 -120.5 49.5t-113.5 16.5q-67 0 -114.5 -29t-73 -79.5t-25.5 -117.5q0 -77 22.5 -127t73 -89t133.5 -84q95 -50 158 -107.5t94 -130.5t31 -170zM512 1932q22 -46 54.5 -101t68 -109t66.5 -97v-20h-85
q-43 41 -87 93t-90 107q-46 -54 -92.5 -108.5t-83.5 -91.5h-86v20q36 48 71 102.5t65.5 107.5t50.5 97h148z" />
    <glyph glyph-name="scircumflex" unicode="&#x15d;" horiz-adv-x="688" 
d="M622 290q0 -99 -36 -168.5t-104.5 -105.5t-166.5 -36q-76 0 -139 18t-107 43v160q44 -36 109 -59.5t132 -23.5q77 0 118.5 44t41.5 123q0 47 -17 81.5t-54.5 66t-98.5 66.5q-68 42 -120.5 87t-81.5 103.5t-29 142.5q0 128 83.5 207t220.5 79q69 0 130.5 -17.5
t116.5 -52.5l-58 -124q-42 29 -89.5 46t-97.5 17q-73 0 -115.5 -41t-42.5 -110q0 -46 17 -79t56 -64t103 -70q68 -43 119.5 -87.5t80.5 -102.5t29 -143zM435 1568q22 -46 54.5 -101t68 -109t66.5 -97v-20h-85q-43 41 -87 93t-90 107q-46 -54 -92.5 -108.5t-83.5 -91.5h-86
v20q36 48 71 102.5t65.5 107.5t50.5 97h148z" />
    <glyph glyph-name="Scedilla" unicode="&#x15e;" horiz-adv-x="841" 
d="M762 399q0 -124 -47.5 -218.5t-133 -147.5t-201.5 -53q-57 0 -110 6.5t-100.5 20.5t-90.5 35v165q68 -38 147.5 -58t147.5 -20q73 0 123 34.5t76.5 92.5t26.5 128q0 74 -22 124.5t-72 91.5t-135 85q-64 35 -116 72t-89 83.5t-57 109.5t-20 150q-2 115 45.5 201.5
t132 134.5t193.5 47q83 0 158.5 -20.5t130.5 -49.5l-52 -146q-61 33 -120.5 49.5t-113.5 16.5q-67 0 -114.5 -29t-73 -79.5t-25.5 -117.5q0 -77 22.5 -127t73 -89t133.5 -84q95 -50 158 -107.5t94 -130.5t31 -170zM576 -283q0 -101 -63.5 -155t-176.5 -54q-35 0 -64 3.5
t-49 9.5v103q20 -6 43.5 -9t46.5 -3q67 0 100.5 29t33.5 76q0 56 -43 83.5t-117 37.5l70 162h95l-46 -105q55 -11 93 -35t57.5 -60t19.5 -83z" />
    <glyph glyph-name="scedilla" unicode="&#x15f;" horiz-adv-x="688" 
d="M622 290q0 -99 -36 -168.5t-104.5 -105.5t-166.5 -36q-76 0 -139 18t-107 43v160q44 -36 109 -59.5t132 -23.5q77 0 118.5 44t41.5 123q0 47 -17 81.5t-54.5 66t-98.5 66.5q-68 42 -120.5 87t-81.5 103.5t-29 142.5q0 128 83.5 207t220.5 79q69 0 130.5 -17.5
t116.5 -52.5l-58 -124q-42 29 -89.5 46t-97.5 17q-73 0 -115.5 -41t-42.5 -110q0 -46 17 -79t56 -64t103 -70q68 -43 119.5 -87.5t80.5 -102.5t29 -143zM499 -283q0 -101 -63.5 -155t-176.5 -54q-35 0 -64 3.5t-49 9.5v103q20 -6 43.5 -9t46.5 -3q67 0 100.5 29t33.5 76
q0 56 -43 83.5t-117 37.5l70 162h95l-46 -105q55 -11 93 -35t57.5 -60t19.5 -83z" />
    <glyph glyph-name="Scaron" unicode="&#x160;" horiz-adv-x="841" 
d="M762 399q0 -124 -47.5 -218.5t-133 -147.5t-201.5 -53q-57 0 -110 6.5t-100.5 20.5t-90.5 35v165q68 -38 147.5 -58t147.5 -20q73 0 123 34.5t76.5 92.5t26.5 128q0 74 -22 124.5t-72 91.5t-135 85q-64 35 -116 72t-89 83.5t-57 109.5t-20 150q-2 115 45.5 201.5
t132 134.5t193.5 47q83 0 158.5 -20.5t130.5 -49.5l-52 -146q-61 33 -120.5 49.5t-113.5 16.5q-67 0 -114.5 -29t-73 -79.5t-25.5 -117.5q0 -77 22.5 -127t73 -89t133.5 -84q95 -50 158 -107.5t94 -130.5t31 -170zM367 1605q-22 46 -52.5 99.5t-65 107.5t-69.5 100v20h86
q38 -37 84 -91.5t91 -108.5q51 62 87.5 103.5t88.5 96.5h85v-20q-30 -42 -65.5 -95.5t-68.5 -109t-55 -102.5h-146z" />
    <glyph glyph-name="scaron" unicode="&#x161;" horiz-adv-x="688" 
d="M622 290q0 -99 -36 -168.5t-104.5 -105.5t-166.5 -36q-76 0 -139 18t-107 43v160q44 -36 109 -59.5t132 -23.5q77 0 118.5 44t41.5 123q0 47 -17 81.5t-54.5 66t-98.5 66.5q-68 42 -120.5 87t-81.5 103.5t-29 142.5q0 128 83.5 207t220.5 79q69 0 130.5 -17.5
t116.5 -52.5l-58 -124q-42 29 -89.5 46t-97.5 17q-73 0 -115.5 -41t-42.5 -110q0 -46 17 -79t56 -64t103 -70q68 -43 119.5 -87.5t80.5 -102.5t29 -143zM289 1241q-22 46 -52.5 99.5t-65 107.5t-69.5 100v20h86q38 -37 84 -91.5t91 -108.5q51 62 87.5 103.5t88.5 96.5h85
v-20q-30 -42 -65.5 -95.5t-68.5 -109t-55 -102.5h-146z" />
    <glyph glyph-name="uni0162" unicode="&#x162;" horiz-adv-x="770" 
d="M463 0h-159v1318h-285v144h730v-144h-286v-1318zM553 -283q0 -101 -63.5 -155t-176.5 -54q-35 0 -64 3.5t-49 9.5v103q20 -6 43.5 -9t46.5 -3q67 0 100.5 29t33.5 76q0 56 -43 83.5t-117 37.5l70 162h95l-46 -105q55 -11 93 -35t57.5 -60t19.5 -83z" />
    <glyph glyph-name="uni0163" unicode="&#x163;" horiz-adv-x="519" 
d="M392 116q25 0 50 5.5t48 15.5v-126q-31 -14 -67 -22.5t-80 -8.5q-71 0 -116.5 32t-67 95.5t-21.5 159.5v702h-102v84l109 41l41 253h106v-249h186v-129h-186v-684q0 -85 20.5 -127t79.5 -42zM493 -283q0 -101 -63.5 -155t-176.5 -54q-35 0 -64 3.5t-49 9.5v103
q20 -6 43.5 -9t46.5 -3q67 0 100.5 29t33.5 76q0 56 -43 83.5t-117 37.5l70 162h95l-46 -105q55 -11 93 -35t57.5 -60t19.5 -83z" />
    <glyph glyph-name="Tcaron" unicode="&#x164;" horiz-adv-x="770" 
d="M463 0h-159v1318h-285v144h730v-144h-286v-1318zM312 1605q-22 46 -52.5 99.5t-65 107.5t-69.5 100v20h86q38 -37 84 -91.5t91 -108.5q51 62 87.5 103.5t88.5 96.5h85v-20q-30 -42 -65.5 -95.5t-68.5 -109t-55 -102.5h-146z" />
    <glyph glyph-name="tcaron" unicode="&#x165;" horiz-adv-x="519" 
d="M392 116q25 0 50 5.5t48 15.5v-126q-31 -14 -67 -22.5t-80 -8.5q-71 0 -116.5 32t-67 95.5t-21.5 159.5v702h-102v84l109 41l41 253h106v-249h186v-129h-186v-684q0 -85 20.5 -127t79.5 -42zM716 1556v-20q-9 -43 -30 -102.5t-46 -115.5t-47 -90h-85v23q4 16 11 56
t14.5 88.5t13 92.5t6.5 68h163z" />
    <glyph glyph-name="Tbar" unicode="&#x166;" horiz-adv-x="770" 
d="M304 0v674h-212v130h212v513h-285v145h730v-145h-286v-513h213v-130h-213v-674h-159z" />
    <glyph glyph-name="tbar" unicode="&#x167;" horiz-adv-x="519" 
d="M38 562v118h433v-118h-433zM392 116q25 0 50 5.5t48 15.5v-126q-31 -14 -67 -22.5t-80 -8.5q-71 0 -116.5 32t-67 95.5t-21.5 159.5v702h-102v84l109 41l41 253h106v-249h186v-129h-186v-684q0 -85 20.5 -127t79.5 -42z" />
    <glyph glyph-name="Utilde" unicode="&#x168;" horiz-adv-x="1061" 
d="M923 1462v-1005q0 -167 -45 -272.5t-131.5 -155t-213.5 -49.5q-193 0 -294 116t-101 360v1006h159v-1007q0 -176 61.5 -253t174.5 -77q75 0 126 33t77 106t26 193v1005h161zM232 1606q5 48 16 92t30.5 77.5t49.5 53t71 19.5q38 0 72 -18t66 -41.5t62 -41.5t59 -18
q32 0 48.5 33t25.5 88h98q-7 -118 -52 -180t-113 -62q-37 0 -73 18t-68.5 42t-61.5 42t-54 18q-28 0 -49.5 -32t-30.5 -90h-96z" />
    <glyph glyph-name="utilde" unicode="&#x169;" horiz-adv-x="923" 
d="M789 1098v-1098h-123l-17 156h-11q-22 -54 -57.5 -93.5t-81.5 -61t-103 -21.5q-96 0 -154.5 48t-85 137t-26.5 212v721h154v-692q0 -148 34.5 -218t105.5 -70q77 0 123 42.5t67 129t21 219.5v589h154zM164 1242q5 48 16 92t30.5 77.5t49.5 53t71 19.5q38 0 72 -18
t66 -41.5t62 -41.5t59 -18q32 0 48.5 33t25.5 88h98q-7 -118 -52 -180t-113 -62q-37 0 -73 18t-68.5 42t-61.5 42t-54 18q-28 0 -49.5 -32t-30.5 -90h-96z" />
    <glyph glyph-name="Umacron" unicode="&#x16a;" horiz-adv-x="1061" 
d="M923 1462v-1005q0 -167 -45 -272.5t-131.5 -155t-213.5 -49.5q-193 0 -294 116t-101 360v1006h159v-1007q0 -176 61.5 -253t174.5 -77q75 0 126 33t77 106t26 193v1005h161zM776 1740v-118h-489v118h489z" />
    <glyph glyph-name="umacron" unicode="&#x16b;" horiz-adv-x="923" 
d="M789 1098v-1098h-123l-17 156h-11q-22 -54 -57.5 -93.5t-81.5 -61t-103 -21.5q-96 0 -154.5 48t-85 137t-26.5 212v721h154v-692q0 -148 34.5 -218t105.5 -70q77 0 123 42.5t67 129t21 219.5v589h154zM709 1376v-118h-489v118h489z" />
    <glyph glyph-name="Ubreve" unicode="&#x16c;" horiz-adv-x="1061" 
d="M923 1462v-1005q0 -167 -45 -272.5t-131.5 -155t-213.5 -49.5q-193 0 -294 116t-101 360v1006h159v-1007q0 -176 61.5 -253t174.5 -77q75 0 126 33t77 106t26 193v1005h161zM774 1876q-1 -83 -32.5 -143t-87 -92.5t-129.5 -32.5q-109 0 -172.5 67t-68.5 201h101
q5 -49 22.5 -82.5t48.5 -50.5t73 -17t72.5 16.5t49 50t22.5 83.5h101z" />
    <glyph glyph-name="ubreve" unicode="&#x16d;" horiz-adv-x="923" 
d="M789 1098v-1098h-123l-17 156h-11q-22 -54 -57.5 -93.5t-81.5 -61t-103 -21.5q-96 0 -154.5 48t-85 137t-26.5 212v721h154v-692q0 -148 34.5 -218t105.5 -70q77 0 123 42.5t67 129t21 219.5v589h154zM706 1512q-1 -83 -32.5 -143t-87 -92.5t-129.5 -32.5
q-109 0 -172.5 67t-68.5 201h101q5 -49 22.5 -82.5t48.5 -50.5t73 -17t72.5 16.5t49 50t22.5 83.5h101z" />
    <glyph glyph-name="Uring" unicode="&#x16e;" horiz-adv-x="1061" 
d="M923 1462v-1005q0 -167 -45 -272.5t-131.5 -155t-213.5 -49.5q-193 0 -294 116t-101 360v1006h159v-1007q0 -176 61.5 -253t174.5 -77q75 0 126 33t77 106t26 193v1005h161zM531 1613q-97 0 -154 55.5t-57 146.5q0 92 57 147.5t154 55.5q92 0 151.5 -54.5t59.5 -145.5
q0 -92 -57.5 -148.5t-153.5 -56.5zM533 1708q49 0 80 29t31 77q0 50 -29 81t-82 31q-51 0 -82 -31t-31 -80q0 -48 28 -77.5t85 -29.5z" />
    <glyph glyph-name="uring" unicode="&#x16f;" horiz-adv-x="923" 
d="M789 1098v-1098h-123l-17 156h-11q-22 -54 -57.5 -93.5t-81.5 -61t-103 -21.5q-96 0 -154.5 48t-85 137t-26.5 212v721h154v-692q0 -148 34.5 -218t105.5 -70q77 0 123 42.5t67 129t21 219.5v589h154zM463 1249q-97 0 -154 55.5t-57 146.5q0 92 57 147.5t154 55.5
q92 0 151.5 -54.5t59.5 -145.5q0 -92 -57.5 -148.5t-153.5 -56.5zM465 1344q49 0 80 29t31 77q0 50 -29 81t-82 31q-51 0 -82 -31t-31 -80q0 -48 28 -77.5t85 -29.5z" />
    <glyph glyph-name="Uhungarumlaut" unicode="&#x170;" horiz-adv-x="1061" 
d="M923 1462v-1005q0 -167 -45 -272.5t-131.5 -155t-213.5 -49.5q-193 0 -294 116t-101 360v1006h159v-1007q0 -176 61.5 -253t174.5 -77q75 0 126 33t77 106t26 193v1005h161zM922 1933v-19q-16 -32 -46 -74t-65.5 -86t-71.5 -83t-65 -66h-79v22q31 45 64.5 104.5t61.5 115
t41 86.5h160zM634 1933v-19q-17 -34 -44.5 -74.5t-62 -82.5t-71.5 -81t-73 -71h-75v22q31 48 63.5 106.5t60.5 112t43 87.5h159z" />
    <glyph glyph-name="uhungarumlaut" unicode="&#x171;" horiz-adv-x="923" 
d="M789 1098v-1098h-123l-17 156h-11q-22 -54 -57.5 -93.5t-81.5 -61t-103 -21.5q-96 0 -154.5 48t-85 137t-26.5 212v721h154v-692q0 -148 34.5 -218t105.5 -70q77 0 123 42.5t67 129t21 219.5v589h154zM854 1569v-19q-16 -32 -46 -74t-65.5 -86t-71.5 -83t-65 -66h-79v22
q31 45 64.5 104.5t61.5 115t41 86.5h160zM566 1569v-19q-17 -34 -44.5 -74.5t-62 -82.5t-71.5 -81t-73 -71h-75v22q31 48 63.5 106.5t60.5 112t43 87.5h159z" />
    <glyph glyph-name="Uogonek" unicode="&#x172;" horiz-adv-x="1061" 
d="M610 -247q0 -49 24 -73t68 -24q20 0 39 4t30 8v-109q-19 -9 -46 -12.5t-54 -3.5q-95 0 -142.5 48t-47.5 139q0 51 20.5 100t55.5 93t78 80l168 76q-76 -77 -118 -134.5t-58.5 -103t-16.5 -88.5zM923 1462v-1005q0 -167 -45 -272.5t-131.5 -155t-213.5 -49.5
q-193 0 -294 116t-101 360v1006h159v-1007q0 -176 61.5 -253t174.5 -77q75 0 126 33t77 106t26 193v1005h161z" />
    <glyph glyph-name="uogonek" unicode="&#x173;" horiz-adv-x="923" 
d="M789 1098v-1098h-123l-17 156h-11q-22 -54 -57.5 -93.5t-81.5 -61t-103 -21.5q-96 0 -154.5 48t-85 137t-26.5 212v721h154v-692q0 -148 34.5 -218t105.5 -70q77 0 123 42.5t67 129t21 219.5v589h154zM645 -244q0 -50 24 -76t68 -26q23 0 38.5 4t26.5 8v-107
q-17 -7 -41 -11.5t-53 -4.5q-95 0 -143 48t-48 139q0 52 19.5 103.5t57 100t89.5 90.5l89 -24q-70 -70 -98.5 -127t-28.5 -117z" />
    <glyph glyph-name="Wcircumflex" unicode="&#x174;" horiz-adv-x="1457" 
d="M1449 1462l-301 -1462h-190l-191 956q-3 19 -7.5 46t-9 61.5t-10.5 77t-12 93.5q-4 -34 -8 -68.5t-9 -69.5t-10.5 -69.5t-12.5 -68.5l-188 -958h-188l-304 1462h161l184 -925q10 -54 19 -104t16.5 -95.5t13 -84t8.5 -69.5q6 43 13 88.5t14.5 91t15 88.5t14.5 81l187 929
h150l184 -927q8 -39 15.5 -80t14 -84t13.5 -90t13 -98q8 65 17.5 126.5t19.5 119t20 108.5l187 925h161zM802 1932q22 -46 54.5 -101t68 -109t66.5 -97v-20h-85q-43 41 -87 93t-90 107q-46 -54 -92.5 -108.5t-83.5 -91.5h-86v20q36 48 71 102.5t65.5 107.5t50.5 97h148z" />
    <glyph glyph-name="wcircumflex" unicode="&#x175;" horiz-adv-x="1218" 
d="M781 0l-132 681q-5 28 -10 58t-9.5 60t-8.5 59.5t-8 57.5h-5q-4 -29 -8.5 -59.5t-9 -60.5t-9.5 -59t-10 -56l-140 -681h-176l-237 1098h154l117 -572q10 -54 20 -110.5t19 -113t17 -112.5h6l10.5 73.5t12 80t14.5 86t18 90.5l119 578h171l118 -581q9 -38 17.5 -88
t17.5 -110t19 -129h6q3 30 8 65t12 76.5t16 88.5l140 678h150l-242 -1098h-177zM680 1568q22 -46 54.5 -101t68 -109t66.5 -97v-20h-85q-43 41 -87 93t-90 107q-46 -54 -92.5 -108.5t-83.5 -91.5h-86v20q36 48 71 102.5t65.5 107.5t50.5 97h148z" />
    <glyph glyph-name="Ycircumflex" unicode="&#x176;" horiz-adv-x="786" 
d="M394 760l225 702h167l-314 -893v-569h-159v565l-313 897h166zM464 1932q22 -46 54.5 -101t68 -109t66.5 -97v-20h-85q-43 41 -87 93t-90 107q-46 -54 -92.5 -108.5t-83.5 -91.5h-86v20q36 48 71 102.5t65.5 107.5t50.5 97h148z" />
    <glyph glyph-name="ycircumflex" unicode="&#x177;" horiz-adv-x="746" 
d="M12 1098h159l155 -642q9 -42 17.5 -82t16 -79.5t12.5 -79.5h8q8 58 20 117.5t28 124.5l151 641h158l-326 -1274q-29 -110 -68 -180t-91.5 -103t-124.5 -33q-24 0 -48 5t-51 12v137q19 -7 39.5 -11t39.5 -4q38 0 65 19.5t48 64.5t41 123l39 154zM444 1568
q22 -46 54.5 -101t68 -109t66.5 -97v-20h-85q-43 41 -87 93t-90 107q-46 -54 -92.5 -108.5t-83.5 -91.5h-86v20q36 48 71 102.5t65.5 107.5t50.5 97h148z" />
    <glyph glyph-name="Ydieresis" unicode="&#x178;" horiz-adv-x="786" 
d="M394 760l225 702h167l-314 -893v-569h-159v565l-313 897h166zM142 1731q0 50 24 74t60 24q35 0 58.5 -24.5t23.5 -73.5q0 -51 -23.5 -76.5t-58.5 -25.5q-36 0 -60 25.5t-24 76.5zM470 1731q0 50 24.5 74t59.5 24q36 0 60.5 -24.5t24.5 -73.5q0 -51 -24.5 -76.5
t-60.5 -25.5q-37 0 -60.5 25.5t-23.5 76.5z" />
    <glyph glyph-name="Zacute" unicode="&#x179;" horiz-adv-x="731" 
d="M690 0h-637v124l453 1194h-443v144h614v-126l-454 -1191h467v-145zM635 1932v-18q-20 -33 -53 -74.5t-72 -85t-78 -82.5t-70 -67h-98v23q40 55 74 107t62 101.5t51 95.5h184z" />
    <glyph glyph-name="zacute" unicode="&#x17a;" horiz-adv-x="611" 
d="M567 0h-515v106l333 860h-311v132h479v-113l-330 -854h344v-131zM588 1568v-18q-20 -33 -53 -74.5t-72 -85t-78 -82.5t-70 -67h-98v23q40 55 74 107t62 101.5t51 95.5h184z" />
    <glyph glyph-name="Zdotaccent" unicode="&#x17b;" horiz-adv-x="731" 
d="M690 0h-637v124l453 1194h-443v144h614v-126l-454 -1191h467v-145zM374 1872q46 0 67.5 -30t21.5 -83q0 -52 -22.5 -82t-66.5 -30q-43 0 -68 30t-25 82q0 55 23.5 84t69.5 29z" />
    <glyph glyph-name="zdotaccent" unicode="&#x17c;" horiz-adv-x="611" 
d="M567 0h-515v106l333 860h-311v132h479v-113l-330 -854h344v-131zM324 1510q46 0 67.5 -30t21.5 -83q0 -52 -22.5 -82t-66.5 -30q-43 0 -68 30t-25 82q0 55 23.5 84t69.5 29z" />
    <glyph glyph-name="Zcaron" unicode="&#x17d;" horiz-adv-x="731" 
d="M690 0h-637v124l453 1194h-443v144h614v-126l-454 -1191h467v-145zM293 1605q-22 46 -52.5 99.5t-65 107.5t-69.5 100v20h86q38 -37 84 -91.5t91 -108.5q51 62 87.5 103.5t88.5 96.5h85v-20q-30 -42 -65.5 -95.5t-68.5 -109t-55 -102.5h-146z" />
    <glyph glyph-name="zcaron" unicode="&#x17e;" horiz-adv-x="611" 
d="M567 0h-515v106l333 860h-311v132h479v-113l-330 -854h344v-131zM245 1241q-22 46 -52.5 99.5t-65 107.5t-69.5 100v20h86q38 -37 84 -91.5t91 -108.5q51 62 87.5 103.5t88.5 96.5h85v-20q-30 -42 -65.5 -95.5t-68.5 -109t-55 -102.5h-146z" />
    <glyph glyph-name="longs" unicode="&#x17f;" horiz-adv-x="452" 
d="M410 1432q-65 0 -88 -56.5t-25 -197.5v-1178h-154v1172q0 127 22.5 215t76.5 134t148 46q41 0 78 -7.5t77 -23.5l-39 -124q-25 9 -50 14.5t-46 5.5z" />
    <glyph glyph-name="florin" unicode="&#x192;" horiz-adv-x="830" 
d="M572 1483q44 0 87 -9.5t92 -32.5l-44 -123q-30 15 -57.5 22.5t-53.5 7.5q-66 0 -91.5 -56t-25.5 -186v-149h190v-130h-190v-931q0 -125 -23.5 -212t-80 -131.5t-156.5 -44.5q-40 0 -73.5 5t-65.5 12v137q33 -9 62.5 -13.5t54.5 -4.5q70 0 99.5 54t29.5 166v963h-150v84
l150 51v147q0 128 25 211t79.5 123t141.5 40z" />
    <glyph glyph-name="Ohorn" unicode="&#x1a0;" horiz-adv-x="1118" 
d="M1016 733q0 -157 -25 -293.5t-78.5 -240t-140.5 -161.5t-211 -58q-126 0 -214 59.5t-141.5 163.5t-78 241t-24.5 291q0 250 51.5 416t153.5 249t253 83q116 0 202.5 -52.5t143.5 -158.5q47 25 71 65t33.5 95.5t10.5 123.5h140l15 -24q-12 -157 -66 -246t-152 -128
q29 -85 43 -191.5t14 -233.5zM268 733q0 -199 33.5 -334.5t98.5 -204.5t159 -69q96 0 160 67.5t96.5 203t32.5 337.5q0 301 -72 453t-215 152q-98 0 -163 -68.5t-97.5 -203t-32.5 -333.5z" />
    <glyph glyph-name="ohorn" unicode="&#x1a1;" horiz-adv-x="939" 
d="M815 550q0 -183 -42.5 -310.5t-124 -193.5t-199.5 -66q-115 0 -196 66.5t-123.5 194t-42.5 309.5q0 281 93 424.5t272 143.5q85 0 152.5 -37.5t113.5 -111.5q43 17 67.5 57t36 99.5t12.5 135.5h138l16 -25q-8 -109 -34.5 -183.5t-72.5 -120.5t-112 -70q24 -64 35 -141.5
t11 -170.5zM244 550q0 -145 23.5 -242t70 -146t115.5 -49q71 0 116.5 48.5t67.5 145.5t22 243q0 143 -22 239.5t-67.5 145t-117.5 48.5q-110 0 -159 -108.5t-49 -324.5z" />
    <glyph glyph-name="Uhorn" unicode="&#x1af;" horiz-adv-x="1169" 
d="M923 1462v-204q60 11 92 51.5t44 104t12 142.5h140l16 -24q-8 -94 -30.5 -164t-60 -118t-90.5 -74.5t-123 -34.5v-645q0 -174 -45 -288.5t-131.5 -171t-213.5 -56.5q-193 0 -294 130.5t-101 383.5v968h159v-971q0 -185 61.5 -275.5t174.5 -90.5q75 0 126 39.5t77 121
t26 207.5v969h161z" />
    <glyph glyph-name="uhorn" unicode="&#x1b0;" horiz-adv-x="1038" 
d="M1074 1261l12 -27q-6 -93 -27 -161.5t-57.5 -115t-89 -74t-123.5 -37.5v-846h-123l-17 156h-12q-22 -54 -57 -93.5t-81 -61t-103 -21.5q-96 0 -154.5 48.5t-85 137.5t-26.5 211v721h154v-692q0 -148 34.5 -218t105.5 -70q109 0 160 93t51 309v578h154v-135q58 12 88.5 52
t42.5 103.5t12 142.5h142z" />
    <glyph glyph-name="uni01EA" unicode="&#x1ea;" horiz-adv-x="1117" 
d="M1016 733q0 -157 -25 -293.5t-78.5 -240t-140.5 -161.5t-211 -58q-126 0 -214 59.5t-141.5 163.5t-78 241t-24.5 291q0 250 51.5 416t153.5 249t253 83q164 0 264 -99.5t145.5 -269.5t45.5 -381zM268 733q0 -199 33.5 -334.5t98.5 -204.5t159 -69q96 0 160 67.5t96.5 203
t32.5 337.5q0 301 -72 453t-215 152q-98 0 -163 -68.5t-97.5 -203t-32.5 -333.5zM528 -244q0 -50 24 -76t68 -26q23 0 38.5 4t26.5 8v-107q-17 -7 -41 -11.5t-53 -4.5q-95 0 -143 48t-48 139q0 52 19.5 103.5t57 100t89.5 90.5l89 -24q-70 -70 -98.5 -127t-28.5 -117z" />
    <glyph glyph-name="uni01EB" unicode="&#x1eb;" horiz-adv-x="902" 
d="M815 550q0 -130 -22 -235t-67 -180t-114 -115t-163 -40q-90 0 -158 40t-113 114.5t-68 180t-23 235.5q0 182 39 308.5t120 193t206 66.5q117 0 198 -64.5t123 -191t42 -312.5zM244 550q0 -143 22 -240t68.5 -146t118.5 -49q71 0 116.5 48t67.5 144.5t22 242.5
q0 143 -22 239.5t-67.5 145t-117.5 48.5q-110 0 -159 -108.5t-49 -324.5zM422 -244q0 -50 24 -76t68 -26q23 0 38.5 4t26.5 8v-107q-17 -7 -41 -11.5t-53 -4.5q-95 0 -143 48t-48 139q0 52 19.5 103.5t57 100t89.5 90.5l89 -24q-70 -70 -98.5 -127t-28.5 -117z" />
    <glyph glyph-name="uni01EC" unicode="&#x1ec;" horiz-adv-x="1117" 
d="M1016 733q0 -157 -25 -293.5t-78.5 -240t-140.5 -161.5t-211 -58q-126 0 -214 59.5t-141.5 163.5t-78 241t-24.5 291q0 250 51.5 416t153.5 249t253 83q164 0 264 -99.5t145.5 -269.5t45.5 -381zM268 733q0 -199 33.5 -334.5t98.5 -204.5t159 -69q96 0 160 67.5t96.5 203
t32.5 337.5q0 301 -72 453t-215 152q-98 0 -163 -68.5t-97.5 -203t-32.5 -333.5zM804 1741v-118h-489v118h489zM527 -244q0 -50 24 -76t68 -26q23 0 38.5 4t26.5 8v-107q-17 -7 -41 -11.5t-53 -4.5q-95 0 -143 48t-48 139q0 52 19.5 103.5t57 100t89.5 90.5l89 -24
q-70 -70 -98.5 -127t-28.5 -117z" />
    <glyph glyph-name="uni01ED" unicode="&#x1ed;" horiz-adv-x="902" 
d="M815 550q0 -130 -22 -235t-67 -180t-114 -115t-163 -40q-90 0 -158 40t-113 114.5t-68 180t-23 235.5q0 182 39 308.5t120 193t206 66.5q117 0 198 -64.5t123 -191t42 -312.5zM244 550q0 -143 22 -240t68.5 -146t118.5 -49q71 0 116.5 48t67.5 144.5t22 242.5
q0 143 -22 239.5t-67.5 145t-117.5 48.5q-110 0 -159 -108.5t-49 -324.5zM696 1376v-118h-489v118h489zM420 -244q0 -50 24 -76t68 -26q23 0 38.5 4t26.5 8v-107q-17 -7 -41 -11.5t-53 -4.5q-95 0 -143 48t-48 139q0 52 19.5 103.5t57 100t89.5 90.5l89 -24
q-70 -70 -98.5 -127t-28.5 -117z" />
    <glyph glyph-name="uni01F0" unicode="&#x1f0;" horiz-adv-x="424" 
d="M72 -492q-27 0 -53.5 5.5t-42.5 12.5v137q17 -7 35.5 -11.5t34.5 -4.5q49 0 69 42t20 130v1279h154v-1276q0 -105 -25 -175t-73.5 -104.5t-118.5 -34.5zM138 1241q-22 46 -52.5 99.5t-65 107.5t-69.5 100v20h86q38 -37 84 -91.5t91 -108.5q51 62 87.5 103.5t88.5 96.5h85
v-20q-30 -42 -65.5 -95.5t-68.5 -109t-55 -102.5h-146z" />
    <glyph glyph-name="Aringacute" unicode="&#x1fa;" horiz-adv-x="906" 
d="M0 0l342 1281q-46 18 -75 58t-29 99q0 92 58 147.5t153 55.5q92 0 151.5 -54.5t59.5 -145.5q0 -61 -28.5 -101.5t-75.5 -58.5l350 -1281h-171l-100 392h-366l-97 -392h-172zM299 538h304l-119 471q-8 39 -15 75t-11.5 66l-7.5 50q-2 -16 -4.5 -33.5t-6 -36.5t-7 -38.5
t-6.5 -37.5zM451 1329q49 0 80 30t31 80q0 47 -29.5 78t-81.5 31q-51 0 -82 -31t-31 -78q0 -49 28.5 -79.5t84.5 -30.5zM348 1692v20q57 69 91 113t54.5 75.5t34.5 61.5h189v-14q-17 -27 -47.5 -60.5t-67.5 -68t-75 -67.5t-71 -60h-108z" />
    <glyph glyph-name="aringacute" unicode="&#x1fb;" horiz-adv-x="840" 
d="M428 1118q152 0 217 -97t65 -281v-740h-117l-23 156h-4q-26 -56 -62 -95.5t-82 -60t-106 -20.5q-85 0 -139 45t-80 118.5t-26 158.5q0 163 94 253t267 98l125 8v75q0 132 -36 193t-116 61q-46 0 -96.5 -16t-109.5 -51l-49 116q62 40 132.5 59.5t145.5 19.5zM559 548
l-102 -7q-116 -7 -172.5 -65.5t-56.5 -169.5q0 -103 37 -152t102 -49q91 0 141.5 88t50.5 243v112zM434 1517q-49 0 -81 -31.5t-32 -78.5q0 -49 28.5 -79t84.5 -30q50 0 80.5 29.5t30.5 78.5q0 48 -29 79.5t-82 31.5zM434 1609q61 0 109 -24.5t76 -69.5t28 -107
q0 -92 -58.5 -148.5t-154.5 -56.5q-97 0 -154 55.5t-57 148.5q0 91 57.5 146.5t153.5 55.5zM709 1952v-16q-26 -41 -75 -95.5t-101 -105t-87 -79.5h-108v21q46 60 79 106.5t57 87.5t44 81h191z" />
    <glyph glyph-name="AEacute" unicode="&#x1fc;" horiz-adv-x="1252" 
d="M1156 0h-583v470h-270l-134 -470h-173l438 1462h722v-144h-424v-483h398v-143h-398v-547h424v-145zM342 617h233v699h-33zM909 1932v-18q-20 -33 -53 -74.5t-72 -85t-78 -82.5t-70 -67h-98v23q40 55 74 107t62 101.5t51 95.5h184z" />
    <glyph glyph-name="aeacute" unicode="&#x1fd;" horiz-adv-x="1318" 
d="M905 1116q113 0 185 -65t106.5 -174.5t34.5 -244.5v-109h-522q3 -208 64 -311t179 -103q59 0 119.5 18.5t119.5 55.5v-135q-55 -34 -117.5 -51t-134.5 -17q-73 0 -135.5 27t-109.5 78.5t-74 124.5q-32 -79 -75.5 -130t-98 -75.5t-121.5 -24.5q-88 0 -144.5 44.5
t-83 118.5t-26.5 160q0 109 42.5 185t123.5 118t196 47l124 7v81q0 125 -37 187t-114 62q-45 0 -96 -16t-110 -51l-50 117q55 34 121.5 56t145.5 22q91 0 148.5 -40t85.5 -123q41 78 104.5 119.5t149.5 41.5zM559 547l-101 -6q-118 -7 -174 -64t-56 -171q0 -101 36 -150.5
t103 -49.5q60 0 103 39t66 111t23 171v120zM904 988q-85 0 -135.5 -84.5t-57.5 -258.5h377q0 97 -19.5 174.5t-60 123t-104.5 45.5zM941 1568v-18q-20 -33 -53 -74.5t-72 -85t-78 -82.5t-70 -67h-98v23q40 55 74 107t62 101.5t51 95.5h184z" />
    <glyph glyph-name="Oslashacute" unicode="&#x1fe;" horiz-adv-x="1123" 
d="M1021 733q0 -179 -28.5 -319t-85 -236.5t-142 -147t-199.5 -50.5q-79 0 -144 26t-116 75l-90 -182l-99 44l113 227q-64 105 -93 245.5t-29 319.5q0 250 52 416t154 249t252 83q80 0 147 -28t119 -84l89 173l99 -48l-111 -218q57 -96 84.5 -232.5t27.5 -312.5zM857 733
q0 108 -10 199.5t-31 161.5l-440 -870q35 -51 82.5 -76.5t105.5 -25.5q98 0 163 68.5t97.5 204.5t32.5 338zM272 733q0 -122 12.5 -218t37.5 -167l442 877q-36 59 -85 87t-113 28q-98 0 -163.5 -69t-98 -204t-32.5 -334zM841 1932v-18q-20 -33 -53 -74.5t-72 -85t-78 -82.5
t-70 -67h-98v23q40 55 74 107t62 101.5t51 95.5h184z" />
    <glyph glyph-name="oslashacute" unicode="&#x1ff;" horiz-adv-x="909" 
d="M819 550q0 -183 -42.5 -310.5t-124 -193.5t-199.5 -66q-55 0 -102.5 16.5t-84.5 48.5l-90 -183l-94 46l109 217q-51 77 -75.5 183t-24.5 242q0 281 93 424.5t273 143.5q57 0 104.5 -18t87.5 -56l79 156l94 -46l-95 -192q47 -75 69.5 -178.5t22.5 -233.5zM245 550
q0 -84 8 -151t23 -114l317 632q-25 35 -59 52.5t-77 17.5q-112 0 -162 -109.5t-50 -327.5zM670 550q0 78 -8 140.5t-20 108.5l-314 -628q24 -31 56.5 -46.5t70.5 -15.5q74 0 121.5 49t70.5 147t23 245zM730 1568v-18q-20 -33 -53 -74.5t-72 -85t-78 -82.5t-70 -67h-98v23
q40 55 74 107t62 101.5t51 95.5h184z" />
    <glyph glyph-name="uni0218" unicode="&#x218;" horiz-adv-x="841" 
d="M762 399q0 -124 -47.5 -218.5t-133 -147.5t-201.5 -53q-57 0 -110 6.5t-100.5 20.5t-90.5 35v165q68 -38 147.5 -58t147.5 -20q73 0 123 34.5t76.5 92.5t26.5 128q0 74 -22 124.5t-72 91.5t-135 85q-64 35 -116 72t-89 83.5t-57 109.5t-20 150q-2 115 45.5 201.5
t132 134.5t193.5 47q83 0 158.5 -20.5t130.5 -49.5l-52 -146q-61 33 -120.5 49.5t-113.5 16.5q-67 0 -114.5 -29t-73 -79.5t-25.5 -117.5q0 -77 22.5 -127t73 -89t133.5 -84q95 -50 158 -107.5t94 -130.5t31 -170zM488 -125v-20q-14 -50 -36 -105.5t-49 -108t-55 -94.5h-86
v23q12 37 26 93t26 113.5t16 98.5h158z" />
    <glyph glyph-name="uni0219" unicode="&#x219;" horiz-adv-x="688" 
d="M622 290q0 -99 -36 -168.5t-104.5 -105.5t-166.5 -36q-76 0 -139 18t-107 43v160q44 -36 109 -59.5t132 -23.5q77 0 118.5 44t41.5 123q0 47 -17 81.5t-54.5 66t-98.5 66.5q-68 42 -120.5 87t-81.5 103.5t-29 142.5q0 128 83.5 207t220.5 79q69 0 130.5 -17.5
t116.5 -52.5l-58 -124q-42 29 -89.5 46t-97.5 17q-73 0 -115.5 -41t-42.5 -110q0 -46 17 -79t56 -64t103 -70q68 -43 119.5 -87.5t80.5 -102.5t29 -143zM413 -125v-20q-14 -50 -36 -105.5t-49 -108t-55 -94.5h-86v23q12 37 26 93t26 113.5t16 98.5h158z" />
    <glyph glyph-name="uni021A" unicode="&#x21a;" horiz-adv-x="770" 
d="M463 0h-159v1318h-285v144h730v-144h-286v-1318zM477 -125v-20q-14 -50 -36 -105.5t-49 -108t-55 -94.5h-86v23q12 37 26 93t26 113.5t16 98.5h158z" />
    <glyph glyph-name="uni021B" unicode="&#x21b;" horiz-adv-x="519" 
d="M392 116q25 0 50 5.5t48 15.5v-126q-31 -14 -67 -22.5t-80 -8.5q-71 0 -116.5 32t-67 95.5t-21.5 159.5v702h-102v84l109 41l41 253h106v-249h186v-129h-186v-684q0 -85 20.5 -127t79.5 -42zM410 -125v-20q-14 -50 -36 -105.5t-49 -108t-55 -94.5h-86v23q12 37 26 93
t26 113.5t16 98.5h158z" />
    <glyph glyph-name="uni0237" unicode="&#x237;" horiz-adv-x="424" 
d="M72 -492q-27 0 -53.5 5.5t-42.5 12.5v137q17 -7 35.5 -11.5t34.5 -4.5q49 0 69 42t20 130v1279h154v-1276q0 -105 -25 -175t-73.5 -104.5t-118.5 -34.5z" />
    <glyph glyph-name="uni0259" unicode="&#x259;" horiz-adv-x="847" 
d="M377 1116q138 0 222.5 -73t123 -199.5t38.5 -288.5q0 -185 -39 -313.5t-116.5 -195t-191.5 -66.5q-111 0 -184 65.5t-109 176t-36 245.5v106h524q-3 208 -64 310t-185 102q-58 0 -116 -18t-119 -56v136q57 35 119.5 52t132.5 17zM609 453h-378q0 -93 19.5 -172t60 -127
t103.5 -48q86 0 136.5 85.5t58.5 261.5z" />
    <glyph glyph-name="uni02BC" unicode="&#x2bc;" horiz-adv-x="374" 
d="M305 1462l15 -22q-19 -83 -42.5 -163t-51 -158t-60.5 -155h-118q17 62 31.5 127.5t27 130.5t21.5 126t14 114h163z" />
    <glyph glyph-name="circumflex" unicode="&#x2c6;" horiz-adv-x="688" 
d="M417 1568q22 -46 54.5 -101t68 -109t66.5 -97v-20h-85q-43 41 -87 93t-90 107q-46 -54 -92.5 -108.5t-83.5 -91.5h-86v20q36 48 71 102.5t65.5 107.5t50.5 97h148z" />
    <glyph glyph-name="caron" unicode="&#x2c7;" horiz-adv-x="686" 
d="M269 1241q-22 46 -52.5 99.5t-65 107.5t-69.5 100v20h86q38 -37 84 -91.5t91 -108.5q51 62 87.5 103.5t88.5 96.5h85v-20q-30 -42 -65.5 -95.5t-68.5 -109t-55 -102.5h-146z" />
    <glyph glyph-name="macron" unicode="&#x2c9;" horiz-adv-x="653" 
d="M571 1376v-118h-489v118h489z" />
    <glyph glyph-name="breve" unicode="&#x2d8;" horiz-adv-x="654" 
d="M572 1512q-1 -83 -32.5 -143t-87 -92.5t-129.5 -32.5q-109 0 -172.5 67t-68.5 201h101q5 -49 22.5 -82.5t48.5 -50.5t73 -17t72.5 16.5t49 50t22.5 83.5h101z" />
    <glyph glyph-name="dotaccent" unicode="&#x2d9;" horiz-adv-x="346" 
d="M175 1510q46 0 67.5 -30t21.5 -83q0 -52 -22.5 -82t-66.5 -30q-43 0 -68 30t-25 82q0 55 23.5 84t69.5 29z" />
    <glyph glyph-name="ring" unicode="&#x2da;" horiz-adv-x="586" 
d="M293 1249q-97 0 -154 55.5t-57 146.5q0 92 57 147.5t154 55.5q92 0 151.5 -54.5t59.5 -145.5q0 -92 -57.5 -148.5t-153.5 -56.5zM295 1344q49 0 80 29t31 77q0 50 -29 81t-82 31q-51 0 -82 -31t-31 -80q0 -48 28 -77.5t85 -29.5z" />
    <glyph glyph-name="ogonek" unicode="&#x2db;" horiz-adv-x="449" 
d="M210 -244q0 -50 24 -76t68 -26q23 0 38.5 4t26.5 8v-107q-17 -7 -41 -11.5t-53 -4.5q-95 0 -143 48t-48 139q0 52 19.5 103.5t57 100t89.5 90.5l89 -24q-70 -70 -98.5 -127t-28.5 -117z" />
    <glyph glyph-name="tilde" unicode="&#x2dc;" horiz-adv-x="762" 
d="M82 1242q5 48 16 92t30.5 77.5t49.5 53t71 19.5q38 0 72 -18t66 -41.5t62 -41.5t59 -18q32 0 48.5 33t25.5 88h98q-7 -118 -52 -180t-113 -62q-37 0 -73 18t-68.5 42t-61.5 42t-54 18q-28 0 -49.5 -32t-30.5 -90h-96z" />
    <glyph glyph-name="hungarumlaut" unicode="&#x2dd;" horiz-adv-x="778" 
d="M696 1569v-19q-16 -32 -46 -74t-65.5 -86t-71.5 -83t-65 -66h-79v22q31 45 64.5 104.5t61.5 115t41 86.5h160zM408 1569v-19q-17 -34 -44.5 -74.5t-62 -82.5t-71.5 -81t-73 -71h-75v22q31 48 63.5 106.5t60.5 112t43 87.5h159z" />
    <glyph glyph-name="uni02F3" unicode="&#x2f3;" horiz-adv-x="723" 
d="M362 -531q-97 0 -154 55t-57 149q0 90 56.5 146t154.5 56q93 0 152 -54.5t59 -146.5q0 -91 -57.5 -148t-153.5 -57zM362 -438q49 0 80 31t31 80q0 48 -29 78t-82 30q-51 0 -82.5 -30.5t-31.5 -77.5q0 -48 28.5 -79.5t85.5 -31.5z" />
    <glyph glyph-name="gravecomb" unicode="&#x300;" 
d="M-619 1568q23 -48 55.5 -104t67.5 -108.5t65 -91.5v-23h-99q-31 27 -69.5 65.5t-77.5 82t-72 85.5t-54 76v18h184z" />
    <glyph glyph-name="acutecomb" unicode="&#x301;" 
d="M-212 1568v-18q-20 -33 -53 -74.5t-72 -85t-78 -82.5t-70 -67h-98v23q40 55 74 107t62 101.5t51 95.5h184z" />
    <glyph glyph-name="uni0302" unicode="&#x302;" 
d="M73 1568q22 -46 54.5 -101t68 -109t66.5 -97v-20h-85q-43 41 -87 93t-90 107q-46 -54 -92.5 -108.5t-83.5 -91.5h-86v20q36 48 71 102.5t65.5 107.5t50.5 97h148z" />
    <glyph glyph-name="tildecomb" unicode="&#x303;" 
d="M-833 1242q5 48 16 92t30.5 77.5t49.5 53t71 19.5q38 0 72 -18t66 -41.5t62 -41.5t59 -18q32 0 48.5 33t25.5 88h98q-7 -118 -52 -180t-113 -62q-37 0 -73 18t-68.5 42t-61.5 42t-54 18q-28 0 -49.5 -32t-30.5 -90h-96z" />
    <glyph glyph-name="uni0304" unicode="&#x304;" 
d="M243 1376v-118h-489v118h489z" />
    <glyph glyph-name="uni0306" unicode="&#x306;" 
d="M245 1512q-1 -83 -32.5 -143t-87 -92.5t-129.5 -32.5q-109 0 -172.5 67t-68.5 201h101q5 -49 22.5 -82.5t48.5 -50.5t73 -17t72.5 16.5t49 50t22.5 83.5h101z" />
    <glyph glyph-name="uni0307" unicode="&#x307;" 
d="M2 1510q46 0 67.5 -30t21.5 -83q0 -52 -22.5 -82t-66.5 -30q-43 0 -68 30t-25 82q0 55 23.5 84t69.5 29z" />
    <glyph glyph-name="uni0308" unicode="&#x308;" 
d="M-248 1367q0 50 24 74t60 24q35 0 58.5 -24.5t23.5 -73.5q0 -51 -23.5 -76.5t-58.5 -25.5q-36 0 -60 25.5t-24 76.5zM80 1367q0 50 24.5 74t59.5 24q36 0 60.5 -24.5t24.5 -73.5q0 -51 -24.5 -76.5t-60.5 -25.5q-37 0 -60.5 25.5t-23.5 76.5z" />
    <glyph glyph-name="hookabovecomb" unicode="&#x309;" 
d="M-398 1501q0 -73 -39.5 -119.5t-116.5 -64.5l-11 -105h-88l-11 165q62 3 101 32.5t39 78.5q0 44 -29.5 67.5t-88.5 23.5q-22 0 -43.5 -3.5t-46.5 -8.5v101q29 8 58.5 12.5t61.5 4.5q104 0 159 -47.5t55 -136.5z" />
    <glyph glyph-name="uni030A" unicode="&#x30a;" 
d="M0 1249q-97 0 -154 55.5t-57 146.5q0 92 57 147.5t154 55.5q92 0 151.5 -54.5t59.5 -145.5q0 -92 -57.5 -148.5t-153.5 -56.5zM2 1344q49 0 80 29t31 77q0 50 -29 81t-82 31q-51 0 -82 -31t-31 -80q0 -48 28 -77.5t85 -29.5z" />
    <glyph glyph-name="uni030B" unicode="&#x30b;" 
d="M416 1569v-19q-16 -32 -46 -74t-65.5 -86t-71.5 -83t-65 -66h-79v22q31 45 64.5 104.5t61.5 115t41 86.5h160zM128 1569v-19q-17 -34 -44.5 -74.5t-62 -82.5t-71.5 -81t-73 -71h-75v22q31 48 63.5 106.5t60.5 112t43 87.5h159z" />
    <glyph glyph-name="uni030C" unicode="&#x30c;" 
d="M-74 1241q-22 46 -52.5 99.5t-65 107.5t-69.5 100v20h86q38 -37 84 -91.5t91 -108.5q51 62 87.5 103.5t88.5 96.5h85v-20q-30 -42 -65.5 -95.5t-68.5 -109t-55 -102.5h-146z" />
    <glyph glyph-name="uni030F" unicode="&#x30f;" 
d="M-527 1569q16 -39 45 -95.5t61.5 -113t57.5 -96.5v-23h-73q-30 25 -67 64.5t-73.5 84t-65.5 87t-44 73.5v19h159zM-816 1569q24 -54 50.5 -108t54.5 -104t56 -93v-23h-78q-29 26 -64.5 65t-70.5 83t-64.5 86.5t-46.5 74.5v19h163z" />
    <glyph glyph-name="uni0312" unicode="&#x312;" 
d="M-104 964l-13 23q20 84 43.5 165t51.5 159t61 151h116q-23 -85 -41.5 -172t-31.5 -170t-21 -156h-165z" />
    <glyph glyph-name="dotbelowcomb" unicode="&#x323;" 
d="M-587 -357q-43 0 -68 29t-25 82q0 56 24 85t69 29q46 0 67.5 -30t21.5 -83q0 -55 -22.5 -83.5t-66.5 -28.5z" />
    <glyph glyph-name="uni0326" unicode="&#x326;" 
d="M104 -125v-20q-14 -50 -36 -105.5t-49 -108t-55 -94.5h-86v23q12 37 26 93t26 113.5t16 98.5h158z" />
    <glyph glyph-name="uni0327" unicode="&#x327;" 
d="M176 -283q0 -101 -63.5 -155t-176.5 -54q-35 0 -64 3.5t-49 9.5v103q20 -6 43.5 -9t46.5 -3q67 0 100.5 29t33.5 76q0 56 -43 83.5t-117 37.5l70 162h95l-46 -105q55 -11 93 -35t57.5 -60t19.5 -83z" />
    <glyph glyph-name="uni0328" unicode="&#x328;" 
d="M-33 -244q0 -50 24 -76t68 -26q23 0 38.5 4t26.5 8v-107q-17 -7 -41 -11.5t-53 -4.5q-95 0 -143 48t-48 139q0 52 19.5 103.5t57 100t89.5 90.5l89 -24q-70 -70 -98.5 -127t-28.5 -117z" />
    <glyph glyph-name="tonos" unicode="&#x384;" horiz-adv-x="1087" 
d="M472 1241v24q9 24 22.5 69.5t27 98t24.5 98t15 68.5h152v-22q-19 -50 -43.5 -109t-52 -118t-54.5 -109h-91z" />
    <glyph glyph-name="dieresistonos" unicode="&#x385;" horiz-adv-x="1057" 
d="M660 1612v-21q-10 -37 -28 -85.5t-40.5 -98t-44.5 -89.5h-77v23q12 43 22.5 92.5t18 96.5t9.5 82h140zM338 1422q34 0 57 -26.5t23 -76.5q0 -49 -23 -74.5t-57 -25.5q-36 0 -59.5 26t-23.5 74q0 50 23.5 76.5t59.5 26.5zM717 1423q35 0 59 -26t24 -78q0 -47 -24 -73.5
t-59 -26.5q-34 0 -57 26.5t-23 75.5q0 50 23 76t57 26z" />
    <glyph glyph-name="Alphatonos" unicode="&#x386;" horiz-adv-x="920" 
d="M751 0l-110 470h-347l-110 -470h-170l353 1462h193l360 -1462h-169zM611 617l-112 496q-7 37 -13.5 72.5t-12 69t-10.5 65.5q-3 -32 -8 -66t-12 -68.5t-15 -70.5l-109 -498h292zM3 1196v24q9 24 22.5 69.5t27 98t24.5 98t15 68.5h152v-22q-19 -50 -43.5 -109t-52 -118
t-54.5 -109h-91z" />
    <glyph glyph-name="anoteleia" unicode="&#x387;" horiz-adv-x="453" 
d="M122 980q0 61 26.5 93t77.5 32q49 0 77 -29.5t28 -95.5q0 -64 -29 -94t-76 -30q-49 0 -76.5 31.5t-27.5 92.5z" />
    <glyph glyph-name="Epsilontonos" unicode="&#x388;" horiz-adv-x="978" 
d="M886 0h-575v1462h575v-142h-416v-485h391v-143h-391v-547h416v-145zM-4 1175v24q9 24 22.5 69.5t27 98t24.5 98t15 68.5h152v-22q-19 -50 -43.5 -109t-52 -118t-54.5 -109h-91z" />
    <glyph glyph-name="Etatonos" unicode="&#x389;" horiz-adv-x="1244" 
d="M1095 0h-159v692h-463v-692h-159v1462h159v-625h463v625h159v-1462zM-4 1175v24q9 24 22.5 69.5t27 98t24.5 98t15 68.5h152v-22q-19 -50 -43.5 -109t-52 -118t-54.5 -109h-91z" />
    <glyph glyph-name="Iotatonos" unicode="&#x38a;" horiz-adv-x="598" 
d="M291 0v1462h159v-1462h-159zM-4 1175v24q9 24 22.5 69.5t27 98t24.5 98t15 68.5h152v-22q-19 -50 -43.5 -109t-52 -118t-54.5 -109h-91z" />
    <glyph glyph-name="Omicrontonos" unicode="&#x38c;" horiz-adv-x="1188" 
d="M1087 733q0 -157 -25 -293.5t-78.5 -240t-140.5 -161.5t-211 -58q-126 0 -214 59.5t-141.5 163.5t-78 241t-24.5 291q0 250 51.5 416t153.5 249t253 83q164 0 264 -99.5t145.5 -269.5t45.5 -381zM339 733q0 -199 33.5 -334.5t98.5 -204.5t159 -69q96 0 160 67.5t96.5 203
t32.5 337.5q0 301 -72 453t-215 152q-98 0 -163 -68.5t-97.5 -203t-32.5 -333.5zM-4 1175v24q9 24 22.5 69.5t27 98t24.5 98t15 68.5h152v-22q-19 -50 -43.5 -109t-52 -118t-54.5 -109h-91z" />
    <glyph glyph-name="Upsilontonos" unicode="&#x38e;" horiz-adv-x="1049" 
d="M657 760l225 702h167l-314 -893v-569h-159v565l-313 897h166zM-4 1175v24q9 24 22.5 69.5t27 98t24.5 98t15 68.5h152v-22q-19 -50 -43.5 -109t-52 -118t-54.5 -109h-91z" />
    <glyph glyph-name="Omegatonos" unicode="&#x38f;" horiz-adv-x="1207" 
d="M644 1338q-96 0 -162.5 -58.5t-101 -176t-34.5 -296.5q0 -152 24 -278.5t71.5 -227t119.5 -175.5v-126h-429v145h269q-67 67 -116.5 163t-76.5 223.5t-27 287.5q0 224 54 371t157.5 220t250.5 73t248 -74.5t153 -222t52 -366.5q0 -164 -26.5 -292t-75.5 -223t-117 -160
h270v-145h-431v126q79 77 126.5 177t69 225.5t21.5 279.5q0 172 -31.5 290t-95.5 179t-162 61zM-4 1175v24q9 24 22.5 69.5t27 98t24.5 98t15 68.5h152v-22q-19 -50 -43.5 -109t-52 -118t-54.5 -109h-91z" />
    <glyph glyph-name="iotadieresistonos" unicode="&#x390;" horiz-adv-x="503" 
d="M287 1098v-840q0 -77 19.5 -108.5t62.5 -31.5q27 0 57 7.5t44 16.5v-132q-29 -14 -64.5 -22t-74.5 -8q-68 0 -112 28t-65 88.5t-21 158.5v843h154zM354 1612v-21q-10 -37 -28 -85.5t-40.5 -98t-44.5 -89.5h-77v23q12 43 22.5 92.5t18 96.5t9.5 82h140zM32 1422
q34 0 57 -26.5t23 -76.5q0 -49 -23 -74.5t-57 -25.5q-36 0 -59.5 26t-23.5 74q0 50 23.5 76.5t59.5 26.5zM411 1423q35 0 59 -26t24 -78q0 -47 -24 -73.5t-59 -26.5q-34 0 -57 26.5t-23 75.5q0 50 23 76t57 26z" />
    <glyph glyph-name="Alpha" unicode="&#x391;" horiz-adv-x="906" 
d="M737 0l-110 470h-347l-110 -470h-170l353 1462h193l360 -1462h-169zM597 617l-112 496q-7 37 -13.5 72.5t-12 69t-10.5 65.5q-3 -32 -8 -66t-12 -68.5t-15 -70.5l-109 -498h292z" />
    <glyph glyph-name="Beta" unicode="&#x392;" horiz-adv-x="967" 
d="M151 1462h319q191 0 289 -87t98 -263q0 -94 -24 -164.5t-70.5 -114.5t-115.5 -59v-8q82 -19 135 -64t79 -115.5t26 -168.5q0 -126 -43 -220t-125.5 -146t-201.5 -52h-366v1462zM310 832h158q119 0 173 66.5t54 199.5q0 111 -57 169.5t-173 58.5h-155v-494zM310 696v-557
h189q110 0 166.5 71.5t56.5 215.5q0 90 -29 150t-83 90t-130 30h-170z" />
    <glyph glyph-name="Gamma" unicode="&#x393;" horiz-adv-x="744" 
d="M725 1462v-144h-415v-1318h-159v1462h574z" />
    <glyph glyph-name="uni0394" unicode="&#x394;" horiz-adv-x="893" 
d="M542 1462l329 -1352v-110h-848v119l325 1343h194zM694 145l-195 867q-10 46 -21.5 101t-20.5 106t-13 86q-8 -46 -17.5 -98.5t-19.5 -103.5t-20 -95l-187 -863h494z" />
    <glyph glyph-name="Epsilon" unicode="&#x395;" horiz-adv-x="818" 
d="M726 0h-575v1462h575v-142h-416v-485h391v-143h-391v-547h416v-145z" />
    <glyph glyph-name="Zeta" unicode="&#x396;" horiz-adv-x="731" 
d="M690 0h-637v124l453 1194h-443v144h614v-126l-454 -1191h467v-145z" />
    <glyph glyph-name="Eta" unicode="&#x397;" horiz-adv-x="1081" 
d="M932 0h-159v692h-463v-692h-159v1462h159v-625h463v625h159v-1462z" />
    <glyph glyph-name="Theta" unicode="&#x398;" horiz-adv-x="1117" 
d="M738 813v-138h-361v138h361zM1016 733q0 -157 -25 -293.5t-78.5 -240t-140.5 -161.5t-211 -58q-126 0 -214 59.5t-141.5 163.5t-78 241t-24.5 291q0 250 51.5 416t153.5 249t253 83q164 0 264 -99.5t145.5 -269.5t45.5 -381zM268 733q0 -199 33.5 -334.5t98.5 -204.5
t159 -69q96 0 160 67.5t96.5 203t32.5 337.5q0 301 -72 453t-215 152q-98 0 -163 -68.5t-97.5 -203t-32.5 -333.5z" />
    <glyph glyph-name="Iota" unicode="&#x399;" horiz-adv-x="458" 
d="M151 0v1462h159v-1462h-159z" />
    <glyph glyph-name="Kappa" unicode="&#x39a;" horiz-adv-x="900" 
d="M908 0h-178l-314 686l-106 -130v-556h-159v1462h159v-742q12 29 40 81.5t71 128.5l295 532h173l-365 -646z" />
    <glyph glyph-name="Lambda" unicode="&#x39b;" horiz-adv-x="891" 
d="M532 1462l359 -1462h-166l-242 1036q-9 48 -17.5 92t-14 82.5t-8.5 69.5q-5 -39 -11.5 -79.5t-14 -81.5t-15.5 -81l-234 -1038h-168l354 1462h178z" />
    <glyph glyph-name="Mu" unicode="&#x39c;" horiz-adv-x="1455" 
d="M654 0l-355 1242h-8q4 -67 6.5 -120.5t3.5 -92.5t1 -64v-965h-151v1462h225l349 -1216h6l350 1216h228v-1462h-156v961q0 27 1 67t3.5 93.5t4.5 120.5h-7l-355 -1242h-146z" />
    <glyph glyph-name="Nu" unicode="&#x39d;" horiz-adv-x="1150" 
d="M1002 0h-193l-510 1210h-8q4 -53 6.5 -102.5t3.5 -95.5t1 -90v-922h-151v1462h192l511 -1192h6q-3 59 -5.5 111t-3.5 97.5t-1 83.5v900h152v-1462z" />
    <glyph glyph-name="Xi" unicode="&#x39e;" horiz-adv-x="807" 
d="M87 0v145h634v-145h-634zM154 694v145h498v-145h-498zM112 1320v142h587v-142h-587z" />
    <glyph glyph-name="Omicron" unicode="&#x39f;" horiz-adv-x="1117" 
d="M1016 733q0 -157 -25 -293.5t-78.5 -240t-140.5 -161.5t-211 -58q-126 0 -214 59.5t-141.5 163.5t-78 241t-24.5 291q0 250 51.5 416t153.5 249t253 83q164 0 264 -99.5t145.5 -269.5t45.5 -381zM268 733q0 -199 33.5 -334.5t98.5 -204.5t159 -69q96 0 160 67.5t96.5 203
t32.5 337.5q0 301 -72 453t-215 152q-98 0 -163 -68.5t-97.5 -203t-32.5 -333.5z" />
    <glyph glyph-name="Pi" unicode="&#x3a0;" horiz-adv-x="1074" 
d="M151 0v1462h775v-1462h-159v1318h-457v-1318h-159z" />
    <glyph glyph-name="Rho" unicode="&#x3a1;" horiz-adv-x="896" 
d="M413 1462q215 0 317.5 -104t102.5 -324q0 -113 -26.5 -198.5t-79 -143.5t-132 -87.5t-186.5 -29.5h-99v-575h-159v1462h262zM407 1322h-97v-606h85q97 0 157.5 32t89 102t28.5 182q0 155 -64 222.5t-199 67.5z" />
    <glyph glyph-name="Sigma" unicode="&#x3a3;" horiz-adv-x="815" 
d="M61 0v132l339 630l-324 572v128h655v-142h-335q-26 0 -50.5 0.5t-46.5 2t-44 3.5l321 -564l-341 -626q37 4 73 6.5t74 2.5h383v-145h-704z" />
    <glyph glyph-name="Tau" unicode="&#x3a4;" horiz-adv-x="770" 
d="M463 0h-159v1318h-285v144h730v-144h-286v-1318z" />
    <glyph glyph-name="Upsilon" unicode="&#x3a5;" horiz-adv-x="786" 
d="M394 760l225 702h167l-314 -893v-569h-159v565l-313 897h166z" />
    <glyph glyph-name="Phi" unicode="&#x3a6;" horiz-adv-x="1287" 
d="M721 1483v-180q153 0 257 -69t157.5 -190.5t53.5 -279.5q0 -125 -30.5 -227.5t-90 -176.5t-147 -114.5t-200.5 -40.5v-225h-156v225q-109 -1 -196 39t-148.5 114t-93.5 177t-32 229q0 116 31.5 214.5t92 171.5t147.5 113.5t199 39.5v180h156zM565 1164q-99 0 -168 -46
t-105 -135.5t-36 -218.5q0 -138 37 -231.5t106.5 -141t165.5 -48.5v821zM721 1164v-821q98 1 167 49t105.5 141.5t36.5 230.5q0 134 -35.5 222.5t-104.5 133t-169 44.5z" />
    <glyph glyph-name="Chi" unicode="&#x3a7;" horiz-adv-x="804" 
d="M791 0h-171l-209 610l-231 -610h-165l309 764l-271 698h165l195 -557l198 557h167l-274 -709z" />
    <glyph glyph-name="Psi" unicode="&#x3a8;" horiz-adv-x="1279" 
d="M1149 1462v-469q0 -135 -23 -238t-73.5 -173.5t-133 -106.5t-201.5 -36v-439h-155v439q-118 0 -200.5 35t-133 104t-74 171t-23.5 236v477h159v-478q0 -118 20.5 -209t79 -142t172.5 -52v881h155v-881q101 2 160.5 41.5t85.5 127.5t26 234v478h159z" />
    <glyph glyph-name="uni03A9" unicode="&#x3a9;" horiz-adv-x="1133" 
d="M570 1338q-96 0 -162.5 -58.5t-101 -176t-34.5 -296.5q0 -152 24 -278.5t71.5 -227t119.5 -175.5v-126h-429v145h269q-67 67 -116.5 163t-76.5 223.5t-27 287.5q0 224 54 371t157.5 220t250.5 73t248 -74.5t153 -222t52 -366.5q0 -164 -26.5 -292t-75.5 -223t-117 -160
h270v-145h-431v126q79 77 126.5 177t69 225.5t21.5 279.5q0 172 -31.5 290t-95.5 179t-162 61z" />
    <glyph glyph-name="Iotadieresis" unicode="&#x3aa;" horiz-adv-x="458" 
d="M151 0v1462h159v-1462h-159zM-20 1710q0 50 24 74t60 24q35 0 58.5 -24.5t23.5 -73.5q0 -51 -23.5 -76.5t-58.5 -25.5q-36 0 -60 25.5t-24 76.5zM308 1710q0 50 24.5 74t59.5 24q36 0 60.5 -24.5t24.5 -73.5q0 -51 -24.5 -76.5t-60.5 -25.5q-37 0 -60.5 25.5t-23.5 76.5z
" />
    <glyph glyph-name="Upsilondieresis" unicode="&#x3ab;" horiz-adv-x="786" 
d="M394 760l225 702h167l-314 -893v-569h-159v565l-313 897h166zM146 1704q0 50 24 74t60 24q35 0 58.5 -24.5t23.5 -73.5q0 -51 -23.5 -76.5t-58.5 -25.5q-36 0 -60 25.5t-24 76.5zM474 1704q0 50 24.5 74t59.5 24q36 0 60.5 -24.5t24.5 -73.5q0 -51 -24.5 -76.5
t-60.5 -25.5q-37 0 -60.5 25.5t-23.5 76.5z" />
    <glyph glyph-name="alphatonos" unicode="&#x3ac;" horiz-adv-x="969" 
d="M447 113q70 0 116 48t69 138t23 217v43q0 216 -52 319t-160 103q-103 0 -151 -113t-48 -325q0 -223 50 -326.5t153 -103.5zM407 -20q-153 0 -235.5 143t-82.5 422q0 286 87.5 429.5t241.5 143.5q86 0 147.5 -45t101.5 -134h10q7 41 21 84.5t31 74.5h123
q-13 -43 -22.5 -100.5t-14.5 -127.5t-5 -151v-456q0 -78 19.5 -115t56.5 -37q17 0 33 3t30 8v-124q-8 -5 -23 -9t-32 -6.5t-32 -2.5q-84 0 -129.5 42t-62.5 139h-12q-26 -56 -63 -97t-84.5 -62.5t-103.5 -21.5zM400 1241v24q9 24 22.5 69.5t27 98t24.5 98t15 68.5h152v-22
q-19 -50 -43.5 -109t-52 -118t-54.5 -109h-91z" />
    <glyph glyph-name="epsilontonos" unicode="&#x3ad;" horiz-adv-x="708" 
d="M508 639v-124h-64q-70 0 -115.5 -24t-68 -70.5t-22.5 -113.5q0 -63 22.5 -105.5t63 -64.5t93.5 -22q59 0 120 19.5t110 52.5v-142q-52 -33 -111 -49t-142 -16q-160 0 -236.5 89.5t-76.5 231.5q0 108 51.5 181t145.5 98v8q-78 29 -116.5 94t-38.5 157q0 85 37 147.5
t103.5 97t155.5 34.5q62 0 121 -17t117 -53l-62 -119q-39 27 -82.5 41.5t-85.5 14.5q-75 0 -114 -42.5t-39 -115.5q0 -92 45.5 -140t136.5 -48h52zM341 1241v24q9 24 22.5 69.5t27 98t24.5 98t15 68.5h152v-22q-19 -50 -43.5 -109t-52 -118t-54.5 -109h-91z" />
    <glyph glyph-name="etatonos" unicode="&#x3ae;" horiz-adv-x="923" 
d="M529 1118q86 0 145 -40t89 -122t30 -208v-1238h-154v1207q0 133 -34 198t-108 65q-71 0 -117.5 -41.5t-69 -130t-22.5 -229.5v-579h-154v1098h123l18 -159h9q23 55 59 95t83 62t103 22zM395 1241v24q9 24 22.5 69.5t27 98t24.5 98t15 68.5h152v-22q-19 -50 -43.5 -109
t-52 -118t-54.5 -109h-91z" />
    <glyph glyph-name="iotatonos" unicode="&#x3af;" horiz-adv-x="504" 
d="M287 1098v-840q0 -77 19.5 -108.5t62.5 -31.5q27 0 57 7.5t44 16.5v-132q-29 -14 -64.5 -22t-74.5 -8q-68 0 -112 28t-65 88.5t-21 158.5v843h154zM151 1241v24q9 24 22.5 69.5t27 98t24.5 98t15 68.5h152v-22q-19 -50 -43.5 -109t-52 -118t-54.5 -109h-91z" />
    <glyph glyph-name="upsilondieresistonos" unicode="&#x3b0;" horiz-adv-x="899" 
d="M453 -18q-118 2 -188.5 49t-102 153t-32.5 282v632h154v-644q0 -157 32 -246.5t135 -89.5q107 0 157 106t50 324q0 141 -13.5 273t-46.5 277h153q22 -109 35 -192.5t19 -165.5t6 -188q0 -284 -92 -427t-266 -143zM581 1612v-21q-10 -37 -28 -85.5t-40.5 -98t-44.5 -89.5
h-77v23q12 43 22.5 92.5t18 96.5t9.5 82h140zM259 1422q34 0 57 -26.5t23 -76.5q0 -49 -23 -74.5t-57 -25.5q-36 0 -59.5 26t-23.5 74q0 50 23.5 76.5t59.5 26.5zM638 1423q35 0 59 -26t24 -78q0 -47 -24 -73.5t-59 -26.5q-34 0 -57 26.5t-23 75.5q0 50 23 76t57 26z" />
    <glyph glyph-name="alpha" unicode="&#x3b1;" horiz-adv-x="969" 
d="M447 113q70 0 116 48t69 138t23 217v43q0 216 -52 319t-160 103q-103 0 -151 -113t-48 -325q0 -223 50 -326.5t153 -103.5zM407 -20q-153 0 -235.5 143t-82.5 422q0 286 87.5 429.5t241.5 143.5q86 0 147.5 -45t101.5 -134h10q7 41 21 84.5t31 74.5h123
q-13 -43 -22.5 -100.5t-14.5 -127.5t-5 -151v-456q0 -78 19.5 -115t56.5 -37q17 0 33 3t30 8v-124q-8 -5 -23 -9t-32 -6.5t-32 -2.5q-84 0 -129.5 42t-62.5 139h-12q-26 -56 -63 -97t-84.5 -62.5t-103.5 -21.5z" />
    <glyph glyph-name="beta" unicode="&#x3b2;" horiz-adv-x="943" 
d="M478 1567q106 0 178 -48t108.5 -133t36.5 -197q0 -166 -52.5 -254t-159.5 -106v-8q140 -21 204.5 -121t64.5 -288q0 -136 -40.5 -232.5t-117 -148t-185.5 -51.5q-73 0 -126 18t-101 52v-540h-154v1641q0 133 41 225.5t118 141.5t185 49zM475 1431q-59 0 -101 -33t-64 -97
t-22 -157v-953q38 -33 93.5 -53t104.5 -20q112 0 164.5 78.5t52.5 232.5q0 105 -26 175.5t-78.5 106.5t-134.5 36h-41v137h33q101 0 147 69t46 215q0 130 -46 196.5t-128 66.5z" />
    <glyph glyph-name="gamma" unicode="&#x3b3;" horiz-adv-x="739" 
d="M728 1098l-259 -1031q-21 -89 -38.5 -187.5t-28 -193.5t-10.5 -176h-160q0 62 9.5 150t23.5 176t27 151l-284 1111h161l121 -502q17 -72 33.5 -140.5t29 -132.5t17.5 -124h8q7 60 18.5 122.5t26 130.5t30.5 142l117 504h158z" />
    <glyph glyph-name="delta" unicode="&#x3b4;" horiz-adv-x="909" 
d="M514 1561q83 0 155 -22t124 -54l-58 -130q-56 37 -111 53.5t-109 16.5q-75 0 -119.5 -37.5t-44.5 -100.5q0 -51 26.5 -99t73.5 -96.5t108 -104.5q86 -79 144.5 -159t88 -171.5t29.5 -207.5q0 -136 -42 -242t-124 -166.5t-203 -60.5q-123 0 -204 60.5t-121 164.5t-40 233
q0 116 38.5 214.5t109 171t167.5 111.5q-61 58 -106.5 113t-70.5 113t-25 124q0 134 89.5 205t224.5 71zM487 852q-81 -33 -135 -95t-81 -143t-27 -172q0 -87 23.5 -162t70.5 -121t116 -46t116.5 40t72 116t24.5 184q0 113 -42.5 210.5t-137.5 188.5z" />
    <glyph glyph-name="epsilon" unicode="&#x3b5;" horiz-adv-x="708" 
d="M508 639v-124h-64q-70 0 -115.5 -24t-68 -70.5t-22.5 -113.5q0 -63 22.5 -105.5t63 -64.5t93.5 -22q59 0 120 19.5t110 52.5v-142q-52 -33 -111 -49t-142 -16q-160 0 -236.5 89.5t-76.5 231.5q0 108 51.5 181t145.5 98v8q-78 29 -116.5 94t-38.5 157q0 85 37 147.5
t103.5 97t155.5 34.5q62 0 121 -17t117 -53l-62 -119q-39 27 -82.5 41.5t-85.5 14.5q-75 0 -114 -42.5t-39 -115.5q0 -92 45.5 -140t136.5 -48h52z" />
    <glyph glyph-name="zeta" unicode="&#x3b6;" horiz-adv-x="699" 
d="M654 -120q0 -67 -35 -146.5t-82 -141.5h-157q33 45 60.5 93t43.5 92t16 76q0 38 -17 67.5t-53.5 55t-96.5 51.5q-87 40 -140.5 92t-78.5 134t-25 210t26.5 246.5t78.5 234.5t129.5 236.5t178.5 253.5q-23 -3 -51 -5.5t-59.5 -4t-67.5 -1.5h-199v133h534v-112
q-90 -113 -165.5 -229t-131 -236t-86 -245.5t-30.5 -258.5q0 -81 14 -138.5t55 -100.5t123 -82q53 -24 102.5 -57t81.5 -84.5t32 -132.5z" />
    <glyph glyph-name="eta" unicode="&#x3b7;" horiz-adv-x="923" 
d="M529 1118q86 0 145 -40t89 -122t30 -208v-1238h-154v1207q0 133 -34 198t-108 65q-71 0 -117.5 -41.5t-69 -130t-22.5 -229.5v-579h-154v1098h123l18 -159h9q23 55 59 95t83 62t103 22z" />
    <glyph glyph-name="theta" unicode="&#x3b8;" horiz-adv-x="936" 
d="M851 785q0 -269 -42.5 -448t-127.5 -268t-214 -89q-190 0 -284 199.5t-94 603.5q0 265 43.5 441.5t128.5 265t210 88.5q191 0 285.5 -197.5t94.5 -595.5zM467 111q109 0 165 155t62 465h-450q5 -307 59.5 -463.5t163.5 -156.5zM469 1447q-108 0 -162 -147t-61 -437h448
q-7 286 -61 435t-164 149z" />
    <glyph glyph-name="iota" unicode="&#x3b9;" horiz-adv-x="504" 
d="M288 1098v-840q0 -77 19.5 -108.5t62.5 -31.5q27 0 57 7.5t44 16.5v-132q-29 -14 -64.5 -22t-74.5 -8q-68 0 -112 28t-65 88.5t-21 158.5v843h154z" />
    <glyph glyph-name="kappa" unicode="&#x3ba;" horiz-adv-x="800" 
d="M773 1098l-265 -423l284 -675h-165l-223 552l-116 -144v-408h-154v1098h154v-320q0 -61 -2.5 -116t-6.5 -106h7q14 28 28.5 55t27.5 51l265 436h166z" />
    <glyph glyph-name="lambda" unicode="&#x3bb;" horiz-adv-x="810" 
d="M16 0l301 1084l-40 196q-16 75 -43 116t-81 41q-20 0 -36.5 -3.5t-30.5 -9.5v131q13 5 27 8.5t29.5 5.5t32.5 2q66 0 113.5 -28.5t81 -89.5t57.5 -159l229 -1029q13 -53 27 -85.5t33.5 -47t47.5 -14.5q17 0 31.5 3t26.5 7v-135q-12 -4 -25.5 -7t-28 -4.5t-30.5 -1.5
q-61 0 -103 27.5t-70.5 84.5t-49.5 146l-87 397q-7 30 -12.5 58t-9.5 54t-8 50l-8 48h-8q-4 -30 -8.5 -60t-12.5 -60l-187 -725h-158z" />
    <glyph glyph-name="uni03BC" unicode="&#x3bc;" horiz-adv-x="927" 
d="M793 1098v-1098h-123l-17 159h-10q-19 -54 -50.5 -94.5t-71.5 -62.5t-86 -22q-52 0 -89 24.5t-60 76.5h-6q2 -37 4 -72t3 -67t1 -60v-372h-154v1588h154v-707q0 -136 34.5 -204.5t105.5 -68.5q77 0 123 45t67 134.5t21 222.5v578h154z" />
    <glyph glyph-name="nu" unicode="&#x3bd;" horiz-adv-x="802" 
d="M24 1098h157l140 -686q10 -47 18.5 -91t15 -82t9.5 -69h8q74 129 122.5 273.5t72.5 307.5t24 347h154q0 -215 -35.5 -403.5t-110 -359.5t-191.5 -335h-141z" />
    <glyph glyph-name="xi" unicode="&#x3be;" horiz-adv-x="703" 
d="M90 417q0 99 25.5 183t80 141.5t141.5 75.5v7q-69 12 -115 47.5t-69 98t-23 155.5q0 76 28.5 138.5t77.5 106t109 61.5q-27 -3 -51 -5t-46.5 -2.5t-46.5 -0.5h-98v133h527v-129h-48q-67 0 -122 -20t-94.5 -58.5t-60.5 -93t-21 -122.5q0 -131 53.5 -188.5t171.5 -57.5h82
v-137h-93q-80 0 -136 -33.5t-85.5 -102.5t-29.5 -176q0 -79 16.5 -132.5t57.5 -89.5t112 -63q72 -28 120 -65t72 -88t24 -121q0 -67 -35.5 -145.5t-78.5 -141.5h-160q36 48 63 96.5t42.5 91.5t15.5 73q0 41 -17 72t-51.5 56t-89.5 46q-89 34 -143.5 85.5t-79.5 127
t-25 177.5z" />
    <glyph glyph-name="omicron" unicode="&#x3bf;" horiz-adv-x="902" 
d="M815 550q0 -130 -22 -235t-67 -180t-114 -115t-163 -40q-90 0 -158 40t-113 114.5t-68 180t-23 235.5q0 182 39 308.5t120 193t206 66.5q117 0 198 -64.5t123 -191t42 -312.5zM244 550q0 -143 22 -240t68.5 -146t118.5 -49q71 0 116.5 48t67.5 144.5t22 242.5
q0 143 -22 239.5t-67.5 145t-117.5 48.5q-110 0 -159 -108.5t-49 -324.5z" />
    <glyph glyph-name="pi" unicode="&#x3c0;" horiz-adv-x="969" 
d="M851 123q17 0 35.5 3t34.5 10v-128q-18 -10 -49.5 -16t-67.5 -6q-97 0 -144 67.5t-47 205.5v705h-290v-964h-153v964h-158v66l100 68h817v-134h-160v-702q0 -75 19.5 -107t62.5 -32z" />
    <glyph glyph-name="rho" unicode="&#x3c1;" horiz-adv-x="929" 
d="M844 554q0 -179 -37 -307.5t-113.5 -197.5t-195.5 -69q-70 0 -124 23.5t-92 65.5h-9q7 -72 9 -139.5t2 -126.5v-293h-154v1057q0 177 38 300t117.5 187t203.5 64q115 0 194 -62t120 -187t41 -315zM483 983q-103 0 -152 -98.5t-49 -300.5v-383q35 -43 81.5 -65.5
t101.5 -22.5q114 0 167.5 110t53.5 331q0 218 -48 323.5t-155 105.5z" />
    <glyph glyph-name="uni03C2" unicode="&#x3c2;" horiz-adv-x="687" 
d="M457 1118q58 0 108.5 -13t93.5 -36l-45 -129q-40 20 -76 30.5t-71 10.5q-111 0 -166 -109.5t-55 -330.5q0 -101 12 -172.5t51.5 -122t121.5 -91.5q67 -31 116 -67t76 -86t27 -124q0 -67 -35 -145.5t-79 -140.5h-157q34 47 60.5 95t41.5 91.5t15 75.5q0 37 -15 66.5
t-49.5 56t-93.5 54.5q-69 32 -116.5 71.5t-77 97t-42.5 139.5t-13 198q0 193 41.5 322t123.5 194t203 65z" />
    <glyph glyph-name="sigma" unicode="&#x3c3;" horiz-adv-x="929" 
d="M813 500q0 -169 -43.5 -285t-124.5 -175.5t-194 -59.5q-117 0 -198 63t-122.5 184t-41.5 295q0 192 49 320t149 192t252 64h351v-134h-188q56 -93 83.5 -208.5t27.5 -255.5zM245 528q0 -140 23.5 -232t70 -137.5t113.5 -45.5q103 0 154.5 102t51.5 299q0 82 -10 157.5
t-29.5 148.5t-50.5 144h-52q-142 0 -206.5 -106.5t-64.5 -329.5z" />
    <glyph glyph-name="tau" unicode="&#x3c4;" horiz-adv-x="622" 
d="M588 1098v-134h-247v-643q0 -106 28 -156.5t88 -50.5q29 0 57 5.5t56 15.5v-128q-22 -13 -66 -21.5t-81 -8.5q-83 0 -135 36t-75.5 110t-23.5 187v654h-187v66l94 68h492z" />
    <glyph glyph-name="upsilon" unicode="&#x3c5;" horiz-adv-x="899" 
d="M453 -18q-118 2 -188.5 49t-102 153t-32.5 282v632h154v-644q0 -157 32 -246.5t135 -89.5q107 0 157 106t50 324q0 141 -13.5 273t-46.5 277h153q22 -109 35 -192.5t19 -165.5t6 -188q0 -284 -92 -427t-266 -143z" />
    <glyph glyph-name="phi" unicode="&#x3c6;" horiz-adv-x="1167" 
d="M289 1109l116 -79q-78 -97 -118.5 -219t-40.5 -261q0 -129 28.5 -222t86.5 -146.5t145 -65.5v643q0 181 63 270t192 89q110 0 181 -72.5t105.5 -192t34.5 -262.5q0 -166 -46.5 -298.5t-140.5 -214t-239 -95.5v-473h-150v473q-138 11 -230.5 80.5t-139.5 193t-47 295.5
q0 161 50 298.5t150 258.5zM760 985q-60 0 -83 -56.5t-23 -172.5v-640q83 9 143 68t93 162.5t33 243.5q1 122 -20.5 211t-58.5 137.5t-84 46.5z" />
    <glyph glyph-name="chi" unicode="&#x3c7;" horiz-adv-x="779" 
d="M120 1112q56 0 96.5 -24.5t70.5 -78t52 -141.5l74 -315l183 545h156l-282 -758l127 -521q18 -69 33.5 -107.5t35.5 -54t50 -15.5q17 0 31.5 3t27.5 7v-129q-19 -7 -41.5 -11t-51.5 -4q-55 0 -95.5 24t-70 79t-53.5 147l-91 378l-207 -626h-161l312 840l-116 469
q-22 82 -44.5 121t-64.5 39q-18 0 -34.5 -2.5t-27.5 -7.5v129q17 6 40.5 10t50.5 4z" />
    <glyph glyph-name="psi" unicode="&#x3c8;" horiz-adv-x="1114" 
d="M638 1556v-1437q80 7 129.5 60t72 155.5t22.5 256.5q0 127 -15.5 252t-48.5 255h152q35 -141 51 -263.5t16 -247.5q0 -191 -42 -323.5t-126 -203t-211 -77.5v-473h-149v473q-120 3 -201.5 63t-122.5 177t-41 291v584h154v-576q0 -127 21.5 -214.5t68 -134.5t121.5 -54
v1437h149z" />
    <glyph glyph-name="omega" unicode="&#x3c9;" horiz-adv-x="1121" 
d="M929 1098q32 -95 53.5 -187.5t32 -187t10.5 -195.5q0 -174 -31.5 -296.5t-91 -187t-142.5 -64.5q-76 0 -127.5 49t-71.5 137h-4q-19 -88 -70.5 -137t-132.5 -49t-139 63.5t-88.5 186t-30.5 298.5q0 103 10 196t31.5 185t53.5 189h154q-47 -133 -71 -274.5t-24 -294.5
q0 -203 30 -305t94 -102q39 0 64 34.5t36.5 104t11.5 174.5v275h147v-275q0 -106 11.5 -175t36.5 -103t65 -35q43 0 70.5 45.5t41 135.5t13.5 224q0 149 -23.5 292.5t-72.5 278.5h154z" />
    <glyph glyph-name="iotadieresis" unicode="&#x3ca;" horiz-adv-x="506" 
d="M289 1098v-840q0 -77 19.5 -108.5t62.5 -31.5q27 0 57 7.5t44 16.5v-132q-29 -14 -64.5 -22t-74.5 -8q-68 0 -112 28t-65 88.5t-21 158.5v843h154zM-23 1367q0 50 24 74t60 24q35 0 58.5 -24.5t23.5 -73.5q0 -51 -23.5 -76.5t-58.5 -25.5q-36 0 -60 25.5t-24 76.5z
M305 1367q0 50 24.5 74t59.5 24q36 0 60.5 -24.5t24.5 -73.5q0 -51 -24.5 -76.5t-60.5 -25.5q-37 0 -60.5 25.5t-23.5 76.5z" />
    <glyph glyph-name="upsilondieresis" unicode="&#x3cb;" horiz-adv-x="899" 
d="M453 -18q-118 2 -188.5 49t-102 153t-32.5 282v632h154v-644q0 -157 32 -246.5t135 -89.5q107 0 157 106t50 324q0 141 -13.5 273t-46.5 277h153q22 -109 35 -192.5t19 -165.5t6 -188q0 -284 -92 -427t-266 -143zM203 1367q0 50 24 74t60 24q35 0 58.5 -24.5t23.5 -73.5
q0 -51 -23.5 -76.5t-58.5 -25.5q-36 0 -60 25.5t-24 76.5zM531 1367q0 50 24.5 74t59.5 24q36 0 60.5 -24.5t24.5 -73.5q0 -51 -24.5 -76.5t-60.5 -25.5q-37 0 -60.5 25.5t-23.5 76.5z" />
    <glyph glyph-name="omicrontonos" unicode="&#x3cc;" horiz-adv-x="902" 
d="M815 550q0 -130 -22 -235t-67 -180t-114 -115t-163 -40q-90 0 -158 40t-113 114.5t-68 180t-23 235.5q0 182 39 308.5t120 193t206 66.5q117 0 198 -64.5t123 -191t42 -312.5zM244 550q0 -143 22 -240t68.5 -146t118.5 -49q71 0 116.5 48t67.5 144.5t22 242.5
q0 143 -22 239.5t-67.5 145t-117.5 48.5q-110 0 -159 -108.5t-49 -324.5zM371 1241v24q9 24 22.5 69.5t27 98t24.5 98t15 68.5h152v-22q-19 -50 -43.5 -109t-52 -118t-54.5 -109h-91z" />
    <glyph glyph-name="upsilontonos" unicode="&#x3cd;" horiz-adv-x="899" 
d="M453 -18q-118 2 -188.5 49t-102 153t-32.5 282v632h154v-644q0 -157 32 -246.5t135 -89.5q107 0 157 106t50 324q0 141 -13.5 273t-46.5 277h153q22 -109 35 -192.5t19 -165.5t6 -188q0 -284 -92 -427t-266 -143zM379 1241v24q9 24 22.5 69.5t27 98t24.5 98t15 68.5h152
v-22q-19 -50 -43.5 -109t-52 -118t-54.5 -109h-91z" />
    <glyph glyph-name="omegatonos" unicode="&#x3ce;" horiz-adv-x="1121" 
d="M929 1098q32 -95 53.5 -187.5t32 -187t10.5 -195.5q0 -174 -31.5 -296.5t-91 -187t-142.5 -64.5q-76 0 -127.5 49t-71.5 137h-4q-19 -88 -70.5 -137t-132.5 -49t-139 63.5t-88.5 186t-30.5 298.5q0 103 10 196t31.5 185t53.5 189h154q-47 -133 -71 -274.5t-24 -294.5
q0 -203 30 -305t94 -102q39 0 64 34.5t36.5 104t11.5 174.5v275h147v-275q0 -106 11.5 -175t36.5 -103t65 -35q43 0 70.5 45.5t41 135.5t13.5 224q0 149 -23.5 292.5t-72.5 278.5h154zM487 1241v24q9 24 22.5 69.5t27 98t24.5 98t15 68.5h152v-22q-19 -50 -43.5 -109
t-52 -118t-54.5 -109h-91z" />
    <glyph glyph-name="uni03D1" unicode="&#x3d1;" horiz-adv-x="1027" 
d="M487 1579q82 0 147 -38.5t113.5 -115.5t80 -193t46.5 -271h131v-136h-129q2 -21 3 -42t1 -45q-2 -186 -27 -327.5t-75.5 -237.5t-127 -144.5t-180.5 -48.5q-77 0 -135 22t-96.5 65.5t-58 107t-19.5 145.5q0 44 4.5 102t8.5 112t4 86q0 53 -15 73.5t-49 20.5
q-13 0 -30.5 -4t-37.5 -12l-32 123q25 12 62.5 21.5t79.5 9.5q86 0 131 -54t45 -157q0 -46 -4 -105t-8.5 -114.5t-4.5 -92.5q0 -105 38 -161.5t117 -56.5q84 0 139 68t82.5 206.5t29.5 350.5q0 24 -1 46t-1 43q-158 2 -273.5 52.5t-177.5 147t-62 235.5q0 92 30.5 164
t93 113.5t157.5 41.5zM491 1448q-65 0 -98 -50t-33 -141q0 -94 42 -160.5t121.5 -101t192.5 -34.5q-7 91 -23 177.5t-42.5 156.5t-66 111.5t-93.5 41.5z" />
    <glyph glyph-name="uni03D2" unicode="&#x3d2;" horiz-adv-x="786" 
d="M393 763q20 86 36.5 155.5t31 125t27 100t25.5 81.5q23 71 46 127.5t59 89.5t98 33q21 0 40 -4t36 -12v-136q-10 3 -19.5 5.5t-20.5 2.5q-32 0 -57 -39.5t-60 -133.5q-15 -45 -33.5 -107t-40 -138t-44.5 -162.5t-47 -181.5v-569h-159v566l-311 896h170z" />
    <glyph glyph-name="uni03D6" unicode="&#x3d6;" horiz-adv-x="1128" 
d="M1096 1098v-134h-161q25 -85 41 -161.5t24 -151.5t8 -156q0 -165 -30 -280t-87 -175t-139 -60q-73 0 -118 41t-65 128h-8q-21 -85 -65 -127t-120 -42q-124 0 -191 135t-67 381q0 82 8 157.5t25.5 151.5t43.5 159h-177v64l97 70h981zM785 964h-442q-25 -84 -41 -155.5
t-23 -143.5t-7 -160q0 -193 29.5 -289t87.5 -96q59 0 80.5 82t21.5 263v208h148v-208q0 -124 9 -200t31 -110.5t59 -34.5q58 0 88.5 96.5t30.5 286.5q0 85 -8 158.5t-23.5 146.5t-40.5 156z" />
    <glyph glyph-name="uni0400" unicode="&#x400;" horiz-adv-x="818" 
d="M726 0h-575v1462h575v-142h-416v-485h391v-143h-391v-547h416v-145zM336 1904q23 -48 55.5 -104t67.5 -108.5t65 -91.5v-23h-99q-31 27 -69.5 65.5t-77.5 82t-72 85.5t-54 76v18h184z" />
    <glyph glyph-name="uni0401" unicode="&#x401;" horiz-adv-x="818" 
d="M726 0h-575v1462h575v-142h-416v-485h391v-143h-391v-547h416v-145zM183 1703q0 50 24 74t60 24q35 0 58.5 -24.5t23.5 -73.5q0 -51 -23.5 -76.5t-58.5 -25.5q-36 0 -60 25.5t-24 76.5zM511 1703q0 50 24.5 74t59.5 24q36 0 60.5 -24.5t24.5 -73.5q0 -51 -24.5 -76.5
t-60.5 -25.5q-37 0 -60.5 25.5t-23.5 76.5z" />
    <glyph glyph-name="uni0402" unicode="&#x402;" horiz-adv-x="1016" 
d="M651 -20q-29 0 -56 5.5t-50 14.5v143q21 -10 42 -15.5t41 -5.5q41 0 68 20t40.5 64t13.5 116v223q0 107 -46.5 157t-151.5 50h-129v-752h-161v1318h-243v144h677v-144h-273v-421h143q171 0 257 -88t86 -265v-218q0 -169 -66.5 -257.5t-191.5 -88.5z" />
    <glyph glyph-name="uni0403" unicode="&#x403;" horiz-adv-x="744" 
d="M725 1462v-144h-415v-1318h-159v1462h574zM752 1904v-18q-20 -33 -53 -74.5t-72 -85t-78 -82.5t-70 -67h-98v23q40 55 74 107t62 101.5t51 95.5h184z" />
    <glyph glyph-name="uni0404" unicode="&#x404;" horiz-adv-x="915" 
d="M589 1340q-82 0 -140 -42t-95 -113.5t-57 -162.5t-27 -189h442v-144h-444q2 -113 22 -215t59.5 -181t101 -124t145.5 -45q74 0 128 20t100 45v-147q-51 -30 -113 -46t-133 -16q-147 0 -254 91.5t-165 261t-58 401.5q0 153 29.5 288.5t89.5 240t151 163.5t215 59
q75 0 146 -19.5t132 -60.5l-56 -135q-53 35 -107 52.5t-112 17.5z" />
    <glyph glyph-name="uni0405" unicode="&#x405;" horiz-adv-x="841" 
d="M762 399q0 -124 -47.5 -218.5t-133 -147.5t-201.5 -53q-57 0 -110 6.5t-100.5 20.5t-90.5 35v165q68 -38 147.5 -58t147.5 -20q73 0 123 34.5t76.5 92.5t26.5 128q0 74 -22 124.5t-72 91.5t-135 85q-64 35 -116 72t-89 83.5t-57 109.5t-20 150q-2 115 45.5 201.5
t132 134.5t193.5 47q83 0 158.5 -20.5t130.5 -49.5l-52 -146q-61 33 -120.5 49.5t-113.5 16.5q-67 0 -114.5 -29t-73 -79.5t-25.5 -117.5q0 -77 22.5 -127t73 -89t133.5 -84q95 -50 158 -107.5t94 -130.5t31 -170z" />
    <glyph glyph-name="uni0406" unicode="&#x406;" horiz-adv-x="458" 
d="M151 0v1462h159v-1462h-159z" />
    <glyph glyph-name="uni0407" unicode="&#x407;" horiz-adv-x="458" 
d="M151 0v1462h159v-1462h-159zM-20 1709q0 50 24 74t60 24q35 0 58.5 -24.5t23.5 -73.5q0 -51 -23.5 -76.5t-58.5 -25.5q-36 0 -60 25.5t-24 76.5zM308 1709q0 50 24.5 74t59.5 24q36 0 60.5 -24.5t24.5 -73.5q0 -51 -24.5 -76.5t-60.5 -25.5q-37 0 -60.5 25.5t-23.5 76.5z
" />
    <glyph glyph-name="uni0408" unicode="&#x408;" horiz-adv-x="450" 
d="M32 -391q-36 0 -69 5t-62 17v143q25 -9 54 -15t60 -6q47 0 75.5 25.5t42 81t13.5 146.5v1456h159v-1470q0 -139 -31 -223t-92 -122t-150 -38z" />
    <glyph glyph-name="uni0409" unicode="&#x409;" horiz-adv-x="1381" 
d="M87 -16q-30 0 -53.5 5t-40.5 15v141q13 -8 31 -12.5t37 -4.5q39 0 63 22.5t37.5 63t22.5 92.5q11 54 23 147.5t26.5 233.5t31 332.5t36.5 442.5h501v-616h93q137 0 229.5 -45t139 -137t46.5 -234q0 -202 -106.5 -316t-303.5 -114h-253v1312h-205q-17 -212 -31 -372.5
t-25 -278t-20.5 -198.5t-17.5 -134t-16 -85q-20 -86 -49 -143.5t-75 -86.5t-121 -30zM802 141h94q125 0 188 73.5t63 213.5q0 94 -26.5 155t-82 91.5t-144.5 30.5h-92v-564z" />
    <glyph glyph-name="uni040A" unicode="&#x40a;" horiz-adv-x="1415" 
d="M151 0v1462h159v-622h375v622h157v-622h89q140 0 232.5 -44.5t138.5 -135t46 -230.5q0 -205 -108.5 -317.5t-301.5 -112.5h-253v699h-375v-699h-159zM840 141h93q123 0 187.5 72.5t64.5 214.5q0 93 -26.5 153t-82.5 89t-144 29h-92v-558z" />
    <glyph glyph-name="uni040B" unicode="&#x40b;" horiz-adv-x="1033" 
d="M696 1462v-144h-273v-421h146q170 0 255.5 -88.5t85.5 -264.5v-544h-161v545q0 107 -46 157t-150 50h-130v-752h-161v1318h-243v144h677z" />
    <glyph glyph-name="uni040C" unicode="&#x40c;" horiz-adv-x="889" 
d="M894 0h-179l-405 753v-753h-159v1462h159v-699l388 699h173l-401 -701zM803 1904v-18q-20 -33 -53 -74.5t-72 -85t-78 -82.5t-70 -67h-98v23q40 55 74 107t62 101.5t51 95.5h184z" />
    <glyph glyph-name="uni040D" unicode="&#x40d;" horiz-adv-x="1158" 
d="M151 1462h155v-900q0 -28 -0.5 -58.5t-1.5 -66t-3 -78t-5 -94.5h8l507 1197h198v-1462h-156v921q0 32 1 66t2.5 70t4 75t6.5 79h-8l-513 -1211h-195v1462zM490 1904q23 -48 55.5 -104t67.5 -108.5t65 -91.5v-23h-99q-31 27 -69.5 65.5t-77.5 82t-72 85.5t-54 76v18h184z
" />
    <glyph glyph-name="uni040E" unicode="&#x40e;" horiz-adv-x="787" 
d="M787 1462l-292 -1048q-46 -165 -92 -260t-104.5 -134.5t-141.5 -39.5q-32 0 -60.5 5.5t-54.5 15.5v145q26 -12 50 -18t50 -6q43 0 72.5 26.5t55.5 92.5t57 185l-325 1036h166l195 -659q8 -23 15 -50t14.5 -59t15.5 -72h10q5 35 10.5 64t11.5 56.5t14 54.5l167 665h166z
M687 1880q-7 -100 -42 -167.5t-97 -101.5t-152 -34q-91 0 -153 32t-95.5 99t-39.5 172h131q9 -109 45.5 -157t111.5 -48q78 0 114.5 50t45.5 155h131z" />
    <glyph glyph-name="uni040F" unicode="&#x40f;" horiz-adv-x="1074" 
d="M926 0h-310v-391h-155v391h-310v1462h159v-1317h457v1317h159v-1462z" />
    <glyph glyph-name="uni0410" unicode="&#x410;" horiz-adv-x="906" 
d="M737 0l-110 470h-347l-110 -470h-170l353 1462h193l360 -1462h-169zM597 617l-112 496q-7 37 -13.5 72.5t-12 69t-10.5 65.5q-3 -32 -8 -66t-12 -68.5t-15 -70.5l-109 -498h292z" />
    <glyph glyph-name="uni0411" unicode="&#x411;" horiz-adv-x="913" 
d="M151 0v1462h621v-144h-462v-472h121q138 0 230.5 -45t138.5 -137.5t46 -233.5q0 -203 -107 -316.5t-301 -113.5h-287zM310 141h124q122 0 186.5 72.5t64.5 214.5q0 94 -27 155.5t-83 91.5t-143 30h-122v-564z" />
    <glyph glyph-name="uni0412" unicode="&#x412;" horiz-adv-x="967" 
d="M151 1462h319q191 0 289 -87t98 -263q0 -94 -24 -164.5t-70.5 -114.5t-115.5 -59v-8q82 -19 135 -64t79 -115.5t26 -168.5q0 -126 -43 -220t-125.5 -146t-201.5 -52h-366v1462zM310 832h158q119 0 173 66.5t54 199.5q0 111 -57 169.5t-173 58.5h-155v-494zM310 696v-557
h189q110 0 166.5 71.5t56.5 215.5q0 90 -29 150t-83 90t-130 30h-170z" />
    <glyph glyph-name="uni0413" unicode="&#x413;" horiz-adv-x="744" 
d="M725 1462v-144h-415v-1318h-159v1462h574z" />
    <glyph glyph-name="uni0414" unicode="&#x414;" horiz-adv-x="1030" 
d="M863 1462v-1317h128v-536h-154v391h-673v-391h-154v536h88q56 165 96.5 323.5t67 318.5t40.5 327t17 348h544zM704 1320h-236q-6 -162 -21.5 -316t-41 -300.5t-60.5 -286t-80 -272.5h439v1175z" />
    <glyph glyph-name="uni0415" unicode="&#x415;" horiz-adv-x="818" 
d="M726 0h-575v1462h575v-142h-416v-485h391v-143h-391v-547h416v-145z" />
    <glyph glyph-name="uni0416" unicode="&#x416;" horiz-adv-x="1249" 
d="M386 757l-385 705h173l373 -704v704h155v-704l374 704h170l-384 -705l393 -757h-176l-377 749v-749h-155v749l-378 -749h-174z" />
    <glyph glyph-name="uni0417" unicode="&#x417;" horiz-adv-x="873" 
d="M728 1127q0 -141 -65.5 -236t-187.5 -126v-8q138 -17 209 -110t71 -250q0 -128 -46 -221.5t-137.5 -144.5t-228.5 -51q-79 0 -152.5 15t-135.5 45v160q36 -23 82.5 -40.5t96 -26.5t94.5 -9q134 0 198 68t64 212q0 146 -73.5 215t-227.5 69h-107v144h107q92 0 154 30.5
t93 92t31 155.5q0 114 -54 171t-152 57q-64 0 -117.5 -25.5t-91.5 -67.5l-79 115q44 43 91.5 70t102 40t119.5 13q109 0 185 -44t116.5 -124t40.5 -188z" />
    <glyph glyph-name="uni0418" unicode="&#x418;" horiz-adv-x="1158" 
d="M151 1462h155v-900q0 -28 -0.5 -58.5t-1.5 -66t-3 -78t-5 -94.5h8l507 1197h198v-1462h-156v921q0 32 1 66t2.5 70t4 75t6.5 79h-8l-513 -1211h-195v1462z" />
    <glyph glyph-name="uni0419" unicode="&#x419;" horiz-adv-x="1158" 
d="M151 1462h155v-900q0 -28 -0.5 -58.5t-1.5 -66t-3 -78t-5 -94.5h8l507 1197h198v-1462h-156v921q0 32 1 66t2.5 70t4 75t6.5 79h-8l-513 -1211h-195v1462zM865 1880q-7 -100 -42 -167.5t-97 -101.5t-152 -34q-91 0 -153 32t-95.5 99t-39.5 172h131q9 -109 45.5 -157
t111.5 -48q78 0 114.5 50t45.5 155h131z" />
    <glyph glyph-name="uni041A" unicode="&#x41a;" horiz-adv-x="889" 
d="M894 0h-179l-405 753v-753h-159v1462h159v-699l388 699h173l-401 -701z" />
    <glyph glyph-name="uni041B" unicode="&#x41b;" horiz-adv-x="1007" 
d="M861 0h-161v1312h-258q-9 -118 -20.5 -250t-24 -260.5t-24.5 -237.5t-22 -181q-20 -140 -48.5 -228t-78.5 -129.5t-136 -41.5q-31 0 -54.5 5t-40.5 15v141q14 -8 31.5 -12.5t36.5 -4.5q43 0 69 27.5t43.5 96t32.5 190.5q9 74 20 186.5t23.5 249.5t26 286.5t25.5 297.5
h560v-1462z" />
    <glyph glyph-name="uni041C" unicode="&#x41c;" horiz-adv-x="1455" 
d="M654 0l-355 1242h-8q4 -67 6.5 -120.5t3.5 -92.5t1 -64v-965h-151v1462h225l349 -1216h6l350 1216h228v-1462h-156v961q0 27 1 67t3.5 93.5t4.5 120.5h-7l-355 -1242h-146z" />
    <glyph glyph-name="uni041D" unicode="&#x41d;" horiz-adv-x="1081" 
d="M932 0h-159v692h-463v-692h-159v1462h159v-625h463v625h159v-1462z" />
    <glyph glyph-name="uni041E" unicode="&#x41e;" horiz-adv-x="1117" 
d="M1016 733q0 -157 -25 -293.5t-78.5 -240t-140.5 -161.5t-211 -58q-126 0 -214 59.5t-141.5 163.5t-78 241t-24.5 291q0 250 51.5 416t153.5 249t253 83q164 0 264 -99.5t145.5 -269.5t45.5 -381zM268 733q0 -199 33.5 -334.5t98.5 -204.5t159 -69q96 0 160 67.5t96.5 203
t32.5 337.5q0 301 -72 453t-215 152q-98 0 -163 -68.5t-97.5 -203t-32.5 -333.5z" />
    <glyph glyph-name="uni041F" unicode="&#x41f;" horiz-adv-x="1074" 
d="M151 0v1462h775v-1462h-159v1318h-457v-1318h-159z" />
    <glyph glyph-name="uni0420" unicode="&#x420;" horiz-adv-x="896" 
d="M413 1462q215 0 317.5 -104t102.5 -324q0 -113 -26.5 -198.5t-79 -143.5t-132 -87.5t-186.5 -29.5h-99v-575h-159v1462h262zM407 1322h-97v-606h85q97 0 157.5 32t89 102t28.5 182q0 155 -64 222.5t-199 67.5z" />
    <glyph glyph-name="uni0421" unicode="&#x421;" horiz-adv-x="906" 
d="M596 1340q-87 0 -149.5 -49t-102 -134.5t-58 -195t-18.5 -230.5q0 -188 41.5 -324t117.5 -209.5t179 -73.5q62 0 117 16t101 39v-144q-48 -28 -107 -41.5t-129 -13.5q-149 0 -258 90t-168 258.5t-59 404.5q0 155 29.5 291t90 240t152.5 162.5t216 58.5q72 0 138.5 -18.5
t127.5 -53.5l-57 -135q-46 29 -97 45.5t-107 16.5z" />
    <glyph glyph-name="uni0422" unicode="&#x422;" horiz-adv-x="770" 
d="M463 0h-159v1318h-285v144h730v-144h-286v-1318z" />
    <glyph glyph-name="uni0423" unicode="&#x423;" horiz-adv-x="787" 
d="M787 1462l-292 -1048q-46 -165 -92 -260t-104.5 -134.5t-141.5 -39.5q-32 0 -60.5 5.5t-54.5 15.5v145q26 -12 50 -18t50 -6q43 0 72.5 26.5t55.5 92.5t57 185l-325 1036h166l195 -659q8 -23 15 -50t14.5 -59t15.5 -72h10q5 35 10.5 64t11.5 56.5t14 54.5l167 665h166z
" />
    <glyph glyph-name="uni0424" unicode="&#x424;" horiz-adv-x="1287" 
d="M721 1483v-180q153 0 257 -69t157.5 -190.5t53.5 -279.5q0 -125 -30.5 -227.5t-90 -176.5t-147 -114.5t-200.5 -40.5v-225h-156v225q-109 -1 -196 39t-148.5 114t-93.5 177t-32 229q0 116 31.5 214.5t92 171.5t147.5 113.5t199 39.5v180h156zM565 1164q-99 0 -168 -46
t-105 -135.5t-36 -218.5q0 -138 37 -231.5t106.5 -141t165.5 -48.5v821zM721 1164v-821q98 1 167 49t105.5 141.5t36.5 230.5q0 134 -35.5 222.5t-104.5 133t-169 44.5z" />
    <glyph glyph-name="uni0425" unicode="&#x425;" horiz-adv-x="804" 
d="M791 0h-171l-209 610l-231 -610h-165l309 764l-271 698h165l195 -557l198 557h167l-274 -709z" />
    <glyph glyph-name="uni0426" unicode="&#x426;" horiz-adv-x="1110" 
d="M1062 145v-536h-153v391h-758v1462h159v-1317h464v1317h159v-1317h129z" />
    <glyph glyph-name="uni0427" unicode="&#x427;" horiz-adv-x="1039" 
d="M892 0h-161v603q-85 -45 -163 -68t-152 -23q-144 0 -218 94.5t-74 276.5v579h159v-552q0 -129 43 -191t133 -62q71 0 134.5 19.5t137.5 59.5v726h161v-1462z" />
    <glyph glyph-name="uni0428" unicode="&#x428;" horiz-adv-x="1506" 
d="M1357 0h-1206v1462h159v-1317h365v1317h159v-1317h364v1317h159v-1462z" />
    <glyph glyph-name="uni0429" unicode="&#x429;" horiz-adv-x="1533" 
d="M1487 145v-536h-153v391h-1183v1462h159v-1317h365v1317h159v-1317h364v1317h159v-1317h130z" />
    <glyph glyph-name="uni042A" unicode="&#x42a;" horiz-adv-x="1081" 
d="M310 0v1317h-283v145h442v-616h122q137 0 230 -45t140 -137t47 -234q0 -201 -106.5 -315.5t-303.5 -114.5h-288zM471 141h124q124 0 188 72.5t64 214.5q0 94 -27.5 155.5t-83.5 91.5t-142 30h-123v-564z" />
    <glyph glyph-name="uni042B" unicode="&#x42b;" horiz-adv-x="1361" 
d="M151 0v1462h159v-616h121q138 0 230.5 -45t138.5 -137.5t46 -233.5q0 -203 -107 -316.5t-302 -113.5h-286zM310 141h124q122 0 186.5 72.5t64.5 214.5q0 94 -27 155.5t-83 91.5t-143 30h-122v-564zM1053 0v1462h159v-1462h-159z" />
    <glyph glyph-name="uni042C" unicode="&#x42c;" horiz-adv-x="917" 
d="M151 0v1462h159v-616h121q138 0 230.5 -45t138.5 -137.5t46 -233.5q0 -203 -107 -316.5t-302 -113.5h-286zM310 141h124q122 0 186.5 72.5t64.5 214.5q0 94 -27 155.5t-83 91.5t-143 30h-122v-564z" />
    <glyph glyph-name="uni042D" unicode="&#x42d;" horiz-adv-x="915" 
d="M313 1340q-57 0 -108 -16.5t-99 -45.5l-57 133q62 38 129.5 56t144.5 18q113 1 203 -51t154 -150.5t97.5 -238.5t32.5 -315q0 -213 -52.5 -383t-160 -268.5t-274.5 -98.5q-68 0 -132.5 13.5t-108.5 39.5v146q49 -23 107 -39t122 -16q87 0 148.5 45t101.5 123.5
t60.5 180.5t23.5 216h-443v144h439q-5 98 -26.5 188.5t-61 162.5t-99 114t-141.5 42z" />
    <glyph glyph-name="uni042E" unicode="&#x42e;" horiz-adv-x="1474" 
d="M1371 733q0 -156 -23 -292t-72.5 -240t-130 -162.5t-196.5 -58.5q-132 0 -225 81.5t-143.5 240t-56.5 390.5h-214v-692h-159v1462h159v-625h217q10 214 60.5 357.5t141.5 216t220 72.5q139 0 233 -87t141.5 -254.5t47.5 -408.5zM686 733q0 -199 30 -334.5t87.5 -204.5
t141.5 -69q87 0 144.5 68.5t86 203.5t28.5 336q0 203 -29 337t-86 201t-141 67q-86 0 -144.5 -68.5t-88 -203.5t-29.5 -333z" />
    <glyph glyph-name="uni042F" unicode="&#x42f;" horiz-adv-x="933" 
d="M469 617l-263 -617h-175l294 651q-78 27 -128 84t-74 135.5t-24 169.5q0 211 103 316.5t308 105.5h275v-1462h-159v615zM624 1324h-103q-91 0 -147.5 -30t-83 -93.5t-26.5 -162.5q0 -149 58 -219t179 -70h123v575z" />
    <glyph glyph-name="uni0430" unicode="&#x430;" horiz-adv-x="841" 
d="M428 1118q152 0 217 -97t65 -281v-740h-117l-23 156h-4q-26 -56 -62 -95.5t-82 -60t-106 -20.5q-85 0 -139 45t-80 118.5t-26 158.5q0 163 94 253t267 98l125 8v75q0 132 -36 193t-116 61q-46 0 -96.5 -16t-109.5 -51l-49 116q62 40 132.5 59.5t145.5 19.5zM559 548
l-102 -7q-116 -7 -172.5 -65.5t-56.5 -169.5q0 -103 37 -152t102 -49q91 0 141.5 88t50.5 243v112z" />
    <glyph glyph-name="uni0431" unicode="&#x431;" horiz-adv-x="911" 
d="M95 700q0 180 24.5 329.5t88.5 260.5t184 173q63 37 164 64t240 40l17 -139q-47 -4 -99 -11t-102 -17t-93 -24t-72 -31q-75 -42 -116 -112t-58.5 -165.5t-22.5 -215.5h9q24 51 61 88t83.5 57t96.5 20q103 0 175 -58t110.5 -170.5t38.5 -275.5q0 -169 -43 -288.5
t-126.5 -182t-205.5 -62.5q-88 0 -154.5 42.5t-111 130.5t-66.5 224t-22 323zM453 113q71 0 119 43.5t72 130.5t24 217q0 188 -50.5 285t-154.5 97q-48 0 -90.5 -30t-73.5 -77t-46 -99q1 -139 13 -245t36.5 -178t61.5 -108t89 -36z" />
    <glyph glyph-name="uni0432" unicode="&#x432;" horiz-adv-x="851" 
d="M743 828q0 -97 -39 -159t-121 -84v-8q91 -16 140 -83t49 -171q0 -102 -37.5 -174.5t-110.5 -110.5t-182 -38h-308v1098h292q105 0 175.5 -31t106 -91t35.5 -148zM617 335q0 98 -45 139.5t-132 41.5h-152v-392h147q94 0 138 51t44 160zM588 815q0 77 -42 118t-128 41h-130
v-337h148q80 0 116 43.5t36 134.5z" />
    <glyph glyph-name="uni0433" unicode="&#x433;" horiz-adv-x="642" 
d="M623 1098v-136h-335v-962h-154v1098h489z" />
    <glyph glyph-name="uni0434" unicode="&#x434;" horiz-adv-x="887" 
d="M735 1098v-963h112v-515h-149v380h-534v-380h-150v515h87q57 137 93.5 296.5t55.5 329.5t22 337h463zM583 964h-175q-4 -131 -20 -274t-47.5 -285t-83.5 -270h326v829z" />
    <glyph glyph-name="uni0435" unicode="&#x435;" horiz-adv-x="847" 
d="M436 1116q112 0 184.5 -65t108 -175t35.5 -245v-109h-523q2 -205 63.5 -308t185.5 -103q59 0 116 18t118 58v-138q-57 -35 -119 -52t-132 -17q-137 0 -222 73.5t-123.5 201t-38.5 288.5q0 184 39 312t116.5 194.5t191.5 66.5zM436 990q-87 0 -136 -84.5t-57 -260.5h377
q0 93 -19.5 171.5t-60 126t-104.5 47.5z" />
    <glyph glyph-name="uni0436" unicode="&#x436;" horiz-adv-x="1121" 
d="M1090 1098l-301 -519l328 -579h-175l-304 569v-569h-152v569l-304 -569h-174l328 579l-301 519h167l284 -521v521h152v-521l285 521h167z" />
    <glyph glyph-name="uni0437" unicode="&#x437;" horiz-adv-x="707" 
d="M308 1118q89 0 152.5 -33.5t97 -96t33.5 -150.5t-43 -156t-109 -92v-8q58 -17 99.5 -54.5t63.5 -93t22 -127.5q0 -97 -38 -170.5t-109.5 -115t-172.5 -41.5q-51 0 -95.5 8t-83 24t-72.5 41v146q48 -37 107.5 -61.5t129.5 -24.5q58 0 97.5 23.5t60.5 68.5t21 111
q0 60 -22 104.5t-65.5 69.5t-110.5 25h-65v124h62q78 0 124 49t46 139q0 80 -39 120.5t-107 40.5q-40 0 -82.5 -13t-84.5 -40l-60 116q60 35 119.5 51t123.5 16z" />
    <glyph glyph-name="uni0438" unicode="&#x438;" horiz-adv-x="954" 
d="M285 1098v-638q0 -30 -0.5 -59t-2 -58t-3.5 -59.5t-4 -63.5l368 878h176v-1098h-148v619q0 43 0.5 86t2.5 86l4 86l-370 -877h-174v1098h151z" />
    <glyph glyph-name="uni0439" unicode="&#x439;" horiz-adv-x="954" 
d="M285 1098v-638q0 -30 -0.5 -59t-2 -58t-3.5 -59.5t-4 -63.5l368 878h176v-1098h-148v619q0 43 0.5 86t2.5 86l4 86l-370 -877h-174v1098h151zM771 1542q-7 -100 -42 -167.5t-97 -101.5t-152 -34q-91 0 -153 32t-95.5 99t-39.5 172h131q9 -109 45.5 -157t111.5 -48
q78 0 114.5 50t45.5 155h131z" />
    <glyph glyph-name="uni043A" unicode="&#x43a;" horiz-adv-x="787" 
d="M587 1098h169l-316 -518l341 -580h-174l-319 570v-570h-154v1098h154v-519z" />
    <glyph glyph-name="uni043B" unicode="&#x43b;" horiz-adv-x="861" 
d="M726 0h-153v959h-210q-12 -247 -30 -430t-49.5 -303t-82.5 -179t-129 -59q-20 0 -38 3t-35 10v133q8 -4 19.5 -6.5t24.5 -2.5q34 0 59.5 38.5t45 116.5t33.5 194.5t23.5 272.5t16.5 351h505v-1098z" />
    <glyph glyph-name="uni043C" unicode="&#x43c;" horiz-adv-x="1144" 
d="M1011 1098v-1098h-148v606q0 47 3.5 120.5t9.5 169.5h-8l-229 -896h-137l-226 896h-9q5 -84 8.5 -161.5t3.5 -124.5v-610h-145v1098h219l219 -881l222 881h217z" />
    <glyph glyph-name="uni043D" unicode="&#x43d;" horiz-adv-x="932" 
d="M288 1098v-461h356v461h154v-1098h-154v504h-356v-504h-154v1098h154z" />
    <glyph glyph-name="uni043E" unicode="&#x43e;" horiz-adv-x="902" 
d="M815 550q0 -130 -22 -235t-67 -180t-114 -115t-163 -40q-90 0 -158 40t-113 114.5t-68 180t-23 235.5q0 182 39 308.5t120 193t206 66.5q117 0 198 -64.5t123 -191t42 -312.5zM244 550q0 -143 22 -240t68.5 -146t118.5 -49q71 0 116.5 48t67.5 144.5t22 242.5
q0 143 -22 239.5t-67.5 145t-117.5 48.5q-110 0 -159 -108.5t-49 -324.5z" />
    <glyph glyph-name="uni043F" unicode="&#x43f;" horiz-adv-x="932" 
d="M798 1098v-1098h-154v964h-356v-964h-154v1098h664z" />
    <glyph glyph-name="uni0440" unicode="&#x440;" horiz-adv-x="937" 
d="M531 1118q158 0 239.5 -141.5t81.5 -425.5q0 -183 -36.5 -310.5t-106.5 -194t-170 -66.5q-56 0 -104 21.5t-85 61t-62 92.5h-7q2 -40 4.5 -77t2.5 -70v-498h-154v1588h125l19 -161h9q28 61 64.5 101t81.5 60t98 20zM498 985q-70 0 -116.5 -44t-70 -132.5t-23.5 -222.5
v-53q0 -142 23.5 -235t71 -138t117.5 -45q64 0 107.5 46t65.5 142t22 246q0 217 -45.5 326.5t-151.5 109.5z" />
    <glyph glyph-name="uni0441" unicode="&#x441;" horiz-adv-x="703" 
d="M451 -20q-121 0 -201.5 63t-120.5 188t-40 310q0 181 40.5 310t122.5 198t205 69q62 0 111.5 -13t92.5 -37l-49 -127q-37 20 -73.5 30t-71.5 10q-72 0 -121 -49.5t-74.5 -146.5t-25.5 -242q0 -141 24.5 -236t74 -143.5t123.5 -48.5q44 0 89.5 12.5t91.5 36.5v-130
q-42 -26 -97.5 -40t-100.5 -14z" />
    <glyph glyph-name="uni0442" unicode="&#x442;" horiz-adv-x="614" 
d="M594 964h-210v-964h-152v964h-212v134h574v-134z" />
    <glyph glyph-name="uni0443" unicode="&#x443;" horiz-adv-x="746" 
d="M12 1098h159l155 -642q9 -42 17.5 -82t16 -79.5t12.5 -79.5h8q8 58 20 117.5t28 124.5l151 641h158l-326 -1274q-29 -110 -68 -180t-91.5 -103t-124.5 -33q-24 0 -48 5t-51 12v137q19 -7 39.5 -11t39.5 -4q38 0 65 19.5t48 64.5t41 123l39 154z" />
    <glyph glyph-name="uni0444" unicode="&#x444;" horiz-adv-x="1110" 
d="M632 1556v-444q136 -12 222.5 -90t128.5 -201t42 -271q0 -151 -41.5 -274t-128.5 -199.5t-223 -91.5v-477h-150v477q-124 11 -212 81t-134.5 192.5t-46.5 292.5q0 156 41.5 278t128 196.5t221.5 86.5v444h152zM480 980q-74 -8 -126.5 -62t-80.5 -147t-28 -220
q0 -112 25 -207.5t77 -156t133 -69.5v862zM632 980v-862q84 9 136 71.5t76.5 157.5t24.5 203q0 189 -63.5 302.5t-173.5 127.5z" />
    <glyph glyph-name="uni0445" unicode="&#x445;" horiz-adv-x="751" 
d="M289 566l-243 532h165l168 -407l171 407h163l-245 -540l255 -558h-163l-185 433l-184 -433h-161z" />
    <glyph glyph-name="uni0446" unicode="&#x446;" horiz-adv-x="958" 
d="M920 -380h-152v380h-634v1098h154v-963h363v963h152v-963h117v-515z" />
    <glyph glyph-name="uni0447" unicode="&#x447;" horiz-adv-x="915" 
d="M263 1098v-434q0 -88 34 -128t94 -40q65 0 126 32.5t112 82.5v487h152v-1098h-152v475q-57 -55 -127.5 -84t-144.5 -29q-125 0 -185.5 77t-60.5 234v425h152z" />
    <glyph glyph-name="uni0448" unicode="&#x448;" horiz-adv-x="1292" 
d="M1157 1098v-1098h-1023v1098h154v-963h281v963h151v-963h284v963h153z" />
    <glyph glyph-name="uni0449" unicode="&#x449;" horiz-adv-x="1313" 
d="M1157 1098v-963h115v-515h-150v380h-988v1098h154v-963h281v963h151v-963h284v963h153z" />
    <glyph glyph-name="uni044A" unicode="&#x44a;" horiz-adv-x="949" 
d="M407 1098v-459h115q118 0 197.5 -36t120 -106t40.5 -174q0 -105 -41 -177t-119 -109t-189 -37h-278v960h-233v138h387zM526 515h-119v-391h118q101 0 150.5 49t49.5 143q0 98 -49 148.5t-150 50.5z" />
    <glyph glyph-name="uni044B" unicode="&#x44b;" horiz-adv-x="1201" 
d="M134 0v1098h154v-459h116q117 0 196 -36t119.5 -106t40.5 -174q0 -105 -40.5 -177t-118.5 -109t-191 -37h-276zM288 124h118q100 0 150 49t50 143q0 98 -49 148.5t-150 50.5h-119v-391zM914 0v1098h152v-1098h-152z" />
    <glyph glyph-name="uni044C" unicode="&#x44c;" horiz-adv-x="831" 
d="M288 639h116q117 0 196 -36t119.5 -106t40.5 -174q0 -105 -40.5 -177t-118.5 -109t-191 -37h-276v1098h154v-459zM606 316q0 98 -49 148.5t-150 50.5h-119v-391h118q100 0 150 49t50 143z" />
    <glyph glyph-name="uni044D" unicode="&#x44d;" horiz-adv-x="738" 
d="M264 -20q-57 0 -112 14.5t-94 39.5v133q48 -25 96 -39.5t97 -14.5q75 0 127 42t80.5 128.5t33.5 220.5h-293v125h290q-10 178 -66 267t-158 89q-39 0 -82.5 -13t-69.5 -30l-50 125q50 26 101 38.5t106 12.5q124 0 208.5 -65t128.5 -190.5t44 -309.5q0 -187 -43 -314.5
t-129 -193t-215 -65.5z" />
    <glyph glyph-name="uni044E" unicode="&#x44e;" horiz-adv-x="1255" 
d="M1168 550q0 -185 -40.5 -312.5t-118.5 -192.5t-191 -65q-109 0 -183 58t-113.5 174.5t-46.5 291.5h-187v-504h-154v1098h154v-461h187q10 158 52.5 265t116.5 161.5t178 54.5q111 0 188.5 -65.5t117.5 -192t40 -310.5zM628 550q0 -145 21.5 -242t64 -146t105.5 -49
q66 0 108.5 48.5t63 145.5t20.5 243q0 143 -20.5 239.5t-62.5 145t-109 48.5t-109 -48t-62 -144.5t-20 -240.5z" />
    <glyph glyph-name="uni044F" unicode="&#x44f;" horiz-adv-x="844" 
d="M204 0h-169l273 476q-73 17 -123 57.5t-75.5 102.5t-25.5 143q0 152 92.5 235.5t257.5 83.5h275v-1098h-152v457h-107zM240 777q0 -96 52 -145t157 -49h108v391h-105q-105 0 -158.5 -51t-53.5 -146z" />
    <glyph glyph-name="uni0450" unicode="&#x450;" horiz-adv-x="847" 
d="M436 1116q112 0 184.5 -65t108 -175t35.5 -245v-109h-523q2 -205 63.5 -308t185.5 -103q59 0 116 18t118 58v-138q-57 -35 -119 -52t-132 -17q-137 0 -222 73.5t-123.5 201t-38.5 288.5q0 184 39 312t116.5 194.5t191.5 66.5zM436 990q-87 0 -136 -84.5t-57 -260.5h377
q0 93 -19.5 171.5t-60 126t-104.5 47.5zM341 1568q23 -48 55.5 -104t67.5 -108.5t65 -91.5v-23h-99q-31 27 -69.5 65.5t-77.5 82t-72 85.5t-54 76v18h184z" />
    <glyph glyph-name="uni0451" unicode="&#x451;" horiz-adv-x="847" 
d="M436 1116q112 0 184.5 -65t108 -175t35.5 -245v-109h-523q2 -205 63.5 -308t185.5 -103q59 0 116 18t118 58v-138q-57 -35 -119 -52t-132 -17q-137 0 -222 73.5t-123.5 201t-38.5 288.5q0 184 39 312t116.5 194.5t191.5 66.5zM436 990q-87 0 -136 -84.5t-57 -260.5h377
q0 93 -19.5 171.5t-60 126t-104.5 47.5zM184 1367q0 50 24 74t60 24q35 0 58.5 -24.5t23.5 -73.5q0 -51 -23.5 -76.5t-58.5 -25.5q-36 0 -60 25.5t-24 76.5zM512 1367q0 50 24.5 74t59.5 24q36 0 60.5 -24.5t24.5 -73.5q0 -51 -24.5 -76.5t-60.5 -25.5q-37 0 -60.5 25.5
t-23.5 76.5z" />
    <glyph glyph-name="uni0452" unicode="&#x452;" horiz-adv-x="925" 
d="M579 -492q-25 0 -52 5.5t-45 12.5v137q20 -7 37.5 -11.5t33.5 -4.5q44 0 66 41.5t22 128.5v885q0 141 -35 202.5t-111 61.5q-67 0 -113.5 -41t-70 -129.5t-23.5 -232.5v-563h-152v1247h-121v121h121v188h154v-188h238v-121h-238v-172q0 -37 -3 -72.5t-8 -72.5h11
q20 53 55 92.5t82 61t101 21.5q92 0 151 -42t87.5 -124.5t28.5 -205.5v-915q0 -102 -25 -171t-73 -104t-118 -35z" />
    <glyph glyph-name="uni0453" unicode="&#x453;" horiz-adv-x="642" 
d="M623 1098v-136h-335v-962h-154v1098h489zM698 1568v-18q-20 -33 -53 -74.5t-72 -85t-78 -82.5t-70 -67h-98v23q40 55 74 107t62 101.5t51 95.5h184z" />
    <glyph glyph-name="uni0454" unicode="&#x454;" horiz-adv-x="739" 
d="M466 -20q-125 0 -209 64.5t-126 190t-42 309.5q0 183 42 311t127.5 195.5t213.5 67.5q56 0 109 -12.5t100 -38.5l-47 -125q-30 17 -72 30t-84 13q-70 0 -119 -39.5t-76.5 -118.5t-34.5 -198h292v-125h-292q4 -130 31 -217t78 -130.5t124 -43.5q49 0 96.5 14.5t94.5 39.5
v-133q-37 -25 -99 -39.5t-107 -14.5z" />
    <glyph glyph-name="uni0455" unicode="&#x455;" horiz-adv-x="688" 
d="M622 290q0 -99 -36 -168.5t-104.5 -105.5t-166.5 -36q-76 0 -139 18t-107 43v160q44 -36 109 -59.5t132 -23.5q77 0 118.5 44t41.5 123q0 47 -17 81.5t-54.5 66t-98.5 66.5q-68 42 -120.5 87t-81.5 103.5t-29 142.5q0 128 83.5 207t220.5 79q69 0 130.5 -17.5
t116.5 -52.5l-58 -124q-42 29 -89.5 46t-97.5 17q-73 0 -115.5 -41t-42.5 -110q0 -46 17 -79t56 -64t103 -70q68 -43 119.5 -87.5t80.5 -102.5t29 -143z" />
    <glyph glyph-name="uni0456" unicode="&#x456;" horiz-adv-x="424" 
d="M289 1098v-1098h-153v1098h153zM215 1510q47 0 68.5 -30t21.5 -83q0 -52 -23 -82t-67 -30q-43 0 -68 30t-25 82q0 55 24 84t69 29z" />
    <glyph glyph-name="uni0457" unicode="&#x457;" horiz-adv-x="422" 
d="M288 0h-154v1098h154v-1098zM-36 1369q0 50 24 74t60 24q35 0 58.5 -24.5t23.5 -73.5q0 -51 -23.5 -76.5t-58.5 -25.5q-36 0 -60 25.5t-24 76.5zM292 1369q0 50 24.5 74t59.5 24q36 0 60.5 -24.5t24.5 -73.5q0 -51 -24.5 -76.5t-60.5 -25.5q-37 0 -60.5 25.5t-23.5 76.5z
" />
    <glyph glyph-name="uni0458" unicode="&#x458;" horiz-adv-x="424" 
d="M72 -492q-28 0 -52 5t-44 13v137q17 -7 35.5 -11.5t34.5 -4.5q49 0 69 42t20 133v1276h154v-1276q0 -108 -25 -177.5t-73.5 -102.5t-118.5 -34zM122 1397q0 55 24 84t69 29q46 0 68 -30t22 -83q0 -52 -23 -82t-67 -30q-43 0 -68 30t-25 82z" />
    <glyph glyph-name="uni0459" unicode="&#x459;" horiz-adv-x="1243" 
d="M701 1098v-459h117q116 0 195.5 -36t120 -106t40.5 -174q0 -105 -41 -177t-119 -109t-189 -37h-274v959h-188q-12 -247 -29 -430t-47.5 -303t-82 -179t-132.5 -59q-20 0 -38 3t-35 10v133q8 -4 19.5 -6.5t24.5 -2.5q34 0 60 37t45 112t33.5 191t24 273.5t15.5 359.5h480z
M819 515h-118v-391h115q101 0 151 49t50 143q0 98 -48.5 148.5t-149.5 50.5z" />
    <glyph glyph-name="uni045A" unicode="&#x45a;" horiz-adv-x="1321" 
d="M780 1098v-459h117q117 0 196 -36t119.5 -106t40.5 -174q0 -105 -41 -177t-118.5 -109t-188.5 -37h-275v506h-342v-506h-154v1098h154v-459h342v459h150zM896 515h-116v-391h115q101 0 151 49t50 143q0 98 -49.5 148.5t-150.5 50.5z" />
    <glyph glyph-name="uni045B" unicode="&#x45b;" horiz-adv-x="925" 
d="M290 1556v-188h238v-121h-238v-172q0 -37 -3 -72.5t-8 -72.5h11q20 53 55 92.5t82 61t101 21.5q92 0 151 -42t87.5 -124.5t28.5 -205.5v-733h-154v702q0 141 -35 202.5t-111 61.5q-68 0 -114.5 -41t-69.5 -129.5t-23 -232.5v-563h-152v1247h-121v121h121v188h154z" />
    <glyph glyph-name="uni045C" unicode="&#x45c;" horiz-adv-x="787" 
d="M587 1098h169l-316 -518l341 -580h-174l-319 570v-570h-154v1098h154v-519zM723 1568v-18q-20 -33 -53 -74.5t-72 -85t-78 -82.5t-70 -67h-98v23q40 55 74 107t62 101.5t51 95.5h184z" />
    <glyph glyph-name="uni045D" unicode="&#x45d;" horiz-adv-x="954" 
d="M285 1098v-638q0 -30 -0.5 -59t-2 -58t-3.5 -59.5t-4 -63.5l368 878h176v-1098h-148v619q0 43 0.5 86t2.5 86l4 86l-370 -877h-174v1098h151zM362 1568q23 -48 55.5 -104t67.5 -108.5t65 -91.5v-23h-99q-31 27 -69.5 65.5t-77.5 82t-72 85.5t-54 76v18h184z" />
    <glyph glyph-name="uni045E" unicode="&#x45e;" horiz-adv-x="746" 
d="M12 1098h159l155 -642q9 -42 17.5 -82t16 -79.5t12.5 -79.5h8q8 58 20 117.5t28 124.5l151 641h158l-326 -1274q-29 -110 -68 -180t-91.5 -103t-124.5 -33q-24 0 -48 5t-51 12v137q19 -7 39.5 -11t39.5 -4q38 0 65 19.5t48 64.5t41 123l39 154zM666 1542
q-7 -100 -42 -167.5t-97 -101.5t-152 -34q-91 0 -153 32t-95.5 99t-39.5 172h131q9 -109 45.5 -157t111.5 -48q78 0 114.5 50t45.5 155h131z" />
    <glyph glyph-name="uni045F" unicode="&#x45f;" horiz-adv-x="932" 
d="M391 0h-257v1098h154v-963h356v963h154v-1098h-257v-380h-150v380z" />
    <glyph glyph-name="uni0460" unicode="&#x460;" horiz-adv-x="1400" 
d="M347 0q-72 182 -127 366.5t-93.5 369.5t-62 367t-32.5 359h164q5 -145 22 -300.5t45 -315.5t66.5 -316.5t86.5 -302.5h5q11 54 29 122.5t37 127.5l131 464q-12 86 -21 173t-14 174t-6 174h159q2 -151 15.5 -307t40.5 -313.5t67.5 -312.5t96.5 -304h4q79 198 131.5 406
t83 418.5t42.5 412.5h161q-17 -231 -59 -476t-116 -494t-188 -492h-116q-36 84 -68.5 169.5t-60.5 171.5t-51.5 171t-41.5 169l-190 -681h-140z" />
    <glyph glyph-name="uni0461" unicode="&#x461;" horiz-adv-x="1298" 
d="M1230 1098q-6 -189 -42 -380t-97 -373t-142 -345h-139q-32 75 -63.5 162t-58.5 176.5t-45 169.5l-193 -508h-137q-60 131 -105 269.5t-75.5 279.5t-47.5 279.5t-22 269.5h148q3 -146 26 -311.5t61.5 -325t89.5 -288.5h6q14 39 29.5 82t31.5 84.5t30 75.5l109 273
q-19 108 -29 208t-15 202h144q5 -146 28.5 -310t63.5 -324t92 -293h6q57 122 101 275t70 320.5t28 331.5h147z" />
    <glyph glyph-name="uni0462" unicode="&#x462;" horiz-adv-x="958" 
d="M190 0v1149h-182v124h182v283h159v-283h261v-124h-261v-309h121q138 0 230 -44t138.5 -135t46.5 -233q0 -199 -105.5 -313.5t-304.5 -114.5h-285zM349 141h123q123 0 187.5 72t64.5 211q0 95 -27 155.5t-82.5 90t-143.5 29.5h-122v-558z" />
    <glyph glyph-name="uni0463" unicode="&#x463;" horiz-adv-x="862" 
d="M319 1327v-229h194v-119h-194v-340h117q175 0 265.5 -80.5t90.5 -235.5q0 -105 -41 -177t-119 -109t-190 -37h-277v979h-153v119h153v229h154zM437 515h-118v-391h115q101 0 151 49t50 143q0 98 -48.5 148.5t-149.5 50.5z" />
    <glyph glyph-name="uni0464" unicode="&#x464;" horiz-adv-x="1328" 
d="M994 -20q-156 0 -258.5 95t-155 256t-58.5 358h-212v-689h-159v1462h159v-629h216q9 139 42.5 258t91.5 207.5t143 137.5t198 49q76 0 145.5 -19.5t130.5 -60.5l-55 -135q-53 35 -106.5 52.5t-112.5 17.5q-78 0 -135 -41t-95 -112.5t-59 -162.5t-28 -191h440v-144h-443
q3 -112 23 -213.5t60 -180.5t101 -125t145 -46q62 0 118.5 18t106.5 49v-149q-50 -30 -111 -46t-132 -16z" />
    <glyph glyph-name="uni0465" unicode="&#x465;" horiz-adv-x="1119" 
d="M846 -20q-123 0 -203.5 59.5t-121.5 176.5t-48 288h-185v-504h-154v1098h154v-470h186q10 155 55 264.5t125.5 167.5t197.5 58q58 0 110.5 -12.5t99.5 -38.5l-48 -125q-30 17 -72.5 30t-83.5 13q-71 0 -120.5 -39.5t-77 -118.5t-34.5 -198h294v-125h-294
q4 -130 31.5 -217t78.5 -130.5t123 -43.5q50 0 98.5 14.5t94.5 39.5v-133q-37 -25 -97 -39.5t-109 -14.5z" />
    <glyph glyph-name="uni0466" unicode="&#x466;" horiz-adv-x="1035" 
d="M611 1462l426 -1462h-167l-188 678h-89v-678h-151v678h-94l-184 -678h-168l423 1462h192zM514 1318q-3 -21 -6 -41.5t-7.5 -40.5t-9.5 -39t-11 -37l-94 -344h257l-95 346q-5 18 -9.5 36.5t-9 38t-8.5 40t-7 41.5z" />
    <glyph glyph-name="uni0467" unicode="&#x467;" horiz-adv-x="879" 
d="M532 1098l342 -1098h-153l-143 486h-70v-486h-139v486h-68l-141 -486h-154l345 1098h181zM446 974h-8q-2 -16 -5 -31t-7 -30.5t-9 -31.5l-77 -268h198l-74 264q-5 20 -8.5 37t-6 32t-3.5 28z" />
    <glyph glyph-name="uni0468" unicode="&#x468;" horiz-adv-x="1460" 
d="M1038 1462l426 -1462h-167l-188 678h-89v-678h-150v678h-96l-183 -678h-167l197 692h-311v-692h-159v1462h159v-625h356l180 625h192zM939 1318q-3 -21 -6.5 -41.5t-7.5 -40.5t-9 -39t-10 -37l-94 -344h256l-95 346q-5 18 -9.5 36.5t-9 38t-8.5 40t-7 41.5z" />
    <glyph glyph-name="uni0469" unicode="&#x469;" horiz-adv-x="1256" 
d="M909 1098l343 -1098h-154l-143 486h-68v-486h-138v486h-71l-140 -486h-152l159 506h-257v-506h-154v1098h154v-459h301l143 459h177zM821 974h-8q-4 -27 -10 -56t-14 -59t-19 -62l-52 -184h198l-53 184q-6 20 -15 55.5t-17 70t-10 51.5z" />
    <glyph glyph-name="uni046A" unicode="&#x46a;" horiz-adv-x="1119" 
d="M994 1462v-105l-289 -524q87 -9 142.5 -54t91 -124.5t61.5 -194.5l111 -460h-171l-98 448q-19 94 -42.5 149.5t-62 81t-102.5 28.5v-707h-154v707q-66 -2 -103 -28t-59 -82t-43 -149l-98 -448h-170l111 460q20 89 43 155.5t55.5 112t79.5 72t115 33.5l-288 524v105h870z
M803 1326h-486l242 -474z" />
    <glyph glyph-name="uni046B" unicode="&#x46b;" horiz-adv-x="1024" 
d="M893 1098v-90l-245 -376q82 -11 131 -49.5t79 -102t55 -148.5l97 -332h-158l-88 346q-19 66 -40 103.5t-54 52.5t-88 15v-517h-141v515q-55 0 -88 -16t-52.5 -52.5t-36.5 -98.5l-92 -348h-158l96 332q24 87 54 150.5t79.5 101.5t131.5 48l-248 376v90h766zM718 977h-414
l207 -325z" />
    <glyph glyph-name="uni046C" unicode="&#x46c;" horiz-adv-x="1561" 
d="M1438 1462v-105l-288 -539q92 -9 147.5 -57.5t89 -129t59.5 -186.5l109 -445h-168l-99 434q-20 92 -43.5 148t-62 81.5t-102.5 27.5v-691h-152v691q-61 -2 -98.5 -24t-61.5 -77t-48 -156l-97 -434h-166l104 429q22 87 48.5 153.5t60.5 109.5h-360v-692h-159v1462h159
v-625h537l-277 520l-1 105h869zM1246 1326h-486l242 -486z" />
    <glyph glyph-name="uni046D" unicode="&#x46d;" horiz-adv-x="1421" 
d="M1292 1098v-90l-247 -390q81 -10 130.5 -46.5t80.5 -98t55 -146.5l98 -327h-158l-92 340q-18 64 -38.5 99.5t-52.5 50t-88 14.5v-504h-140v503q-56 0 -88 -16t-50.5 -51.5t-36.5 -95.5l-95 -340h-155l97 332q18 59 37 103t41 71h-302v-506h-154v1098h154v-459h473
l-237 369v90h768zM1114 977h-412l207 -334z" />
    <glyph glyph-name="uni046E" unicode="&#x46e;" horiz-adv-x="868" 
d="M600 1744q20 0 35.5 -3t30.5 -9v-108q-8 5 -19 7.5t-22 2.5q-38 0 -70 -48t-64 -115q115 -28 177 -118.5t62 -225.5q0 -141 -65 -236t-187 -126v-8q140 -17 209.5 -109t69.5 -244q0 -99 -27.5 -174t-78.5 -125.5t-121 -77.5t-155 -31q-55 -3 -92 -17.5t-55 -41.5t-18 -68
q0 -62 37.5 -95.5t110.5 -33.5q35 0 65 3.5t58 7t56 3.5q33 0 62 -5t52 -15v-140q-20 11 -49.5 16.5t-64.5 5.5q-33 0 -63.5 -3.5t-63 -7t-72.5 -3.5q-96 0 -160 33t-96 93t-32 142q0 89 34 147.5t98 89t154 33.5q131 8 194.5 71.5t63.5 199.5q0 143 -74 210t-230 67h-106
v144h106q92 1 154 31t93 91.5t31 155.5q0 114 -53.5 171t-152.5 57q-64 0 -117 -25.5t-91 -67.5l-79 115q47 46 100 73.5t114 40.5q-15 30 -41.5 76.5t-56 93.5t-53.5 76v21h105q35 -37 71 -88.5t79 -116.5q28 56 59.5 103t68 76t79.5 29z" />
    <glyph glyph-name="uni046F" unicode="&#x46f;" horiz-adv-x="710" 
d="M511 1353q17 0 33.5 -3t31.5 -11v-103q-9 5 -19.5 7.5t-21.5 2.5q-31 0 -63 -35.5t-67 -108.5q91 -25 139 -94t48 -171q0 -89 -42 -153.5t-112 -93.5v-8q64 -20 106 -58t62.5 -90.5t20.5 -119.5q0 -97 -34.5 -166t-103.5 -107.5t-171 -46.5q-49 -4 -79.5 -17t-45 -36.5
t-14.5 -59.5q0 -52 28.5 -78t89.5 -26q29 0 54.5 3t51 5.5t53.5 2.5q29 0 54 -4.5t44 -12.5v-139q-16 10 -42.5 15.5t-55.5 5.5q-24 0 -53.5 -2.5t-59.5 -5.5t-58 -3q-81 0 -137.5 27.5t-86 81t-29.5 130.5t30.5 130t87.5 82.5t135 34.5q67 6 108 29t59.5 65t18.5 104
q0 59 -23 101.5t-65.5 65t-101.5 22.5h-78v124h64q77 0 125 49t48 137q0 82 -40 122.5t-115 40.5q-47 0 -88.5 -12.5t-79.5 -38.5l-58 116q29 19 60.5 32t67.5 20q-17 38 -39.5 76.5t-47.5 76t-52 72.5v21h105q33 -37 70 -88t80 -116q29 58 60.5 104.5t68 74t79.5 27.5z" />
    <glyph glyph-name="uni0470" unicode="&#x470;" horiz-adv-x="1279" 
d="M1149 1462v-469q0 -135 -23 -238t-73.5 -173.5t-133 -106.5t-201.5 -36v-439h-155v439q-118 0 -200.5 35t-133 104t-74 171t-23.5 236v477h159v-478q0 -118 20.5 -209t79 -142t172.5 -52v881h155v-881q101 2 160.5 41.5t85.5 127.5t26 234v478h159z" />
    <glyph glyph-name="uni0471" unicode="&#x471;" horiz-adv-x="1114" 
d="M638 1556v-1437q80 7 129.5 60t72 155.5t22.5 256.5q0 127 -15.5 252t-48.5 255h152q35 -141 51 -263.5t16 -247.5q0 -191 -42 -323.5t-126 -203t-211 -77.5v-473h-149v473q-120 3 -201.5 63t-122.5 177t-41 291v584h154v-576q0 -127 21.5 -214.5t68 -134.5t121.5 -54
v1437h149z" />
    <glyph glyph-name="uni0472" unicode="&#x472;" horiz-adv-x="1129" 
d="M1027 733q0 -157 -25 -293.5t-80 -240t-143.5 -161.5t-214.5 -58q-127 0 -215 59.5t-142.5 163.5t-79 241t-24.5 291q0 250 52.5 416t155.5 249t255 83q166 0 267.5 -99.5t147.5 -269.5t46 -381zM566 124q94 0 158.5 62.5t99.5 185.5t39 306h-595q3 -178 38 -301.5
t100.5 -188t159.5 -64.5zM566 1340q-92 0 -156.5 -58.5t-100 -175t-41.5 -290.5h593q-9 260 -82.5 392t-212.5 132z" />
    <glyph glyph-name="uni0473" unicode="&#x473;" horiz-adv-x="917" 
d="M830 550q0 -183 -43.5 -310.5t-127 -193.5t-203.5 -66q-116 0 -199 66.5t-126.5 194t-43.5 309.5q0 281 95.5 424.5t276.5 143.5q129 0 211 -76t121 -204.5t39 -287.5zM458 113q69 0 116 43.5t72 131t28 218.5h-432q2 -125 26 -213t71 -134t119 -46zM458 983
q-103 0 -155 -90t-61 -266h431q-5 111 -29.5 191t-70.5 122.5t-115 42.5z" />
    <glyph glyph-name="uni0474" unicode="&#x474;" horiz-adv-x="971" 
d="M938 1334q-36 0 -59.5 -26t-40.5 -75t-35 -117l-268 -1116h-185l-350 1462h166l219 -954q14 -55 24.5 -111t19 -110t15.5 -107q5 33 10.5 70t12.5 74.5t13.5 72.5t12.5 63l160 686q30 127 61.5 198t76 101t112.5 32q28 0 52 -5t43 -15v-137q-16 6 -31 10t-29 4z" />
    <glyph glyph-name="uni0475" unicode="&#x475;" horiz-adv-x="812" 
d="M743 1113q29 0 51 -4.5t39 -12.5v-127q-15 8 -30.5 11t-29.5 3q-31 -2 -50.5 -19.5t-35 -60.5t-36.5 -123l-198 -780h-170l-275 1098h157l151 -662q14 -62 26 -126t22 -133h8q7 55 19.5 120.5t29.5 138.5l82 353q31 126 61.5 196t72.5 99t106 29z" />
    <glyph glyph-name="uni0476" unicode="&#x476;" horiz-adv-x="971" 
d="M938 1334q-36 0 -59.5 -26t-40.5 -75t-35 -117l-268 -1116h-185l-350 1462h166l219 -954q14 -55 24.5 -111t19 -110t15.5 -107q5 33 10.5 70t12.5 74.5t13.5 72.5t12.5 63l160 686q30 127 61.5 198t76 101t112.5 32q28 0 52 -5t43 -15v-137q-16 6 -31 10t-29 4zM530 1907
q16 -39 45 -95.5t61.5 -113t57.5 -96.5v-23h-73q-30 25 -67 64.5t-73.5 84t-65.5 87t-44 73.5v19h159zM241 1907q24 -54 50.5 -108t54.5 -104t56 -93v-23h-78q-29 26 -64.5 65t-70.5 83t-64.5 86.5t-46.5 74.5v19h163z" />
    <glyph glyph-name="uni0477" unicode="&#x477;" horiz-adv-x="812" 
d="M743 1113q29 0 51 -4.5t39 -12.5v-127q-15 8 -30.5 11t-29.5 3q-31 -2 -50.5 -19.5t-35 -60.5t-36.5 -123l-198 -780h-170l-275 1098h157l151 -662q14 -62 26 -126t22 -133h8q7 55 19.5 120.5t29.5 138.5l82 353q31 126 61.5 196t72.5 99t106 29zM458 1569
q16 -39 45 -95.5t61.5 -113t57.5 -96.5v-23h-73q-30 25 -67 64.5t-73.5 84t-65.5 87t-44 73.5v19h159zM169 1569q24 -54 50.5 -108t54.5 -104t56 -93v-23h-78q-29 26 -64.5 65t-70.5 83t-64.5 86.5t-46.5 74.5v19h163z" />
    <glyph glyph-name="uni0478" unicode="&#x478;" horiz-adv-x="1863" 
d="M1016 733q0 -157 -25 -293.5t-78.5 -240t-140.5 -161.5t-211 -58q-126 0 -214 59.5t-141.5 163.5t-78 241t-24.5 291q0 250 51.5 416t153.5 249t253 83q164 0 264 -99.5t145.5 -269.5t45.5 -381zM268 733q0 -199 33.5 -334.5t98.5 -204.5t159 -69q96 0 160 67.5t96.5 203
t32.5 337.5q0 201 -32 335.5t-95.5 202t-159.5 67.5q-98 0 -163 -68.5t-97.5 -203t-32.5 -333.5zM1132 1098h159l154 -642q10 -42 18 -82t15 -79.5t13 -79.5h7q9 58 21 117.5t28 124.5l151 641h157l-325 -1274q-29 -110 -68 -180t-92 -103t-125 -33q-23 0 -47.5 5t-50.5 12
v137q20 -7 40 -11t39 -4q39 0 66 19.5t48 64.5t41 123l38 154z" />
    <glyph glyph-name="uni0479" unicode="&#x479;" horiz-adv-x="1645" 
d="M815 550q0 -130 -22 -235t-67 -180t-114 -115t-163 -40q-90 0 -158 40t-113 114.5t-68 180t-23 235.5q0 182 39 308.5t120 193t206 66.5q117 0 198 -64.5t123 -191t42 -312.5zM244 550q0 -143 22 -240t68.5 -146t118.5 -49q71 0 116.5 48t67.5 144.5t22 242.5
q0 143 -22 239.5t-67.5 145t-117.5 48.5q-110 0 -159 -108.5t-49 -324.5zM915 1098h159l155 -642q9 -42 17.5 -82t16 -79.5t12.5 -79.5h8q8 58 20 117.5t28 124.5l151 641h158l-326 -1274q-29 -110 -68 -180t-91.5 -103t-124.5 -33q-24 0 -48 5t-51 12v137q19 -7 39.5 -11
t39.5 -4q38 0 65 19.5t48 64.5t41 123l39 154z" />
    <glyph glyph-name="uni047A" unicode="&#x47a;" horiz-adv-x="1192" 
d="M599 -107q-36 0 -62 23t-34 74q-99 17 -174 75t-125 153.5t-75.5 225.5t-25.5 291q0 225 45 382t133.5 246.5t219.5 111.5q10 49 35.5 71.5t62.5 22.5q35 0 60 -22.5t35 -71.5q131 -23 219 -116.5t133 -251t45 -374.5q0 -160 -25.5 -289.5t-75.5 -225t-124.5 -154
t-173.5 -75.5q-10 -50 -34 -73t-59 -23zM505 145q11 45 34.5 67.5t57.5 22.5q33 0 57 -23.5t34 -70.5q79 26 132.5 101t80.5 198t27 293q0 254 -60.5 403.5t-179.5 185.5q-9 -49 -32.5 -71.5t-58.5 -22.5q-34 0 -59 22.5t-35 69.5q-78 -26 -131 -102.5t-79.5 -198.5
t-26.5 -286q0 -165 26.5 -288t80 -199t132.5 -101z" />
    <glyph glyph-name="uni047B" unicode="&#x47b;" horiz-adv-x="974" 
d="M890 550q0 -161 -36.5 -279.5t-106.5 -189.5t-171 -92q-10 -47 -31 -69t-54 -22q-35 0 -58 22t-31 68q-101 20 -171.5 92t-107 191.5t-36.5 279.5q0 247 80 388t235 169q8 48 31 68t58 20q32 0 53.5 -21t31.5 -69q103 -21 172.5 -93t105.5 -189t36 -274zM738 550
q0 118 -17.5 201.5t-53.5 135t-92 73.5q-7 -46 -29 -69t-55 -23q-35 0 -57.5 22t-30.5 68q-85 -31 -123.5 -134t-40.5 -274q0 -172 41.5 -277.5t122.5 -137.5q6 45 30 68t57 23q34 0 55 -23t31 -68q83 34 122.5 138t39.5 277z" />
    </font>
</defs>
</svg>
