<?xml version="1.0" standalone="no"?>
<!DOCTYPE svg PUBLIC "-//W3C//DTD SVG 1.1//EN" "http://www.w3.org/Graphics/SVG/1.1/DTD/svg11.dtd" >
<svg xmlns="http://www.w3.org/2000/svg" xmlns:xlink="http://www.w3.org/1999/xlink" version="1.1">
<metadata>
Created by FontForge 20170731 at Wed Feb 10 17:54:37 2021
 By Aleksey,,,
Copyright 2020 The Open Sans Project Authors (https://github.com/googlefonts/opensans)
</metadata>
<defs>
<font id="OpenSansCondensed-SemiBoldItalic" horiz-adv-x="0" >
  <font-face 
    font-family="Open Sans Condensed SemiBold"
    font-weight="600"
    font-style="italic"
    font-stretch="condensed"
    units-per-em="2048"
    panose-1="0 0 0 0 0 0 0 0 0 0"
    ascent="1638"
    descent="-410"
    x-height="1106"
    cap-height="1462"
    bbox="-812 -598 1985 2174"
    underline-thickness="50"
    underline-position="-175"
    slope="-12"
    unicode-range="U+000D-FFFD"
  />
<missing-glyph horiz-adv-x="1229" 
 />
    <glyph glyph-name="f_f" unicode="ff" horiz-adv-x="995" 
d="M-130 -492q-31 0 -59.5 4t-57.5 13v173q19 -6 45 -10.5t47 -4.5q72 0 97.5 56.5t46.5 153.5l223 1047h-117l22 107l129 58l25 110q16 75 37.5 139t54.5 112t84 74.5t126 26.5q44 0 88.5 -9t83.5 -29l-71 -154q-19 11 -41 17t-42 6q-54 0 -80 -48.5t-45 -136.5l-22 -107
h291l22 109q16 75 37.5 139t55 112t84.5 74.5t126 26.5q44 0 88 -9t83 -29l-69 -154q-21 11 -43 17t-41 6q-54 0 -80 -48.5t-44 -136.5l-24 -107h154l-34 -166h-154l-229 -1063q-22 -106 -55.5 -189.5t-93.5 -131.5t-162 -48q-31 0 -59 4t-56 13v173q18 -6 43.5 -10.5
t48.5 -4.5q71 0 97 56.5t46 153.5l222 1047h-289l-230 -1063q-22 -106 -55.5 -189.5t-93 -131.5t-160.5 -48z" />
    <glyph glyph-name="fi" unicode="fi" horiz-adv-x="922" 
d="M-130 -492q-31 0 -59.5 4t-57.5 13v173q19 -6 45 -10.5t47 -4.5q72 0 97.5 56.5t46.5 153.5l223 1047h-117l22 107l129 58l25 110q16 75 37.5 139t54.5 112t84 74.5t126 26.5q44 0 88.5 -9t83.5 -29l-71 -154q-19 11 -41 17t-42 6q-54 0 -80 -48.5t-45 -136.5l-22 -107
h152l-34 -166h-153l-230 -1063q-22 -106 -55.5 -189.5t-93 -131.5t-160.5 -48zM495 0l235 1106h195l-234 -1106h-196zM870 1274q-47 0 -71 23t-24 67q0 39 15 76.5t45.5 62t76.5 24.5t70 -21t24 -66q0 -68 -37 -117t-99 -49z" />
    <glyph glyph-name="fl" unicode="fl" horiz-adv-x="918" 
d="M-130 -492q-31 0 -59.5 4t-57.5 13v173q19 -6 45 -10.5t47 -4.5q72 0 97.5 56.5t46.5 153.5l223 1047h-117l22 107l129 58l25 110q16 75 37.5 139t54.5 112t84 74.5t126 26.5q44 0 88.5 -9t83.5 -29l-71 -154q-19 11 -41 17t-42 6q-54 0 -80 -48.5t-45 -136.5l-22 -107
h152l-34 -166h-153l-230 -1063q-22 -106 -55.5 -189.5t-93 -131.5t-160.5 -48zM495 0l331 1556h196l-331 -1556h-196z" />
    <glyph glyph-name="f_f_i" unicode="ffi" horiz-adv-x="1409" 
d="M-130 -492q-31 0 -59.5 4t-57.5 13v173q19 -6 45 -10.5t47 -4.5q72 0 97.5 56.5t46.5 153.5l223 1047h-117l22 107l129 58l25 110q16 75 37.5 139t54.5 112t84 74.5t126 26.5q44 0 88.5 -9t83.5 -29l-71 -154q-19 11 -41 17t-42 6q-54 0 -80 -48.5t-45 -136.5l-22 -107
h291l22 109q16 75 37.5 139t55 112t84.5 74.5t126 26.5q44 0 88 -9t83 -29l-69 -154q-21 11 -43 17t-41 6q-54 0 -80 -48.5t-44 -136.5l-24 -107h154l-34 -166h-154l-229 -1063q-22 -106 -55.5 -189.5t-93.5 -131.5t-162 -48q-31 0 -59 4t-56 13v173q18 -6 43.5 -10.5
t48.5 -4.5q71 0 97 56.5t46 153.5l222 1047h-289l-230 -1063q-22 -106 -55.5 -189.5t-93 -131.5t-160.5 -48zM982 0l235 1106h195l-234 -1106h-196zM1356 1274q-47 0 -71 23t-24 67q0 39 15 76.5t45.5 62t76.5 24.5t70.5 -21t24.5 -66q0 -68 -37.5 -117t-99.5 -49z" />
    <glyph glyph-name="f_f_l" unicode="ffl" horiz-adv-x="1407" 
d="M-130 -492q-31 0 -59.5 4t-57.5 13v173q19 -6 45 -10.5t47 -4.5q72 0 97.5 56.5t46.5 153.5l223 1047h-117l22 107l129 58l25 110q16 75 37.5 139t54.5 112t84 74.5t126 26.5q44 0 88.5 -9t83.5 -29l-71 -154q-19 11 -41 17t-42 6q-54 0 -80 -48.5t-45 -136.5l-22 -107
h291l22 109q16 75 37.5 139t55 112t84.5 74.5t126 26.5q44 0 88 -9t83 -29l-69 -154q-21 11 -43 17t-41 6q-54 0 -80 -48.5t-44 -136.5l-24 -107h154l-34 -166h-154l-229 -1063q-22 -106 -55.5 -189.5t-93.5 -131.5t-162 -48q-31 0 -59 4t-56 13v173q18 -6 43.5 -10.5
t48.5 -4.5q71 0 97 56.5t46 153.5l222 1047h-289l-230 -1063q-22 -106 -55.5 -189.5t-93 -131.5t-160.5 -48zM984 0l331 1556h196l-330 -1556h-197z" />
    <glyph glyph-name=".notdef" horiz-adv-x="1229" 
 />
    <glyph glyph-name=".null" 
 />
    <glyph glyph-name="nonmarkingreturn" horiz-adv-x="682" 
 />
    <glyph glyph-name="NULL" 
 />
    <glyph glyph-name="NULL" 
 />
    <glyph glyph-name="CR" unicode="&#xd;" horiz-adv-x="349" 
 />
    <glyph glyph-name="space" unicode=" " horiz-adv-x="349" 
 />
    <glyph glyph-name="exclam" unicode="!" horiz-adv-x="490" 
d="M123 432l191 1030h227l-253 -1030h-165zM115 -17q-48 0 -75.5 25t-27.5 74q0 70 40.5 125t116.5 55q44 0 69.5 -26.5t25.5 -73.5q0 -78 -43.5 -128.5t-105.5 -50.5z" />
    <glyph glyph-name="quotedbl" unicode="&#x22;" horiz-adv-x="742" 
d="M534 934l84 528h215l-142 -528h-157zM199 934l82 528h214l-140 -528h-156z" />
    <glyph glyph-name="numbersign" unicode="#" horiz-adv-x="916" 
d="M18 0l135 434h-150l26 151h170l102 320h-161l27 151h180l127 406h152l-128 -406h169l127 406h151l-127 -406h152l-27 -151h-172l-101 -320h162l-26 -151h-181l-137 -434h-151l137 434h-172l-134 -434h-150zM350 585h171l100 320h-170z" />
    <glyph glyph-name="dollar" unicode="$" horiz-adv-x="840" 
d="M224 -120l44 210q-89 3 -153.5 24.5t-108.5 50.5l33 200q47 -38 116 -68.5t150 -35.5l88 419q-51 38 -101 82.5t-81.5 103.5t-31.5 141q0 126 49 209.5t132 127.5t184 51l35 160h85l-33 -160q87 -5 144.5 -27.5t102.5 -51.5l-89 -167q-43 30 -91 51t-104 26l-84 -399
q56 -42 105 -87.5t79.5 -106t30.5 -145.5q0 -122 -49 -207.5t-133 -133t-189 -57.5l-44 -209zM391 267q54 8 89 34t52 65.5t17 88.5q0 33 -8 60t-26 53.5t-49 55.5zM437 884l71 340q-52 -7 -86 -32.5t-51.5 -64.5t-17.5 -89q0 -28 8.5 -53t27.5 -49t48 -52z" />
    <glyph glyph-name="percent" unicode="%" horiz-adv-x="1334" 
d="M217 0l775 1462h158l-773 -1462h-160zM288 565q-89 0 -137.5 62.5t-48.5 189.5q0 68 13.5 155t41 176.5t70 165.5t101 122.5t132.5 46.5q85 0 135 -61.5t50 -189.5q0 -64 -13 -150t-40 -176t-69.5 -167.5t-100.5 -125.5t-134 -48zM307 709q33 0 62 40.5t51.5 105
t38.5 136.5t25 137t9 106q0 55 -13 80t-39 25q-34 0 -62.5 -40t-52 -103t-39.5 -134.5t-25 -137t-9 -107.5q0 -57 14.5 -82.5t39.5 -25.5zM915 -19q-90 0 -137.5 62.5t-47.5 188.5q0 78 14.5 168.5t43.5 178t72 160t100 116t127 43.5q85 0 135 -61t50 -189
q0 -66 -13.5 -152.5t-40.5 -176.5t-69.5 -166.5t-100.5 -124t-133 -47.5zM933 125q34 0 62.5 40.5t51.5 104.5t39 136t24.5 137t8.5 107q0 54 -13.5 79t-39.5 25q-35 0 -64.5 -41.5t-52 -106.5t-38 -137.5t-23.5 -136.5t-8 -100q0 -56 14 -81.5t39 -25.5z" />
    <glyph glyph-name="ampersand" unicode="&#x26;" horiz-adv-x="955" 
d="M261 -20q-125 0 -197 76.5t-72 212.5q0 111 38 206.5t108.5 176.5t166.5 149q-23 62 -36 128t-13 139q0 115 39 208.5t112.5 149.5t176.5 56q61 0 111.5 -24.5t82 -74t31.5 -124.5q0 -94 -33.5 -180.5t-94.5 -163t-142 -143.5l101 -309q27 52 52.5 117.5t46.5 141.5h198
q-22 -75 -55 -154.5t-73.5 -155t-83.5 -139.5l109 -273h-235l-39 123q-66 -61 -133.5 -102t-165.5 -41zM305 157q41 0 73.5 18t60.5 46.5t54 60.5l-128 379q-55 -48 -92.5 -103.5t-57 -119t-19.5 -134.5q0 -48 12.5 -80.5t37 -49.5t59.5 -17zM474 909q32 31 59 67.5t47 78.5
t30.5 86.5t10.5 90.5q0 41 -14.5 69.5t-49.5 28.5q-40 0 -64.5 -35.5t-35.5 -89t-11 -105.5q0 -55 7 -101.5t21 -89.5z" />
    <glyph glyph-name="quotesingle" unicode="'" horiz-adv-x="406" 
d="M204 934l83 528h214l-141 -528h-156z" />
    <glyph glyph-name="parenleft" unicode="(" horiz-adv-x="538" 
d="M131 -324q-32 65 -53 153.5t-32 184.5t-11 182q0 169 33 344.5t95 344.5t150.5 321t198.5 274h168q-102 -132 -186.5 -284.5t-146 -318t-94.5 -337.5t-33 -342q0 -91 7.5 -182.5t25 -178t44.5 -161.5h-166z" />
    <glyph glyph-name="parenright" unicode=")" horiz-adv-x="538" 
d="M-153 -324q102 133 186.5 285.5t145 317.5t93.5 337t33 341q0 88 -7.5 182.5t-24.5 182.5t-44 158h167q34 -73 55 -159t30.5 -177.5t9.5 -184.5q0 -174 -33 -351t-96 -344.5t-150.5 -317t-196.5 -270.5h-168z" />
    <glyph glyph-name="asterisk" unicode="*" horiz-adv-x="777" 
d="M603 819l-93 253l-160 -220l-132 127l203 191l-234 72l61 171l221 -121l9 275l187 -24l-62 -265l243 57l15 -180l-245 -7l148 -239z" />
    <glyph glyph-name="plus" unicode="+" horiz-adv-x="922" 
d="M568 810h307v-174h-307v-397h-176v397h-308v174h308v400h176v-400z" />
    <glyph glyph-name="comma" unicode="," horiz-adv-x="440" 
d="M-98 -272q30 73 66 164.5t68.5 184t52.5 168.5h199l6 -21q-32 -87 -70 -174t-80 -168t-85 -154h-157z" />
    <glyph glyph-name="hyphen" unicode="-" horiz-adv-x="558" 
d="M29 457l38 190h454l-39 -190h-453z" />
    <glyph glyph-name="period" unicode="." horiz-adv-x="438" 
d="M118 -17q-48 0 -75.5 25t-27.5 74q0 70 40 125t115 55q46 0 71.5 -26.5t25.5 -73.5q0 -78 -44.5 -128.5t-104.5 -50.5z" />
    <glyph glyph-name="slash" unicode="/" horiz-adv-x="714" 
d="M-104 -8l795 1479h185l-797 -1479h-183z" />
    <glyph glyph-name="zero" unicode="0" horiz-adv-x="840" 
d="M305 -20q-129 0 -192 88t-63 277q0 81 13 195.5t40.5 242.5t70 252t101.5 225.5t136 162t173 60.5q65 0 112.5 -21.5t79.5 -66t47.5 -113t15.5 -161.5q0 -91 -14 -209.5t-42 -247t-71 -249.5t-102.5 -219.5t-135.5 -157t-169 -58.5zM325 163q48 0 90 53.5t77.5 142
t64 196t48.5 217t30.5 204t10.5 155.5q0 86 -18.5 127.5t-61.5 41.5q-47 0 -89 -54.5t-78 -144.5t-65 -197.5t-50 -216t-32 -200.5t-11 -148q0 -93 20 -134.5t64 -41.5z" />
    <glyph glyph-name="one" unicode="1" horiz-adv-x="840" 
d="M271 0l205 973q9 41 15.5 70t15 62.5t22.5 86.5q-16 -17 -32.5 -35t-36.5 -35l-160 -142l-94 129l392 353h184l-310 -1462h-201z" />
    <glyph glyph-name="two" unicode="2" horiz-adv-x="840" 
d="M-64 0l28 148l355 421q61 73 116.5 145.5t99.5 144.5t69.5 145.5t25.5 148.5q0 73 -30.5 111t-90.5 38q-41 0 -79 -18t-74 -46t-71 -58l-72 146q73 76 156.5 116.5t183.5 40.5q86 0 150 -35.5t100 -101t36 -155.5q0 -118 -46 -231t-124.5 -223t-176.5 -222l-285 -328v-7
h442l-38 -180h-675z" />
    <glyph glyph-name="three" unicode="3" horiz-adv-x="840" 
d="M234 -20q-84 0 -143.5 14.5t-118.5 47.5v198q56 -44 126.5 -63.5t132.5 -19.5q66 0 116.5 23.5t86 65t53.5 96.5t18 119q0 70 -23 115.5t-68.5 67.5t-115.5 22h-70l37 175h69q71 0 127.5 23.5t97 66.5t61.5 100t21 123q0 73 -33 112.5t-102 39.5q-55 0 -113.5 -24.5
t-117.5 -69.5l-52 156q75 58 153 86.5t173 28.5q88 0 155.5 -31.5t106 -94.5t38.5 -156q0 -103 -39.5 -192t-110.5 -152.5t-167 -91.5l-1 -6q85 -25 135 -95.5t50 -188.5q0 -100 -32.5 -189t-94.5 -158t-151.5 -108.5t-203.5 -39.5z" />
    <glyph glyph-name="four" unicode="4" horiz-adv-x="840" 
d="M345 0l68 312h-445l34 160l646 1000h208l-210 -988h136l-37 -172h-136l-65 -312h-199zM170 484h279l116 540q6 27 14 57t16 60.5t15 57.5h-7q-33 -63 -52.5 -98.5t-39.5 -67.5z" />
    <glyph glyph-name="five" unicode="5" horiz-adv-x="840" 
d="M240 -20q-54 0 -100 7t-83.5 19.5t-64.5 26.5v210q46 -39 110.5 -62.5t138.5 -23.5q71 0 125 30.5t90.5 81.5t55 116.5t18.5 134.5q0 107 -44 163t-133 56q-40 0 -77.5 -10t-77.5 -25l-62 67l186 691h540l-39 -182h-364l-106 -383q29 8 56.5 12t55.5 4q86 0 148 -41.5
t95.5 -121t33.5 -191.5q0 -105 -28.5 -208t-89 -187t-155.5 -134t-229 -50z" />
    <glyph glyph-name="six" unicode="6" horiz-adv-x="840" 
d="M342 -20q-100 0 -164 47.5t-94 134.5t-30 205q0 112 17 232t50.5 236.5t81.5 221t109 185.5q46 63 105.5 118.5t134 89t162.5 33.5q59 0 101.5 -5t78.5 -16l-42 -178q-32 12 -67 18t-71 6q-93 0 -170 -59t-136.5 -174.5t-103.5 -286.5h6q30 46 67.5 78.5t82 50.5t94.5 18
q115 0 168 -89t53 -226q0 -100 -24.5 -211t-77 -208.5t-135 -159t-196.5 -61.5zM354 159q59 0 101 47.5t67.5 118.5t37 145.5t11.5 130.5q0 77 -26 118t-73 41q-40 0 -72.5 -19t-56.5 -51t-39 -72q-17 -30 -28.5 -74t-17.5 -94t-6 -99q0 -47 7 -83t20.5 -60t32.5 -36.5
t42 -12.5z" />
    <glyph glyph-name="seven" unicode="7" horiz-adv-x="840" 
d="M62 0l631 1279h-496l38 182h698l-28 -143l-633 -1318h-210z" />
    <glyph glyph-name="eight" unicode="8" horiz-adv-x="840" 
d="M332 -20q-106 0 -182 38t-115.5 109.5t-39.5 170.5q0 108 38 192.5t110 153t174 126.5q-41 47 -68.5 97.5t-41.5 105t-14 111.5q0 113 46 203t131.5 143t205.5 53q89 0 153.5 -34t100 -97.5t35.5 -151.5q0 -92 -35 -171.5t-100.5 -146t-157.5 -117.5q57 -54 92.5 -111
t52.5 -117.5t17 -128.5q0 -111 -49.5 -209t-140 -158.5t-212.5 -60.5zM335 147q68 0 113 35t68 92t24 123q0 52 -15 98.5t-42 88.5t-63 81q-65 -39 -117 -88t-82.5 -114t-30.5 -150q0 -70 38.5 -118t106.5 -48zM470 870q67 38 111.5 85t66 101.5t21.5 114.5q0 71 -32 108
t-86 37q-51 0 -88.5 -27.5t-58.5 -77.5t-21 -119q0 -66 23.5 -121t63.5 -101z" />
    <glyph glyph-name="nine" unicode="9" horiz-adv-x="840" 
d="M188 -20q-59 0 -102.5 7t-80.5 16v180q33 -13 79 -20.5t96 -7.5q72 0 132 33.5t110.5 98.5t91.5 162t73 225h-6q-31 -44 -69 -77t-82.5 -51t-93.5 -18q-77 0 -125.5 40.5t-71.5 111t-23 158.5q0 79 16 167t49 173t85 154t124 110t166 41q91 0 153 -44t94.5 -129
t32.5 -208q0 -85 -10.5 -178.5t-30 -188.5t-49 -186t-67.5 -170q-35 -81 -82.5 -152.5t-108 -127t-135 -87.5t-165.5 -32zM420 703q31 0 57.5 13.5t48 37t37.5 53.5q38 54 56.5 134t18.5 172q0 64 -11.5 106t-34 63.5t-55.5 21.5q-55 0 -96 -45t-68 -114t-40.5 -143.5
t-13.5 -133.5q0 -80 26 -122.5t75 -42.5z" />
    <glyph glyph-name="colon" unicode=":" horiz-adv-x="445" 
d="M288 838q-48 0 -75.5 24.5t-27.5 73.5q0 46 18 87t52.5 67t84.5 26q46 0 71 -27.5t25 -72.5q0 -77 -43 -127.5t-105 -50.5zM105 -17q-48 0 -75.5 25t-27.5 74q0 70 40 125t115 55q46 0 71.5 -26.5t25.5 -73.5q0 -78 -44.5 -128.5t-104.5 -50.5z" />
    <glyph glyph-name="semicolon" unicode=";" horiz-adv-x="445" 
d="M-106 -272q37 85 71 172t64 174t54 171h197l7 -21q-32 -87 -70 -173.5t-80 -167.5t-87 -155h-156zM296 838q-48 0 -75 24.5t-27 73.5q0 46 17.5 87t52.5 67t85 26q45 0 70 -27.5t25 -72.5q0 -77 -43 -127.5t-105 -50.5z" />
    <glyph glyph-name="less" unicode="&#x3c;" horiz-adv-x="922" 
d="M877 260l-798 415v117l798 410v-197l-555 -272l555 -278v-195z" />
    <glyph glyph-name="equal" unicode="=" horiz-adv-x="922" 
d="M84 857v174h791v-174h-791zM84 412v174h791v-174h-791z" />
    <glyph glyph-name="greater" unicode="&#x3e;" horiz-adv-x="922" 
d="M83 455l554 277l-554 273v197l798 -410v-117l-798 -415v195z" />
    <glyph glyph-name="question" unicode="?" horiz-adv-x="633" 
d="M140 432q21 101 43 168t55 120.5t85 113.5q58 66 103 117.5t71.5 106t26.5 128.5q0 60 -29 89t-82 29q-58 0 -108.5 -24.5t-96.5 -56.5l-36 155q70 53 143 79t145 26q127 0 194.5 -66.5t67.5 -183.5q0 -93 -32 -171t-85.5 -147t-118.5 -137q-60 -65 -94 -112.5t-53 -99.5
t-35 -134h-164zM142 -17q-49 0 -76.5 25t-27.5 74q0 70 40.5 125t115.5 55q45 0 70.5 -26.5t25.5 -73.5q0 -78 -43.5 -128.5t-104.5 -50.5z" />
    <glyph glyph-name="at" unicode="@" horiz-adv-x="1255" 
d="M489 -168q-109 0 -191.5 34.5t-138 99t-83.5 154.5t-28 201q0 168 35.5 334.5t103 314.5t163.5 262t217.5 179.5t265.5 65.5q127 0 217.5 -59.5t139.5 -167.5t49 -255q0 -92 -17 -196.5t-49.5 -204t-79 -181t-105 -130t-126.5 -48.5q-81 0 -111.5 40.5t-39.5 111.5h-3
q-35 -70 -83.5 -112.5t-100.5 -42.5q-85 0 -127 55t-42 164q0 68 16 152.5t48 169t80.5 155t113 113.5t145.5 43q64 0 116 -12t93 -32l-120 -491q-9 -38 -14 -67t-5 -46q0 -38 11 -56t33 -18q42 0 77.5 44.5t63 117t46.5 156.5t29 163.5t10 137.5q0 123 -32 204.5t-94 121.5
t-151 40q-118 0 -216.5 -59.5t-175 -161.5t-130 -233t-81 -274.5t-27.5 -284.5q0 -109 30.5 -193.5t96.5 -132t172 -47.5q77 0 152.5 18t147.5 53v-127q-69 -33 -148 -53t-153 -20zM560 362q44 0 84 74t79 223l74 289q-13 5 -26.5 7t-32.5 2q-54 0 -97.5 -52t-74 -130.5
t-46.5 -161.5t-16 -144q0 -56 14.5 -81.5t41.5 -25.5z" />
    <glyph glyph-name="A" unicode="A" horiz-adv-x="887" 
d="M-130 0l617 1468h259l10 -1468h-214l4 426h-282l-171 -426h-223zM333 607h222l10 484q1 50 3 94.5t6 86.5h-6q-8 -40 -21.5 -83.5t-31.5 -94.5z" />
    <glyph glyph-name="B" unicode="B" horiz-adv-x="921" 
d="M-2 0l309 1462h299q92 0 167 -31t120 -95t45 -165q0 -90 -29 -172.5t-90 -143t-156 -87.5v-7q76 -24 117 -96.5t41 -170.5q0 -133 -53.5 -245.5t-158 -180.5t-259.5 -68h-352zM240 177h111q90 0 147.5 45t84.5 119t27 161q0 88 -41.5 131.5t-115.5 43.5h-108zM381 847
h102q77 0 130 41.5t81 108.5t28 142q0 74 -38 111.5t-117 37.5h-92z" />
    <glyph glyph-name="C" unicode="C" horiz-adv-x="831" 
d="M411 -20q-111 0 -186.5 54t-113.5 159.5t-38 258.5q0 127 26 268.5t77.5 277t128.5 245.5t179 175.5t229 65.5q75 0 142 -19t121 -60l-102 -165q-37 32 -76.5 47t-82.5 15q-88 0 -157 -61t-120 -159t-84.5 -212t-50 -221t-16.5 -184q0 -159 42.5 -231t132.5 -72
q50 0 102.5 15t107.5 40v-184q-61 -27 -129 -40t-132 -13z" />
    <glyph glyph-name="D" unicode="D" horiz-adv-x="987" 
d="M-1 0l309 1462h259q194 0 296.5 -112t102.5 -327q0 -133 -24.5 -276t-76 -276t-133 -239.5t-196 -169t-265.5 -62.5h-272zM240 184h60q97 0 170.5 53.5t126.5 142.5t87 197t50 220t16 209q0 143 -51 208.5t-153 65.5h-73z" />
    <glyph glyph-name="E" unicode="E" horiz-adv-x="776" 
d="M-2 0l310 1462h561l-38 -179h-357l-91 -431h333l-39 -180h-333l-105 -491h359l-38 -181h-562z" />
    <glyph glyph-name="F" unicode="F" horiz-adv-x="736" 
d="M-2 0l310 1462h561l-37 -179h-358l-103 -488h333l-39 -180h-333l-130 -615h-204z" />
    <glyph glyph-name="G" unicode="G" horiz-adv-x="1032" 
d="M479 -20q-205 0 -305 119.5t-100 348.5q0 162 31 314.5t90 283.5t143.5 229.5t192 153.5t236.5 55q95 0 177 -25t139 -66l-95 -175q-58 43 -116.5 63.5t-123.5 20.5q-106 0 -191 -75.5t-146 -200t-93 -272t-32 -291.5q0 -104 23.5 -170.5t70.5 -98.5t117 -32
q38 0 73.5 5.5t70.5 16.5l91 430h-172l37 177h375l-158 -742q-88 -33 -174.5 -51t-160.5 -18z" />
    <glyph glyph-name="H" unicode="H" horiz-adv-x="1027" 
d="M-2 0l310 1462h204l-129 -606h366l129 606h204l-311 -1462h-204l142 673h-365l-142 -673h-204z" />
    <glyph glyph-name="I" unicode="I" horiz-adv-x="458" 
d="M-3 0l311 1462h202l-309 -1462h-204z" />
    <glyph glyph-name="J" unicode="J" horiz-adv-x="448" 
d="M-157 -407q-49 0 -84.5 6t-64.5 18l43 180q24 -11 48.5 -17.5t49.5 -6.5q50 0 82 33t52.5 89.5t35.5 126.5l304 1440h204l-311 -1474q-30 -139 -79.5 -226.5t-119 -128t-160.5 -40.5z" />
    <glyph glyph-name="K" unicode="K" horiz-adv-x="880" 
d="M-2 0l310 1462h204l-148 -695l104 166l365 529h224l-462 -673l163 -789h-222l-118 639l-102 -100l-114 -539h-204z" />
    <glyph glyph-name="L" unicode="L" horiz-adv-x="720" 
d="M-2 0l310 1462h204l-273 -1281h357l-36 -181h-562z" />
    <glyph glyph-name="M" unicode="M" horiz-adv-x="1369" 
d="M-2 0l310 1462h276l39 -1115h5l499 1115h296l-311 -1462h-200l195 916q6 30 13.5 59t15 59.5t15.5 61.5h-4l-499 -1096h-188l-39 1092h-5q-8 -42 -14 -79.5t-12 -72t-14 -68.5l-184 -872h-194z" />
    <glyph glyph-name="N" unicode="N" horiz-adv-x="1094" 
d="M-2 0l310 1462h235l184 -1088h6q11 67 22.5 131t22.5 119.5t18 94.5l159 743h194l-310 -1462h-232l-186 1110h-6q-7 -53 -16 -108.5t-19.5 -108t-19.5 -96t-15 -73.5l-153 -724h-194z" />
    <glyph glyph-name="O" unicode="O" horiz-adv-x="1051" 
d="M415 -20q-115 0 -191 48t-114 147t-38 251q0 111 17.5 231.5t51.5 239.5t85.5 224.5t120 187.5t154.5 128.5t189 46.5q174 0 256 -107.5t82 -325.5q0 -97 -15 -212.5t-46.5 -236t-80.5 -231.5t-116.5 -199t-156 -140t-198.5 -52zM431 164q65 0 118.5 44t96.5 118.5
t75.5 168.5t54 194t32 195t10.5 171q0 126 -36.5 186.5t-109.5 60.5q-68 0 -123.5 -46t-98 -123.5t-74 -172.5t-52 -194t-30 -188t-9.5 -154q0 -95 16.5 -152t49 -82.5t80.5 -25.5z" />
    <glyph glyph-name="P" unicode="P" horiz-adv-x="862" 
d="M-1 0l309 1462h251q117 0 194.5 -40t115.5 -113.5t38 -172.5q0 -117 -32 -222.5t-94.5 -186.5t-155.5 -127.5t-216 -46.5h-90l-116 -553h-204zM357 734h51q94 0 158 47.5t96.5 132.5t32.5 196q0 88 -42 130.5t-128 42.5h-51z" />
    <glyph glyph-name="Q" unicode="Q" horiz-adv-x="1051" 
d="M492 -348l-91 332h-18h-17q-99 8 -164.5 58.5t-97.5 146t-32 237.5q0 111 17.5 231.5t51.5 239.5t85.5 224.5t120 187.5t154.5 128.5t189 46.5q174 0 256 -107.5t82 -325.5q0 -98 -15.5 -216.5t-47 -241.5t-82 -235t-120 -199t-160.5 -132l124 -375h-235zM431 164
q65 0 118.5 44t96.5 118.5t75.5 168.5t54 194t32 195t10.5 171q0 126 -36.5 186.5t-109.5 60.5q-68 0 -123.5 -46t-98 -123.5t-74 -172.5t-52 -194t-30 -188t-9.5 -154q0 -95 16.5 -152t49 -82.5t80.5 -25.5z" />
    <glyph glyph-name="R" unicode="R" horiz-adv-x="895" 
d="M-1 0l309 1462h245q177 0 267.5 -84t90.5 -239q0 -122 -35.5 -226t-102 -175.5t-157.5 -99.5l136 -638h-223l-107 598h-94l-125 -598h-204zM365 767h78q66 0 113.5 29.5t78.5 79.5t46 111.5t15 124.5q0 87 -42.5 130t-125.5 43h-54z" />
    <glyph glyph-name="S" unicode="S" horiz-adv-x="798" 
d="M251 -20q-94 0 -168.5 18t-127.5 55l35 213q53 -39 123 -66t142 -27q48 0 89 15t71.5 44.5t47.5 74t17 103.5q0 49 -12 88.5t-43 82t-90 100.5q-56 55 -96 108.5t-60.5 116.5t-20.5 146q0 96 29.5 175t85.5 136.5t136.5 88.5t183.5 31q75 0 154.5 -22.5t133.5 -61.5
l-95 -186q-50 37 -102.5 58.5t-103.5 21.5q-44 0 -81.5 -14.5t-66 -42.5t-44.5 -69t-16 -93q0 -51 16.5 -92.5t52.5 -84.5t93 -99q56 -52 91.5 -106t52.5 -117.5t17 -143.5q0 -95 -28.5 -177t-84.5 -143.5t-139 -96t-192 -34.5z" />
    <glyph glyph-name="T" unicode="T" horiz-adv-x="745" 
d="M139 0l272 1280h-248l40 182h700l-40 -182h-248l-272 -1280h-204z" />
    <glyph glyph-name="U" unicode="U" horiz-adv-x="999" 
d="M382 -20q-98 0 -168 37.5t-107.5 108.5t-37.5 171q0 37 5.5 82t14.5 92l212 991h204l-213 -998q-8 -38 -12 -73.5t-4 -64.5q0 -82 34 -122t98 -40t108 33t75 103t55 181l211 981h204l-216 -1006q-31 -148 -87.5 -255t-147.5 -164t-228 -57z" />
    <glyph glyph-name="V" unicode="V" horiz-adv-x="882" 
d="M193 0l-13 1462h209l-10 -892q-1 -45 -2.5 -90t-4.5 -94.5t-8 -109.5h4q10 39 23.5 81t31 89t38.5 98l375 918h219l-626 -1462h-236z" />
    <glyph glyph-name="W" unicode="W" horiz-adv-x="1380" 
d="M142 0l39 1462h198l-27 -852q-4 -87 -8.5 -154.5t-9.5 -118.5h4q24 68 50 137t53 137l334 851h179l-29 -830q-4 -91 -8 -159t-9 -136h4q17 51 33.5 98t34.5 93.5t37 96.5l324 837h207l-574 -1462h-238l28 833q1 30 2.5 64t4.5 70.5t6 73.5h-4q-15 -49 -32 -97.5
t-35 -95.5l-329 -848h-235z" />
    <glyph glyph-name="X" unicode="X" horiz-adv-x="821" 
d="M-120 0l448 761l-109 701h211l59 -498l262 498h218l-408 -714l118 -748h-219l-57 542l-305 -542h-218z" />
    <glyph glyph-name="Y" unicode="Y" horiz-adv-x="792" 
d="M165 0l118 561l-105 901h212l49 -630l315 630h219l-483 -896l-121 -566h-204z" />
    <glyph glyph-name="Z" unicode="Z" horiz-adv-x="738" 
d="M-83 0l32 151l652 1131h-401l38 180h632l-32 -153l-655 -1128h427l-38 -181h-655z" />
    <glyph glyph-name="bracketleft" unicode="[" horiz-adv-x="580" 
d="M-67 -333l387 1815h405l-34 -159h-225l-319 -1498h225l-34 -158h-405z" />
    <glyph glyph-name="backslash" unicode="\" horiz-adv-x="725" 
d="M393 -9l-188 1481h176l191 -1481h-179z" />
    <glyph glyph-name="bracketright" unicode="]" horiz-adv-x="580" 
d="M-142 -333l33 158h225l319 1498h-225l34 159h406l-387 -1815h-405z" />
    <glyph glyph-name="asciicircum" unicode="^" horiz-adv-x="851" 
d="M7 636l504 826h121l218 -826h-181l-147 549l-325 -549h-190z" />
    <glyph glyph-name="underscore" unicode="_" horiz-adv-x="661" 
d="M-181 -313l28 152h663l-31 -152h-660z" />
    <glyph glyph-name="grave" unicode="`" horiz-adv-x="548" 
d="M478 1241q-26 36 -62.5 92.5t-68.5 115.5t-49 101v18h223q12 -46 25.5 -95.5t30.5 -101.5t38 -107l-3 -23h-134z" />
    <glyph glyph-name="a" unicode="a" horiz-adv-x="894" 
d="M264 -20q-69 0 -118.5 37t-75 107.5t-25.5 169.5q0 91 17 202t51 222t87 203.5t124.5 149t163.5 56.5q46 0 82.5 -17.5t63.5 -53t42 -90.5h6l47 140h169l-235 -1106h-159l9 152h-5q-36 -52 -73 -91t-78.5 -60t-92.5 -21zM338 149q63 0 108 54t76.5 135.5t52.5 164.5
q24 98 34.5 169t10.5 131q0 72 -26.5 111.5t-75.5 39.5q-50 0 -92.5 -44t-75 -115.5t-55.5 -157t-35 -170t-12 -151.5q0 -84 22.5 -125.5t67.5 -41.5z" />
    <glyph glyph-name="b" unicode="b" horiz-adv-x="886" 
d="M399 -20q-49 0 -87 19t-63.5 53.5t-39.5 80.5h-6l-52 -133h-158l329 1556h196l-96 -453q-4 -17 -9.5 -39t-11.5 -45.5t-14 -48.5h4q33 52 70.5 86.5t80.5 52.5t91 18q68 0 115.5 -36.5t73.5 -106t26 -170.5q0 -91 -17.5 -202.5t-52.5 -222.5t-88.5 -203.5t-126 -149
t-164.5 -56.5zM376 148q48 0 89.5 45t74.5 117.5t56 158.5t35.5 170.5t12.5 149.5q0 86 -23 125.5t-70 39.5q-46 0 -84.5 -33t-69.5 -88.5t-55 -124.5t-39.5 -141.5t-23.5 -139.5t-8 -119q0 -79 26 -119.5t79 -40.5z" />
    <glyph glyph-name="c" unicode="c" horiz-adv-x="687" 
d="M325 -20q-89 0 -151 39.5t-93.5 115t-31.5 185.5q0 99 17.5 209.5t54.5 216.5t95 192t139.5 137.5t187.5 51.5q60 0 111 -14.5t96 -43.5l-80 -159q-28 20 -61.5 32t-65.5 12q-75 0 -130.5 -62t-91 -157.5t-53 -200t-17.5 -189.5q0 -66 13.5 -109t41 -64t67.5 -21t85.5 17
t94.5 50v-171q-42 -28 -102.5 -47.5t-125.5 -19.5z" />
    <glyph glyph-name="d" unicode="d" horiz-adv-x="893" 
d="M261 -20q-68 0 -116.5 37t-74 107.5t-25.5 169.5q0 89 17 199t51 221.5t85.5 205t121.5 150.5t158 57q48 0 87.5 -16.5t68 -49t42.5 -80.5h6q5 36 11 70.5t12 66t11 57.5l81 381h196l-330 -1556h-159l9 145h-5q-38 -53 -75 -89.5t-78.5 -56t-93.5 -19.5zM338 148
q50 0 89.5 35.5t71 95t54.5 131.5t38 146t22 139.5t7 109.5q0 73 -25 111t-77 38q-53 0 -95.5 -46.5t-75.5 -121t-55 -161t-33 -169t-11 -143.5q0 -83 22.5 -124t67.5 -41z" />
    <glyph glyph-name="e" unicode="e" horiz-adv-x="817" 
d="M352 -20q-95 0 -163.5 40.5t-105 118t-36.5 186.5q0 157 34.5 301t99.5 256.5t157 178t207 65.5q111 0 178 -62.5t67 -179.5q0 -93 -35.5 -167t-103 -125t-163.5 -78t-218 -27h-15q-6 -34 -10 -69.5t-4 -69.5q0 -109 39.5 -157.5t118.5 -48.5q60 0 110.5 15.5t115.5 52.5
v-158q-62 -39 -130 -55.5t-143 -16.5zM283 633h7q115 0 184.5 30.5t100.5 84t31 121.5q0 45 -21.5 71t-66.5 26q-48 0 -93 -41.5t-81 -116.5t-61 -175z" />
    <glyph glyph-name="f" unicode="f" horiz-adv-x="508" 
d="M-130 -492q-31 0 -59.5 4t-57.5 13v173q19 -6 45 -10.5t47 -4.5q72 0 97.5 56.5t46.5 153.5l223 1047h-117l22 107l129 58l25 110q16 75 37.5 139t54.5 112t84 74.5t126 26.5q44 0 88.5 -9t83.5 -29l-71 -154q-19 11 -41 17t-42 6q-54 0 -80 -48.5t-45 -136.5l-22 -107
h152l-34 -166h-153l-230 -1063q-22 -106 -55.5 -189.5t-93 -131.5t-160.5 -48z" />
    <glyph glyph-name="g" unicode="g" horiz-adv-x="846" 
d="M201 -492q-166 -1 -252.5 64.5t-85.5 195.5q2 111 71 196.5t190 130.5q-31 15 -51.5 49.5t-20.5 78.5q0 57 38.5 109t113.5 104q-39 25 -63 82t-24 134q0 114 49.5 224.5t141.5 176.5q43 33 98 52.5t112 19.5q49 0 82.5 -8.5t54.5 -17.5h275l-25 -121l-133 -31
q11 -21 16 -49t5 -61q0 -84 -32 -176t-87 -156q-52 -60 -122.5 -93.5t-158.5 -33.5q-28 0 -45.5 -0.5t-25.5 -4.5q-51 -23 -76 -58.5t-25 -66.5q0 -32 28 -44q11 -5 27 -7t38 -2h163q80 0 129.5 -28t73 -79.5t23.5 -120.5q0 -122 -54 -217.5t-145 -153.5q-63 -42 -141 -64.5
t-162 -23.5zM208 -341q57 1 109 17.5t93 48.5q44 33 71.5 83.5t27.5 107.5q0 23 -6 42t-22 34q-13 11 -38.5 17.5t-63.5 7.5h-134q-45 0 -90 -36.5t-75 -90.5t-30 -106q0 -72 41.5 -99t116.5 -26zM395 520q52 0 94 42t70 113t35 157q5 47 0.5 80t-20.5 51q-9 10 -22 15.5
t-32 5.5q-42 0 -77 -28.5t-62 -75t-43.5 -100.5t-20.5 -104q-3 -36 -1.5 -64.5t10.5 -47.5q19 -44 69 -44z" />
    <glyph glyph-name="h" unicode="h" horiz-adv-x="878" 
d="M-5 0l330 1556h195l-82 -380q-6 -32 -15 -66.5t-18.5 -69t-20.5 -67.5h4q30 50 65.5 84t78.5 52t94 18q63 0 107.5 -26t69 -76t24.5 -121q0 -41 -9 -97.5t-19 -106.5l-149 -700h-196l140 661q11 51 19.5 101t8.5 94q0 43 -21 67t-63 24q-48 0 -87.5 -34t-71.5 -107
t-58 -193l-130 -613h-196z" />
    <glyph glyph-name="i" unicode="i" horiz-adv-x="421" 
d="M-6 0l235 1106h195l-234 -1106h-196zM369 1274q-47 0 -71 23t-24 67q0 39 15 76.5t45.5 62t76.5 24.5t70 -21t24 -66q0 -68 -37 -117t-99 -49z" />
    <glyph glyph-name="j" unicode="j" horiz-adv-x="424" 
d="M-148 -492q-31 0 -59 3.5t-55 13.5v175q17 -8 42.5 -12t46.5 -4q44 0 71 21.5t45 72t36 137.5l251 1191h196l-256 -1205q-25 -120 -60 -208t-95 -136.5t-163 -48.5zM372 1274q-47 0 -71 23t-24 67q0 39 14.5 76.5t45 62t77.5 24.5q45 0 69.5 -21t24.5 -66q0 -68 -37 -117
t-99 -49z" />
    <glyph glyph-name="k" unicode="k" horiz-adv-x="797" 
d="M-6 0l331 1556h196l-154 -715q-6 -32 -14.5 -67.5t-18.5 -75t-23 -82.5h5l363 490h214l-342 -455l128 -651h-210l-88 490l-116 -123l-75 -367h-196z" />
    <glyph glyph-name="l" unicode="l" horiz-adv-x="417" 
d="M-6 0l331 1556h196l-331 -1556h-196z" />
    <glyph glyph-name="m" unicode="m" horiz-adv-x="1307" 
d="M-7 0l235 1106h159l-17 -139h7q30 50 67 86t81 55t94 19q80 0 127.5 -35t65.5 -107h5q31 44 68.5 76t82 49t94.5 17q92 0 144 -55.5t52 -162.5q0 -32 -5.5 -72t-13.5 -80l-161 -757h-196l151 712q8 39 13.5 75.5t5.5 60.5q0 51 -20.5 75.5t-59.5 24.5q-40 0 -70.5 -23
t-53 -61t-38.5 -84.5t-26 -93.5l-147 -686h-195l154 725q8 36 12 69t4 56q0 49 -19.5 73.5t-58.5 24.5q-46 0 -81 -29.5t-60.5 -79.5t-43.5 -112.5t-31 -128.5l-127 -598h-198z" />
    <glyph glyph-name="n" unicode="n" horiz-adv-x="878" 
d="M-7 0l235 1106h158l-15 -144h5q31 53 68 89.5t81 56t93 19.5q57 0 104.5 -22.5t76 -70.5t28.5 -128q0 -40 -8.5 -92t-19.5 -106l-150 -708h-196l142 669q10 50 18.5 99.5t8.5 87.5q0 44 -20 67.5t-61 23.5q-55 0 -97 -42.5t-73.5 -122.5t-55.5 -193l-124 -589h-198z" />
    <glyph glyph-name="o" unicode="o" horiz-adv-x="866" 
d="M331 -20q-89 0 -152.5 40t-97 117.5t-33.5 187.5q0 85 16.5 190.5t51.5 213t92.5 197.5t139.5 145.5t190 55.5q89 0 151.5 -41.5t96 -119t33.5 -188.5q0 -99 -18 -209t-55.5 -214.5t-95.5 -189t-137.5 -135t-181.5 -50.5zM353 149q51 0 93 42.5t74 112.5t54.5 154.5
t34 168.5t11.5 154q0 56 -11.5 96t-35.5 60.5t-60 20.5q-54 0 -97 -45.5t-75 -119t-53 -159t-31.5 -168t-10.5 -143.5q0 -84 27 -129t80 -45z" />
    <glyph glyph-name="p" unicode="p" horiz-adv-x="886" 
d="M-105 -479l334 1585h161l-17 -156h7q38 60 77 99t82 58.5t91 19.5q69 0 117 -34.5t74 -104.5t26 -177q0 -95 -18 -207t-53 -222t-88.5 -201t-124.5 -146t-160 -55q-47 0 -84 18.5t-63 52.5t-39 80h-6q-7 -53 -16 -104t-18 -91l-89 -415h-193zM374 152q50 0 92 43.5
t75 115.5t56.5 157t35.5 170t12 154q0 86 -23 126.5t-68 40.5t-84 -34t-70 -91.5t-55 -128t-40 -144.5t-24.5 -140.5t-8.5 -115.5q0 -75 25.5 -114t76.5 -39z" />
    <glyph glyph-name="q" unicode="q" horiz-adv-x="895" 
d="M363 -488l99 463q4 19 10.5 44.5t14.5 54.5t17 59h-5q-35 -51 -72.5 -85t-79 -51t-90.5 -17q-66 0 -114 35t-73.5 103.5t-25.5 167.5q0 89 17 200t51.5 223.5t88 207t125.5 152.5t165 58q54 0 91 -18.5t61 -54.5t37 -89h4l44 141h170l-339 -1594h-196zM340 152
q46 0 84.5 33.5t69.5 90t54.5 126t39.5 144t24 143t8 121.5q0 69 -26.5 106.5t-77.5 37.5q-50 0 -92 -44.5t-75 -116t-55.5 -157t-34 -169.5t-11.5 -151q0 -85 22.5 -124.5t69.5 -39.5z" />
    <glyph glyph-name="r" unicode="r" horiz-adv-x="600" 
d="M-6 0l234 1106h153l-19 -176h8q32 67 68 110.5t80.5 65t99.5 21.5q20 0 39 -3.5t40 -10.5l-58 -210q-18 7 -37.5 10.5t-42.5 3.5q-51 0 -91.5 -30.5t-71 -80.5t-51.5 -111t-34 -122l-121 -573h-196z" />
    <glyph glyph-name="s" unicode="s" horiz-adv-x="681" 
d="M226 -20q-81 0 -142.5 15t-101.5 40v193q43 -32 105 -53.5t116 -21.5q50 0 85.5 18t55 53t19.5 86q0 35 -9 64t-33.5 62.5t-69.5 78.5q-48 47 -78.5 91t-45 91.5t-14.5 103.5q0 91 38 164.5t111 117.5t177 44q82 0 152 -22t118 -56l-82 -154q-41 33 -89.5 50t-90.5 17
q-61 0 -97 -36t-36 -97q0 -33 8 -60.5t30.5 -57.5t64.5 -70q52 -52 86 -95.5t50.5 -93.5t16.5 -122q0 -102 -40.5 -181t-117 -124t-186.5 -45z" />
    <glyph glyph-name="t" unicode="t" horiz-adv-x="536" 
d="M235 -20q-96 0 -137 55t-41 147q0 31 5 70t15 87l128 601h-100l22 108l126 54l95 249h140l-53 -245h164l-35 -166h-164l-131 -621q-6 -29 -10.5 -54t-4.5 -44q0 -35 14 -51t47 -16q17 0 44.5 5t53.5 16v-159q-39 -18 -89 -27t-89 -9z" />
    <glyph glyph-name="u" unicode="u" horiz-adv-x="880" 
d="M256 -20q-67 0 -113.5 26.5t-70.5 76.5t-24 121q0 37 7 86t16 94l155 722h195l-144 -683q-11 -46 -17.5 -90t-6.5 -81q0 -44 19.5 -69.5t59.5 -25.5q56 0 98 43.5t74 124.5t55 193l126 588h195l-233 -1106h-157l11 138h-6q-31 -49 -68.5 -84.5t-80.5 -54.5t-90 -19z" />
    <glyph glyph-name="v" unicode="v" horiz-adv-x="745" 
d="M146 0l-24 1106h196l-4 -574q0 -33 -1 -78.5t-3 -90t-6 -75.5h8q10 32 20.5 61.5t22.5 59t23 57.5l269 640h205l-493 -1106h-213z" />
    <glyph glyph-name="w" unicode="w" horiz-adv-x="1174" 
d="M108 0l22 1106h192l-19 -563q-2 -62 -6.5 -120t-9.5 -112h5q9 33 21.5 70t26 73.5t25.5 68.5l227 583h221l-21 -567q-2 -56 -7 -118.5t-8 -120.5h4q15 44 29.5 87t30 87t31.5 87l208 545h197l-444 -1106h-227l28 643l4 64t4.5 65.5t4.5 65.5h-4q-8 -28 -17.5 -54.5
l-19 -53t-19.5 -53.5l-259 -677h-220z" />
    <glyph glyph-name="x" unicode="x" horiz-adv-x="761" 
d="M-96 0l357 573l-111 533h209l58 -365l209 365h218l-344 -544l121 -562h-209l-66 393l-229 -393h-213z" />
    <glyph glyph-name="y" unicode="y" horiz-adv-x="755" 
d="M-57 -493q-37 0 -66.5 5.5t-53.5 14.5l31 176q21 -8 42 -12.5t43 -4.5q55 0 89 40t67 114l75 171l-37 1095h197l3 -577q0 -37 -1 -75t-2.5 -76.5t-3.5 -77.5h6q12 40 25.5 79t27 74t23.5 61l250 592h205l-580 -1298q-41 -90 -86.5 -158t-105.5 -105.5t-148 -37.5z" />
    <glyph glyph-name="z" unicode="z" horiz-adv-x="631" 
d="M-76 0l27 126l487 813h-295l36 167h516l-29 -136l-479 -801h323l-37 -169h-549z" />
    <glyph glyph-name="braceleft" unicode="{" horiz-adv-x="678" 
d="M442 -324q-167 1 -241.5 65t-74.5 184q0 27 4 55.5t10 57.5l51 248q4 19 7.5 38t3.5 40q0 65 -35.5 95.5t-128.5 30.5l36 166q103 1 159.5 46.5t77.5 147.5l68 319q26 121 79.5 184t139.5 86t209 23h6l-38 -166q-98 -1 -143.5 -38.5t-65.5 -134.5l-65 -311
q-21 -100 -82 -162t-175 -79l-1 -6q80 -21 117 -67t37 -115q0 -21 -3 -47.5t-9 -56.5l-51 -242q-4 -22 -6 -40.5t-2 -32.5q0 -63 29.5 -91t103.5 -30l-3 -167h-14z" />
    <glyph glyph-name="bar" unicode="|" horiz-adv-x="761" 
d="M289 -482v2050h175v-2050h-175z" />
    <glyph glyph-name="braceright" unicode="}" horiz-adv-x="677" 
d="M-122 -324l1 167q70 0 115 17t72 55.5t40 101.5l65 310q21 100 82 162t175 78l1 6q-79 22 -117 68t-38 115q0 23 3.5 49t9.5 56l51 240q4 22 6 40.5t2 34.5q0 61 -34 90t-108 30l35 166h13q107 0 171.5 -26.5t93 -79.5t28.5 -132q0 -26 -3 -60t-9 -64l-52 -247
q-4 -19 -7.5 -38t-3.5 -39q0 -65 36 -95.5t128 -30.5l-36 -167q-68 -1 -116 -22t-77 -63.5t-43 -108.5l-69 -319q-25 -117 -74.5 -181t-131.5 -88.5t-204 -24.5h-5z" />
    <glyph glyph-name="asciitilde" unicode="~" horiz-adv-x="922" 
d="M456 638q-49 27 -95 41.5t-87 14.5q-46 0 -96.5 -31t-99.5 -89v191q42 51 94.5 77.5t116.5 26.5q59 0 109.5 -17.5t105.5 -44.5q54 -27 97.5 -41.5t85.5 -14.5q47 0 99.5 33t95.5 86v-191q-41 -49 -93.5 -75t-115.5 -26q-61 0 -109.5 16t-107.5 44z" />
    <glyph glyph-name="uni00A0" unicode="&#xa0;" horiz-adv-x="349" 
 />
    <glyph glyph-name="exclamdown" unicode="&#xa1;" horiz-adv-x="490" 
d="M-61 -375l256 1046h164l-192 -1046h-228zM315 842q-43 0 -68.5 26.5t-25.5 72.5q0 78 43 129t104 51q48 0 75.5 -25t27.5 -74q0 -47 -18 -88t-52.5 -66.5t-85.5 -25.5z" />
    <glyph glyph-name="cent" unicode="&#xa2;" horiz-adv-x="840" 
d="M274 -20l45 204q-99 22 -144.5 105.5t-45.5 236.5q0 87 16 188t49 200.5t84 185t121.5 143.5t160.5 73l35 167h126l-34 -166q42 -5 78 -19.5t64 -31.5l-80 -162q-26 19 -60 32t-62 13q-71 0 -126 -59.5t-93 -153.5t-57.5 -200t-19.5 -199q0 -101 29.5 -146t89.5 -45
q40 0 79 14t78 39l50 -145q-46 -35 -105 -52t-108 -22l-43 -200h-127z" />
    <glyph glyph-name="sterling" unicode="&#xa3;" horiz-adv-x="841" 
d="M-43 0l37 168q47 24 82.5 61t60.5 91.5t42 130.5l44 208h-132l33 158h131l65 310q25 109 68.5 189t113.5 123.5t174 43.5q71 0 133.5 -21t112.5 -62l-89 -163q-34 30 -73 47t-82 17q-71 0 -107.5 -51t-58.5 -152l-59 -281h230l-34 -158h-228l-44 -207
q-22 -102 -65.5 -167t-103.5 -104h472l-38 -181h-685z" />
    <glyph glyph-name="currency" unicode="&#xa4;" horiz-adv-x="1028" 
d="M895 278l-135 130q-50 -33 -105.5 -51t-113.5 -18q-61 0 -117.5 18.5t-103.5 52.5l-131 -130l-91 94l130 130q-36 49 -53.5 104.5t-17.5 114.5q0 58 17.5 113t53.5 106l-133 133l94 94l133 -133q49 37 105.5 54.5t113.5 17.5q58 0 113.5 -18t105.5 -53l134 132l93 -93
l-132 -132q35 -49 53.5 -104.5t18.5 -116.5t-18 -117t-53 -105l130 -130zM540 474q71 0 128.5 34.5t91 91.5t33.5 123q1 68 -34 125t-92.5 92t-125.5 35q-67 0 -124.5 -34.5t-92 -91.5t-34.5 -126q0 -68 34 -125t91 -90.5t125 -33.5z" />
    <glyph glyph-name="yen" unicode="&#xa5;" horiz-adv-x="833" 
d="M184 0l56 258h-209l29 138h208l35 164h-208l31 137h176l-69 765h204l26 -612l282 612h209l-392 -765h181l-29 -137h-211l-37 -164h212l-27 -138h-213l-55 -258h-199z" />
    <glyph glyph-name="brokenbar" unicode="&#xa6;" horiz-adv-x="761" 
d="M289 786v781h175v-781h-175zM289 -481v780h175v-780h-175z" />
    <glyph glyph-name="section" unicode="&#xa7;" horiz-adv-x="752" 
d="M254 39q-76 0 -139.5 17t-105.5 46v167q54 -44 117 -64.5t116 -20.5q77 0 125 47t48 122q0 36 -16.5 63.5t-44.5 52.5t-64 51q-48 33 -87.5 71t-63 85t-23.5 107q0 66 23.5 117.5t68 91.5t106.5 71q-43 42 -62.5 89.5t-19.5 111.5q0 75 38 141t109.5 108t170.5 45
q81 0 148.5 -19.5t121.5 -55.5l-76 -136q-42 34 -90 51t-98 17q-41 0 -74.5 -18t-53 -50t-19.5 -76q0 -52 31.5 -87.5t84.5 -72.5q64 -45 103.5 -85t57.5 -81t18 -88q0 -66 -22 -118.5t-62.5 -96t-99.5 -83.5q32 -34 53 -81t21 -109q0 -93 -43 -167.5t-119.5 -118.5
t-177.5 -44zM433 634q44 33 70 80t26 102q0 35 -12 62.5t-39 54.5t-74 60q-38 -17 -63.5 -43.5t-38.5 -58.5t-13 -69t15.5 -67.5t47.5 -59.5t81 -61z" />
    <glyph glyph-name="dieresis" unicode="&#xa8;" horiz-adv-x="941" 
d="M743 1285q-41 0 -62.5 21.5t-21.5 62.5q0 58 33 102.5t93 44.5q38 0 59 -20.5t21 -59.5q0 -66 -35 -108.5t-87 -42.5zM419 1285q-41 0 -62.5 21.5t-21.5 62.5q0 58 33 102.5t93 44.5q25 0 42 -9t26 -26.5t9 -44.5q0 -66 -34 -108.5t-85 -42.5z" />
    <glyph glyph-name="copyright" unicode="&#xa9;" horiz-adv-x="1696" 
d="M844 -20q-172 0 -310.5 58t-237 161t-151.5 239t-53 292q0 168 58.5 306.5t162 238.5t241 154t295.5 54q166 0 304.5 -57t239.5 -159.5t156 -240t55 -297.5q0 -163 -56.5 -300.5t-159.5 -238t-241.5 -155.5t-302.5 -55zM880 271q-198 0 -308 119.5t-110 337.5
q0 144 50.5 247t144.5 158.5t226 55.5q72 0 140.5 -16t135.5 -48l-64 -131q-52 25 -103 37t-98 12q-121 0 -188 -79.5t-67 -235.5q0 -160 64 -235t191 -75q54 0 112 13.5t116 40.5v-146q-57 -27 -117.5 -41t-124.5 -14zM851 99q138 0 251.5 47t196.5 132.5t127.5 200.5
t44.5 250q0 141 -46.5 257t-131 201t-198 131t-248.5 46q-140 0 -254.5 -48.5t-197 -135t-127 -202t-44.5 -250.5q0 -141 47.5 -257t132.5 -199t199 -128t248 -45z" />
    <glyph glyph-name="ordfeminine" unicode="&#xaa;" horiz-adv-x="581" 
d="M311 773q-41 0 -81.5 23t-68 76t-27.5 144q0 81 20 162t59.5 149t97.5 109t135 41q58 0 89.5 -28.5t46.5 -71.5h7l33 87h102l-144 -678h-107l11 94h-6q-28 -47 -67.5 -77t-99.5 -30zM348 895q35 0 62 23t47.5 59.5t33.5 80t19.5 86t6.5 76.5q0 67 -19 102t-58 35
q-37 0 -66.5 -29.5t-50.5 -78t-32.5 -107t-11.5 -116.5q0 -68 18 -99.5t51 -31.5z" />
    <glyph glyph-name="guillemotleft" unicode="&#xab;" horiz-adv-x="912" 
d="M248 111l-198 425l3 25l345 417l136 -86l-277 -349l147 -365zM634 111l-200 425l4 25l345 417l136 -86l-276 -349l145 -365z" />
    <glyph glyph-name="logicalnot" unicode="&#xac;" horiz-adv-x="922" 
d="M860 810v-566h-176v392h-599v174h775z" />
    <glyph glyph-name="uni00AD" unicode="&#xad;" horiz-adv-x="558" 
d="M29 457l38 190h454l-39 -190h-453z" />
    <glyph glyph-name="registered" unicode="&#xae;" horiz-adv-x="1696" 
d="M560 302v878h259q161 0 246.5 -64.5t85.5 -197.5q0 -88 -36 -147.5t-111 -93.5l197 -375h-189l-162 341h-117v-341h-173zM732 770h77q76 0 120 33.5t44 107.5q0 69 -39 99.5t-124 30.5h-78v-271zM844 -20q-172 0 -310.5 58t-237 161t-151.5 239t-53 292q0 168 58.5 306.5
t162 238.5t241 154t295.5 54q166 0 304.5 -57t239.5 -159.5t156 -240t55 -297.5q0 -163 -56.5 -300.5t-159.5 -238t-241.5 -155.5t-302.5 -55zM851 99q138 0 251.5 47t196.5 132.5t127.5 200.5t44.5 250q0 141 -46.5 257t-131 201t-198 131t-248.5 46q-140 0 -254.5 -48.5
t-197 -135t-127 -202t-44.5 -250.5q0 -141 47.5 -257t132.5 -199t199 -128t248 -45z" />
    <glyph glyph-name="overscore" unicode="&#xaf;" horiz-adv-x="839" 
d="M195 1556l34 153h848l-32 -153h-850z" />
    <glyph glyph-name="degree" unicode="&#xb0;" horiz-adv-x="744" 
d="M371 910q-84 0 -150 35.5t-104.5 100.5t-38.5 151t39 150.5t105.5 99.5t148.5 35q84 0 150.5 -35.5t105 -99.5t38.5 -150q0 -87 -39 -151.5t-105.5 -100t-149.5 -35.5zM372 1040q70 0 111 42.5t41 114.5q0 70 -40.5 112.5t-111.5 42.5q-74 0 -113.5 -44.5t-39.5 -110.5
q0 -73 42.5 -115t110.5 -42z" />
    <glyph glyph-name="plusminus" unicode="&#xb1;" horiz-adv-x="922" 
d="M85 0v174h790v-174h-790zM568 871h307v-174h-307v-396h-176v396h-308v174h308v401h176v-401z" />
    <glyph glyph-name="uni00B2" unicode="&#xb2;" horiz-adv-x="594" 
d="M92 852l24 130l236 257q53 58 92.5 106.5t61.5 94.5t22 93q0 42 -20.5 64.5t-58.5 22.5q-40 0 -78.5 -24.5t-71.5 -54.5l-54 106q49 51 113 77.5t132 26.5q96 0 148 -52.5t52 -139.5q0 -73 -32.5 -139t-83 -125.5t-106.5 -114.5l-183 -191h303l-29 -137h-467z" />
    <glyph glyph-name="uni00B3" unicode="&#xb3;" horiz-adv-x="594" 
d="M301 836q-62 0 -109.5 13.5t-80.5 38.5v148q36 -31 84.5 -48t108.5 -17q74 0 116.5 44t42.5 113q0 56 -31.5 85t-83.5 29h-73l25 121h65q55 0 92 22.5t56.5 59.5t19.5 81q0 45 -23 68.5t-63 23.5t-76 -16t-76 -47l-57 106q53 44 114 66.5t126 22.5q72 0 118.5 -25.5
t69 -69.5t22.5 -101q0 -84 -46 -147.5t-134 -93.5l-2 -8q47 -20 77.5 -62.5t30.5 -115.5q0 -88 -38 -153.5t-108 -101.5t-167 -36z" />
    <glyph glyph-name="acute" unicode="&#xb4;" horiz-adv-x="551" 
d="M230 1241l2 20q45 53 85.5 106t75 104.5t62.5 97.5h228l-2 -17q-22 -28 -63 -71t-88.5 -90t-91.5 -87t-73 -63h-135z" />
    <glyph glyph-name="uni00B5" unicode="&#xb5;" horiz-adv-x="880" 
d="M-113 -492l339 1598h195l-144 -683q-10 -46 -15.5 -84t-5.5 -68q0 -55 19.5 -83.5t60.5 -28.5q50 0 90 34t72.5 110t58.5 203l129 600h194l-233 -1106h-154l5 125h-4q-27 -52 -58.5 -84t-65.5 -46.5t-71 -14.5q-40 0 -67 19t-44 53h-4q-1 -24 -3 -49.5t-6 -51t-9 -52.5
l-84 -391h-195z" />
    <glyph glyph-name="paragraph" unicode="&#xb6;" horiz-adv-x="972" 
d="M492 -260l-2 890q-13 -6 -29.5 -9t-39.5 -3q-74 0 -123.5 40.5t-78.5 108.5t-41 152t-12 171q0 99 17.5 183.5t54.5 148t95 99t137 35.5h403v-1816h-125v1700h-132v-1700h-124z" />
    <glyph glyph-name="periodcentered" unicode="&#xb7;" horiz-adv-x="446" 
d="M230 583q-48 0 -75.5 25t-27.5 74q0 70 40 125t115 55q46 0 71.5 -26.5t25.5 -73.5q0 -78 -44.5 -128.5t-104.5 -50.5z" />
    <glyph glyph-name="cedilla" unicode="&#xb8;" horiz-adv-x="364" 
d="M-42 -492q-38 0 -72 4.5t-67 12.5v121q19 -6 48 -10t65 -4q41 0 69.5 13t44 37.5t15.5 56.5q0 42 -33 66t-101 30l105 165h111l-65 -96q65 -13 104 -53.5t39 -105.5q0 -80 -35 -132.5t-94.5 -78.5t-133.5 -26z" />
    <glyph glyph-name="uni00B9" unicode="&#xb9;" horiz-adv-x="594" 
d="M307 852l129 591q7 31 13.5 54t12.5 47q-16 -15 -29 -27t-23 -19l-120 -86l-63 98l288 219h133l-187 -877h-154z" />
    <glyph glyph-name="ordmasculine" unicode="&#xba;" horiz-adv-x="586" 
d="M343 771q-101 0 -151.5 66t-50.5 180q0 80 20 161.5t59.5 149.5t99.5 109.5t140 41.5q87 0 144 -58t57 -185q0 -80 -20.5 -162t-60.5 -151t-99.5 -110.5t-137.5 -41.5zM363 898q40 0 69 30t48 79t28 106.5t9 110.5q0 62 -17 95.5t-59 33.5q-38 0 -67.5 -30t-49 -79
t-29.5 -106.5t-10 -112.5q0 -66 19 -96.5t59 -30.5z" />
    <glyph glyph-name="guillemotright" unicode="&#xbb;" horiz-adv-x="914" 
d="M507 111l-136 86l276 350l-146 363l155 68l200 -424l-4 -26zM121 111l-136 86l276 350l-146 363l155 68l198 -424l-2 -26z" />
    <glyph glyph-name="onequarter" unicode="&#xbc;" horiz-adv-x="1401" 
d="M119 0l1051 1462h163l-1051 -1462h-163zM263 586l129 591q7 31 13.5 54t12.5 47q-16 -15 -29 -27t-23 -19l-120 -86l-63 98l288 219h133l-187 -877h-154zM995 0l38 181h-297l22 113l414 589h161l-123 -576h95l-27 -126h-93l-40 -181h-150zM896 307h163l53 245q9 37 16 68
t15 60q-17 -29 -33 -57.5t-38 -59.5z" />
    <glyph glyph-name="onehalf" unicode="&#xbd;" horiz-adv-x="1467" 
d="M106 0l1051 1462h163l-1051 -1462h-163zM263 586l129 591q7 31 13.5 54t12.5 47q-16 -15 -29 -27t-23 -19l-120 -86l-63 98l288 219h133l-187 -877h-154zM793 0l24 130l236 257q53 58 92.5 106.5t61.5 94.5t22 93q0 42 -20.5 64.5t-58.5 22.5q-40 0 -78.5 -24.5
t-71.5 -54.5l-54 106q49 51 113 77.5t132 26.5q96 0 148 -52.5t52 -139.5q0 -73 -32.5 -139t-83 -125.5t-106.5 -114.5l-183 -191h303l-29 -137h-467z" />
    <glyph glyph-name="threequarters" unicode="&#xbe;" horiz-adv-x="1412" 
d="M256 570q-62 0 -109.5 13.5t-80.5 38.5v148q36 -31 84.5 -48t108.5 -17q74 0 116.5 44t42.5 113q0 56 -31.5 85t-83.5 29h-73l25 121h65q55 0 92 22.5t56.5 59.5t19.5 81q0 45 -23 68.5t-63 23.5t-76 -16t-76 -47l-57 106q53 44 114 66.5t126 22.5q72 0 118.5 -25.5
t69 -69.5t22.5 -101q0 -84 -46 -147.5t-134 -93.5l-2 -8q47 -20 77.5 -62.5t30.5 -115.5q0 -88 -38 -153.5t-108 -101.5t-167 -36zM145 0l1051 1462h163l-1051 -1462h-163zM1007 0l38 181h-297l22 113l414 589h161l-123 -576h95l-27 -126h-93l-40 -181h-150zM908 307h163
l53 245q9 37 16 68t15 60q-17 -29 -33 -57.5t-38 -59.5z" />
    <glyph glyph-name="questiondown" unicode="&#xbf;" horiz-adv-x="629" 
d="M485 664q-20 -99 -42.5 -166.5t-55 -121t-85.5 -113.5q-57 -66 -102.5 -117.5t-72 -105.5t-26.5 -129q0 -60 29.5 -89t81.5 -29q58 0 108.5 24.5t96.5 56.5l36 -155q-69 -53 -142 -79.5t-146 -26.5q-127 0 -194.5 67t-67.5 184q0 93 32 170.5t85.5 147t118.5 136.5
q60 66 94 113t53 100t35 133h164zM483 1113q49 0 76.5 -24.5t27.5 -73.5q0 -71 -40 -126t-116 -55q-45 0 -70.5 27t-25.5 74q0 78 44 128t104 50z" />
    <glyph glyph-name="Agrave" unicode="&#xc0;" horiz-adv-x="887" 
d="M-130 0l617 1468h259l10 -1468h-214l4 426h-282l-171 -426h-223zM333 607h222l10 484q1 50 3 94.5t6 86.5h-6q-8 -40 -21.5 -83.5t-31.5 -94.5zM615 1622q-26 36 -62.5 92.5t-68.5 115.5t-49 101v18h223q12 -46 25.5 -95.5t30.5 -101.5t38 -107l-3 -23h-134z" />
    <glyph glyph-name="Aacute" unicode="&#xc1;" horiz-adv-x="887" 
d="M-130 0l617 1468h259l10 -1468h-214l4 426h-282l-171 -426h-223zM333 607h222l10 484q1 50 3 94.5t6 86.5h-6q-8 -40 -21.5 -83.5t-31.5 -94.5zM516 1621l2 20q45 53 85.5 106t75 104.5t62.5 97.5h228l-2 -17q-22 -28 -63 -71t-88.5 -90t-91.5 -87t-73 -63h-135z" />
    <glyph glyph-name="Acircumflex" unicode="&#xc2;" horiz-adv-x="887" 
d="M-130 0l617 1468h259l10 -1468h-214l4 426h-282l-171 -426h-223zM333 607h222l10 484q1 50 3 94.5t6 86.5h-6q-8 -40 -21.5 -83.5t-31.5 -94.5zM366 1621l4 22q47 48 90 99.5t82 104t71 102.5h176q9 -38 28.5 -95.5t42.5 -114.5t41 -95l-5 -23h-114q-17 24 -35.5 52.5
t-37 60.5t-37.5 68q-51 -55 -98 -101t-88 -80h-120z" />
    <glyph glyph-name="Atilde" unicode="&#xc3;" horiz-adv-x="887" 
d="M-130 0l617 1468h259l10 -1468h-214l4 426h-282l-171 -426h-223zM333 607h222l10 484q1 50 3 94.5t6 86.5h-6q-8 -40 -21.5 -83.5t-31.5 -94.5zM345 1624q17 82 43.5 144t67 96t100.5 34q44 0 76 -17.5t57 -40t47.5 -40t47.5 -17.5q31 0 50.5 25.5t33.5 91.5h119
q-17 -101 -48.5 -161.5t-71.5 -86.5t-85 -26q-43 0 -74.5 17.5t-57 40.5t-49 40.5t-49.5 17.5q-31 0 -53 -29t-35 -89h-119z" />
    <glyph glyph-name="Adieresis" unicode="&#xc4;" horiz-adv-x="887" 
d="M-130 0l617 1468h259l10 -1468h-214l4 426h-282l-171 -426h-223zM333 607h222l10 484q1 50 3 94.5t6 86.5h-6q-8 -40 -21.5 -83.5t-31.5 -94.5zM806 1665q-41 0 -62.5 21.5t-21.5 62.5q0 58 33 102.5t93 44.5q38 0 59 -20.5t21 -59.5q0 -66 -35 -108.5t-87 -42.5z
M482 1665q-41 0 -62.5 21.5t-21.5 62.5q0 58 33 102.5t93 44.5q25 0 42 -9t26 -26.5t9 -44.5q0 -66 -34 -108.5t-85 -42.5z" />
    <glyph glyph-name="Aring" unicode="&#xc5;" horiz-adv-x="887" 
d="M-130 0l617 1468h259l10 -1468h-214l4 426h-282l-171 -426h-223zM333 607h222l10 484q1 50 3 94.5t6 86.5h-6q-8 -40 -21.5 -83.5t-31.5 -94.5zM660 1589q-103 0 -160.5 58.5t-57.5 157.5q0 95 58.5 153.5t159.5 58.5q96 0 156 -58.5t60 -150.5q0 -96 -58 -157.5
t-158 -61.5zM661 1696q48 0 77 29t29 78q0 48 -28 78.5t-78 30.5q-52 0 -80 -30.5t-28 -78.5q0 -49 27 -78t81 -29z" />
    <glyph glyph-name="AE" unicode="&#xc6;" horiz-adv-x="1198" 
d="M-135 0l700 1462h728l-38 -179h-358l-91 -431h335l-39 -180h-334l-104 -491h357l-37 -181h-561l91 427h-233l-198 -427h-218zM365 609h189l143 673h-25z" />
    <glyph glyph-name="Ccedilla" unicode="&#xc7;" horiz-adv-x="831" 
d="M411 -20q-111 0 -186.5 54t-113.5 159.5t-38 258.5q0 127 26 268.5t77.5 277t128.5 245.5t179 175.5t229 65.5q75 0 142 -19t121 -60l-102 -165q-37 32 -76.5 47t-82.5 15q-88 0 -157 -61t-120 -159t-84.5 -212t-50 -221t-16.5 -184q0 -159 42.5 -231t132.5 -72
q50 0 102.5 15t107.5 40v-184q-61 -27 -129 -40t-132 -13zM264 -492q-38 0 -72 4.5t-67 12.5v121q19 -6 48 -10t65 -4q41 0 69.5 13t44 37.5t15.5 56.5q0 42 -33 66t-101 30l105 165h111l-65 -96q65 -13 104 -53.5t39 -105.5q0 -80 -35 -132.5t-94.5 -78.5t-133.5 -26z" />
    <glyph glyph-name="Egrave" unicode="&#xc8;" horiz-adv-x="776" 
d="M-2 0l310 1462h561l-38 -179h-357l-91 -431h333l-39 -180h-333l-105 -491h359l-38 -181h-562zM570 1600q-26 36 -62.5 92.5t-68.5 115.5t-49 101v18h223q12 -46 25.5 -95.5t30.5 -101.5t38 -107l-3 -23h-134z" />
    <glyph glyph-name="Eacute" unicode="&#xc9;" horiz-adv-x="776" 
d="M-2 0l310 1462h561l-38 -179h-357l-91 -431h333l-39 -180h-333l-105 -491h359l-38 -181h-562zM475 1599l2 20q45 53 85.5 106t75 104.5t62.5 97.5h228l-2 -17q-22 -28 -63 -71t-88.5 -90t-91.5 -87t-73 -63h-135z" />
    <glyph glyph-name="Ecircumflex" unicode="&#xca;" horiz-adv-x="776" 
d="M-2 0l310 1462h561l-38 -179h-357l-91 -431h333l-39 -180h-333l-105 -491h359l-38 -181h-562zM338 1579l4 22q47 48 90 99.5t82 104t71 102.5h176q9 -38 28.5 -95.5t42.5 -114.5t41 -95l-5 -23h-114q-17 24 -35.5 52.5t-37 60.5t-37.5 68q-51 -55 -98 -101t-88 -80h-120z
" />
    <glyph glyph-name="Edieresis" unicode="&#xcb;" horiz-adv-x="776" 
d="M-2 0l310 1462h561l-38 -179h-357l-91 -431h333l-39 -180h-333l-105 -491h359l-38 -181h-562zM764 1623q-41 0 -62.5 21.5t-21.5 62.5q0 58 33 102.5t93 44.5q38 0 59 -20.5t21 -59.5q0 -66 -35 -108.5t-87 -42.5zM440 1623q-41 0 -62.5 21.5t-21.5 62.5q0 58 33 102.5
t93 44.5q25 0 42 -9t26 -26.5t9 -44.5q0 -66 -34 -108.5t-85 -42.5z" />
    <glyph glyph-name="Igrave" unicode="&#xcc;" horiz-adv-x="458" 
d="M-3 0l311 1462h202l-309 -1462h-204zM409 1620q-26 36 -62.5 92.5t-68.5 115.5t-49 101v18h223q12 -46 25.5 -95.5t30.5 -101.5t38 -107l-3 -23h-134z" />
    <glyph glyph-name="Iacute" unicode="&#xcd;" horiz-adv-x="458" 
d="M-3 0l311 1462h202l-309 -1462h-204zM334 1620l2 20q45 53 85.5 106t75 104.5t62.5 97.5h228l-2 -17q-22 -28 -63 -71t-88.5 -90t-91.5 -87t-73 -63h-135z" />
    <glyph glyph-name="Icircumflex" unicode="&#xce;" horiz-adv-x="458" 
d="M-3 0l311 1462h202l-309 -1462h-204zM172 1622l4 22q47 48 90 99.5t82 104t71 102.5h176q9 -38 28.5 -95.5t42.5 -114.5t41 -95l-5 -23h-114q-17 24 -35.5 52.5t-37 60.5t-37.5 68q-51 -55 -98 -101t-88 -80h-120z" />
    <glyph glyph-name="Idieresis" unicode="&#xcf;" horiz-adv-x="458" 
d="M-3 0l311 1462h202l-309 -1462h-204zM611 1666q-41 0 -62.5 21.5t-21.5 62.5q0 58 33 102.5t93 44.5q38 0 59 -20.5t21 -59.5q0 -66 -35 -108.5t-87 -42.5zM287 1666q-41 0 -62.5 21.5t-21.5 62.5q0 58 33 102.5t93 44.5q25 0 42 -9t26 -26.5t9 -44.5q0 -66 -34 -108.5
t-85 -42.5z" />
    <glyph glyph-name="Eth" unicode="&#xd0;" horiz-adv-x="989" 
d="M-1 0l142 679h-102l34 161h102l133 622h259q194 0 296.5 -112t102.5 -327q0 -136 -25 -279.5t-77 -276t-134.5 -238t-196 -167.5t-262.5 -62h-272zM240 184h60q101 0 176.5 57t128 150t84.5 203t46.5 218t14.5 194q0 143 -51 208.5t-153 65.5h-73l-94 -440h164l-34 -161
h-166z" />
    <glyph glyph-name="Ntilde" unicode="&#xd1;" horiz-adv-x="1094" 
d="M-2 0l310 1462h235l184 -1088h6q11 67 22.5 131t22.5 119.5t18 94.5l159 743h194l-310 -1462h-232l-186 1110h-6q-7 -53 -16 -108.5t-19.5 -108t-19.5 -96t-15 -73.5l-153 -724h-194zM440 1582q17 82 43.5 144t67 96t100.5 34q44 0 76 -17.5t57 -40t47.5 -40t47.5 -17.5
q31 0 50.5 25.5t33.5 91.5h119q-17 -101 -48.5 -161.5t-71.5 -86.5t-85 -26q-43 0 -74.5 17.5t-57 40.5t-49 40.5t-49.5 17.5q-31 0 -53 -29t-35 -89h-119z" />
    <glyph glyph-name="Ograve" unicode="&#xd2;" horiz-adv-x="1051" 
d="M415 -20q-115 0 -191 48t-114 147t-38 251q0 111 17.5 231.5t51.5 239.5t85.5 224.5t120 187.5t154.5 128.5t189 46.5q174 0 256 -107.5t82 -325.5q0 -97 -15 -212.5t-46.5 -236t-80.5 -231.5t-116.5 -199t-156 -140t-198.5 -52zM431 164q65 0 118.5 44t96.5 118.5
t75.5 168.5t54 194t32 195t10.5 171q0 126 -36.5 186.5t-109.5 60.5q-68 0 -123.5 -46t-98 -123.5t-74 -172.5t-52 -194t-30 -188t-9.5 -154q0 -95 16.5 -152t49 -82.5t80.5 -25.5zM698 1600q-26 36 -62.5 92.5t-68.5 115.5t-49 101v18h223q12 -46 25.5 -95.5t30.5 -101.5
t38 -107l-3 -23h-134z" />
    <glyph glyph-name="Oacute" unicode="&#xd3;" horiz-adv-x="1051" 
d="M415 -20q-115 0 -191 48t-114 147t-38 251q0 111 17.5 231.5t51.5 239.5t85.5 224.5t120 187.5t154.5 128.5t189 46.5q174 0 256 -107.5t82 -325.5q0 -97 -15 -212.5t-46.5 -236t-80.5 -231.5t-116.5 -199t-156 -140t-198.5 -52zM431 164q65 0 118.5 44t96.5 118.5
t75.5 168.5t54 194t32 195t10.5 171q0 126 -36.5 186.5t-109.5 60.5q-68 0 -123.5 -46t-98 -123.5t-74 -172.5t-52 -194t-30 -188t-9.5 -154q0 -95 16.5 -152t49 -82.5t80.5 -25.5zM606 1599l2 20q45 53 85.5 106t75 104.5t62.5 97.5h228l-2 -17q-22 -28 -63 -71t-88.5 -90
t-91.5 -87t-73 -63h-135z" />
    <glyph glyph-name="Ocircumflex" unicode="&#xd4;" horiz-adv-x="1051" 
d="M415 -20q-115 0 -191 48t-114 147t-38 251q0 111 17.5 231.5t51.5 239.5t85.5 224.5t120 187.5t154.5 128.5t189 46.5q174 0 256 -107.5t82 -325.5q0 -97 -15 -212.5t-46.5 -236t-80.5 -231.5t-116.5 -199t-156 -140t-198.5 -52zM431 164q65 0 118.5 44t96.5 118.5
t75.5 168.5t54 194t32 195t10.5 171q0 126 -36.5 186.5t-109.5 60.5q-68 0 -123.5 -46t-98 -123.5t-74 -172.5t-52 -194t-30 -188t-9.5 -154q0 -95 16.5 -152t49 -82.5t80.5 -25.5zM432 1579l4 22q47 48 90 99.5t82 104t71 102.5h176q9 -38 28.5 -95.5t42.5 -114.5t41 -95
l-5 -23h-114q-17 24 -35.5 52.5t-37 60.5t-37.5 68q-51 -55 -98 -101t-88 -80h-120z" />
    <glyph glyph-name="Otilde" unicode="&#xd5;" horiz-adv-x="1051" 
d="M415 -20q-115 0 -191 48t-114 147t-38 251q0 111 17.5 231.5t51.5 239.5t85.5 224.5t120 187.5t154.5 128.5t189 46.5q174 0 256 -107.5t82 -325.5q0 -97 -15 -212.5t-46.5 -236t-80.5 -231.5t-116.5 -199t-156 -140t-198.5 -52zM431 164q65 0 118.5 44t96.5 118.5
t75.5 168.5t54 194t32 195t10.5 171q0 126 -36.5 186.5t-109.5 60.5q-68 0 -123.5 -46t-98 -123.5t-74 -172.5t-52 -194t-30 -188t-9.5 -154q0 -95 16.5 -152t49 -82.5t80.5 -25.5zM419 1582q17 82 43.5 144t67 96t100.5 34q44 0 76 -17.5t57 -40t47.5 -40t47.5 -17.5
q31 0 50.5 25.5t33.5 91.5h119q-17 -101 -48.5 -161.5t-71.5 -86.5t-85 -26q-43 0 -74.5 17.5t-57 40.5t-49 40.5t-49.5 17.5q-31 0 -53 -29t-35 -89h-119z" />
    <glyph glyph-name="Odieresis" unicode="&#xd6;" horiz-adv-x="1051" 
d="M415 -20q-115 0 -191 48t-114 147t-38 251q0 111 17.5 231.5t51.5 239.5t85.5 224.5t120 187.5t154.5 128.5t189 46.5q174 0 256 -107.5t82 -325.5q0 -97 -15 -212.5t-46.5 -236t-80.5 -231.5t-116.5 -199t-156 -140t-198.5 -52zM431 164q65 0 118.5 44t96.5 118.5
t75.5 168.5t54 194t32 195t10.5 171q0 126 -36.5 186.5t-109.5 60.5q-68 0 -123.5 -46t-98 -123.5t-74 -172.5t-52 -194t-30 -188t-9.5 -154q0 -95 16.5 -152t49 -82.5t80.5 -25.5zM878 1623q-41 0 -62.5 21.5t-21.5 62.5q0 58 33 102.5t93 44.5q38 0 59 -20.5t21 -59.5
q0 -66 -35 -108.5t-87 -42.5zM554 1623q-41 0 -62.5 21.5t-21.5 62.5q0 58 33 102.5t93 44.5q25 0 42 -9t26 -26.5t9 -44.5q0 -66 -34 -108.5t-85 -42.5z" />
    <glyph glyph-name="multiply" unicode="&#xd7;" horiz-adv-x="922" 
d="M751 1116l122 -118l-274 -275l268 -271l-118 -119l-271 270l-272 -271l-117 121l268 270l-268 269l118 121l271 -268z" />
    <glyph glyph-name="Oslash" unicode="&#xd8;" horiz-adv-x="1053" 
d="M92 -102l-101 59l128 203q-23 50 -35 116.5t-12 149.5q0 111 17 231.5t51.5 239.5t86 224.5t120 187.5t154.5 128.5t189 46.5q72 0 127.5 -21t94.5 -65l96 153l102 -60l-123 -195q21 -47 31 -109t10 -136q0 -97 -15 -212.5t-46.5 -236t-80.5 -231.5t-117 -199t-156 -140
t-199 -52q-69 0 -123.5 20t-93.5 61zM430 164q60 0 110.5 37.5t91 102t72 147t53.5 173t35 179.5t17 165q3 19 3.5 36.5t-0.5 33.5l-501 -792q17 -43 47.5 -62.5t71.5 -19.5zM289 412l508 799q-18 47 -49 69t-77 22q-63 0 -114.5 -40t-92.5 -107.5t-71.5 -152t-51.5 -173.5
t-33.5 -172.5t-16.5 -148.5q-1 -27 -2 -50.5t0 -45.5z" />
    <glyph glyph-name="Ugrave" unicode="&#xd9;" horiz-adv-x="999" 
d="M382 -20q-98 0 -168 37.5t-107.5 108.5t-37.5 171q0 37 5.5 82t14.5 92l212 991h204l-213 -998q-8 -38 -12 -73.5t-4 -64.5q0 -82 34 -122t98 -40t108 33t75 103t55 181l211 981h204l-216 -1006q-31 -148 -87.5 -255t-147.5 -164t-228 -57zM672 1600q-26 36 -62.5 92.5
t-68.5 115.5t-49 101v18h223q12 -46 25.5 -95.5t30.5 -101.5t38 -107l-3 -23h-134z" />
    <glyph glyph-name="Uacute" unicode="&#xda;" horiz-adv-x="999" 
d="M382 -20q-98 0 -168 37.5t-107.5 108.5t-37.5 171q0 37 5.5 82t14.5 92l212 991h204l-213 -998q-8 -38 -12 -73.5t-4 -64.5q0 -82 34 -122t98 -40t108 33t75 103t55 181l211 981h204l-216 -1006q-31 -148 -87.5 -255t-147.5 -164t-228 -57zM584 1599l2 20q45 53 85.5 106
t75 104.5t62.5 97.5h228l-2 -17q-22 -28 -63 -71t-88.5 -90t-91.5 -87t-73 -63h-135z" />
    <glyph glyph-name="Ucircumflex" unicode="&#xdb;" horiz-adv-x="999" 
d="M382 -20q-98 0 -168 37.5t-107.5 108.5t-37.5 171q0 37 5.5 82t14.5 92l212 991h204l-213 -998q-8 -38 -12 -73.5t-4 -64.5q0 -82 34 -122t98 -40t108 33t75 103t55 181l211 981h204l-216 -1006q-31 -148 -87.5 -255t-147.5 -164t-228 -57zM429 1579l4 22q47 48 90 99.5
t82 104t71 102.5h176q9 -38 28.5 -95.5t42.5 -114.5t41 -95l-5 -23h-114q-17 24 -35.5 52.5t-37 60.5t-37.5 68q-51 -55 -98 -101t-88 -80h-120z" />
    <glyph glyph-name="Udieresis" unicode="&#xdc;" horiz-adv-x="999" 
d="M382 -20q-98 0 -168 37.5t-107.5 108.5t-37.5 171q0 37 5.5 82t14.5 92l212 991h204l-213 -998q-8 -38 -12 -73.5t-4 -64.5q0 -82 34 -122t98 -40t108 33t75 103t55 181l211 981h204l-216 -1006q-31 -148 -87.5 -255t-147.5 -164t-228 -57zM860 1623q-41 0 -62.5 21.5
t-21.5 62.5q0 58 33 102.5t93 44.5q38 0 59 -20.5t21 -59.5q0 -66 -35 -108.5t-87 -42.5zM536 1623q-41 0 -62.5 21.5t-21.5 62.5q0 58 33 102.5t93 44.5q25 0 42 -9t26 -26.5t9 -44.5q0 -66 -34 -108.5t-85 -42.5z" />
    <glyph glyph-name="Yacute" unicode="&#xdd;" horiz-adv-x="792" 
d="M165 0l118 561l-105 901h212l49 -630l315 630h219l-483 -896l-121 -566h-204zM483 1599l2 20q45 53 85.5 106t75 104.5t62.5 97.5h228l-2 -17q-22 -28 -63 -71t-88.5 -90t-91.5 -87t-73 -63h-135z" />
    <glyph glyph-name="Thorn" unicode="&#xde;" horiz-adv-x="858" 
d="M-2 0l310 1462h204l-52 -243h46q117 0 194 -40t116 -113t39 -173q0 -116 -32.5 -221t-96 -187t-156.5 -129t-214 -47h-90l-64 -309h-204zM304 488h53q93 0 156.5 48t96.5 133.5t33 195.5q0 89 -41 131t-129 42h-52z" />
    <glyph glyph-name="germandbls" unicode="&#xdf;" horiz-adv-x="906" 
d="M-155 -492q-33 0 -61 4.5t-55 12.5v175q17 -6 42.5 -11t47.5 -5q61 0 90.5 50.5t51.5 160.5l271 1272q27 127 78.5 216.5t129.5 136.5t184 47q140 0 215 -70t75 -181q0 -63 -16 -115t-48.5 -99t-79.5 -97q-57 -57 -93 -105t-36 -115q0 -26 8.5 -54t24.5 -58t36 -64
q38 -54 65.5 -116t27.5 -149q0 -108 -44 -190t-123.5 -128t-187.5 -46q-58 0 -110.5 13t-90.5 39l30 186q43 -35 88.5 -50t86.5 -15q70 0 108 47.5t38 122.5q0 34 -8.5 64.5t-26.5 65t-47 79.5q-40 64 -60 115.5t-20 109.5q0 50 15.5 96.5t46 90.5t73.5 88q44 44 75 82.5
t48 80t17 95.5q0 50 -26 78t-73 28q-48 0 -83 -27t-60 -81.5t-44 -136.5l-272 -1271q-23 -109 -56 -193t-91.5 -131.5t-160.5 -47.5z" />
    <glyph glyph-name="agrave" unicode="&#xe0;" horiz-adv-x="894" 
d="M264 -20q-69 0 -118.5 37t-75 107.5t-25.5 169.5q0 91 17 202t51 222t87 203.5t124.5 149t163.5 56.5q46 0 82.5 -17.5t63.5 -53t42 -90.5h6l47 140h169l-235 -1106h-159l9 152h-5q-36 -52 -73 -91t-78.5 -60t-92.5 -21zM338 149q63 0 108 54t76.5 135.5t52.5 164.5
q24 98 34.5 169t10.5 131q0 72 -26.5 111.5t-75.5 39.5q-50 0 -92.5 -44t-75 -115.5t-55.5 -157t-35 -170t-12 -151.5q0 -84 22.5 -125.5t67.5 -41.5zM554 1251q-26 36 -62.5 92.5t-68.5 115.5t-49 101v18h223q12 -46 25.5 -95.5t30.5 -101.5t38 -107l-3 -23h-134z" />
    <glyph glyph-name="aacute" unicode="&#xe1;" horiz-adv-x="894" 
d="M264 -20q-69 0 -118.5 37t-75 107.5t-25.5 169.5q0 91 17 202t51 222t87 203.5t124.5 149t163.5 56.5q46 0 82.5 -17.5t63.5 -53t42 -90.5h6l47 140h169l-235 -1106h-159l9 152h-5q-36 -52 -73 -91t-78.5 -60t-92.5 -21zM338 149q63 0 108 54t76.5 135.5t52.5 164.5
q24 98 34.5 169t10.5 131q0 72 -26.5 111.5t-75.5 39.5q-50 0 -92.5 -44t-75 -115.5t-55.5 -157t-35 -170t-12 -151.5q0 -84 22.5 -125.5t67.5 -41.5zM453 1250l2 20q45 53 85.5 106t75 104.5t62.5 97.5h228l-2 -17q-22 -28 -63 -71t-88.5 -90t-91.5 -87t-73 -63h-135z" />
    <glyph glyph-name="acircumflex" unicode="&#xe2;" horiz-adv-x="894" 
d="M264 -20q-69 0 -118.5 37t-75 107.5t-25.5 169.5q0 91 17 202t51 222t87 203.5t124.5 149t163.5 56.5q46 0 82.5 -17.5t63.5 -53t42 -90.5h6l47 140h169l-235 -1106h-159l9 152h-5q-36 -52 -73 -91t-78.5 -60t-92.5 -21zM338 149q63 0 108 54t76.5 135.5t52.5 164.5
q24 98 34.5 169t10.5 131q0 72 -26.5 111.5t-75.5 39.5q-50 0 -92.5 -44t-75 -115.5t-55.5 -157t-35 -170t-12 -151.5q0 -84 22.5 -125.5t67.5 -41.5zM320 1247l4 22q47 48 90 99.5t82 104t71 102.5h176q9 -38 28.5 -95.5t42.5 -114.5t41 -95l-5 -23h-114q-17 24 -35.5 52.5
t-37 60.5t-37.5 68q-51 -55 -98 -101t-88 -80h-120z" />
    <glyph glyph-name="atilde" unicode="&#xe3;" horiz-adv-x="894" 
d="M264 -20q-69 0 -118.5 37t-75 107.5t-25.5 169.5q0 91 17 202t51 222t87 203.5t124.5 149t163.5 56.5q46 0 82.5 -17.5t63.5 -53t42 -90.5h6l47 140h169l-235 -1106h-159l9 152h-5q-36 -52 -73 -91t-78.5 -60t-92.5 -21zM338 149q63 0 108 54t76.5 135.5t52.5 164.5
q24 98 34.5 169t10.5 131q0 72 -26.5 111.5t-75.5 39.5q-50 0 -92.5 -44t-75 -115.5t-55.5 -157t-35 -170t-12 -151.5q0 -84 22.5 -125.5t67.5 -41.5zM300 1250q17 82 43.5 144t67 96t100.5 34q44 0 76 -17.5t57 -40t47.5 -40t47.5 -17.5q31 0 50.5 25.5t33.5 91.5h119
q-17 -101 -48.5 -161.5t-71.5 -86.5t-85 -26q-43 0 -74.5 17.5t-57 40.5t-49 40.5t-49.5 17.5q-31 0 -53 -29t-35 -89h-119z" />
    <glyph glyph-name="adieresis" unicode="&#xe4;" horiz-adv-x="894" 
d="M264 -20q-69 0 -118.5 37t-75 107.5t-25.5 169.5q0 91 17 202t51 222t87 203.5t124.5 149t163.5 56.5q46 0 82.5 -17.5t63.5 -53t42 -90.5h6l47 140h169l-235 -1106h-159l9 152h-5q-36 -52 -73 -91t-78.5 -60t-92.5 -21zM338 149q63 0 108 54t76.5 135.5t52.5 164.5
q24 98 34.5 169t10.5 131q0 72 -26.5 111.5t-75.5 39.5q-50 0 -92.5 -44t-75 -115.5t-55.5 -157t-35 -170t-12 -151.5q0 -84 22.5 -125.5t67.5 -41.5zM760 1291q-41 0 -62.5 21.5t-21.5 62.5q0 58 33 102.5t93 44.5q38 0 59 -20.5t21 -59.5q0 -66 -35 -108.5t-87 -42.5z
M436 1291q-41 0 -62.5 21.5t-21.5 62.5q0 58 33 102.5t93 44.5q25 0 42 -9t26 -26.5t9 -44.5q0 -66 -34 -108.5t-85 -42.5z" />
    <glyph glyph-name="aring" unicode="&#xe5;" horiz-adv-x="894" 
d="M264 -20q-69 0 -118.5 37t-75 107.5t-25.5 169.5q0 91 17 202t51 222t87 203.5t124.5 149t163.5 56.5q46 0 82.5 -17.5t63.5 -53t42 -90.5h6l47 140h169l-235 -1106h-159l9 152h-5q-36 -52 -73 -91t-78.5 -60t-92.5 -21zM338 149q63 0 108 54t76.5 135.5t52.5 164.5
q24 98 34.5 169t10.5 131q0 72 -26.5 111.5t-75.5 39.5q-50 0 -92.5 -44t-75 -115.5t-55.5 -157t-35 -170t-12 -151.5q0 -84 22.5 -125.5t67.5 -41.5zM621 1246q-103 0 -160.5 58.5t-57.5 157.5q0 95 58.5 153.5t159.5 58.5q96 0 156 -58.5t60 -150.5q0 -96 -58 -157.5
t-158 -61.5zM622 1353q48 0 77 29t29 78q0 48 -28 78.5t-78 30.5q-52 0 -80 -30.5t-28 -78.5q0 -49 27 -78t81 -29z" />
    <glyph glyph-name="ae" unicode="&#xe6;" horiz-adv-x="1305" 
d="M252 -20q-63 0 -109.5 37t-72 107.5t-25.5 169.5q0 113 20 230.5t57.5 225t92 192.5t123 135t150.5 50q41 0 76.5 -15.5t62.5 -47t42 -80.5h5l31 122h142l-23 -111q43 53 99 92t133 39q105 0 166.5 -64.5t61.5 -177.5q0 -94 -35.5 -168t-103 -125.5t-163.5 -77.5
t-216 -26h-16q-7 -34 -10.5 -69.5t-3.5 -69.5q0 -99 37 -152.5t123 -53.5q58 0 116.5 19t126.5 58l-29 -171q-63 -36 -121 -52t-131 -16q-83 0 -135 36t-70 100l-25 -116h-140l23 146h-4q-34 -52 -73 -89t-84 -57t-98 -20zM338 148q45 0 80.5 30t63.5 80.5t49 113t36 127.5
q22 97 32.5 171t10.5 136q0 72 -24 110t-68 38q-46 0 -86.5 -40t-74 -107.5t-58 -151.5t-38 -172.5t-13.5 -169.5q0 -83 22.5 -124t67.5 -41zM778 633h7q115 0 184.5 30.5t101 84.5t31.5 121q0 45 -22.5 71t-68.5 26q-53 0 -97 -45.5t-78 -121t-58 -166.5z" />
    <glyph glyph-name="ccedilla" unicode="&#xe7;" horiz-adv-x="687" 
d="M325 -20q-89 0 -151 39.5t-93.5 115t-31.5 185.5q0 99 17.5 209.5t54.5 216.5t95 192t139.5 137.5t187.5 51.5q60 0 111 -14.5t96 -43.5l-80 -159q-28 20 -61.5 32t-65.5 12q-75 0 -130.5 -62t-91 -157.5t-53 -200t-17.5 -189.5q0 -66 13.5 -109t41 -64t67.5 -21t85.5 17
t94.5 50v-171q-42 -28 -102.5 -47.5t-125.5 -19.5zM165 -492q-38 0 -72 4.5t-67 12.5v121q19 -6 48 -10t65 -4q41 0 69.5 13t44 37.5t15.5 56.5q0 42 -33 66t-101 30l105 165h111l-65 -96q65 -13 104 -53.5t39 -105.5q0 -80 -35 -132.5t-94.5 -78.5t-133.5 -26z" />
    <glyph glyph-name="egrave" unicode="&#xe8;" horiz-adv-x="817" 
d="M352 -20q-95 0 -163.5 40.5t-105 118t-36.5 186.5q0 157 34.5 301t99.5 256.5t157 178t207 65.5q111 0 178 -62.5t67 -179.5q0 -93 -35.5 -167t-103 -125t-163.5 -78t-218 -27h-15q-6 -34 -10 -69.5t-4 -69.5q0 -109 39.5 -157.5t118.5 -48.5q60 0 110.5 15.5t115.5 52.5
v-158q-62 -39 -130 -55.5t-143 -16.5zM283 633h7q115 0 184.5 30.5t100.5 84t31 121.5q0 45 -21.5 71t-66.5 26q-48 0 -93 -41.5t-81 -116.5t-61 -175zM522 1241q-26 36 -62.5 92.5t-68.5 115.5t-49 101v18h223q12 -46 25.5 -95.5t30.5 -101.5t38 -107l-3 -23h-134z" />
    <glyph glyph-name="eacute" unicode="&#xe9;" horiz-adv-x="817" 
d="M352 -20q-95 0 -163.5 40.5t-105 118t-36.5 186.5q0 157 34.5 301t99.5 256.5t157 178t207 65.5q111 0 178 -62.5t67 -179.5q0 -93 -35.5 -167t-103 -125t-163.5 -78t-218 -27h-15q-6 -34 -10 -69.5t-4 -69.5q0 -109 39.5 -157.5t118.5 -48.5q60 0 110.5 15.5t115.5 52.5
v-158q-62 -39 -130 -55.5t-143 -16.5zM283 633h7q115 0 184.5 30.5t100.5 84t31 121.5q0 45 -21.5 71t-66.5 26q-48 0 -93 -41.5t-81 -116.5t-61 -175zM415 1240l2 20q45 53 85.5 106t75 104.5t62.5 97.5h228l-2 -17q-22 -28 -63 -71t-88.5 -90t-91.5 -87t-73 -63h-135z" />
    <glyph glyph-name="ecircumflex" unicode="&#xea;" horiz-adv-x="817" 
d="M352 -20q-95 0 -163.5 40.5t-105 118t-36.5 186.5q0 157 34.5 301t99.5 256.5t157 178t207 65.5q111 0 178 -62.5t67 -179.5q0 -93 -35.5 -167t-103 -125t-163.5 -78t-218 -27h-15q-6 -34 -10 -69.5t-4 -69.5q0 -109 39.5 -157.5t118.5 -48.5q60 0 110.5 15.5t115.5 52.5
v-158q-62 -39 -130 -55.5t-143 -16.5zM283 633h7q115 0 184.5 30.5t100.5 84t31 121.5q0 45 -21.5 71t-66.5 26q-48 0 -93 -41.5t-81 -116.5t-61 -175zM295 1241l4 22q47 48 90 99.5t82 104t71 102.5h176q9 -38 28.5 -95.5t42.5 -114.5t41 -95l-5 -23h-114
q-17 24 -35.5 52.5t-37 60.5t-37.5 68q-51 -55 -98 -101t-88 -80h-120z" />
    <glyph glyph-name="edieresis" unicode="&#xeb;" horiz-adv-x="817" 
d="M352 -20q-95 0 -163.5 40.5t-105 118t-36.5 186.5q0 157 34.5 301t99.5 256.5t157 178t207 65.5q111 0 178 -62.5t67 -179.5q0 -93 -35.5 -167t-103 -125t-163.5 -78t-218 -27h-15q-6 -34 -10 -69.5t-4 -69.5q0 -109 39.5 -157.5t118.5 -48.5q60 0 110.5 15.5t115.5 52.5
v-158q-62 -39 -130 -55.5t-143 -16.5zM283 633h7q115 0 184.5 30.5t100.5 84t31 121.5q0 45 -21.5 71t-66.5 26q-48 0 -93 -41.5t-81 -116.5t-61 -175zM736 1285q-41 0 -62.5 21.5t-21.5 62.5q0 58 33 102.5t93 44.5q38 0 59 -20.5t21 -59.5q0 -66 -35 -108.5t-87 -42.5z
M412 1285q-41 0 -62.5 21.5t-21.5 62.5q0 58 33 102.5t93 44.5q25 0 42 -9t26 -26.5t9 -44.5q0 -66 -34 -108.5t-85 -42.5z" />
    <glyph glyph-name="igrave" unicode="&#xec;" horiz-adv-x="421" 
d="M-6 0l235 1106h195l-235 -1106h-195zM317 1247q-26 36 -62.5 92.5t-68.5 115.5t-49 101v18h223q12 -46 25.5 -95.5t30.5 -101.5t38 -107l-3 -23h-134z" />
    <glyph glyph-name="iacute" unicode="&#xed;" horiz-adv-x="421" 
d="M-6 0l235 1106h195l-235 -1106h-195zM220 1246l2 20q45 53 85.5 106t75 104.5t62.5 97.5h228l-2 -17q-22 -28 -63 -71t-88.5 -90t-91.5 -87t-73 -63h-135z" />
    <glyph glyph-name="icircumflex" unicode="&#xee;" horiz-adv-x="421" 
d="M-6 0l235 1106h195l-235 -1106h-195zM75 1241l4 22q47 48 90 99.5t82 104t71 102.5h176q9 -38 28.5 -95.5t42.5 -114.5t41 -95l-5 -23h-114q-17 24 -35.5 52.5t-37 60.5t-37.5 68q-51 -55 -98 -101t-88 -80h-120z" />
    <glyph glyph-name="idieresis" unicode="&#xef;" horiz-adv-x="421" 
d="M-6 0l235 1106h195l-235 -1106h-195zM514 1285q-41 0 -62.5 21.5t-21.5 62.5q0 58 33 102.5t93 44.5q38 0 59 -20.5t21 -59.5q0 -66 -35 -108.5t-87 -42.5zM190 1285q-41 0 -62.5 21.5t-21.5 62.5q0 58 33 102.5t93 44.5q25 0 42 -9t26 -26.5t9 -44.5q0 -66 -34 -108.5
t-85 -42.5z" />
    <glyph glyph-name="eth" unicode="&#xf0;" horiz-adv-x="862" 
d="M314 -20q-93 0 -158.5 39.5t-99 114.5t-33.5 184q0 99 26.5 214t81.5 217t138 167t196 65q67 0 101 -40t53 -94h3q0 123 -20.5 220.5t-76.5 177.5l-182 -117l-65 96l188 121q-21 26 -54.5 56t-74.5 60l100 111q45 -27 86.5 -59.5t81.5 -72.5l185 121l68 -95l-182 -119
q44 -69 73 -145.5t43.5 -160t14.5 -173.5q0 -103 -14.5 -223t-48 -237.5t-90 -214t-141 -155t-199.5 -58.5zM334 148q47 0 85.5 31.5t68.5 84t51 116t32 129.5t11 123q0 43 -7.5 76t-21 56t-34 34.5t-48.5 11.5q-58 0 -104.5 -46t-78.5 -120t-49 -158t-17 -160
q0 -90 29 -134t83 -44z" />
    <glyph glyph-name="ntilde" unicode="&#xf1;" horiz-adv-x="878" 
d="M-7 0l235 1106h158l-15 -144h5q31 53 68 89.5t81 56t93 19.5q57 0 104.5 -22.5t76 -70.5t28.5 -128q0 -40 -8.5 -92t-19.5 -106l-150 -708h-196l142 669q10 50 18.5 99.5t8.5 87.5q0 44 -20 67.5t-61 23.5q-55 0 -97 -42.5t-73.5 -122.5t-55.5 -193l-124 -589h-198z
M290 1250q17 82 43.5 144t67 96t100.5 34q44 0 76 -17.5t57 -40t47.5 -40t47.5 -17.5q31 0 50.5 25.5t33.5 91.5h119q-17 -101 -48.5 -161.5t-71.5 -86.5t-85 -26q-43 0 -74.5 17.5t-57 40.5t-49 40.5t-49.5 17.5q-31 0 -53 -29t-35 -89h-119z" />
    <glyph glyph-name="ograve" unicode="&#xf2;" horiz-adv-x="866" 
d="M331 -20q-89 0 -152.5 40t-97 117.5t-33.5 187.5q0 85 16.5 190.5t51.5 213t92.5 197.5t139.5 145.5t190 55.5q89 0 151.5 -41.5t96 -119t33.5 -188.5q0 -99 -18 -209t-55.5 -214.5t-95.5 -189t-137.5 -135t-181.5 -50.5zM353 149q51 0 93 42.5t74 112.5t54.5 154.5
t34 168.5t11.5 154q0 56 -11.5 96t-35.5 60.5t-60 20.5q-54 0 -97 -45.5t-75 -119t-53 -159t-31.5 -168t-10.5 -143.5q0 -84 27 -129t80 -45zM528 1241q-26 36 -62.5 92.5t-68.5 115.5t-49 101v18h223q12 -46 25.5 -95.5t30.5 -101.5t38 -107l-3 -23h-134z" />
    <glyph glyph-name="oacute" unicode="&#xf3;" horiz-adv-x="866" 
d="M331 -20q-89 0 -152.5 40t-97 117.5t-33.5 187.5q0 85 16.5 190.5t51.5 213t92.5 197.5t139.5 145.5t190 55.5q89 0 151.5 -41.5t96 -119t33.5 -188.5q0 -99 -18 -209t-55.5 -214.5t-95.5 -189t-137.5 -135t-181.5 -50.5zM353 149q51 0 93 42.5t74 112.5t54.5 154.5
t34 168.5t11.5 154q0 56 -11.5 96t-35.5 60.5t-60 20.5q-54 0 -97 -45.5t-75 -119t-53 -159t-31.5 -168t-10.5 -143.5q0 -84 27 -129t80 -45zM443 1240l2 20q45 53 85.5 106t75 104.5t62.5 97.5h228l-2 -17q-22 -28 -63 -71t-88.5 -90t-91.5 -87t-73 -63h-135z" />
    <glyph glyph-name="ocircumflex" unicode="&#xf4;" horiz-adv-x="866" 
d="M331 -20q-89 0 -152.5 40t-97 117.5t-33.5 187.5q0 85 16.5 190.5t51.5 213t92.5 197.5t139.5 145.5t190 55.5q89 0 151.5 -41.5t96 -119t33.5 -188.5q0 -99 -18 -209t-55.5 -214.5t-95.5 -189t-137.5 -135t-181.5 -50.5zM353 149q51 0 93 42.5t74 112.5t54.5 154.5
t34 168.5t11.5 154q0 56 -11.5 96t-35.5 60.5t-60 20.5q-54 0 -97 -45.5t-75 -119t-53 -159t-31.5 -168t-10.5 -143.5q0 -84 27 -129t80 -45zM289 1241l4 22q47 48 90 99.5t82 104t71 102.5h176q9 -38 28.5 -95.5t42.5 -114.5t41 -95l-5 -23h-114q-17 24 -35.5 52.5
t-37 60.5t-37.5 68q-51 -55 -98 -101t-88 -80h-120z" />
    <glyph glyph-name="otilde" unicode="&#xf5;" horiz-adv-x="866" 
d="M331 -20q-89 0 -152.5 40t-97 117.5t-33.5 187.5q0 85 16.5 190.5t51.5 213t92.5 197.5t139.5 145.5t190 55.5q89 0 151.5 -41.5t96 -119t33.5 -188.5q0 -99 -18 -209t-55.5 -214.5t-95.5 -189t-137.5 -135t-181.5 -50.5zM353 149q51 0 93 42.5t74 112.5t54.5 154.5
t34 168.5t11.5 154q0 56 -11.5 96t-35.5 60.5t-60 20.5q-54 0 -97 -45.5t-75 -119t-53 -159t-31.5 -168t-10.5 -143.5q0 -84 27 -129t80 -45zM263 1244q17 82 43.5 144t67 96t100.5 34q44 0 76 -17.5t57 -40t47.5 -40t47.5 -17.5q31 0 50.5 25.5t33.5 91.5h119
q-17 -101 -48.5 -161.5t-71.5 -86.5t-85 -26q-43 0 -74.5 17.5t-57 40.5t-49 40.5t-49.5 17.5q-31 0 -53 -29t-35 -89h-119z" />
    <glyph glyph-name="odieresis" unicode="&#xf6;" horiz-adv-x="866" 
d="M331 -20q-89 0 -152.5 40t-97 117.5t-33.5 187.5q0 85 16.5 190.5t51.5 213t92.5 197.5t139.5 145.5t190 55.5q89 0 151.5 -41.5t96 -119t33.5 -188.5q0 -99 -18 -209t-55.5 -214.5t-95.5 -189t-137.5 -135t-181.5 -50.5zM353 149q51 0 93 42.5t74 112.5t54.5 154.5
t34 168.5t11.5 154q0 56 -11.5 96t-35.5 60.5t-60 20.5q-54 0 -97 -45.5t-75 -119t-53 -159t-31.5 -168t-10.5 -143.5q0 -84 27 -129t80 -45zM724 1285q-41 0 -62.5 21.5t-21.5 62.5q0 58 33 102.5t93 44.5q38 0 59 -20.5t21 -59.5q0 -66 -35 -108.5t-87 -42.5zM400 1285
q-41 0 -62.5 21.5t-21.5 62.5q0 58 33 102.5t93 44.5q25 0 42 -9t26 -26.5t9 -44.5q0 -66 -34 -108.5t-85 -42.5z" />
    <glyph glyph-name="divide" unicode="&#xf7;" horiz-adv-x="922" 
d="M84 636v174h791v-174h-791zM482 206q-58 0 -89 35.5t-31 103.5t30.5 103t89.5 35q56 0 85.5 -35t29.5 -103q0 -69 -31 -104t-84 -35zM482 961q-58 0 -89 35.5t-31 102.5q0 68 30 103.5t90 35.5q56 0 85.5 -35.5t29.5 -103.5t-31 -103t-84 -35z" />
    <glyph glyph-name="oslash" unicode="&#xf8;" horiz-adv-x="867" 
d="M75 -125l-96 60l115 180q-22 41 -33.5 93.5t-11.5 116.5q0 81 16 186t51 212.5t92 199t139 148t192 56.5q49 0 89.5 -15t72.5 -43l86 138l99 -61l-108 -168q20 -40 31 -90t11 -110q0 -88 -17 -194.5t-53 -212t-93.5 -194.5t-138 -143t-186.5 -54q-46 0 -85.5 12t-72.5 37
zM352 142q48 0 88 35t71.5 94t55 132t37.5 150t19 147q2 15 1.5 31t-1.5 30l-356 -571q15 -23 36.5 -35.5t48.5 -12.5zM244 328l361 580q-13 28 -36 42t-55 14q-47 0 -87 -37t-72 -99t-55.5 -137.5t-37.5 -153.5t-18 -146q0 -17 -0.5 -33t0.5 -30z" />
    <glyph glyph-name="ugrave" unicode="&#xf9;" horiz-adv-x="880" 
d="M256 -20q-67 0 -113.5 26.5t-70.5 76.5t-24 121q0 37 7 86t16 94l155 722h195l-144 -683q-11 -46 -17.5 -90t-6.5 -81q0 -44 19.5 -69.5t59.5 -25.5q56 0 98 43.5t74 124.5t55 193l126 588h195l-233 -1106h-157l11 138h-6q-31 -49 -68.5 -84.5t-80.5 -54.5t-90 -19z
M533 1241q-26 36 -62.5 92.5t-68.5 115.5t-49 101v18h223q12 -46 25.5 -95.5t30.5 -101.5t38 -107l-3 -23h-134z" />
    <glyph glyph-name="uacute" unicode="&#xfa;" horiz-adv-x="880" 
d="M256 -20q-67 0 -113.5 26.5t-70.5 76.5t-24 121q0 37 7 86t16 94l155 722h195l-144 -683q-11 -46 -17.5 -90t-6.5 -81q0 -44 19.5 -69.5t59.5 -25.5q56 0 98 43.5t74 124.5t55 193l126 588h195l-233 -1106h-157l11 138h-6q-31 -49 -68.5 -84.5t-80.5 -54.5t-90 -19z
M458 1240l2 20q45 53 85.5 106t75 104.5t62.5 97.5h228l-2 -17q-22 -28 -63 -71t-88.5 -90t-91.5 -87t-73 -63h-135z" />
    <glyph glyph-name="ucircumflex" unicode="&#xfb;" horiz-adv-x="880" 
d="M256 -20q-67 0 -113.5 26.5t-70.5 76.5t-24 121q0 37 7 86t16 94l155 722h195l-144 -683q-11 -46 -17.5 -90t-6.5 -81q0 -44 19.5 -69.5t59.5 -25.5q56 0 98 43.5t74 124.5t55 193l126 588h195l-233 -1106h-157l11 138h-6q-31 -49 -68.5 -84.5t-80.5 -54.5t-90 -19z
M304 1241l4 22q47 48 90 99.5t82 104t71 102.5h176q9 -38 28.5 -95.5t42.5 -114.5t41 -95l-5 -23h-114q-17 24 -35.5 52.5t-37 60.5t-37.5 68q-51 -55 -98 -101t-88 -80h-120z" />
    <glyph glyph-name="udieresis" unicode="&#xfc;" horiz-adv-x="880" 
d="M256 -20q-67 0 -113.5 26.5t-70.5 76.5t-24 121q0 37 7 86t16 94l155 722h195l-144 -683q-11 -46 -17.5 -90t-6.5 -81q0 -44 19.5 -69.5t59.5 -25.5q56 0 98 43.5t74 124.5t55 193l126 588h195l-233 -1106h-157l11 138h-6q-31 -49 -68.5 -84.5t-80.5 -54.5t-90 -19z
M729 1285q-41 0 -62.5 21.5t-21.5 62.5q0 58 33 102.5t93 44.5q38 0 59 -20.5t21 -59.5q0 -66 -35 -108.5t-87 -42.5zM405 1285q-41 0 -62.5 21.5t-21.5 62.5q0 58 33 102.5t93 44.5q25 0 42 -9t26 -26.5t9 -44.5q0 -66 -34 -108.5t-85 -42.5z" />
    <glyph glyph-name="yacute" unicode="&#xfd;" horiz-adv-x="755" 
d="M-57 -493q-37 0 -66.5 5.5t-53.5 14.5l31 176q21 -8 42 -12.5t43 -4.5q55 0 89 40t67 114l75 171l-37 1095h197l3 -577q0 -37 -1 -75t-2.5 -76.5t-3.5 -77.5h6q12 40 25.5 79t27 74t23.5 61l250 592h205l-580 -1298q-41 -90 -86.5 -158t-105.5 -105.5t-148 -37.5z
M398 1240l2 20q45 53 85.5 106t75 104.5t62.5 97.5h228l-2 -17q-22 -28 -63 -71t-88.5 -90t-91.5 -87t-73 -63h-135z" />
    <glyph glyph-name="thorn" unicode="&#xfe;" horiz-adv-x="886" 
d="M-105 -479l430 2037h194l-105 -495q-5 -24 -10.5 -44.5t-11.5 -39.5h6q30 46 65.5 78.5t77.5 51t89 18.5q103 0 160 -78t57 -238q0 -95 -18 -207t-53 -222t-88.5 -201t-124.5 -146t-160 -55q-47 0 -84 19t-63 53t-39 80h-6q-5 -42 -12.5 -83.5t-13.5 -71.5l-97 -456h-193
zM374 152q53 0 96 46t76 120.5t55 161t33 169t11 143.5q0 86 -23 126.5t-68 40.5q-57 0 -103 -52t-80 -133t-56 -168q-21 -85 -32 -165.5t-11 -135.5q0 -75 25.5 -114t76.5 -39z" />
    <glyph glyph-name="ydieresis" unicode="&#xff;" horiz-adv-x="755" 
d="M-57 -493q-37 0 -66.5 5.5t-53.5 14.5l31 176q21 -8 42 -12.5t43 -4.5q55 0 89 40t67 114l75 171l-37 1095h197l3 -577q0 -37 -1 -75t-2.5 -76.5t-3.5 -77.5h6q12 40 25.5 79t27 74t23.5 61l250 592h205l-580 -1298q-41 -90 -86.5 -158t-105.5 -105.5t-148 -37.5z
M667 1285q-41 0 -62.5 21.5t-21.5 62.5q0 58 33 102.5t93 44.5q38 0 59 -20.5t21 -59.5q0 -66 -35 -108.5t-87 -42.5zM343 1285q-41 0 -62.5 21.5t-21.5 62.5q0 58 33 102.5t93 44.5q25 0 42 -9t26 -26.5t9 -44.5q0 -66 -34 -108.5t-85 -42.5z" />
    <glyph glyph-name="Amacron" unicode="&#x100;" horiz-adv-x="887" 
d="M-130 0l617 1468h259l10 -1468h-214l4 426h-282l-171 -426h-223zM333 607h222l10 484q1 50 3 94.5t6 86.5h-6q-8 -40 -21.5 -83.5t-31.5 -94.5zM379 1627l31 148h510l-31 -148h-510z" />
    <glyph glyph-name="amacron" unicode="&#x101;" horiz-adv-x="894" 
d="M264 -20q-69 0 -118.5 37t-75 107.5t-25.5 169.5q0 91 17 202t51 222t87 203.5t124.5 149t163.5 56.5q46 0 82.5 -17.5t63.5 -53t42 -90.5h6l47 140h169l-235 -1106h-159l9 152h-5q-36 -52 -73 -91t-78.5 -60t-92.5 -21zM338 149q63 0 108 54t76.5 135.5t52.5 164.5
q24 98 34.5 169t10.5 131q0 72 -26.5 111.5t-75.5 39.5q-50 0 -92.5 -44t-75 -115.5t-55.5 -157t-35 -170t-12 -151.5q0 -84 22.5 -125.5t67.5 -41.5zM333 1253l31 148h510l-31 -148h-510z" />
    <glyph glyph-name="Abreve" unicode="&#x102;" horiz-adv-x="887" 
d="M-130 0l617 1468h259l10 -1468h-214l4 426h-282l-171 -426h-223zM333 607h222l10 484q1 50 3 94.5t6 86.5h-6q-8 -40 -21.5 -83.5t-31.5 -94.5zM642 1621q-78 0 -127 27t-71 74.5t-22 109.5q0 21 2 42.5t6 41.5h123q0 -49 9.5 -81.5t31.5 -49t60 -16.5q57 0 92.5 33.5
t55.5 113.5h128q-25 -142 -98 -218.5t-190 -76.5z" />
    <glyph glyph-name="abreve" unicode="&#x103;" horiz-adv-x="894" 
d="M264 -20q-69 0 -118.5 37t-75 107.5t-25.5 169.5q0 91 17 202t51 222t87 203.5t124.5 149t163.5 56.5q46 0 82.5 -17.5t63.5 -53t42 -90.5h6l47 140h169l-235 -1106h-159l9 152h-5q-36 -52 -73 -91t-78.5 -60t-92.5 -21zM338 149q63 0 108 54t76.5 135.5t52.5 164.5
q24 98 34.5 169t10.5 131q0 72 -26.5 111.5t-75.5 39.5q-50 0 -92.5 -44t-75 -115.5t-55.5 -157t-35 -170t-12 -151.5q0 -84 22.5 -125.5t67.5 -41.5zM597 1247q-78 0 -127 27t-71 74.5t-22 109.5q0 21 2 42.5t6 41.5h123q0 -49 9.5 -81.5t31.5 -49t60 -16.5q57 0 92.5 33.5
t55.5 113.5h128q-25 -142 -98 -218.5t-190 -76.5z" />
    <glyph glyph-name="Aogonek" unicode="&#x104;" horiz-adv-x="887" 
d="M-130 0l617 1468h259l10 -1468h-214l4 426h-282l-171 -426h-223zM333 607h222l10 484q1 50 3 94.5t6 86.5h-6q-8 -40 -21.5 -83.5t-31.5 -94.5zM543 -466q-81 0 -121.5 43t-40.5 110q0 59 23.5 111.5t69.5 102t114 99.5h126q-57 -53 -93 -97.5t-52 -84.5t-17 -80
q0 -30 16 -46.5t44 -16.5q16 0 36.5 4t42.5 9l-28 -134q-28 -12 -58 -16t-62 -4z" />
    <glyph glyph-name="aogonek" unicode="&#x105;" horiz-adv-x="894" 
d="M264 -20q-69 0 -118.5 37t-75 107.5t-25.5 169.5q0 91 17 202t51 222t87 203.5t124.5 149t163.5 56.5q46 0 82.5 -17.5t63.5 -53t42 -90.5h6l47 140h169l-235 -1106h-159l9 152h-5q-36 -52 -73 -91t-78.5 -60t-92.5 -21zM338 149q63 0 108 54t76.5 135.5t52.5 164.5
q24 98 34.5 169t10.5 131q0 72 -26.5 111.5t-75.5 39.5q-50 0 -92.5 -44t-75 -115.5t-55.5 -157t-35 -170t-12 -151.5q0 -84 22.5 -125.5t67.5 -41.5zM471 -466q-81 0 -121.5 43t-40.5 110q0 59 23.5 111.5t69.5 102t114 99.5h126q-57 -53 -93 -97.5t-52 -84.5t-17 -80
q0 -30 16 -46.5t44 -16.5q16 0 36.5 4t42.5 9l-28 -134q-28 -12 -58 -16t-62 -4z" />
    <glyph glyph-name="Cacute" unicode="&#x106;" horiz-adv-x="831" 
d="M411 -20q-111 0 -186.5 54t-113.5 159.5t-38 258.5q0 127 26 268.5t77.5 277t128.5 245.5t179 175.5t229 65.5q75 0 142 -19t121 -60l-102 -165q-37 32 -76.5 47t-82.5 15q-88 0 -157 -61t-120 -159t-84.5 -212t-50 -221t-16.5 -184q0 -159 42.5 -231t132.5 -72
q50 0 102.5 15t107.5 40v-184q-61 -27 -129 -40t-132 -13zM547 1599l2 20q45 53 85.5 106t75 104.5t62.5 97.5h228l-2 -17q-22 -28 -63 -71t-88.5 -90t-91.5 -87t-73 -63h-135z" />
    <glyph glyph-name="cacute" unicode="&#x107;" horiz-adv-x="687" 
d="M325 -20q-89 0 -151 39.5t-93.5 115t-31.5 185.5q0 99 17.5 209.5t54.5 216.5t95 192t139.5 137.5t187.5 51.5q60 0 111 -14.5t96 -43.5l-80 -159q-28 20 -61.5 32t-65.5 12q-75 0 -130.5 -62t-91 -157.5t-53 -200t-17.5 -189.5q0 -66 13.5 -109t41 -64t67.5 -21t85.5 17
t94.5 50v-171q-42 -28 -102.5 -47.5t-125.5 -19.5zM398 1246l2 20q45 53 85.5 106t75 104.5t62.5 97.5h228l-2 -17q-22 -28 -63 -71t-88.5 -90t-91.5 -87t-73 -63h-135z" />
    <glyph glyph-name="Ccircumflex" unicode="&#x108;" horiz-adv-x="831" 
d="M411 -20q-111 0 -186.5 54t-113.5 159.5t-38 258.5q0 127 26 268.5t77.5 277t128.5 245.5t179 175.5t229 65.5q75 0 142 -19t121 -60l-102 -165q-37 32 -76.5 47t-82.5 15q-88 0 -157 -61t-120 -159t-84.5 -212t-50 -221t-16.5 -184q0 -159 42.5 -231t132.5 -72
q50 0 102.5 15t107.5 40v-184q-61 -27 -129 -40t-132 -13zM441 1579l4 22q47 48 90 99.5t82 104t71 102.5h176q9 -38 28.5 -95.5t42.5 -114.5t41 -95l-5 -23h-114q-17 24 -35.5 52.5t-37 60.5t-37.5 68q-51 -55 -98 -101t-88 -80h-120z" />
    <glyph glyph-name="ccircumflex" unicode="&#x109;" horiz-adv-x="687" 
d="M325 -20q-89 0 -151 39.5t-93.5 115t-31.5 185.5q0 99 17.5 209.5t54.5 216.5t95 192t139.5 137.5t187.5 51.5q60 0 111 -14.5t96 -43.5l-80 -159q-28 20 -61.5 32t-65.5 12q-75 0 -130.5 -62t-91 -157.5t-53 -200t-17.5 -189.5q0 -66 13.5 -109t41 -64t67.5 -21t85.5 17
t94.5 50v-171q-42 -28 -102.5 -47.5t-125.5 -19.5zM267 1241l4 22q47 48 90 99.5t82 104t71 102.5h176q9 -38 28.5 -95.5t42.5 -114.5t41 -95l-5 -23h-114q-17 24 -35.5 52.5t-37 60.5t-37.5 68q-51 -55 -98 -101t-88 -80h-120z" />
    <glyph glyph-name="Cdot" unicode="&#x10a;" horiz-adv-x="831" 
d="M411 -20q-111 0 -186.5 54t-113.5 159.5t-38 258.5q0 127 26 268.5t77.5 277t128.5 245.5t179 175.5t229 65.5q75 0 142 -19t121 -60l-102 -165q-37 32 -76.5 47t-82.5 15q-88 0 -157 -61t-120 -159t-84.5 -212t-50 -221t-16.5 -184q0 -159 42.5 -231t132.5 -72
q50 0 102.5 15t107.5 40v-184q-61 -27 -129 -40t-132 -13zM752 1618q-48 0 -73 26t-25 71q0 61 35 108.5t101 47.5q33 0 54.5 -10.5t32 -32t10.5 -53.5q0 -63 -35 -110t-100 -47z" />
    <glyph glyph-name="cdot" unicode="&#x10b;" horiz-adv-x="687" 
d="M325 -20q-89 0 -151 39.5t-93.5 115t-31.5 185.5q0 99 17.5 209.5t54.5 216.5t95 192t139.5 137.5t187.5 51.5q60 0 111 -14.5t96 -43.5l-80 -159q-28 20 -61.5 32t-65.5 12q-75 0 -130.5 -62t-91 -157.5t-53 -200t-17.5 -189.5q0 -66 13.5 -109t41 -64t67.5 -21t85.5 17
t94.5 50v-171q-42 -28 -102.5 -47.5t-125.5 -19.5zM580 1274q-48 0 -73 26t-25 71q0 61 35 108.5t101 47.5q33 0 54.5 -10.5t32 -32t10.5 -53.5q0 -63 -35 -110t-100 -47z" />
    <glyph glyph-name="Ccaron" unicode="&#x10c;" horiz-adv-x="831" 
d="M411 -20q-111 0 -186.5 54t-113.5 159.5t-38 258.5q0 127 26 268.5t77.5 277t128.5 245.5t179 175.5t229 65.5q75 0 142 -19t121 -60l-102 -165q-37 32 -76.5 47t-82.5 15q-88 0 -157 -61t-120 -159t-84.5 -212t-50 -221t-16.5 -184q0 -159 42.5 -231t132.5 -72
q50 0 102.5 15t107.5 40v-184q-61 -27 -129 -40t-132 -13zM642 1579q-9 38 -29 95.5t-42.5 115t-41.5 94.5l5 23h115q15 -19 32.5 -46t37.5 -61t40 -73q51 56 98 102t87 78h120l-3 -22q-33 -33 -81 -90.5t-93 -116.5t-69 -99h-176z" />
    <glyph glyph-name="ccaron" unicode="&#x10d;" horiz-adv-x="687" 
d="M325 -20q-89 0 -151 39.5t-93.5 115t-31.5 185.5q0 99 17.5 209.5t54.5 216.5t95 192t139.5 137.5t187.5 51.5q60 0 111 -14.5t96 -43.5l-80 -159q-28 20 -61.5 32t-65.5 12q-75 0 -130.5 -62t-91 -157.5t-53 -200t-17.5 -189.5q0 -66 13.5 -109t41 -64t67.5 -21t85.5 17
t94.5 50v-171q-42 -28 -102.5 -47.5t-125.5 -19.5zM460 1241q-9 38 -29 95.5t-42.5 115t-41.5 94.5l5 23h115q15 -19 32.5 -46t37.5 -61t40 -73q51 56 98 102t87 78h120l-3 -22q-33 -33 -81 -90.5t-93 -116.5t-69 -99h-176z" />
    <glyph glyph-name="Dcaron" unicode="&#x10e;" horiz-adv-x="987" 
d="M-1 0l309 1462h259q194 0 296.5 -112t102.5 -327q0 -133 -24.5 -276t-76 -276t-133 -239.5t-196 -169t-265.5 -62.5h-272zM240 184h60q97 0 170.5 53.5t126.5 142.5t87 197t50 220t16 209q0 143 -51 208.5t-153 65.5h-73zM531 1579q-9 38 -29 95.5t-42.5 115t-41.5 94.5
l5 23h115q15 -19 32.5 -46t37.5 -61t40 -73q51 56 98 102t87 78h120l-3 -22q-33 -33 -81 -90.5t-93 -116.5t-69 -99h-176z" />
    <glyph glyph-name="dcaron" unicode="&#x10f;" horiz-adv-x="1072" 
d="M260 -20q-68 0 -116.5 37t-74 107.5t-25.5 169.5q0 89 17 199t51 221.5t85.5 205t121.5 150.5t158 57q48 0 87.5 -16.5t68 -49t42.5 -80.5h6q5 36 11 70.5t12 66t11 57.5l81 381h196l-330 -1556h-159l9 145h-5q-38 -53 -75 -89.5t-78.5 -56t-93.5 -19.5zM337 148
q50 0 89.5 35.5t71 95t54.5 131.5t38 146t22 139.5t7 109.5q0 73 -25 111t-77 38q-53 0 -95.5 -46.5t-75.5 -121t-55 -161t-33 -169t-11 -143.5q0 -83 22.5 -124t67.5 -41zM1019 1229v19q24 55 44.5 108t37 103.5t27.5 96.5h192l-1 -20q-19 -45 -49 -101t-63.5 -110
t-63.5 -96h-124z" />
    <glyph glyph-name="Dcroat" unicode="&#x110;" horiz-adv-x="989" 
d="M-1 0l142 679h-102l34 161h102l133 622h259q194 0 296.5 -112t102.5 -327q0 -136 -25 -279.5t-77 -276t-134.5 -238t-196 -167.5t-262.5 -62h-272zM240 184h60q101 0 176.5 57t128 150t84.5 203t46.5 218t14.5 194q0 143 -51 208.5t-153 65.5h-73l-94 -440h164l-34 -161
h-166z" />
    <glyph glyph-name="dcroat" unicode="&#x111;" horiz-adv-x="893" 
d="M261 -20q-68 0 -116.5 37t-74 107.5t-25.5 169.5q0 89 17 199t51 221.5t85.5 205t121.5 150.5t158 57q48 0 87.5 -16.5t68 -49t42.5 -80.5h6q5 32 10 62t10.5 59t10.5 56l16 77h-182l31 148h183l36 173h196l-36 -173h117l-32 -148h-117l-262 -1235h-159l9 145h-5
q-38 -53 -75 -89.5t-78.5 -56t-93.5 -19.5zM338 148q50 0 89.5 35.5t71 95t54.5 131.5t38 146t22 139.5t7 109.5q0 73 -25 111t-77 38q-53 0 -95.5 -46.5t-75.5 -121t-55 -161t-33 -169t-11 -143.5q0 -83 22.5 -124t67.5 -41z" />
    <glyph glyph-name="Emacron" unicode="&#x112;" horiz-adv-x="776" 
d="M-2 0l310 1462h561l-38 -179h-357l-91 -431h333l-39 -180h-333l-105 -491h359l-38 -181h-562zM348 1585l31 148h510l-31 -148h-510z" />
    <glyph glyph-name="emacron" unicode="&#x113;" horiz-adv-x="817" 
d="M352 -20q-95 0 -163.5 40.5t-105 118t-36.5 186.5q0 157 34.5 301t99.5 256.5t157 178t207 65.5q111 0 178 -62.5t67 -179.5q0 -93 -35.5 -167t-103 -125t-163.5 -78t-218 -27h-15q-6 -34 -10 -69.5t-4 -69.5q0 -109 39.5 -157.5t118.5 -48.5q60 0 110.5 15.5t115.5 52.5
v-158q-62 -39 -130 -55.5t-143 -16.5zM283 633h7q115 0 184.5 30.5t100.5 84t31 121.5q0 45 -21.5 71t-66.5 26q-48 0 -93 -41.5t-81 -116.5t-61 -175zM315 1247l31 148h510l-31 -148h-510z" />
    <glyph glyph-name="Ebreve" unicode="&#x114;" horiz-adv-x="776" 
d="M-2 0l310 1462h561l-38 -179h-357l-91 -431h333l-39 -180h-333l-105 -491h359l-38 -181h-562zM613 1579q-78 0 -127 27t-71 74.5t-22 109.5q0 21 2 42.5t6 41.5h123q0 -49 9.5 -81.5t31.5 -49t60 -16.5q57 0 92.5 33.5t55.5 113.5h128q-25 -142 -98 -218.5t-190 -76.5z
" />
    <glyph glyph-name="ebreve" unicode="&#x115;" horiz-adv-x="817" 
d="M352 -20q-95 0 -163.5 40.5t-105 118t-36.5 186.5q0 157 34.5 301t99.5 256.5t157 178t207 65.5q111 0 178 -62.5t67 -179.5q0 -93 -35.5 -167t-103 -125t-163.5 -78t-218 -27h-15q-6 -34 -10 -69.5t-4 -69.5q0 -109 39.5 -157.5t118.5 -48.5q60 0 110.5 15.5t115.5 52.5
v-158q-62 -39 -130 -55.5t-143 -16.5zM283 633h7q115 0 184.5 30.5t100.5 84t31 121.5q0 45 -21.5 71t-66.5 26q-48 0 -93 -41.5t-81 -116.5t-61 -175zM600 1241q-78 0 -127 27t-71 74.5t-22 109.5q0 21 2 42.5t6 41.5h123q0 -49 9.5 -81.5t31.5 -49t60 -16.5
q57 0 92.5 33.5t55.5 113.5h128q-25 -142 -98 -218.5t-190 -76.5z" />
    <glyph glyph-name="Edotaccent" unicode="&#x116;" horiz-adv-x="776" 
d="M-2 0l310 1462h561l-38 -179h-357l-91 -431h333l-39 -180h-333l-105 -491h359l-38 -181h-562zM624 1583q-48 0 -73 26t-25 71q0 61 35 108.5t101 47.5q33 0 54.5 -10.5t32 -32t10.5 -53.5q0 -63 -35 -110t-100 -47z" />
    <glyph glyph-name="edotaccent" unicode="&#x117;" horiz-adv-x="817" 
d="M352 -20q-95 0 -163.5 40.5t-105 118t-36.5 186.5q0 157 34.5 301t99.5 256.5t157 178t207 65.5q111 0 178 -62.5t67 -179.5q0 -93 -35.5 -167t-103 -125t-163.5 -78t-218 -27h-15q-6 -34 -10 -69.5t-4 -69.5q0 -109 39.5 -157.5t118.5 -48.5q60 0 110.5 15.5t115.5 52.5
v-158q-62 -39 -130 -55.5t-143 -16.5zM283 633h7q115 0 184.5 30.5t100.5 84t31 121.5q0 45 -21.5 71t-66.5 26q-48 0 -93 -41.5t-81 -116.5t-61 -175zM607 1274q-48 0 -73 26t-25 71q0 61 35 108.5t101 47.5q33 0 54.5 -10.5t32 -32t10.5 -53.5q0 -63 -35 -110t-100 -47z
" />
    <glyph glyph-name="Eogonek" unicode="&#x118;" horiz-adv-x="776" 
d="M-2 0l310 1462h561l-38 -179h-357l-91 -431h333l-39 -180h-333l-105 -491h359l-38 -181h-562zM326 -466q-81 0 -121.5 43t-40.5 110q0 59 23.5 111.5t69.5 102t114 99.5h126q-57 -53 -93 -97.5t-52 -84.5t-17 -80q0 -30 16 -46.5t44 -16.5q16 0 36.5 4t42.5 9l-28 -134
q-28 -12 -58 -16t-62 -4z" />
    <glyph glyph-name="eogonek" unicode="&#x119;" horiz-adv-x="817" 
d="M383 -441q-79 0 -118.5 44t-39.5 110q0 59 23 111.5t68.5 102t111.5 98.5l166 14q-70 -48 -113 -97t-63 -94t-21 -85q0 -30 15 -46t42 -16q15 0 35.5 4t42.5 8l-30 -134q-28 -12 -57.5 -16t-61.5 -4zM352 -20q-95 0 -163.5 40.5t-105 118t-36.5 186.5q0 157 34.5 301
t99.5 256.5t157 178t207 65.5q111 0 178 -62.5t67 -179.5q0 -93 -35.5 -167t-103 -125t-163.5 -78t-218 -27h-15q-6 -34 -10 -69.5t-4 -69.5q0 -109 39.5 -157.5t118.5 -48.5q60 0 110.5 15.5t115.5 52.5v-158q-62 -39 -130 -55.5t-143 -16.5zM283 633h7q115 0 184.5 30.5
t100.5 84t31 121.5q0 45 -21.5 71t-66.5 26q-48 0 -93 -41.5t-81 -116.5t-61 -175z" />
    <glyph glyph-name="Ecaron" unicode="&#x11a;" horiz-adv-x="776" 
d="M-2 0l310 1462h561l-38 -179h-357l-91 -431h333l-39 -180h-333l-105 -491h359l-38 -181h-562zM507 1579q-9 38 -29 95.5t-42.5 115t-41.5 94.5l5 23h115q15 -19 32.5 -46t37.5 -61t40 -73q51 56 98 102t87 78h120l-3 -22q-33 -33 -81 -90.5t-93 -116.5t-69 -99h-176z" />
    <glyph glyph-name="ecaron" unicode="&#x11b;" horiz-adv-x="817" 
d="M352 -20q-95 0 -163.5 40.5t-105 118t-36.5 186.5q0 157 34.5 301t99.5 256.5t157 178t207 65.5q111 0 178 -62.5t67 -179.5q0 -93 -35.5 -167t-103 -125t-163.5 -78t-218 -27h-15q-6 -34 -10 -69.5t-4 -69.5q0 -109 39.5 -157.5t118.5 -48.5q60 0 110.5 15.5t115.5 52.5
v-158q-62 -39 -130 -55.5t-143 -16.5zM283 633h7q115 0 184.5 30.5t100.5 84t31 121.5q0 45 -21.5 71t-66.5 26q-48 0 -93 -41.5t-81 -116.5t-61 -175zM475 1241q-9 38 -29 95.5t-42.5 115t-41.5 94.5l5 23h115q15 -19 32.5 -46t37.5 -61t40 -73q51 56 98 102t87 78h120
l-3 -22q-33 -33 -81 -90.5t-93 -116.5t-69 -99h-176z" />
    <glyph glyph-name="Gcircumflex" unicode="&#x11c;" horiz-adv-x="1032" 
d="M479 -20q-205 0 -305 119.5t-100 348.5q0 162 31 314.5t90 283.5t143.5 229.5t192 153.5t236.5 55q95 0 177 -25t139 -66l-95 -175q-58 43 -116.5 63.5t-123.5 20.5q-106 0 -191 -75.5t-146 -200t-93 -272t-32 -291.5q0 -104 23.5 -170.5t70.5 -98.5t117 -32
q38 0 73.5 5.5t70.5 16.5l91 430h-172l37 177h375l-158 -742q-88 -33 -174.5 -51t-160.5 -18zM495 1579l4 22q47 48 90 99.5t82 104t71 102.5h176q9 -38 28.5 -95.5t42.5 -114.5t41 -95l-5 -23h-114q-17 24 -35.5 52.5t-37 60.5t-37.5 68q-51 -55 -98 -101t-88 -80h-120z
" />
    <glyph glyph-name="gcircumflex" unicode="&#x11d;" horiz-adv-x="846" 
d="M201 -492q-166 -1 -252.5 64.5t-85.5 195.5q2 111 71 196.5t190 130.5q-31 15 -51.5 49.5t-20.5 78.5q0 57 38.5 109t113.5 104q-39 25 -63 82t-24 134q0 114 49.5 224.5t141.5 176.5q43 33 98 52.5t112 19.5q49 0 82.5 -8.5t54.5 -17.5h275l-25 -121l-133 -31
q11 -21 16 -49t5 -61q0 -84 -32 -176t-87 -156q-52 -60 -122.5 -93.5t-158.5 -33.5q-28 0 -45.5 -0.5t-25.5 -4.5q-51 -23 -76 -58.5t-25 -66.5q0 -32 28 -44q11 -5 27 -7t38 -2h163q80 0 129.5 -28t73 -79.5t23.5 -120.5q0 -122 -54 -217.5t-145 -153.5q-63 -42 -141 -64.5
t-162 -23.5zM208 -341q57 1 109 17.5t93 48.5q44 33 71.5 83.5t27.5 107.5q0 23 -6 42t-22 34q-13 11 -38.5 17.5t-63.5 7.5h-134q-45 0 -90 -36.5t-75 -90.5t-30 -106q0 -72 41.5 -99t116.5 -26zM395 520q52 0 94 42t70 113t35 157q5 47 0.5 80t-20.5 51q-9 10 -22 15.5
t-32 5.5q-42 0 -77 -28.5t-62 -75t-43.5 -100.5t-20.5 -104q-3 -36 -1.5 -64.5t10.5 -47.5q19 -44 69 -44zM336 1248l4 22q47 48 90 99.5t82 104t71 102.5h176q9 -38 28.5 -95.5t42.5 -114.5t41 -95l-5 -23h-114q-17 24 -35.5 52.5t-37 60.5t-37.5 68q-51 -55 -98 -101
t-88 -80h-120z" />
    <glyph glyph-name="Gbreve" unicode="&#x11e;" horiz-adv-x="1032" 
d="M479 -20q-205 0 -305 119.5t-100 348.5q0 162 31 314.5t90 283.5t143.5 229.5t192 153.5t236.5 55q95 0 177 -25t139 -66l-95 -175q-58 43 -116.5 63.5t-123.5 20.5q-106 0 -191 -75.5t-146 -200t-93 -272t-32 -291.5q0 -104 23.5 -170.5t70.5 -98.5t117 -32
q38 0 73.5 5.5t70.5 16.5l91 430h-172l37 177h375l-158 -742q-88 -33 -174.5 -51t-160.5 -18zM791 1579q-78 0 -127 27t-71 74.5t-22 109.5q0 21 2 42.5t6 41.5h123q0 -49 9.5 -81.5t31.5 -49t60 -16.5q57 0 92.5 33.5t55.5 113.5h128q-25 -142 -98 -218.5t-190 -76.5z" />
    <glyph glyph-name="gbreve" unicode="&#x11f;" horiz-adv-x="846" 
d="M201 -492q-166 -1 -252.5 64.5t-85.5 195.5q2 111 71 196.5t190 130.5q-31 15 -51.5 49.5t-20.5 78.5q0 57 38.5 109t113.5 104q-39 25 -63 82t-24 134q0 114 49.5 224.5t141.5 176.5q43 33 98 52.5t112 19.5q49 0 82.5 -8.5t54.5 -17.5h275l-25 -121l-133 -31
q11 -21 16 -49t5 -61q0 -84 -32 -176t-87 -156q-52 -60 -122.5 -93.5t-158.5 -33.5q-28 0 -45.5 -0.5t-25.5 -4.5q-51 -23 -76 -58.5t-25 -66.5q0 -32 28 -44q11 -5 27 -7t38 -2h163q80 0 129.5 -28t73 -79.5t23.5 -120.5q0 -122 -54 -217.5t-145 -153.5q-63 -42 -141 -64.5
t-162 -23.5zM208 -341q57 1 109 17.5t93 48.5q44 33 71.5 83.5t27.5 107.5q0 23 -6 42t-22 34q-13 11 -38.5 17.5t-63.5 7.5h-134q-45 0 -90 -36.5t-75 -90.5t-30 -106q0 -72 41.5 -99t116.5 -26zM395 520q52 0 94 42t70 113t35 157q5 47 0.5 80t-20.5 51q-9 10 -22 15.5
t-32 5.5q-42 0 -77 -28.5t-62 -75t-43.5 -100.5t-20.5 -104q-3 -36 -1.5 -64.5t10.5 -47.5q19 -44 69 -44zM565 1248q-78 0 -127 27t-71 74.5t-22 109.5q0 21 2 42.5t6 41.5h123q0 -49 9.5 -81.5t31.5 -49t60 -16.5q57 0 92.5 33.5t55.5 113.5h128q-25 -142 -98 -218.5
t-190 -76.5z" />
    <glyph glyph-name="Gdot" unicode="&#x120;" horiz-adv-x="1032" 
d="M479 -20q-205 0 -305 119.5t-100 348.5q0 162 31 314.5t90 283.5t143.5 229.5t192 153.5t236.5 55q95 0 177 -25t139 -66l-95 -175q-58 43 -116.5 63.5t-123.5 20.5q-106 0 -191 -75.5t-146 -200t-93 -272t-32 -291.5q0 -104 23.5 -170.5t70.5 -98.5t117 -32
q38 0 73.5 5.5t70.5 16.5l91 430h-172l37 177h375l-158 -742q-88 -33 -174.5 -51t-160.5 -18zM804 1612q-48 0 -73 26t-25 71q0 61 35 108.5t101 47.5q33 0 54.5 -10.5t32 -32t10.5 -53.5q0 -63 -35 -110t-100 -47z" />
    <glyph glyph-name="gdot" unicode="&#x121;" horiz-adv-x="846" 
d="M201 -492q-166 -1 -252.5 64.5t-85.5 195.5q2 111 71 196.5t190 130.5q-31 15 -51.5 49.5t-20.5 78.5q0 57 38.5 109t113.5 104q-39 25 -63 82t-24 134q0 114 49.5 224.5t141.5 176.5q43 33 98 52.5t112 19.5q49 0 82.5 -8.5t54.5 -17.5h275l-25 -121l-133 -31
q11 -21 16 -49t5 -61q0 -84 -32 -176t-87 -156q-52 -60 -122.5 -93.5t-158.5 -33.5q-28 0 -45.5 -0.5t-25.5 -4.5q-51 -23 -76 -58.5t-25 -66.5q0 -32 28 -44q11 -5 27 -7t38 -2h163q80 0 129.5 -28t73 -79.5t23.5 -120.5q0 -122 -54 -217.5t-145 -153.5q-63 -42 -141 -64.5
t-162 -23.5zM208 -341q57 1 109 17.5t93 48.5q44 33 71.5 83.5t27.5 107.5q0 23 -6 42t-22 34q-13 11 -38.5 17.5t-63.5 7.5h-134q-45 0 -90 -36.5t-75 -90.5t-30 -106q0 -72 41.5 -99t116.5 -26zM395 520q52 0 94 42t70 113t35 157q5 47 0.5 80t-20.5 51q-9 10 -22 15.5
t-32 5.5q-42 0 -77 -28.5t-62 -75t-43.5 -100.5t-20.5 -104q-3 -36 -1.5 -64.5t10.5 -47.5q19 -44 69 -44zM583 1281q-48 0 -73 26t-25 71q0 61 35 108.5t101 47.5q33 0 54.5 -10.5t32 -32t10.5 -53.5q0 -63 -35 -110t-100 -47z" />
    <glyph glyph-name="uni0122" unicode="&#x122;" horiz-adv-x="1032" 
d="M479 -20q-205 0 -305 119.5t-100 348.5q0 162 31 314.5t90 283.5t143.5 229.5t192 153.5t236.5 55q95 0 177 -25t139 -66l-95 -175q-58 43 -116.5 63.5t-123.5 20.5q-106 0 -191 -75.5t-146 -200t-93 -272t-32 -291.5q0 -104 23.5 -170.5t70.5 -98.5t117 -32
q38 0 73.5 5.5t70.5 16.5l91 430h-172l37 177h375l-158 -742q-88 -33 -174.5 -51t-160.5 -18zM218 -453v28q21 36 47 89.5t50 110t37 100.5h189v-20q-17 -44 -51.5 -102t-74 -113.5t-73.5 -92.5h-124z" />
    <glyph glyph-name="uni0123" unicode="&#x123;" horiz-adv-x="846" 
d="M450 1241v21q20 47 53 103.5t72 110.5t75 93h121l2 -23q-20 -32 -47.5 -89.5t-51.5 -117t-36 -98.5h-188zM201 -492q-166 -1 -252.5 64.5t-85.5 195.5q2 111 71 196.5t190 130.5q-31 15 -51.5 49.5t-20.5 78.5q0 57 38.5 109t113.5 104q-39 25 -63 82t-24 134
q0 114 49.5 224.5t141.5 176.5q43 33 98 52.5t112 19.5q49 0 82.5 -8.5t54.5 -17.5h275l-25 -121l-133 -31q11 -21 16 -49t5 -61q0 -84 -32 -176t-87 -156q-52 -60 -122.5 -93.5t-158.5 -33.5q-28 0 -45.5 -0.5t-25.5 -4.5q-51 -23 -76 -58.5t-25 -66.5q0 -32 28 -44
q11 -5 27 -7t38 -2h163q80 0 129.5 -28t73 -79.5t23.5 -120.5q0 -122 -54 -217.5t-145 -153.5q-63 -42 -141 -64.5t-162 -23.5zM208 -341q57 1 109 17.5t93 48.5q44 33 71.5 83.5t27.5 107.5q0 23 -6 42t-22 34q-13 11 -38.5 17.5t-63.5 7.5h-134q-45 0 -90 -36.5t-75 -90.5
t-30 -106q0 -72 41.5 -99t116.5 -26zM395 520q52 0 94 42t70 113t35 157q5 47 0.5 80t-20.5 51q-9 10 -22 15.5t-32 5.5q-42 0 -77 -28.5t-62 -75t-43.5 -100.5t-20.5 -104q-3 -36 -1.5 -64.5t10.5 -47.5q19 -44 69 -44z" />
    <glyph glyph-name="Hcircumflex" unicode="&#x124;" horiz-adv-x="1027" 
d="M-2 0l310 1462h204l-129 -606h366l129 606h204l-311 -1462h-204l142 673h-365l-142 -673h-204zM439 1579l4 22q47 48 90 99.5t82 104t71 102.5h176q9 -38 28.5 -95.5t42.5 -114.5t41 -95l-5 -23h-114q-17 24 -35.5 52.5t-37 60.5t-37.5 68q-51 -55 -98 -101t-88 -80h-120
z" />
    <glyph glyph-name="hcircumflex" unicode="&#x125;" horiz-adv-x="878" 
d="M-5 0l330 1556h195l-82 -380q-6 -32 -15 -66.5t-18.5 -69t-20.5 -67.5h4q30 50 65.5 84t78.5 52t94 18q63 0 107.5 -26t69 -76t24.5 -121q0 -41 -9 -97.5t-19 -106.5l-149 -700h-196l140 661q11 51 19.5 101t8.5 94q0 43 -21 67t-63 24q-48 0 -87.5 -34t-71.5 -107
t-58 -193l-130 -613h-196zM165 1700l4 22q47 48 90 99.5t82 104t71 102.5h176q9 -38 28.5 -95.5t42.5 -114.5t41 -95l-5 -23h-114q-17 24 -35.5 52.5t-37 60.5t-37.5 68q-51 -55 -98 -101t-88 -80h-120z" />
    <glyph glyph-name="Hbar" unicode="&#x126;" horiz-adv-x="1023" 
d="M-2 0l229 1083h-128l32 151h128l49 228h204l-49 -228h365l49 228h205l-49 -228h121l-31 -151h-122l-230 -1083h-204l142 673h-365l-142 -673h-204zM381 845h365l51 238h-366z" />
    <glyph glyph-name="hbar" unicode="&#x127;" horiz-adv-x="881" 
d="M-5 0l262 1235h-120l31 148h120l37 173h195l-37 -173h185l-30 -148h-187q-17 -83 -30.5 -135.5t-23.5 -86t-19 -61.5h5q30 50 66 84t79 51.5t94 17.5q63 0 107 -26t68 -76t24 -121q0 -42 -8.5 -97.5t-18.5 -106.5l-144 -678h-196l135 639q11 51 19.5 101t8.5 94
q0 45 -21.5 68.5t-60.5 23.5q-52 0 -92.5 -36t-71 -110t-53.5 -189l-127 -591h-196z" />
    <glyph glyph-name="Itilde" unicode="&#x128;" horiz-adv-x="458" 
d="M-3 0l311 1462h202l-309 -1462h-204zM162 1623q17 82 43.5 144t67 96t100.5 34q44 0 76 -17.5t57 -40t47.5 -40t47.5 -17.5q31 0 50.5 25.5t33.5 91.5h119q-17 -101 -48.5 -161.5t-71.5 -86.5t-85 -26q-43 0 -74.5 17.5t-57 40.5t-49 40.5t-49.5 17.5q-31 0 -53 -29
t-35 -89h-119z" />
    <glyph glyph-name="itilde" unicode="&#x129;" horiz-adv-x="421" 
d="M-6 0l235 1106h195l-235 -1106h-195zM54 1244q17 82 43.5 144t67 96t100.5 34q44 0 76 -17.5t57 -40t47.5 -40t47.5 -17.5q31 0 50.5 25.5t33.5 91.5h119q-17 -101 -48.5 -161.5t-71.5 -86.5t-85 -26q-43 0 -74.5 17.5t-57 40.5t-49 40.5t-49.5 17.5q-31 0 -53 -29
t-35 -89h-119z" />
    <glyph glyph-name="Imacron" unicode="&#x12a;" horiz-adv-x="458" 
d="M-3 0l311 1462h202l-309 -1462h-204zM189 1626l31 148h510l-31 -148h-510z" />
    <glyph glyph-name="imacron" unicode="&#x12b;" horiz-adv-x="421" 
d="M-6 0l235 1106h195l-235 -1106h-195zM91 1247l31 148h510l-31 -148h-510z" />
    <glyph glyph-name="Ibreve" unicode="&#x12c;" horiz-adv-x="458" 
d="M-3 0l311 1462h202l-309 -1462h-204zM451 1620q-78 0 -127 27t-71 74.5t-22 109.5q0 21 2 42.5t6 41.5h123q0 -49 9.5 -81.5t31.5 -49t60 -16.5q57 0 92.5 33.5t55.5 113.5h128q-25 -142 -98 -218.5t-190 -76.5z" />
    <glyph glyph-name="ibreve" unicode="&#x12d;" horiz-adv-x="421" 
d="M-6 0l235 1106h195l-235 -1106h-195zM363 1241q-78 0 -127 27t-71 74.5t-22 109.5q0 21 2 42.5t6 41.5h123q0 -49 9.5 -81.5t31.5 -49t60 -16.5q57 0 92.5 33.5t55.5 113.5h128q-25 -142 -98 -218.5t-190 -76.5z" />
    <glyph glyph-name="Iogonek" unicode="&#x12e;" horiz-adv-x="458" 
d="M-3 0l311 1462h202l-309 -1462h-204zM29 -466q-81 0 -121.5 43t-40.5 110q0 59 23.5 111.5t69.5 102t114 99.5h126q-57 -53 -93 -97.5t-52 -84.5t-17 -80q0 -30 16 -46.5t44 -16.5q16 0 36.5 4t42.5 9l-28 -134q-28 -12 -58 -16t-62 -4z" />
    <glyph glyph-name="iogonek" unicode="&#x12f;" horiz-adv-x="421" 
d="M-6 0l235 1106h195l-234 -1106h-196zM369 1274q-47 0 -71 23t-24 67q0 39 15 76.5t45.5 62t76.5 24.5t70 -21t24 -66q0 -68 -37 -117t-99 -49zM0 -466q-81 0 -121.5 43t-40.5 110q0 59 23.5 111.5t69.5 102t114 99.5h126q-57 -53 -93 -97.5t-52 -84.5t-17 -80
q0 -30 16 -46.5t44 -16.5q16 0 36.5 4t42.5 9l-28 -134q-28 -12 -58 -16t-62 -4z" />
    <glyph glyph-name="Idotaccent" unicode="&#x130;" horiz-adv-x="458" 
d="M-3 0l311 1462h202l-309 -1462h-204zM454 1653q-48 0 -73 26t-25 71q0 61 35 108.5t101 47.5q33 0 54.5 -10.5t32 -32t10.5 -53.5q0 -63 -35 -110t-100 -47z" />
    <glyph glyph-name="dotlessi" unicode="&#x131;" horiz-adv-x="421" 
d="M-6 0l235 1106h195l-235 -1106h-195z" />
    <glyph glyph-name="IJ" unicode="&#x132;" horiz-adv-x="906" 
d="M-3 0l311 1462h202l-309 -1462h-204zM301 -407q-49 0 -84.5 6t-64.5 18l43 180q24 -11 48.5 -17.5t49.5 -6.5q50 0 82 33t52.5 89.5t35.5 126.5l304 1440h204l-311 -1474q-30 -139 -79.5 -226.5t-119 -128t-160.5 -40.5z" />
    <glyph glyph-name="ij" unicode="&#x133;" horiz-adv-x="843" 
d="M-6 0l235 1106h195l-234 -1106h-196zM369 1274q-47 0 -71 23t-24 67q0 39 15 76.5t45.5 62t76.5 24.5t70 -21t24 -66q0 -68 -37 -117t-99 -49zM273 -492q-31 0 -59 3.5t-55 13.5v175q17 -8 42.5 -12t46.5 -4q44 0 71 21.5t45 72t36 137.5l251 1191h196l-256 -1205
q-25 -120 -60 -208t-95 -136.5t-163 -48.5zM793 1274q-47 0 -71 23t-24 67q0 39 14.5 76.5t45 62t77.5 24.5q45 0 69.5 -21t24.5 -66q0 -68 -37 -117t-99 -49z" />
    <glyph glyph-name="Jcircumflex" unicode="&#x134;" horiz-adv-x="448" 
d="M-157 -407q-49 0 -84.5 6t-64.5 18l43 180q24 -11 48.5 -17.5t49.5 -6.5q50 0 82 33t52.5 89.5t35.5 126.5l304 1440h204l-311 -1474q-30 -139 -79.5 -226.5t-119 -128t-160.5 -40.5zM152 1579l4 22q47 48 90 99.5t82 104t71 102.5h176q9 -38 28.5 -95.5t42.5 -114.5
t41 -95l-5 -23h-114q-17 24 -35.5 52.5t-37 60.5t-37.5 68q-51 -55 -98 -101t-88 -80h-120z" />
    <glyph glyph-name="jcircumflex" unicode="&#x135;" horiz-adv-x="421" 
d="M-148 -492q-31 0 -59 3.5t-55 13.5v175q17 -8 42.5 -12t46.5 -4q44 0 71 21.5t45 72t36 137.5l251 1191h196l-256 -1205q-25 -120 -60 -208t-95 -136.5t-163 -48.5zM70 1241l4 22q47 48 90 99.5t82 104t71 102.5h176q9 -38 28.5 -95.5t42.5 -114.5t41 -95l-5 -23h-114
q-17 24 -35.5 52.5t-37 60.5t-37.5 68q-51 -55 -98 -101t-88 -80h-120z" />
    <glyph glyph-name="uni0136" unicode="&#x136;" horiz-adv-x="880" 
d="M-2 0l310 1462h204l-148 -695l104 166l365 529h224l-462 -673l163 -789h-222l-118 639l-102 -100l-114 -539h-204zM122 -453v28q21 36 47 89.5t50 110t37 100.5h189v-20q-17 -44 -51.5 -102t-74 -113.5t-73.5 -92.5h-124z" />
    <glyph glyph-name="uni0137" unicode="&#x137;" horiz-adv-x="797" 
d="M-6 0l331 1556h196l-154 -715q-6 -32 -14.5 -67.5t-18.5 -75t-23 -82.5h5l363 490h214l-342 -455l128 -651h-210l-88 490l-116 -123l-75 -367h-196zM81 -453v28q21 36 47 89.5t50 110t37 100.5h189v-20q-17 -44 -51.5 -102t-74 -113.5t-73.5 -92.5h-124z" />
    <glyph glyph-name="kgreenlandic" unicode="&#x138;" horiz-adv-x="797" 
d="M-6 0l236 1106h196l-58 -266q-12 -48 -25 -104t-32 -120h5l363 490h214l-342 -455l128 -651h-210l-88 490l-116 -123l-75 -367h-196z" />
    <glyph glyph-name="Lacute" unicode="&#x139;" horiz-adv-x="720" 
d="M-2 0l310 1462h204l-273 -1281h357l-36 -181h-562zM397 1599l2 20q45 53 85.5 106t75 104.5t62.5 97.5h228l-2 -17q-22 -28 -63 -71t-88.5 -90t-91.5 -87t-73 -63h-135z" />
    <glyph glyph-name="lacute" unicode="&#x13a;" horiz-adv-x="417" 
d="M-6 0l331 1556h196l-331 -1556h-196zM318 1674l2 20q45 53 85.5 106t75 104.5t62.5 97.5h228l-2 -17q-22 -28 -63 -71t-88.5 -90t-91.5 -87t-73 -63h-135z" />
    <glyph glyph-name="uni013B" unicode="&#x13b;" horiz-adv-x="720" 
d="M-2 0l310 1462h204l-273 -1281h357l-36 -181h-562zM30 -453v28q21 36 47 89.5t50 110t37 100.5h189v-20q-17 -44 -51.5 -102t-74 -113.5t-73.5 -92.5h-124z" />
    <glyph glyph-name="uni013C" unicode="&#x13c;" horiz-adv-x="417" 
d="M-6 0l331 1556h196l-331 -1556h-196zM-136 -453v28q21 36 47 89.5t50 110t37 100.5h189v-20q-17 -44 -51.5 -102t-74 -113.5t-73.5 -92.5h-124z" />
    <glyph glyph-name="Lcaron" unicode="&#x13d;" horiz-adv-x="720" 
d="M-2 0l310 1462h204l-273 -1281h357l-36 -181h-562zM565 1135v19q24 55 44.5 108t37 103.5t27.5 96.5h192l-1 -20q-19 -45 -49 -101t-63.5 -110t-63.5 -96h-124z" />
    <glyph glyph-name="lcaron" unicode="&#x13e;" horiz-adv-x="602" 
d="M-6 0l331 1556h196l-331 -1556h-196zM550 1229v19q24 55 44.5 108t37 103.5t27.5 96.5h192l-1 -20q-19 -45 -49 -101t-63.5 -110t-63.5 -96h-124z" />
    <glyph glyph-name="Ldot" unicode="&#x13f;" horiz-adv-x="720" 
d="M-2 0l310 1462h204l-273 -1281h357l-36 -181h-562zM585 630q-48 0 -73 26t-25 71q0 61 35 108.5t101 47.5q33 0 54.5 -10.5t32 -32t10.5 -53.5q0 -63 -35 -110t-100 -47z" />
    <glyph glyph-name="ldot" unicode="&#x140;" horiz-adv-x="647" 
d="M-6 0l331 1556h196l-331 -1556h-196zM551 561q-48 0 -73 26t-25 71q0 61 35 108.5t101 47.5q33 0 54.5 -10.5t32 -32t10.5 -53.5q0 -63 -35 -110t-100 -47z" />
    <glyph glyph-name="Lslash" unicode="&#x141;" horiz-adv-x="737" 
d="M19 0l113 537l-104 -61l-78 125l227 149l152 712h203l-117 -550l178 111l81 -122l-304 -202l-110 -518h357l-36 -181h-562z" />
    <glyph glyph-name="lslash" unicode="&#x142;" horiz-adv-x="482" 
d="M19 0l138 643l-113 -60l-57 135l206 106l157 732h196l-137 -639l129 70l59 -133l-225 -117l-158 -737h-195z" />
    <glyph glyph-name="Nacute" unicode="&#x143;" horiz-adv-x="1094" 
d="M-2 0l310 1462h235l184 -1088h6q11 67 22.5 131t22.5 119.5t18 94.5l159 743h194l-310 -1462h-232l-186 1110h-6q-7 -53 -16 -108.5t-19.5 -108t-19.5 -96t-15 -73.5l-153 -724h-194zM640 1599l2 20q45 53 85.5 106t75 104.5t62.5 97.5h228l-2 -17q-22 -28 -63 -71
t-88.5 -90t-91.5 -87t-73 -63h-135z" />
    <glyph glyph-name="nacute" unicode="&#x144;" horiz-adv-x="878" 
d="M-7 0l235 1106h158l-15 -144h5q31 53 68 89.5t81 56t93 19.5q57 0 104.5 -22.5t76 -70.5t28.5 -128q0 -40 -8.5 -92t-19.5 -106l-150 -708h-196l142 669q10 50 18.5 99.5t8.5 87.5q0 44 -20 67.5t-61 23.5q-55 0 -97 -42.5t-73.5 -122.5t-55.5 -193l-124 -589h-198z
M460 1242l2 20q45 53 85.5 106t75 104.5t62.5 97.5h228l-2 -17q-22 -28 -63 -71t-88.5 -90t-91.5 -87t-73 -63h-135z" />
    <glyph glyph-name="uni0145" unicode="&#x145;" horiz-adv-x="1094" 
d="M-2 0l310 1462h235l184 -1088h6q11 67 22.5 131t22.5 119.5t18 94.5l159 743h194l-310 -1462h-232l-186 1110h-6q-7 -53 -16 -108.5t-19.5 -108t-19.5 -96t-15 -73.5l-153 -724h-194zM208 -453v28q21 36 47 89.5t50 110t37 100.5h189v-20q-17 -44 -51.5 -102t-74 -113.5
t-73.5 -92.5h-124z" />
    <glyph glyph-name="uni0146" unicode="&#x146;" horiz-adv-x="878" 
d="M-7 0l235 1106h158l-15 -144h5q31 53 68 89.5t81 56t93 19.5q57 0 104.5 -22.5t76 -70.5t28.5 -128q0 -40 -8.5 -92t-19.5 -106l-150 -708h-196l142 669q10 50 18.5 99.5t8.5 87.5q0 44 -20 67.5t-61 23.5q-55 0 -97 -42.5t-73.5 -122.5t-55.5 -193l-124 -589h-198z
M98 -453v28q21 36 47 89.5t50 110t37 100.5h189v-20q-17 -44 -51.5 -102t-74 -113.5t-73.5 -92.5h-124z" />
    <glyph glyph-name="Ncaron" unicode="&#x147;" horiz-adv-x="1094" 
d="M-2 0l310 1462h235l184 -1088h6q11 67 22.5 131t22.5 119.5t18 94.5l159 743h194l-310 -1462h-232l-186 1110h-6q-7 -53 -16 -108.5t-19.5 -108t-19.5 -96t-15 -73.5l-153 -724h-194zM641 1579q-9 38 -29 95.5t-42.5 115t-41.5 94.5l5 23h115q15 -19 32.5 -46t37.5 -61
t40 -73q51 56 98 102t87 78h120l-3 -22q-33 -33 -81 -90.5t-93 -116.5t-69 -99h-176z" />
    <glyph glyph-name="ncaron" unicode="&#x148;" horiz-adv-x="878" 
d="M-7 0l235 1106h158l-15 -144h5q31 53 68 89.5t81 56t93 19.5q57 0 104.5 -22.5t76 -70.5t28.5 -128q0 -40 -8.5 -92t-19.5 -106l-150 -708h-196l142 669q10 50 18.5 99.5t8.5 87.5q0 44 -20 67.5t-61 23.5q-55 0 -97 -42.5t-73.5 -122.5t-55.5 -193l-124 -589h-198z
M476 1241q-9 38 -29 95.5t-42.5 115t-41.5 94.5l5 23h115q15 -19 32.5 -46t37.5 -61t40 -73q51 56 98 102t87 78h120l-3 -22q-33 -33 -81 -90.5t-93 -116.5t-69 -99h-176z" />
    <glyph glyph-name="napostrophe" unicode="&#x149;" horiz-adv-x="1023" 
d="M138 0l235 1106h158l-15 -144h5q31 53 68 89.5t81 56t93 19.5q57 0 104.5 -22.5t76 -70.5t28.5 -128q0 -40 -8.5 -92t-19.5 -106l-150 -708h-196l142 669q10 50 18.5 99.5t8.5 87.5q0 44 -20 67.5t-61 23.5q-55 0 -97 -42.5t-73.5 -122.5t-55.5 -193l-124 -589h-198z
M24 945q37 84 71.5 170t64.5 173.5t54 173.5h197l6 -21q-32 -87 -69.5 -173t-79.5 -167t-86 -156h-158z" />
    <glyph glyph-name="Eng" unicode="&#x14a;" horiz-adv-x="1094" 
d="M473 -406q-37 0 -72 6.5t-63 18.5l39 183q25 -12 51 -19t53 -7q44 0 74 24.5t49.5 72.5t32.5 119l-208 1146h-8q-4 -33 -9.5 -68.5t-12 -71.5t-13.5 -71.5t-14 -68.5l-180 -858h-194l310 1462h241l187 -1044h7q7 44 14 87t14.5 85t15.5 82l168 790h194l-303 -1435
q-29 -132 -71 -229.5t-113 -150.5t-189 -53z" />
    <glyph glyph-name="eng" unicode="&#x14b;" horiz-adv-x="877" 
d="M308 -492q-36 0 -64 5t-50 12v175q19 -8 44.5 -12t45.5 -4q43 0 69.5 20.5t45.5 71t37 139.5l159 754q10 50 18.5 99.5t8.5 87.5q0 44 -20 67.5t-61 23.5q-55 0 -97 -41.5t-72 -117.5t-52 -179l-129 -609h-198l235 1106h158l-15 -144h5q31 53 68 89.5t81 56t93 19.5
q57 0 104.5 -22.5t76 -70.5t28.5 -128q0 -40 -8.5 -92.5t-19.5 -105.5l-171 -807q-31 -146 -70.5 -232.5t-99 -123.5t-150.5 -37z" />
    <glyph glyph-name="Omacron" unicode="&#x14c;" horiz-adv-x="1051" 
d="M415 -20q-115 0 -191 48t-114 147t-38 251q0 111 17.5 231.5t51.5 239.5t85.5 224.5t120 187.5t154.5 128.5t189 46.5q174 0 256 -107.5t82 -325.5q0 -97 -15 -212.5t-46.5 -236t-80.5 -231.5t-116.5 -199t-156 -140t-198.5 -52zM431 164q65 0 118.5 44t96.5 118.5
t75.5 168.5t54 194t32 195t10.5 171q0 126 -36.5 186.5t-109.5 60.5q-68 0 -123.5 -46t-98 -123.5t-74 -172.5t-52 -194t-30 -188t-9.5 -154q0 -95 16.5 -152t49 -82.5t80.5 -25.5zM460 1585l31 148h510l-31 -148h-510z" />
    <glyph glyph-name="omacron" unicode="&#x14d;" horiz-adv-x="866" 
d="M331 -20q-89 0 -152.5 40t-97 117.5t-33.5 187.5q0 85 16.5 190.5t51.5 213t92.5 197.5t139.5 145.5t190 55.5q89 0 151.5 -41.5t96 -119t33.5 -188.5q0 -99 -18 -209t-55.5 -214.5t-95.5 -189t-137.5 -135t-181.5 -50.5zM353 149q51 0 93 42.5t74 112.5t54.5 154.5
t34 168.5t11.5 154q0 56 -11.5 96t-35.5 60.5t-60 20.5q-54 0 -97 -45.5t-75 -119t-53 -159t-31.5 -168t-10.5 -143.5q0 -84 27 -129t80 -45zM299 1247l31 148h510l-31 -148h-510z" />
    <glyph glyph-name="Obreve" unicode="&#x14e;" horiz-adv-x="1051" 
d="M415 -20q-115 0 -191 48t-114 147t-38 251q0 111 17.5 231.5t51.5 239.5t85.5 224.5t120 187.5t154.5 128.5t189 46.5q174 0 256 -107.5t82 -325.5q0 -97 -15 -212.5t-46.5 -236t-80.5 -231.5t-116.5 -199t-156 -140t-198.5 -52zM431 164q65 0 118.5 44t96.5 118.5
t75.5 168.5t54 194t32 195t10.5 171q0 126 -36.5 186.5t-109.5 60.5q-68 0 -123.5 -46t-98 -123.5t-74 -172.5t-52 -194t-30 -188t-9.5 -154q0 -95 16.5 -152t49 -82.5t80.5 -25.5zM732 1579q-78 0 -127 27t-71 74.5t-22 109.5q0 21 2 42.5t6 41.5h123q0 -49 9.5 -81.5
t31.5 -49t60 -16.5q57 0 92.5 33.5t55.5 113.5h128q-25 -142 -98 -218.5t-190 -76.5z" />
    <glyph glyph-name="obreve" unicode="&#x14f;" horiz-adv-x="866" 
d="M331 -20q-89 0 -152.5 40t-97 117.5t-33.5 187.5q0 85 16.5 190.5t51.5 213t92.5 197.5t139.5 145.5t190 55.5q89 0 151.5 -41.5t96 -119t33.5 -188.5q0 -99 -18 -209t-55.5 -214.5t-95.5 -189t-137.5 -135t-181.5 -50.5zM353 149q51 0 93 42.5t74 112.5t54.5 154.5
t34 168.5t11.5 154q0 56 -11.5 96t-35.5 60.5t-60 20.5q-54 0 -97 -45.5t-75 -119t-53 -159t-31.5 -168t-10.5 -143.5q0 -84 27 -129t80 -45zM583 1241q-78 0 -127 27t-71 74.5t-22 109.5q0 21 2 42.5t6 41.5h123q0 -49 9.5 -81.5t31.5 -49t60 -16.5q57 0 92.5 33.5
t55.5 113.5h128q-25 -142 -98 -218.5t-190 -76.5z" />
    <glyph glyph-name="Ohungarumlaut" unicode="&#x150;" horiz-adv-x="1051" 
d="M415 -20q-115 0 -191 48t-114 147t-38 251q0 111 17.5 231.5t51.5 239.5t85.5 224.5t120 187.5t154.5 128.5t189 46.5q174 0 256 -107.5t82 -325.5q0 -97 -15 -212.5t-46.5 -236t-80.5 -231.5t-116.5 -199t-156 -140t-198.5 -52zM431 164q65 0 118.5 44t96.5 118.5
t75.5 168.5t54 194t32 195t10.5 171q0 126 -36.5 186.5t-109.5 60.5q-68 0 -123.5 -46t-98 -123.5t-74 -172.5t-52 -194t-30 -188t-9.5 -154q0 -95 16.5 -152t49 -82.5t80.5 -25.5zM781 1579l4 22q50 64 91 120.5t72.5 103.5t49.5 82h199l-2 -17q-22 -30 -58.5 -71.5
t-80.5 -85.5t-88.5 -84.5t-81.5 -69.5h-105zM463 1579l3 22q51 64 92 121t72 104t51 81h197l-2 -17q-20 -32 -56 -72.5t-80.5 -83.5t-91.5 -83.5t-88 -71.5h-97z" />
    <glyph glyph-name="ohungarumlaut" unicode="&#x151;" horiz-adv-x="866" 
d="M331 -20q-89 0 -152.5 40t-97 117.5t-33.5 187.5q0 85 16.5 190.5t51.5 213t92.5 197.5t139.5 145.5t190 55.5q89 0 151.5 -41.5t96 -119t33.5 -188.5q0 -99 -18 -209t-55.5 -214.5t-95.5 -189t-137.5 -135t-181.5 -50.5zM353 149q51 0 93 42.5t74 112.5t54.5 154.5
t34 168.5t11.5 154q0 56 -11.5 96t-35.5 60.5t-60 20.5q-54 0 -97 -45.5t-75 -119t-53 -159t-31.5 -168t-10.5 -143.5q0 -84 27 -129t80 -45zM641 1241l4 22q50 64 91 120.5t72.5 103.5t49.5 82h199l-2 -17q-22 -30 -58.5 -71.5t-80.5 -85.5t-88.5 -84.5t-81.5 -69.5h-105z
M323 1241l3 22q51 64 92 121t72 104t51 81h197l-2 -17q-20 -32 -56 -72.5t-80.5 -83.5t-91.5 -83.5t-88 -71.5h-97z" />
    <glyph glyph-name="OE" unicode="&#x152;" horiz-adv-x="1244" 
d="M404 -12q-114 0 -187.5 52t-109 146.5t-35.5 221.5q0 123 20.5 267t64 285.5t114 258t170.5 187t234 70.5q46 0 90 -4t71 -10h506l-38 -179h-356l-93 -431h334l-38 -180h-333l-105 -491h357l-37 -181h-501q-21 -3 -54.5 -7.5t-73.5 -4.5zM445 172q24 0 41 2.5t27 4.5
l233 1101q-14 5 -31.5 9.5t-41.5 4.5q-78 0 -140 -58.5t-108.5 -155t-77.5 -212t-46.5 -230.5t-15.5 -208q0 -89 16 -146t51.5 -84.5t92.5 -27.5z" />
    <glyph glyph-name="oe" unicode="&#x153;" horiz-adv-x="1331" 
d="M317 -20q-124 0 -196.5 90t-72.5 259q0 75 15 178t49 211t89.5 201t136.5 150.5t191 57.5q99 0 151 -52.5t71 -153.5q59 96 141 150.5t170 54.5q111 0 178 -62.5t67 -179.5q0 -93 -35.5 -167t-103 -125t-163.5 -78t-217 -27h-18q-5 -35 -8.5 -70t-3.5 -69
q0 -109 39.5 -157.5t119.5 -48.5q60 0 116.5 18t109.5 50v-154q-62 -37 -130.5 -56.5t-143.5 -19.5q-68 0 -118 23t-83 68.5t-50 112.5q-53 -94 -128 -149t-173 -55zM354 148q50 0 91.5 43.5t74 114t55 155.5t34 169.5t11.5 154.5q0 87 -26 129t-81 42q-52 0 -94 -43.5
t-74 -114.5t-54.5 -156t-33.5 -168.5t-11 -150.5q0 -88 27 -131.5t81 -43.5zM801 633h9q115 0 184 30.5t100 84.5t31 121q0 45 -22.5 71t-67.5 26q-54 0 -102.5 -51t-83.5 -128t-48 -154z" />
    <glyph glyph-name="Racute" unicode="&#x154;" horiz-adv-x="895" 
d="M-1 0l309 1462h245q177 0 267.5 -84t90.5 -239q0 -122 -35.5 -226t-102 -175.5t-157.5 -99.5l136 -638h-223l-107 598h-94l-125 -598h-204zM365 767h78q66 0 113.5 29.5t78.5 79.5t46 111.5t15 124.5q0 87 -42.5 130t-125.5 43h-54zM511 1599l2 20q45 53 85.5 106
t75 104.5t62.5 97.5h228l-2 -17q-22 -28 -63 -71t-88.5 -90t-91.5 -87t-73 -63h-135z" />
    <glyph glyph-name="racute" unicode="&#x155;" horiz-adv-x="600" 
d="M-6 0l234 1106h153l-19 -176h8q32 67 68 110.5t80.5 65t99.5 21.5q20 0 39 -3.5t40 -10.5l-58 -210q-18 7 -37.5 10.5t-42.5 3.5q-51 0 -91.5 -30.5t-71 -80.5t-51.5 -111t-34 -122l-121 -573h-196zM335 1240l2 20q45 53 85.5 106t75 104.5t62.5 97.5h228l-2 -17
q-22 -28 -63 -71t-88.5 -90t-91.5 -87t-73 -63h-135z" />
    <glyph glyph-name="uni0156" unicode="&#x156;" horiz-adv-x="895" 
d="M-1 0l309 1462h245q177 0 267.5 -84t90.5 -239q0 -122 -35.5 -226t-102 -175.5t-157.5 -99.5l136 -638h-223l-107 598h-94l-125 -598h-204zM365 767h78q66 0 113.5 29.5t78.5 79.5t46 111.5t15 124.5q0 87 -42.5 130t-125.5 43h-54zM130 -453v28q21 36 47 89.5t50 110
t37 100.5h189v-20q-17 -44 -51.5 -102t-74 -113.5t-73.5 -92.5h-124z" />
    <glyph glyph-name="uni0157" unicode="&#x157;" horiz-adv-x="600" 
d="M-6 0l234 1106h153l-19 -176h8q32 67 68 110.5t80.5 65t99.5 21.5q20 0 39 -3.5t40 -10.5l-58 -210q-18 7 -37.5 10.5t-42.5 3.5q-51 0 -91.5 -30.5t-71 -80.5t-51.5 -111t-34 -122l-121 -573h-196zM-89 -453v28q21 36 47 89.5t50 110t37 100.5h189v-20
q-17 -44 -51.5 -102t-74 -113.5t-73.5 -92.5h-124z" />
    <glyph glyph-name="Rcaron" unicode="&#x158;" horiz-adv-x="895" 
d="M-1 0l309 1462h245q177 0 267.5 -84t90.5 -239q0 -122 -35.5 -226t-102 -175.5t-157.5 -99.5l136 -638h-223l-107 598h-94l-125 -598h-204zM365 767h78q66 0 113.5 29.5t78.5 79.5t46 111.5t15 124.5q0 87 -42.5 130t-125.5 43h-54zM519 1579q-9 38 -29 95.5t-42.5 115
t-41.5 94.5l5 23h115q15 -19 32.5 -46t37.5 -61t40 -73q51 56 98 102t87 78h120l-3 -22q-33 -33 -81 -90.5t-93 -116.5t-69 -99h-176z" />
    <glyph glyph-name="rcaron" unicode="&#x159;" horiz-adv-x="600" 
d="M-6 0l234 1106h153l-19 -176h8q32 67 68 110.5t80.5 65t99.5 21.5q20 0 39 -3.5t40 -10.5l-58 -210q-18 7 -37.5 10.5t-42.5 3.5q-51 0 -91.5 -30.5t-71 -80.5t-51.5 -111t-34 -122l-121 -573h-196zM384 1241q-9 38 -29 95.5t-42.5 115t-41.5 94.5l5 23h115
q15 -19 32.5 -46t37.5 -61t40 -73q51 56 98 102t87 78h120l-3 -22q-33 -33 -81 -90.5t-93 -116.5t-69 -99h-176z" />
    <glyph glyph-name="Sacute" unicode="&#x15a;" horiz-adv-x="798" 
d="M251 -20q-94 0 -168.5 18t-127.5 55l35 213q53 -39 123 -66t142 -27q48 0 89 15t71.5 44.5t47.5 74t17 103.5q0 49 -12 88.5t-43 82t-90 100.5q-56 55 -96 108.5t-60.5 116.5t-20.5 146q0 96 29.5 175t85.5 136.5t136.5 88.5t183.5 31q75 0 154.5 -22.5t133.5 -61.5
l-95 -186q-50 37 -102.5 58.5t-103.5 21.5q-44 0 -81.5 -14.5t-66 -42.5t-44.5 -69t-16 -93q0 -51 16.5 -92.5t52.5 -84.5t93 -99q56 -52 91.5 -106t52.5 -117.5t17 -143.5q0 -95 -28.5 -177t-84.5 -143.5t-139 -96t-192 -34.5zM480 1599l2 20q45 53 85.5 106t75 104.5
t62.5 97.5h228l-2 -17q-22 -28 -63 -71t-88.5 -90t-91.5 -87t-73 -63h-135z" />
    <glyph glyph-name="sacute" unicode="&#x15b;" horiz-adv-x="681" 
d="M226 -20q-81 0 -142.5 15t-101.5 40v193q43 -32 105 -53.5t116 -21.5q50 0 85.5 18t55 53t19.5 86q0 35 -9 64t-33.5 62.5t-69.5 78.5q-48 47 -78.5 91t-45 91.5t-14.5 103.5q0 91 38 164.5t111 117.5t177 44q82 0 152 -22t118 -56l-82 -154q-41 33 -89.5 50t-90.5 17
q-61 0 -97 -36t-36 -97q0 -33 8 -60.5t30.5 -57.5t64.5 -70q52 -52 86 -95.5t50.5 -93.5t16.5 -122q0 -102 -40.5 -181t-117 -124t-186.5 -45zM363 1240l2 20q45 53 85.5 106t75 104.5t62.5 97.5h228l-2 -17q-22 -28 -63 -71t-88.5 -90t-91.5 -87t-73 -63h-135z" />
    <glyph glyph-name="Scircumflex" unicode="&#x15c;" horiz-adv-x="798" 
d="M251 -20q-94 0 -168.5 18t-127.5 55l35 213q53 -39 123 -66t142 -27q48 0 89 15t71.5 44.5t47.5 74t17 103.5q0 49 -12 88.5t-43 82t-90 100.5q-56 55 -96 108.5t-60.5 116.5t-20.5 146q0 96 29.5 175t85.5 136.5t136.5 88.5t183.5 31q75 0 154.5 -22.5t133.5 -61.5
l-95 -186q-50 37 -102.5 58.5t-103.5 21.5q-44 0 -81.5 -14.5t-66 -42.5t-44.5 -69t-16 -93q0 -51 16.5 -92.5t52.5 -84.5t93 -99q56 -52 91.5 -106t52.5 -117.5t17 -143.5q0 -95 -28.5 -177t-84.5 -143.5t-139 -96t-192 -34.5zM327 1579l4 22q47 48 90 99.5t82 104
t71 102.5h176q9 -38 28.5 -95.5t42.5 -114.5t41 -95l-5 -23h-114q-17 24 -35.5 52.5t-37 60.5t-37.5 68q-51 -55 -98 -101t-88 -80h-120z" />
    <glyph glyph-name="scircumflex" unicode="&#x15d;" horiz-adv-x="681" 
d="M226 -20q-81 0 -142.5 15t-101.5 40v193q43 -32 105 -53.5t116 -21.5q50 0 85.5 18t55 53t19.5 86q0 35 -9 64t-33.5 62.5t-69.5 78.5q-48 47 -78.5 91t-45 91.5t-14.5 103.5q0 91 38 164.5t111 117.5t177 44q82 0 152 -22t118 -56l-82 -154q-41 33 -89.5 50t-90.5 17
q-61 0 -97 -36t-36 -97q0 -33 8 -60.5t30.5 -57.5t64.5 -70q52 -52 86 -95.5t50.5 -93.5t16.5 -122q0 -102 -40.5 -181t-117 -124t-186.5 -45zM195 1241l4 22q47 48 90 99.5t82 104t71 102.5h176q9 -38 28.5 -95.5t42.5 -114.5t41 -95l-5 -23h-114q-17 24 -35.5 52.5
t-37 60.5t-37.5 68q-51 -55 -98 -101t-88 -80h-120z" />
    <glyph glyph-name="Scedilla" unicode="&#x15e;" horiz-adv-x="798" 
d="M251 -20q-94 0 -168.5 18t-127.5 55l35 213q53 -39 123 -66t142 -27q48 0 89 15t71.5 44.5t47.5 74t17 103.5q0 49 -12 88.5t-43 82t-90 100.5q-56 55 -96 108.5t-60.5 116.5t-20.5 146q0 96 29.5 175t85.5 136.5t136.5 88.5t183.5 31q75 0 154.5 -22.5t133.5 -61.5
l-95 -186q-50 37 -102.5 58.5t-103.5 21.5q-44 0 -81.5 -14.5t-66 -42.5t-44.5 -69t-16 -93q0 -51 16.5 -92.5t52.5 -84.5t93 -99q56 -52 91.5 -106t52.5 -117.5t17 -143.5q0 -95 -28.5 -177t-84.5 -143.5t-139 -96t-192 -34.5zM142 -492q-38 0 -72 4.5t-67 12.5v121
q19 -6 48 -10t65 -4q41 0 69.5 13t44 37.5t15.5 56.5q0 42 -33 66t-101 30l105 165h111l-65 -96q65 -13 104 -53.5t39 -105.5q0 -80 -35 -132.5t-94.5 -78.5t-133.5 -26z" />
    <glyph glyph-name="scedilla" unicode="&#x15f;" horiz-adv-x="681" 
d="M226 -20q-81 0 -142.5 15t-101.5 40v193q43 -32 105 -53.5t116 -21.5q50 0 85.5 18t55 53t19.5 86q0 35 -9 64t-33.5 62.5t-69.5 78.5q-48 47 -78.5 91t-45 91.5t-14.5 103.5q0 91 38 164.5t111 117.5t177 44q82 0 152 -22t118 -56l-82 -154q-41 33 -89.5 50t-90.5 17
q-61 0 -97 -36t-36 -97q0 -33 8 -60.5t30.5 -57.5t64.5 -70q52 -52 86 -95.5t50.5 -93.5t16.5 -122q0 -102 -40.5 -181t-117 -124t-186.5 -45zM86 -492q-38 0 -72 4.5t-67 12.5v121q19 -6 48 -10t65 -4q41 0 69.5 13t44 37.5t15.5 56.5q0 42 -33 66t-101 30l105 165h111
l-65 -96q65 -13 104 -53.5t39 -105.5q0 -80 -35 -132.5t-94.5 -78.5t-133.5 -26z" />
    <glyph glyph-name="Scaron" unicode="&#x160;" horiz-adv-x="798" 
d="M251 -20q-94 0 -168.5 18t-127.5 55l35 213q53 -39 123 -66t142 -27q48 0 89 15t71.5 44.5t47.5 74t17 103.5q0 49 -12 88.5t-43 82t-90 100.5q-56 55 -96 108.5t-60.5 116.5t-20.5 146q0 96 29.5 175t85.5 136.5t136.5 88.5t183.5 31q75 0 154.5 -22.5t133.5 -61.5
l-95 -186q-50 37 -102.5 58.5t-103.5 21.5q-44 0 -81.5 -14.5t-66 -42.5t-44.5 -69t-16 -93q0 -51 16.5 -92.5t52.5 -84.5t93 -99q56 -52 91.5 -106t52.5 -117.5t17 -143.5q0 -95 -28.5 -177t-84.5 -143.5t-139 -96t-192 -34.5zM522 1579q-9 38 -29 95.5t-42.5 115
t-41.5 94.5l5 23h115q15 -19 32.5 -46t37.5 -61t40 -73q51 56 98 102t87 78h120l-3 -22q-33 -33 -81 -90.5t-93 -116.5t-69 -99h-176z" />
    <glyph glyph-name="scaron" unicode="&#x161;" horiz-adv-x="681" 
d="M226 -20q-81 0 -142.5 15t-101.5 40v193q43 -32 105 -53.5t116 -21.5q50 0 85.5 18t55 53t19.5 86q0 35 -9 64t-33.5 62.5t-69.5 78.5q-48 47 -78.5 91t-45 91.5t-14.5 103.5q0 91 38 164.5t111 117.5t177 44q82 0 152 -22t118 -56l-82 -154q-41 33 -89.5 50t-90.5 17
q-61 0 -97 -36t-36 -97q0 -33 8 -60.5t30.5 -57.5t64.5 -70q52 -52 86 -95.5t50.5 -93.5t16.5 -122q0 -102 -40.5 -181t-117 -124t-186.5 -45zM383 1241q-9 38 -29 95.5t-42.5 115t-41.5 94.5l5 23h115q15 -19 32.5 -46t37.5 -61t40 -73q51 56 98 102t87 78h120l-3 -22
q-33 -33 -81 -90.5t-93 -116.5t-69 -99h-176z" />
    <glyph glyph-name="uni0162" unicode="&#x162;" horiz-adv-x="745" 
d="M139 0l272 1280h-248l40 182h700l-40 -182h-248l-272 -1280h-204zM121 -492q-38 0 -72 4.5t-67 12.5v121q19 -6 48 -10t65 -4q41 0 69.5 13t44 37.5t15.5 56.5q0 42 -33 66t-101 30l105 165h111l-65 -96q65 -13 104 -53.5t39 -105.5q0 -80 -35 -132.5t-94.5 -78.5
t-133.5 -26z" />
    <glyph glyph-name="uni0163" unicode="&#x163;" horiz-adv-x="536" 
d="M235 -20q-96 0 -137 55t-41 147q0 31 5 70t15 87l128 601h-100l22 108l126 54l95 249h140l-53 -245h164l-35 -166h-164l-131 -621q-6 -29 -10.5 -54t-4.5 -44q0 -35 14 -51t47 -16q17 0 44.5 5t53.5 16v-159q-39 -18 -89 -27t-89 -9zM111 -492q-38 0 -72 4.5t-67 12.5
v121q19 -6 48 -10t65 -4q41 0 69.5 13t44 37.5t15.5 56.5q0 42 -33 66t-101 30l105 165h111l-65 -96q65 -13 104 -53.5t39 -105.5q0 -80 -35 -132.5t-94.5 -78.5t-133.5 -26z" />
    <glyph glyph-name="Tcaron" unicode="&#x164;" horiz-adv-x="745" 
d="M139 0l272 1280h-248l40 182h700l-40 -182h-248l-272 -1280h-204zM475 1579q-9 38 -29 95.5t-42.5 115t-41.5 94.5l5 23h115q15 -19 32.5 -46t37.5 -61t40 -73q51 56 98 102t87 78h120l-3 -22q-33 -33 -81 -90.5t-93 -116.5t-69 -99h-176z" />
    <glyph glyph-name="tcaron" unicode="&#x165;" horiz-adv-x="579" 
d="M235 -20q-96 0 -137 55t-41 147q0 31 5 70t15 87l128 601h-100l22 108l126 54l95 249h140l-53 -245h164l-35 -166h-164l-131 -621q-6 -29 -10.5 -54t-4.5 -44q0 -35 14 -51t47 -16q17 0 44.5 5t53.5 16v-159q-39 -18 -89 -27t-89 -9zM548 1223v19q24 55 44.5 108
t37 103.5t27.5 96.5h192l-1 -20q-19 -45 -49 -101t-63.5 -110t-63.5 -96h-124z" />
    <glyph glyph-name="Tbar" unicode="&#x166;" horiz-adv-x="743" 
d="M139 0l140 661h-173l33 156h173l98 463h-246l38 182h700l-39 -182h-249l-98 -463h181l-32 -156h-182l-139 -661h-205z" />
    <glyph glyph-name="tbar" unicode="&#x167;" horiz-adv-x="532" 
d="M234 -20q-95 0 -136.5 55t-41.5 145q0 30 5 68t15 85l43 207h-104l32 148h104l54 252h-100l22 108l126 54l95 249h139l-53 -245h165l-35 -166h-165l-54 -252h167l-33 -148h-164l-47 -221q-6 -29 -10 -52.5t-4 -41.5q0 -37 15 -54t49 -17q17 0 42.5 5t52.5 16v-159
q-39 -18 -89 -27t-90 -9z" />
    <glyph glyph-name="Utilde" unicode="&#x168;" horiz-adv-x="999" 
d="M382 -20q-98 0 -168 37.5t-107.5 108.5t-37.5 171q0 37 5.5 82t14.5 92l212 991h204l-213 -998q-8 -38 -12 -73.5t-4 -64.5q0 -82 34 -122t98 -40t108 33t75 103t55 181l211 981h204l-216 -1006q-31 -148 -87.5 -255t-147.5 -164t-228 -57zM406 1582q17 82 43.5 144
t67 96t100.5 34q44 0 76 -17.5t57 -40t47.5 -40t47.5 -17.5q31 0 50.5 25.5t33.5 91.5h119q-17 -101 -48.5 -161.5t-71.5 -86.5t-85 -26q-43 0 -74.5 17.5t-57 40.5t-49 40.5t-49.5 17.5q-31 0 -53 -29t-35 -89h-119z" />
    <glyph glyph-name="utilde" unicode="&#x169;" horiz-adv-x="880" 
d="M256 -20q-67 0 -113.5 26.5t-70.5 76.5t-24 121q0 37 7 86t16 94l155 722h195l-144 -683q-11 -46 -17.5 -90t-6.5 -81q0 -44 19.5 -69.5t59.5 -25.5q56 0 98 43.5t74 124.5t55 193l126 588h195l-233 -1106h-157l11 138h-6q-31 -49 -68.5 -84.5t-80.5 -54.5t-90 -19z
M291 1244q17 82 43.5 144t67 96t100.5 34q44 0 76 -17.5t57 -40t47.5 -40t47.5 -17.5q31 0 50.5 25.5t33.5 91.5h119q-17 -101 -48.5 -161.5t-71.5 -86.5t-85 -26q-43 0 -74.5 17.5t-57 40.5t-49 40.5t-49.5 17.5q-31 0 -53 -29t-35 -89h-119z" />
    <glyph glyph-name="Umacron" unicode="&#x16a;" horiz-adv-x="999" 
d="M382 -20q-98 0 -168 37.5t-107.5 108.5t-37.5 171q0 37 5.5 82t14.5 92l212 991h204l-213 -998q-8 -38 -12 -73.5t-4 -64.5q0 -82 34 -122t98 -40t108 33t75 103t55 181l211 981h204l-216 -1006q-31 -148 -87.5 -255t-147.5 -164t-228 -57zM437 1585l31 148h510l-31 -148
h-510z" />
    <glyph glyph-name="umacron" unicode="&#x16b;" horiz-adv-x="881" 
d="M256 -20q-67 0 -113.5 26.5t-70.5 76.5t-24 121q0 37 7 86t16 94l155 722h195l-144 -683q-11 -46 -17.5 -90t-6.5 -81q0 -44 19.5 -69.5t59.5 -25.5q56 0 98 43.5t74 124.5t55 193l126 588h195l-233 -1106h-157l11 138h-6q-31 -49 -68.5 -84.5t-80.5 -54.5t-90 -19z
M316 1247l31 148h510l-31 -148h-510z" />
    <glyph glyph-name="Ubreve" unicode="&#x16c;" horiz-adv-x="999" 
d="M382 -20q-98 0 -168 37.5t-107.5 108.5t-37.5 171q0 37 5.5 82t14.5 92l212 991h204l-213 -998q-8 -38 -12 -73.5t-4 -64.5q0 -82 34 -122t98 -40t108 33t75 103t55 181l211 981h204l-216 -1006q-31 -148 -87.5 -255t-147.5 -164t-228 -57zM703 1579q-78 0 -127 27
t-71 74.5t-22 109.5q0 21 2 42.5t6 41.5h123q0 -49 9.5 -81.5t31.5 -49t60 -16.5q57 0 92.5 33.5t55.5 113.5h128q-25 -142 -98 -218.5t-190 -76.5z" />
    <glyph glyph-name="ubreve" unicode="&#x16d;" horiz-adv-x="880" 
d="M256 -20q-67 0 -113.5 26.5t-70.5 76.5t-24 121q0 37 7 86t16 94l155 722h195l-144 -683q-11 -46 -17.5 -90t-6.5 -81q0 -44 19.5 -69.5t59.5 -25.5q56 0 98 43.5t74 124.5t55 193l126 588h195l-233 -1106h-157l11 138h-6q-31 -49 -68.5 -84.5t-80.5 -54.5t-90 -19z
M587 1241q-78 0 -127 27t-71 74.5t-22 109.5q0 21 2 42.5t6 41.5h123q0 -49 9.5 -81.5t31.5 -49t60 -16.5q57 0 92.5 33.5t55.5 113.5h128q-25 -142 -98 -218.5t-190 -76.5z" />
    <glyph glyph-name="Uring" unicode="&#x16e;" horiz-adv-x="999" 
d="M382 -20q-98 0 -168 37.5t-107.5 108.5t-37.5 171q0 37 5.5 82t14.5 92l212 991h204l-213 -998q-8 -38 -12 -73.5t-4 -64.5q0 -82 34 -122t98 -40t108 33t75 103t55 181l211 981h204l-216 -1006q-31 -148 -87.5 -255t-147.5 -164t-228 -57zM717 1584q-103 0 -160.5 58.5
t-57.5 157.5q0 95 58.5 153.5t159.5 58.5q96 0 156 -58.5t60 -150.5q0 -96 -58 -157.5t-158 -61.5zM718 1691q48 0 77 29t29 78q0 48 -28 78.5t-78 30.5q-52 0 -80 -30.5t-28 -78.5q0 -49 27 -78t81 -29z" />
    <glyph glyph-name="uring" unicode="&#x16f;" horiz-adv-x="880" 
d="M256 -20q-67 0 -113.5 26.5t-70.5 76.5t-24 121q0 37 7 86t16 94l155 722h195l-144 -683q-11 -46 -17.5 -90t-6.5 -81q0 -44 19.5 -69.5t59.5 -25.5q56 0 98 43.5t74 124.5t55 193l126 588h195l-233 -1106h-157l11 138h-6q-31 -49 -68.5 -84.5t-80.5 -54.5t-90 -19z
M609 1246q-103 0 -160.5 58.5t-57.5 157.5q0 95 58.5 153.5t159.5 58.5q96 0 156 -58.5t60 -150.5q0 -96 -58 -157.5t-158 -61.5zM610 1353q48 0 77 29t29 78q0 48 -28 78.5t-78 30.5q-52 0 -80 -30.5t-28 -78.5q0 -49 27 -78t81 -29z" />
    <glyph glyph-name="Uhungarumlaut" unicode="&#x170;" horiz-adv-x="999" 
d="M382 -20q-98 0 -168 37.5t-107.5 108.5t-37.5 171q0 37 5.5 82t14.5 92l212 991h204l-213 -998q-8 -38 -12 -73.5t-4 -64.5q0 -82 34 -122t98 -40t108 33t75 103t55 181l211 981h204l-216 -1006q-31 -148 -87.5 -255t-147.5 -164t-228 -57zM770 1579l4 22q50 64 91 120.5
t72.5 103.5t49.5 82h199l-2 -17q-22 -30 -58.5 -71.5t-80.5 -85.5t-88.5 -84.5t-81.5 -69.5h-105zM452 1579l3 22q51 64 92 121t72 104t51 81h197l-2 -17q-20 -32 -56 -72.5t-80.5 -83.5t-91.5 -83.5t-88 -71.5h-97z" />
    <glyph glyph-name="uhungarumlaut" unicode="&#x171;" horiz-adv-x="880" 
d="M256 -20q-67 0 -113.5 26.5t-70.5 76.5t-24 121q0 37 7 86t16 94l155 722h195l-144 -683q-11 -46 -17.5 -90t-6.5 -81q0 -44 19.5 -69.5t59.5 -25.5q56 0 98 43.5t74 124.5t55 193l126 588h195l-233 -1106h-157l11 138h-6q-31 -49 -68.5 -84.5t-80.5 -54.5t-90 -19z
M639 1241l4 22q50 64 91 120.5t72.5 103.5t49.5 82h199l-2 -17q-22 -30 -58.5 -71.5t-80.5 -85.5t-88.5 -84.5t-81.5 -69.5h-105zM321 1241l3 22q51 64 92 121t72 104t51 81h197l-2 -17q-20 -32 -56 -72.5t-80.5 -83.5t-91.5 -83.5t-88 -71.5h-97z" />
    <glyph glyph-name="Uogonek" unicode="&#x172;" horiz-adv-x="999" 
d="M382 -20q-98 0 -168 37.5t-107.5 108.5t-37.5 171q0 37 5.5 82t14.5 92l212 991h204l-213 -998q-8 -38 -12 -73.5t-4 -64.5q0 -82 34 -122t98 -40t108 33t75 103t55 181l211 981h204l-216 -1006q-31 -148 -87.5 -255t-147.5 -164t-228 -57zM336 -466q-81 0 -121.5 43
t-40.5 110q0 59 23.5 111.5t69.5 102t114 99.5h126q-57 -53 -93 -97.5t-52 -84.5t-17 -80q0 -30 16 -46.5t44 -16.5q16 0 36.5 4t42.5 9l-28 -134q-28 -12 -58 -16t-62 -4z" />
    <glyph glyph-name="uogonek" unicode="&#x173;" horiz-adv-x="880" 
d="M256 -20q-67 0 -113.5 26.5t-70.5 76.5t-24 121q0 37 7 86t16 94l155 722h195l-144 -683q-11 -46 -17.5 -90t-6.5 -81q0 -44 19.5 -69.5t59.5 -25.5q56 0 98 43.5t74 124.5t55 193l126 588h195l-233 -1106h-157l11 138h-6q-31 -49 -68.5 -84.5t-80.5 -54.5t-90 -19z
M475 -466q-81 0 -121.5 43t-40.5 110q0 59 23.5 111.5t69.5 102t114 99.5h126q-57 -53 -93 -97.5t-52 -84.5t-17 -80q0 -30 16 -46.5t44 -16.5q16 0 36.5 4t42.5 9l-28 -134q-28 -12 -58 -16t-62 -4z" />
    <glyph glyph-name="Wcircumflex" unicode="&#x174;" horiz-adv-x="1380" 
d="M142 0l39 1462h198l-27 -852q-4 -87 -8.5 -154.5t-9.5 -118.5h4q24 68 50 137t53 137l334 851h179l-29 -830q-4 -91 -8 -159t-9 -136h4q17 51 33.5 98t34.5 93.5t37 96.5l324 837h207l-574 -1462h-238l28 833q1 30 2.5 64t4.5 70.5t6 73.5h-4q-15 -49 -32 -97.5
t-35 -95.5l-329 -848h-235zM602 1579l4 22q47 48 90 99.5t82 104t71 102.5h176q9 -38 28.5 -95.5t42.5 -114.5t41 -95l-5 -23h-114q-17 24 -35.5 52.5t-37 60.5t-37.5 68q-51 -55 -98 -101t-88 -80h-120z" />
    <glyph glyph-name="wcircumflex" unicode="&#x175;" horiz-adv-x="1174" 
d="M108 0l22 1106h192l-19 -563q-2 -62 -6.5 -120t-9.5 -112h5q9 33 21.5 70t26 73.5t25.5 68.5l227 583h221l-21 -567q-2 -56 -7 -118.5t-8 -120.5h4q15 44 29.5 87t30 87t31.5 87l208 545h197l-444 -1106h-227l28 643l4 64t4.5 65.5t4.5 65.5h-4q-8 -28 -17.5 -54.5
l-19 -53t-19.5 -53.5l-259 -677h-220zM453 1241l4 22q47 48 90 99.5t82 104t71 102.5h176q9 -38 28.5 -95.5t42.5 -114.5t41 -95l-5 -23h-114q-17 24 -35.5 52.5t-37 60.5t-37.5 68q-51 -55 -98 -101t-88 -80h-120z" />
    <glyph glyph-name="Ycircumflex" unicode="&#x176;" horiz-adv-x="792" 
d="M165 0l118 561l-105 901h212l49 -630l315 630h219l-483 -896l-121 -566h-204zM312 1579l4 22q47 48 90 99.5t82 104t71 102.5h176q9 -38 28.5 -95.5t42.5 -114.5t41 -95l-5 -23h-114q-17 24 -35.5 52.5t-37 60.5t-37.5 68q-51 -55 -98 -101t-88 -80h-120z" />
    <glyph glyph-name="ycircumflex" unicode="&#x177;" horiz-adv-x="755" 
d="M-57 -493q-37 0 -66.5 5.5t-53.5 14.5l31 176q21 -8 42 -12.5t43 -4.5q55 0 89 40t67 114l75 171l-37 1095h197l3 -577q0 -37 -1 -75t-2.5 -76.5t-3.5 -77.5h6q12 40 25.5 79t27 74t23.5 61l250 592h205l-580 -1298q-41 -90 -86.5 -158t-105.5 -105.5t-148 -37.5z
M231 1241l4 22q47 48 90 99.5t82 104t71 102.5h176q9 -38 28.5 -95.5t42.5 -114.5t41 -95l-5 -23h-114q-17 24 -35.5 52.5t-37 60.5t-37.5 68q-51 -55 -98 -101t-88 -80h-120z" />
    <glyph glyph-name="Ydieresis" unicode="&#x178;" horiz-adv-x="792" 
d="M165 0l118 561l-105 901h212l49 -630l315 630h219l-483 -896l-121 -566h-204zM746 1623q-41 0 -62.5 21.5t-21.5 62.5q0 58 33 102.5t93 44.5q38 0 59 -20.5t21 -59.5q0 -66 -35 -108.5t-87 -42.5zM422 1623q-41 0 -62.5 21.5t-21.5 62.5q0 58 33 102.5t93 44.5
q25 0 42 -9t26 -26.5t9 -44.5q0 -66 -34 -108.5t-85 -42.5z" />
    <glyph glyph-name="Zacute" unicode="&#x179;" horiz-adv-x="738" 
d="M-83 0l32 151l652 1131h-401l38 180h632l-32 -153l-655 -1128h427l-38 -181h-655zM445 1599l2 20q45 53 85.5 106t75 104.5t62.5 97.5h228l-2 -17q-22 -28 -63 -71t-88.5 -90t-91.5 -87t-73 -63h-135z" />
    <glyph glyph-name="zacute" unicode="&#x17a;" horiz-adv-x="631" 
d="M-76 0l27 126l487 813h-295l36 167h516l-29 -136l-479 -801h323l-37 -169h-549zM332 1240l2 20q45 53 85.5 106t75 104.5t62.5 97.5h228l-2 -17q-22 -28 -63 -71t-88.5 -90t-91.5 -87t-73 -63h-135z" />
    <glyph glyph-name="Zdotaccent" unicode="&#x17b;" horiz-adv-x="738" 
d="M-83 0l32 151l652 1131h-401l38 180h632l-32 -153l-655 -1128h427l-38 -181h-655zM576 1612q-48 0 -73 26t-25 71q0 61 35 108.5t101 47.5q33 0 54.5 -10.5t32 -32t10.5 -53.5q0 -63 -35 -110t-100 -47z" />
    <glyph glyph-name="zdotaccent" unicode="&#x17c;" horiz-adv-x="631" 
d="M-76 0l27 126l487 813h-295l36 167h516l-29 -136l-479 -801h323l-37 -169h-549zM467 1274q-48 0 -73 26t-25 71q0 61 35 108.5t101 47.5q33 0 54.5 -10.5t32 -32t10.5 -53.5q0 -63 -35 -110t-100 -47z" />
    <glyph glyph-name="Zcaron" unicode="&#x17d;" horiz-adv-x="738" 
d="M-83 0l32 151l652 1131h-401l38 180h632l-32 -153l-655 -1128h427l-38 -181h-655zM474 1579q-9 38 -29 95.5t-42.5 115t-41.5 94.5l5 23h115q15 -19 32.5 -46t37.5 -61t40 -73q51 56 98 102t87 78h120l-3 -22q-33 -33 -81 -90.5t-93 -116.5t-69 -99h-176z" />
    <glyph glyph-name="zcaron" unicode="&#x17e;" horiz-adv-x="631" 
d="M-76 0l27 126l487 813h-295l36 167h516l-29 -136l-479 -801h323l-37 -169h-549zM352 1241q-9 38 -29 95.5t-42.5 115t-41.5 94.5l5 23h115q15 -19 32.5 -46t37.5 -61t40 -73q51 56 98 102t87 78h120l-3 -22q-33 -33 -81 -90.5t-93 -116.5t-69 -99h-176z" />
    <glyph glyph-name="longs" unicode="&#x17f;" horiz-adv-x="459" 
d="M-141 -492q-32 0 -60 4t-55 13v175q17 -8 43 -12t48 -4q69 0 95 54.5t48 154.5l281 1322q21 99 54 178.5t92.5 126.5t156.5 47q44 0 88 -9t84 -29l-71 -156q-19 12 -41 17.5t-42 5.5q-41 0 -65.5 -29.5t-39.5 -78.5t-27 -111l-278 -1300q-24 -108 -58 -191.5
t-93.5 -130.5t-159.5 -47z" />
    <glyph glyph-name="florin" unicode="&#x192;" horiz-adv-x="839" 
d="M31 -492q-42 0 -73 7.5t-56 17.5v170q27 -11 59.5 -17.5t52.5 -6.5q54 0 79 45.5t49 152.5l199 936h-132l21 105l145 59l36 157q30 130 69 206.5t96 109.5t142 33q45 0 87.5 -11t89.5 -33l-74 -154q-30 15 -52 20.5t-44 5.5q-52 0 -76.5 -48.5t-45.5 -140.5l-30 -142h169
l-35 -167h-169l-200 -928q-27 -130 -65 -213.5t-95.5 -123.5t-146.5 -40z" />
    <glyph glyph-name="Ohorn" unicode="&#x1a0;" horiz-adv-x="1072" 
d="M415 -20q-115 0 -191 48t-114 147t-38 251q0 114 18 235.5t52.5 240.5t86.5 224t120.5 185.5t154 126.5t186.5 46q112 0 186.5 -49t109.5 -148q61 36 97 105t51 164h178l8 -20q-27 -147 -97 -249t-198 -153q2 -20 2.5 -40.5t0.5 -42.5q0 -117 -17.5 -241t-52.5 -244
t-86.5 -225.5t-119.5 -186.5t-152.5 -127.5t-184.5 -46.5zM431 164q64 0 117.5 44.5t96.5 120t75.5 169.5t54.5 194t32.5 194.5t10.5 168.5q0 126 -36.5 186.5t-109.5 60.5q-63 0 -115.5 -43t-96 -115.5t-76 -164t-55 -190t-33.5 -193.5t-11 -172q0 -95 16.5 -152t49 -82.5
t80.5 -25.5z" />
    <glyph glyph-name="ohorn" unicode="&#x1a1;" horiz-adv-x="924" 
d="M325 -20q-89 0 -152.5 40.5t-97.5 117.5t-34 187q0 105 20 217.5t59.5 216.5t98.5 187t137.5 132t175.5 49q84 0 144.5 -38.5t93.5 -112.5q44 25 74.5 66.5t50 98.5t29.5 128h179l6 -21q-20 -107 -58.5 -188t-97.5 -134.5t-145 -79.5q3 -19 3.5 -36t0.5 -32
q0 -108 -20 -220t-60 -215.5t-99 -185t-136.5 -129.5t-171.5 -48zM347 148q50 0 92 44t74 115t54.5 156t34 169.5t11.5 152.5q0 58 -11.5 96t-35 56.5t-60.5 18.5q-51 0 -93 -45.5t-74.5 -119.5t-54.5 -160t-33.5 -168.5t-11.5 -143.5q0 -85 27 -128t81 -43z" />
    <glyph glyph-name="Uhorn" unicode="&#x1af;" horiz-adv-x="1118" 
d="M382 -20q-98 0 -168 37.5t-107.5 108.5t-37.5 171q0 37 5.5 82t14.5 92l212 991h204l-213 -998q-8 -38 -12 -73.5t-4 -64.5q0 -82 34 -122t98 -40t108 33t75 103t55 181l211 981h204l-46 -209q49 12 84 52.5t58.5 105t36.5 145.5h179l6 -20q-17 -93 -49.5 -167.5
t-81 -129t-114.5 -86.5t-149 -40l-140 -657q-31 -149 -88 -255.5t-148.5 -163.5t-226.5 -57z" />
    <glyph glyph-name="uhorn" unicode="&#x1b0;" horiz-adv-x="1004" 
d="M249 -20q-65 0 -110.5 26.5t-69 76.5t-23.5 121q0 39 7 88t17 97l152 717h196l-146 -683q-10 -46 -16 -89.5t-6 -76.5q0 -48 19.5 -73t59.5 -25q54 0 96.5 43t74.5 123.5t55 192.5l126 588h196l-29 -139q51 13 85 54.5t56 105t35 142.5h178l7 -21q-16 -87 -46.5 -160.5
t-77.5 -129.5t-113.5 -90.5t-154.5 -42.5l-174 -825h-156l10 138h-5q-31 -49 -69 -84.5t-81.5 -54.5t-92.5 -19z" />
    <glyph glyph-name="uni01EA" unicode="&#x1ea;" horiz-adv-x="1051" 
d="M415 -20q-115 0 -191 48t-114 147t-38 251q0 111 17.5 231.5t51.5 239.5t85.5 224.5t120 187.5t154.5 128.5t189 46.5q174 0 256 -107.5t82 -325.5q0 -97 -15 -212.5t-46.5 -236t-80.5 -231.5t-116.5 -199t-156 -140t-198.5 -52zM431 164q65 0 118.5 44t96.5 118.5
t75.5 168.5t54 194t32 195t10.5 171q0 126 -36.5 186.5t-109.5 60.5q-68 0 -123.5 -46t-98 -123.5t-74 -172.5t-52 -194t-30 -188t-9.5 -154q0 -95 16.5 -152t49 -82.5t80.5 -25.5zM348 -466q-81 0 -121.5 43t-40.5 110q0 59 23.5 111.5t69.5 102t114 99.5h126
q-57 -53 -93 -97.5t-52 -84.5t-17 -80q0 -30 16 -46.5t44 -16.5q16 0 36.5 4t42.5 9l-28 -134q-28 -12 -58 -16t-62 -4z" />
    <glyph glyph-name="uni01EB" unicode="&#x1eb;" horiz-adv-x="866" 
d="M331 -20q-89 0 -152.5 40t-97 117.5t-33.5 187.5q0 85 16.5 190.5t51.5 213t92.5 197.5t139.5 145.5t190 55.5q89 0 151.5 -41.5t96 -119t33.5 -188.5q0 -99 -18 -209t-55.5 -214.5t-95.5 -189t-137.5 -135t-181.5 -50.5zM353 149q51 0 93 42.5t74 112.5t54.5 154.5
t34 168.5t11.5 154q0 56 -11.5 96t-35.5 60.5t-60 20.5q-54 0 -97 -45.5t-75 -119t-53 -159t-31.5 -168t-10.5 -143.5q0 -84 27 -129t80 -45zM256 -466q-81 0 -121.5 43t-40.5 110q0 59 23.5 111.5t69.5 102t114 99.5h126q-57 -53 -93 -97.5t-52 -84.5t-17 -80
q0 -30 16 -46.5t44 -16.5q16 0 36.5 4t42.5 9l-28 -134q-28 -12 -58 -16t-62 -4z" />
    <glyph glyph-name="uni01EC" unicode="&#x1ec;" horiz-adv-x="1051" 
d="M415 -20q-115 0 -191 48t-114 147t-38 251q0 111 17.5 231.5t51.5 239.5t85.5 224.5t120 187.5t154.5 128.5t189 46.5q174 0 256 -107.5t82 -325.5q0 -97 -15 -212.5t-46.5 -236t-80.5 -231.5t-116.5 -199t-156 -140t-198.5 -52zM431 164q65 0 118.5 44t96.5 118.5
t75.5 168.5t54 194t32 195t10.5 171q0 126 -36.5 186.5t-109.5 60.5q-68 0 -123.5 -46t-98 -123.5t-74 -172.5t-52 -194t-30 -188t-9.5 -154q0 -95 16.5 -152t49 -82.5t80.5 -25.5zM472 1612l31 148h510l-31 -148h-510zM348 -466q-81 0 -121.5 43t-40.5 110q0 59 23.5 111.5
t69.5 102t114 99.5h126q-57 -53 -93 -97.5t-52 -84.5t-17 -80q0 -30 16 -46.5t44 -16.5q16 0 36.5 4t42.5 9l-28 -134q-28 -12 -58 -16t-62 -4z" />
    <glyph glyph-name="uni01ED" unicode="&#x1ed;" horiz-adv-x="866" 
d="M331 -20q-89 0 -152.5 40t-97 117.5t-33.5 187.5q0 85 16.5 190.5t51.5 213t92.5 197.5t139.5 145.5t190 55.5q89 0 151.5 -41.5t96 -119t33.5 -188.5q0 -99 -18 -209t-55.5 -214.5t-95.5 -189t-137.5 -135t-181.5 -50.5zM353 149q51 0 93 42.5t74 112.5t54.5 154.5
t34 168.5t11.5 154q0 56 -11.5 96t-35.5 60.5t-60 20.5q-54 0 -97 -45.5t-75 -119t-53 -159t-31.5 -168t-10.5 -143.5q0 -84 27 -129t80 -45zM310 1247l31 148h510l-31 -148h-510zM256 -466q-81 0 -121.5 43t-40.5 110q0 59 23.5 111.5t69.5 102t114 99.5h126
q-57 -53 -93 -97.5t-52 -84.5t-17 -80q0 -30 16 -46.5t44 -16.5q16 0 36.5 4t42.5 9l-28 -134q-28 -12 -58 -16t-62 -4z" />
    <glyph glyph-name="uni01F0" unicode="&#x1f0;" horiz-adv-x="421" 
d="M-148 -492q-31 0 -59 3.5t-55 13.5v175q17 -8 42.5 -12t46.5 -4q44 0 71 21.5t45 72t36 137.5l251 1191h196l-256 -1205q-25 -120 -60 -208t-95 -136.5t-163 -48.5zM256 1241q-9 38 -29 95.5t-42.5 115t-41.5 94.5l5 23h115q15 -19 32.5 -46t37.5 -61t40 -73
q51 56 98 102t87 78h120l-3 -22q-33 -33 -81 -90.5t-93 -116.5t-69 -99h-176z" />
    <glyph glyph-name="Aringacute" unicode="&#x1fa;" horiz-adv-x="886" 
d="M-127 0l562 1307q-27 20 -41.5 53t-14.5 76q0 96 58.5 154t160.5 58q98 0 158 -60t60 -148q0 -57 -23.5 -98.5t-64.5 -61.5l32 -1280h-214l-6 410h-275l-169 -410h-223zM335 593h216l2 431v80.5t4 81.5h-5q-8 -39 -21.5 -78.5t-27.5 -80.5zM598 1329q47 0 77 28.5
t30 76.5q0 47 -28.5 77t-78.5 30q-49 0 -77 -30t-28 -77q0 -48 25 -76.5t80 -28.5zM540 1704l1 14q34 37 68 75.5t66 79.5t58 83h238l-1 -13q-32 -34 -82.5 -79.5t-104 -88.5t-93.5 -71h-150z" />
    <glyph glyph-name="aringacute" unicode="&#x1fb;" horiz-adv-x="896" 
d="M266 -20q-71 0 -120.5 36t-75 104.5t-25.5 167.5q0 90 17 201.5t51 223.5t87 205.5t125 151t165 57.5q44 0 80 -16.5t63.5 -49.5t43.5 -87h6l46 132h169l-235 -1106h-158l6 147h-6q-36 -52 -74 -89t-78.5 -57.5t-86.5 -20.5zM336 150q63 0 109 53.5t78 135t54 164.5
q23 98 33.5 168t10.5 132q0 72 -27 111t-76 39q-50 0 -92.5 -44t-75 -117t-55.5 -159.5t-35 -172.5t-12 -155q0 -77 20 -116t68 -39zM602 1197q-101 0 -159.5 57.5t-58.5 155.5t59 156.5t159 58.5q95 0 155.5 -57.5t62.5 -151.5q0 -99 -58.5 -159t-159.5 -60zM603 1304
q47 0 77.5 28.5t30.5 77.5q0 48 -29 79t-79 31t-78.5 -31t-28.5 -79q0 -52 26 -79t81 -27zM566 1694l3 16q30 35 62 73.5t64 81t61 89.5h245l-1 -13q-30 -33 -81 -79t-106 -91t-99 -77h-148z" />
    <glyph glyph-name="AEacute" unicode="&#x1fc;" horiz-adv-x="1198" 
d="M-135 0l700 1462h728l-38 -179h-358l-91 -431h335l-39 -180h-334l-104 -491h357l-37 -181h-561l91 427h-233l-198 -427h-218zM365 609h189l143 673h-25zM714 1599l2 20q45 53 85.5 106t75 104.5t62.5 97.5h228l-2 -17q-22 -28 -63 -71t-88.5 -90t-91.5 -87t-73 -63h-135z
" />
    <glyph glyph-name="aeacute" unicode="&#x1fd;" horiz-adv-x="1305" 
d="M252 -20q-63 0 -109.5 37t-72 107.5t-25.5 169.5q0 113 20 230.5t57.5 225t92 192.5t123 135t150.5 50q41 0 76.5 -15.5t62.5 -47t42 -80.5h5l31 122h142l-23 -111q43 53 99 92t133 39q105 0 166.5 -64.5t61.5 -177.5q0 -94 -35.5 -168t-103 -125.5t-163.5 -77.5
t-216 -26h-16q-7 -34 -10.5 -69.5t-3.5 -69.5q0 -99 37 -152.5t123 -53.5q58 0 116.5 19t126.5 58l-29 -171q-63 -36 -121 -52t-131 -16q-83 0 -135 36t-70 100l-25 -116h-140l23 146h-4q-34 -52 -73 -89t-84 -57t-98 -20zM338 148q45 0 80.5 30t63.5 80.5t49 113t36 127.5
q22 97 32.5 171t10.5 136q0 72 -24 110t-68 38q-46 0 -86.5 -40t-74 -107.5t-58 -151.5t-38 -172.5t-13.5 -169.5q0 -83 22.5 -124t67.5 -41zM778 633h7q115 0 184.5 30.5t101 84.5t31.5 121q0 45 -22.5 71t-68.5 26q-53 0 -97 -45.5t-78 -121t-58 -166.5zM651 1240l2 20
q45 53 85.5 106t75 104.5t62.5 97.5h228l-2 -17q-22 -28 -63 -71t-88.5 -90t-91.5 -87t-73 -63h-135z" />
    <glyph glyph-name="Oslashacute" unicode="&#x1fe;" horiz-adv-x="1053" 
d="M92 -102l-101 59l128 203q-23 50 -35 116.5t-12 149.5q0 111 17 231.5t51.5 239.5t86 224.5t120 187.5t154.5 128.5t189 46.5q72 0 127.5 -21t94.5 -65l96 153l102 -60l-123 -195q21 -47 31 -109t10 -136q0 -97 -15 -212.5t-46.5 -236t-80.5 -231.5t-117 -199t-156 -140
t-199 -52q-69 0 -123.5 20t-93.5 61zM430 164q60 0 110.5 37.5t91 102t72 147t53.5 173t35 179.5t17 165q3 19 3.5 36.5t-0.5 33.5l-501 -792q17 -43 47.5 -62.5t71.5 -19.5zM289 412l508 799q-18 47 -49 69t-77 22q-63 0 -114.5 -40t-92.5 -107.5t-71.5 -152t-51.5 -173.5
t-33.5 -172.5t-16.5 -148.5q-1 -27 -2 -50.5t0 -45.5zM607 1599l2 20q45 53 85.5 106t75 104.5t62.5 97.5h228l-2 -17q-22 -28 -63 -71t-88.5 -90t-91.5 -87t-73 -63h-135z" />
    <glyph glyph-name="oslashacute" unicode="&#x1ff;" horiz-adv-x="867" 
d="M75 -125l-96 60l115 180q-22 41 -33.5 93.5t-11.5 116.5q0 81 16 186t51 212.5t92 199t139 148t192 56.5q49 0 89.5 -15t72.5 -43l86 138l99 -61l-108 -168q20 -40 31 -90t11 -110q0 -88 -17 -194.5t-53 -212t-93.5 -194.5t-138 -143t-186.5 -54q-46 0 -85.5 12t-72.5 37
zM352 142q48 0 88 35t71.5 94t55 132t37.5 150t19 147q2 15 1.5 31t-1.5 30l-356 -571q15 -23 36.5 -35.5t48.5 -12.5zM244 328l361 580q-13 28 -36 42t-55 14q-47 0 -87 -37t-72 -99t-55.5 -137.5t-37.5 -153.5t-18 -146q0 -17 -0.5 -33t0.5 -30zM444 1240l2 20
q45 53 85.5 106t75 104.5t62.5 97.5h228l-2 -17q-22 -28 -63 -71t-88.5 -90t-91.5 -87t-73 -63h-135z" />
    <glyph glyph-name="uni0218" unicode="&#x218;" horiz-adv-x="798" 
d="M251 -20q-94 0 -168.5 18t-127.5 55l35 213q53 -39 123 -66t142 -27q48 0 89 15t71.5 44.5t47.5 74t17 103.5q0 49 -12 88.5t-43 82t-90 100.5q-56 55 -96 108.5t-60.5 116.5t-20.5 146q0 96 29.5 175t85.5 136.5t136.5 88.5t183.5 31q75 0 154.5 -22.5t133.5 -61.5
l-95 -186q-50 37 -102.5 58.5t-103.5 21.5q-44 0 -81.5 -14.5t-66 -42.5t-44.5 -69t-16 -93q0 -51 16.5 -92.5t52.5 -84.5t93 -99q56 -52 91.5 -106t52.5 -117.5t17 -143.5q0 -95 -28.5 -177t-84.5 -143.5t-139 -96t-192 -34.5zM40 -453v28q21 36 47 89.5t50 110t37 100.5
h189v-20q-17 -44 -51.5 -102t-74 -113.5t-73.5 -92.5h-124z" />
    <glyph glyph-name="uni0219" unicode="&#x219;" horiz-adv-x="681" 
d="M226 -20q-81 0 -142.5 15t-101.5 40v193q43 -32 105 -53.5t116 -21.5q50 0 85.5 18t55 53t19.5 86q0 35 -9 64t-33.5 62.5t-69.5 78.5q-48 47 -78.5 91t-45 91.5t-14.5 103.5q0 91 38 164.5t111 117.5t177 44q82 0 152 -22t118 -56l-82 -154q-41 33 -89.5 50t-90.5 17
q-61 0 -97 -36t-36 -97q0 -33 8 -60.5t30.5 -57.5t64.5 -70q52 -52 86 -95.5t50.5 -93.5t16.5 -122q0 -102 -40.5 -181t-117 -124t-186.5 -45zM-5 -453v28q21 36 47 89.5t50 110t37 100.5h189v-20q-17 -44 -51.5 -102t-74 -113.5t-73.5 -92.5h-124z" />
    <glyph glyph-name="uni021A" unicode="&#x21a;" horiz-adv-x="745" 
d="M139 0l272 1280h-248l40 182h700l-40 -182h-248l-272 -1280h-204zM22 -453v28q21 36 47 89.5t50 110t37 100.5h189v-20q-17 -44 -51.5 -102t-74 -113.5t-73.5 -92.5h-124z" />
    <glyph glyph-name="uni021B" unicode="&#x21b;" horiz-adv-x="536" 
d="M235 -20q-96 0 -137 55t-41 147q0 31 5 70t15 87l128 601h-100l22 108l126 54l95 249h140l-53 -245h164l-35 -166h-164l-131 -621q-6 -29 -10.5 -54t-4.5 -44q0 -35 14 -51t47 -16q17 0 44.5 5t53.5 16v-159q-39 -18 -89 -27t-89 -9zM-40 -453v28q21 36 47 89.5t50 110
t37 100.5h189v-20q-17 -44 -51.5 -102t-74 -113.5t-73.5 -92.5h-124z" />
    <glyph glyph-name="uni0237" unicode="&#x237;" horiz-adv-x="421" 
d="M-148 -492q-31 0 -59 3.5t-55 13.5v175q17 -8 42.5 -12t46.5 -4q44 0 71 21.5t45 72t36 137.5l251 1191h196l-256 -1205q-25 -120 -60 -208t-95 -136.5t-163 -48.5z" />
    <glyph glyph-name="uni0259" unicode="&#x259;" horiz-adv-x="817" 
d="M259 -20q-111 0 -178.5 62t-67.5 178q0 94 36 168t103.5 125.5t164 78.5t217.5 27h16q7 35 9.5 70t2.5 69q0 108 -39 156.5t-119 48.5q-59 0 -115 -18t-126 -59l28 175q60 34 122.5 49.5t138.5 15.5q96 0 164 -40.5t104.5 -118t36.5 -188.5q0 -157 -35.5 -301t-101 -256
t-157 -177t-204.5 -65zM289 139q47 0 91.5 41.5t81 116.5t59.5 175h-12q-113 0 -181.5 -30.5t-99 -84t-30.5 -121.5q0 -46 23.5 -71.5t67.5 -25.5z" />
    <glyph glyph-name="uni02BC" unicode="&#x2bc;" horiz-adv-x="392" 
d="M117 945q37 84 71.5 170t64.5 173.5t54 173.5h197l6 -21q-32 -87 -69.5 -173t-79.5 -167t-86 -156h-158z" />
    <glyph glyph-name="circumflex" unicode="&#x2c6;" horiz-adv-x="694" 
d="M228 1241l4 22q47 48 90 99.5t82 104t71 102.5h176q9 -38 28.5 -95.5t42.5 -114.5t41 -95l-5 -23h-114q-17 24 -35.5 52.5t-37 60.5t-37.5 68q-51 -55 -98 -101t-88 -80h-120z" />
    <glyph glyph-name="caron" unicode="&#x2c7;" horiz-adv-x="694" 
d="M406 1241q-9 38 -29 95.5t-42.5 115t-41.5 94.5l5 23h115q15 -19 32.5 -46t37.5 -61t40 -73q51 56 98 102t87 78h120l-3 -22q-33 -33 -81 -90.5t-93 -116.5t-69 -99h-176z" />
    <glyph glyph-name="macron" unicode="&#x2c9;" horiz-adv-x="675" 
d="M230 1247l31 148h510l-31 -148h-510z" />
    <glyph glyph-name="breve" unicode="&#x2d8;" horiz-adv-x="664" 
d="M503 1241q-78 0 -127 27t-71 74.5t-22 109.5q0 21 2 42.5t6 41.5h123q0 -49 9.5 -81.5t31.5 -49t60 -16.5q57 0 92.5 33.5t55.5 113.5h128q-25 -142 -98 -218.5t-190 -76.5z" />
    <glyph glyph-name="dotaccent" unicode="&#x2d9;" horiz-adv-x="392" 
d="M358 1274q-48 0 -73 26t-25 71q0 61 35 108.5t101 47.5q33 0 54.5 -10.5t32 -32t10.5 -53.5q0 -63 -35 -110t-100 -47z" />
    <glyph glyph-name="ring" unicode="&#x2da;" horiz-adv-x="611" 
d="M500 1246q-103 0 -160.5 58.5t-57.5 157.5q0 95 58.5 153.5t159.5 58.5q96 0 156 -58.5t60 -150.5q0 -96 -58 -157.5t-158 -61.5zM501 1353q48 0 77 29t29 78q0 48 -28 78.5t-78 30.5q-52 0 -80 -30.5t-28 -78.5q0 -49 27 -78t81 -29z" />
    <glyph glyph-name="ogonek" unicode="&#x2db;" horiz-adv-x="480" 
d="M66 -466q-81 0 -121.5 43t-40.5 110q0 59 23.5 111.5t69.5 102t114 99.5h126q-57 -53 -93 -97.5t-52 -84.5t-17 -80q0 -30 16 -46.5t44 -16.5q16 0 36.5 4t42.5 9l-28 -134q-28 -12 -58 -16t-62 -4z" />
    <glyph glyph-name="tilde" unicode="&#x2dc;" horiz-adv-x="748" 
d="M229 1244q17 82 43.5 144t67 96t100.5 34q44 0 76 -17.5t57 -40t47.5 -40t47.5 -17.5q31 0 50.5 25.5t33.5 91.5h119q-17 -101 -48.5 -161.5t-71.5 -86.5t-85 -26q-43 0 -74.5 17.5t-57 40.5t-49 40.5t-49.5 17.5q-31 0 -53 -29t-35 -89h-119z" />
    <glyph glyph-name="hungarumlaut" unicode="&#x2dd;" horiz-adv-x="831" 
d="M547 1241l4 22q50 64 91 120.5t72.5 103.5t49.5 82h199l-2 -17q-22 -30 -58.5 -71.5t-80.5 -85.5t-88.5 -84.5t-81.5 -69.5h-105zM229 1241l3 22q51 64 92 121t72 104t51 81h197l-2 -17q-20 -32 -56 -72.5t-80.5 -83.5t-91.5 -83.5t-88 -71.5h-97z" />
    <glyph glyph-name="uni02F3" unicode="&#x2f3;" horiz-adv-x="695" 
d="M190 -543q-102 0 -159.5 58t-57.5 155t59.5 155.5t157.5 58.5q92 0 155 -58t63 -152q0 -95 -58.5 -156t-159.5 -61zM188 -437q51 0 80 30t29 77q0 48 -29 78.5t-80 30.5t-78.5 -30.5t-27.5 -78.5q0 -49 26.5 -78t79.5 -29z" />
    <glyph glyph-name="gravecomb" unicode="&#x300;" 
d="M-398 1241q-26 36 -62.5 92.5t-68.5 115.5t-49 101v18h223q12 -46 25.5 -95.5t30.5 -101.5t38 -107l-3 -23h-134z" />
    <glyph glyph-name="acutecomb" unicode="&#x301;" 
d="M-521 1241l2 20q45 53 85.5 106t75 104.5t62.5 97.5h228l-2 -17q-22 -28 -63 -71t-88.5 -90t-91.5 -87t-73 -63h-135z" />
    <glyph glyph-name="uni0302" unicode="&#x302;" 
d="M-130 1241l4 22q47 48 90 99.5t82 104t71 102.5h176q9 -38 28.5 -95.5t42.5 -114.5t41 -95l-5 -23h-114q-17 24 -35.5 52.5t-37 60.5t-37.5 68q-51 -55 -98 -101t-88 -80h-120z" />
    <glyph glyph-name="tildecomb" unicode="&#x303;" 
d="M-715 1244q17 82 43.5 144t67 96t100.5 34q44 0 76 -17.5t57 -40t47.5 -40t47.5 -17.5q31 0 50.5 25.5t33.5 91.5h119q-17 -101 -48.5 -161.5t-71.5 -86.5t-85 -26q-43 0 -74.5 17.5t-57 40.5t-49 40.5t-49.5 17.5q-31 0 -53 -29t-35 -89h-119z" />
    <glyph glyph-name="uni0304" unicode="&#x304;" 
d="M-102 1247l31 148h510l-31 -148h-510z" />
    <glyph glyph-name="uni0306" unicode="&#x306;" 
d="M163 1241q-78 0 -127 27t-71 74.5t-22 109.5q0 21 2 42.5t6 41.5h123q0 -49 9.5 -81.5t31.5 -49t60 -16.5q57 0 92.5 33.5t55.5 113.5h128q-25 -142 -98 -218.5t-190 -76.5z" />
    <glyph glyph-name="uni0307" unicode="&#x307;" 
d="M167 1274q-48 0 -73 26t-25 71q0 61 35 108.5t101 47.5q33 0 54.5 -10.5t32 -32t10.5 -53.5q0 -63 -35 -110t-100 -47z" />
    <glyph glyph-name="uni0308" unicode="&#x308;" 
d="M325 1285q-41 0 -62.5 21.5t-21.5 62.5q0 58 33 102.5t93 44.5q38 0 59 -20.5t21 -59.5q0 -66 -35 -108.5t-87 -42.5zM1 1285q-41 0 -62.5 21.5t-21.5 62.5q0 58 33 102.5t93 44.5q25 0 42 -9t26 -26.5t9 -44.5q0 -66 -34 -108.5t-85 -42.5z" />
    <glyph glyph-name="hookabovecomb" unicode="&#x309;" 
d="M-420 1215l26 156q45 4 75.5 18.5t46.5 39t16 58.5q0 37 -22 55t-55 18q-21 0 -43 -4t-39 -11v121q31 12 66.5 19t73.5 7q86 0 135 -47.5t49 -128.5q0 -80 -50 -136.5t-145 -73.5l-29 -91h-105z" />
    <glyph glyph-name="uni030A" unicode="&#x30a;" 
d="M190 1246q-103 0 -160.5 58.5t-57.5 157.5q0 95 58.5 153.5t159.5 58.5q96 0 156 -58.5t60 -150.5q0 -96 -58 -157.5t-158 -61.5zM191 1353q48 0 77 29t29 78q0 48 -28 78.5t-78 30.5q-52 0 -80 -30.5t-28 -78.5q0 -49 27 -78t81 -29z" />
    <glyph glyph-name="uni030B" unicode="&#x30b;" 
d="M145 1241l4 22q50 64 91 120.5t72.5 103.5t49.5 82h199l-2 -17q-22 -30 -58.5 -71.5t-80.5 -85.5t-88.5 -84.5t-81.5 -69.5h-105zM-173 1241l3 22q51 64 92 121t72 104t51 81h197l-2 -17q-20 -32 -56 -72.5t-80.5 -83.5t-91.5 -83.5t-88 -71.5h-97z" />
    <glyph glyph-name="uni030C" unicode="&#x30c;" 
d="M59 1241q-9 38 -29 95.5t-42.5 115t-41.5 94.5l5 23h115q15 -19 32.5 -46t37.5 -61t40 -73q51 56 98 102t87 78h120l-3 -22q-33 -33 -81 -90.5t-93 -116.5t-69 -99h-176z" />
    <glyph glyph-name="uni030F" unicode="&#x30f;" 
d="M-294 1241q-37 44 -72.5 99.5t-62.5 110.5t-40 98l3 19h187q11 -45 24 -93.5t29 -101t35 -108.5l-6 -24h-97zM-590 1241q-33 41 -68 97.5t-63 113t-39 97.5l3 19h188q10 -46 24 -100t30.5 -107t33.5 -96l-6 -24h-103z" />
    <glyph glyph-name="uni0312" unicode="&#x312;" 
d="M-37 945l-7 21q34 90 72 176.5t79.5 167.5t85.5 152h158q-23 -49 -50 -116t-54 -140t-50 -141.5t-37 -119.5h-197z" />
    <glyph glyph-name="dotbelowcomb" unicode="&#x323;" 
d="M-656 -387q-49 0 -73.5 26t-24.5 72q0 60 34.5 107.5t100.5 47.5q33 0 54.5 -10.5t32 -32t10.5 -53.5q0 -62 -35 -109.5t-99 -47.5z" />
    <glyph glyph-name="uni0326" unicode="&#x326;" 
d="M112 -453v28q21 36 47 89.5t50 110t37 100.5h189v-20q-17 -44 -51.5 -102t-74 -113.5t-73.5 -92.5h-124z" />
    <glyph glyph-name="uni0327" unicode="&#x327;" 
d="M-258 -492q-38 0 -72 4.5t-67 12.5v121q19 -6 48 -10t65 -4q41 0 69.5 13t44 37.5t15.5 56.5q0 42 -33 66t-101 30l105 165h111l-65 -96q65 -13 104 -53.5t39 -105.5q0 -80 -35 -132.5t-94.5 -78.5t-133.5 -26z" />
    <glyph glyph-name="uni0328" unicode="&#x328;" 
d="M-173 -467q-81 0 -121.5 43t-40.5 110q0 59 23.5 111.5t69.5 102t114 99.5h126q-57 -53 -93 -97.5t-52 -84.5t-17 -80q0 -30 16 -46.5t44 -16.5q16 0 36.5 4t42.5 9l-28 -134q-28 -12 -58 -16t-62 -4z" />
    <glyph glyph-name="tonos" unicode="&#x384;" horiz-adv-x="946" 
d="M469 1241l6 25q15 27 36 70t42.5 91.5t40 92t29.5 70.5h189l-4 -20q-16 -27 -44 -71t-60.5 -94t-62.5 -93.5t-50 -70.5h-122z" />
    <glyph glyph-name="dieresistonos" unicode="&#x385;" horiz-adv-x="960" 
d="M525 1402v19q18 36 41.5 93t45.5 113.5t31 88.5h172l-3 -17q-16 -35 -51.5 -93.5t-73.5 -115.5t-64 -88h-98zM363 1285q-39 0 -59.5 21.5t-20.5 62.5q0 58 31.5 102.5t88.5 44.5q35 0 54.5 -20.5t19.5 -59.5q0 -66 -33.5 -108.5t-80.5 -42.5zM794 1285q-37 0 -57 21.5
t-20 62.5q0 58 31 102.5t87 44.5q34 0 54 -20.5t20 -59.5q0 -66 -33 -108.5t-82 -42.5z" />
    <glyph glyph-name="Alphatonos" unicode="&#x386;" horiz-adv-x="910" 
d="M-107 0l617 1468h259l10 -1468h-214l4 426h-282l-171 -426h-223zM356 607h222l10 484q1 50 3 94.5t6 86.5h-6q-8 -40 -21.5 -83.5t-31.5 -94.5zM63 1113l6 25q15 27 36 70t42.5 91.5t40 92t29.5 70.5h189l-4 -20q-16 -27 -44 -71t-60.5 -94t-62.5 -93.5t-50 -70.5h-122z
" />
    <glyph glyph-name="anoteleia" unicode="&#x387;" horiz-adv-x="445" 
d="M287 835q-48 0 -75.5 25t-27.5 74q0 70 40 125t115 55q46 0 71.5 -26.5t25.5 -73.5q0 -78 -44.5 -128.5t-104.5 -50.5z" />
    <glyph glyph-name="Epsilontonos" unicode="&#x388;" horiz-adv-x="983" 
d="M206 0l310 1462h561l-38 -179h-357l-91 -431h333l-39 -180h-333l-105 -491h359l-38 -181h-562zM91 1113l6 25q15 27 36 70t42.5 91.5t40 92t29.5 70.5h189l-4 -20q-16 -27 -44 -71t-60.5 -94t-62.5 -93.5t-50 -70.5h-122z" />
    <glyph glyph-name="Etatonos" unicode="&#x389;" horiz-adv-x="1236" 
d="M206 0l310 1462h204l-129 -606h366l129 606h204l-311 -1462h-204l142 673h-365l-142 -673h-204zM91 1113l6 25q15 27 36 70t42.5 91.5t40 92t29.5 70.5h189l-4 -20q-16 -27 -44 -71t-60.5 -94t-62.5 -93.5t-50 -70.5h-122z" />
    <glyph glyph-name="Iotatonos" unicode="&#x38a;" horiz-adv-x="663" 
d="M202 0l311 1462h202l-309 -1462h-204zM91 1113l6 25q15 27 36 70t42.5 91.5t40 92t29.5 70.5h189l-4 -20q-16 -27 -44 -71t-60.5 -94t-62.5 -93.5t-50 -70.5h-122z" />
    <glyph glyph-name="Omicrontonos" unicode="&#x38c;" horiz-adv-x="1165" 
d="M529 -20q-115 0 -191 48t-114 147t-38 251q0 111 17.5 231.5t51.5 239.5t85.5 224.5t120 187.5t154.5 128.5t189 46.5q174 0 256 -107.5t82 -325.5q0 -97 -15 -212.5t-46.5 -236t-80.5 -231.5t-116.5 -199t-156 -140t-198.5 -52zM545 164q65 0 118.5 44t96.5 118.5
t75.5 168.5t54 194t32 195t10.5 171q0 126 -36.5 186.5t-109.5 60.5q-68 0 -123.5 -46t-98 -123.5t-74 -172.5t-52 -194t-30 -188t-9.5 -154q0 -95 16.5 -152t49 -82.5t80.5 -25.5zM91 1113l6 25q15 27 36 70t42.5 91.5t40 92t29.5 70.5h189l-4 -20q-16 -27 -44 -71
t-60.5 -94t-62.5 -93.5t-50 -70.5h-122z" />
    <glyph glyph-name="Upsilontonos" unicode="&#x38e;" horiz-adv-x="1071" 
d="M444 0l118 561l-105 901h212l49 -630l315 630h219l-483 -896l-121 -566h-204zM74 1113l6 25q15 27 36 70t42.5 91.5t40 92t29.5 70.5h189l-4 -20q-16 -27 -44 -71t-60.5 -94t-62.5 -93.5t-50 -70.5h-122z" />
    <glyph glyph-name="Omegatonos" unicode="&#x38f;" horiz-adv-x="1196" 
d="M91 1113l6 25q15 27 36 70t42.5 91.5t40 92t29.5 70.5h189l-4 -20q-16 -27 -44 -71t-60.5 -94t-62.5 -93.5t-50 -70.5h-122zM56 0l37 181h252q-39 47 -65 110t-38.5 136.5t-12.5 151.5q0 124 25 252t74.5 244.5t121.5 209t165 146t207 53.5q119 0 198 -51t119 -143.5
t40 -217.5q0 -132 -25.5 -260.5t-74 -246t-118.5 -215.5t-158 -169h255l-40 -181h-427l39 185q80 67 142 166.5t105 217.5t65 241.5t22 236.5q0 84 -18 141t-54.5 85.5t-91.5 28.5q-77 0 -137.5 -55.5t-105 -144.5t-74 -194.5t-43.5 -208.5t-14 -182q0 -105 21 -186.5
t64 -145.5l-39 -185h-416z" />
    <glyph glyph-name="iotadieresistonos" unicode="&#x390;" horiz-adv-x="513" 
d="M221 -20q-87 0 -132.5 47.5t-45.5 134.5q0 27 5.5 66t13.5 78l170 800h196l-174 -819q-5 -21 -8 -39.5t-3 -36.5q0 -27 12 -42t36 -15q20 0 44 7t46 17v-157q-37 -20 -79.5 -30.5t-80.5 -10.5zM308 1402v19q18 36 41.5 93t45.5 113.5t31 88.5h172l-3 -17
q-16 -35 -51.5 -93.5t-73.5 -115.5t-64 -88h-98zM146 1285q-39 0 -59.5 21.5t-20.5 62.5q0 58 31.5 102.5t88.5 44.5q35 0 54.5 -20.5t19.5 -59.5q0 -66 -33.5 -108.5t-80.5 -42.5zM577 1285q-37 0 -57 21.5t-20 62.5q0 58 31 102.5t87 44.5q34 0 54 -20.5t20 -59.5
q0 -66 -33 -108.5t-82 -42.5z" />
    <glyph glyph-name="Alpha" unicode="&#x391;" horiz-adv-x="887" 
d="M-130 0l617 1468h259l10 -1468h-214l4 426h-282l-171 -426h-223zM333 607h222l10 484q1 50 3 94.5t6 86.5h-6q-8 -40 -21.5 -83.5t-31.5 -94.5z" />
    <glyph glyph-name="Beta" unicode="&#x392;" horiz-adv-x="921" 
d="M-2 0l309 1462h299q92 0 167 -31t120 -95t45 -165q0 -90 -29 -172.5t-90 -143t-156 -87.5v-7q76 -24 117 -96.5t41 -170.5q0 -133 -53.5 -245.5t-158 -180.5t-259.5 -68h-352zM240 177h111q90 0 147.5 45t84.5 119t27 161q0 88 -41.5 131.5t-115.5 43.5h-108zM381 847
h102q77 0 130 41.5t81 108.5t28 142q0 74 -38 111.5t-117 37.5h-92z" />
    <glyph glyph-name="Gamma" unicode="&#x393;" horiz-adv-x="705" 
d="M-2 0l310 1462h551l-38 -181h-348l-271 -1281h-204z" />
    <glyph glyph-name="uni0394" unicode="&#x394;" horiz-adv-x="883" 
d="M-79 0l2 135l577 1332h257l19 -1333l-26 -134h-829zM156 184h411l7 841q0 27 0.5 54t1 55t1.5 60t2 70q-8 -28 -21 -68.5t-28.5 -86t-34.5 -88.5z" />
    <glyph glyph-name="Epsilon" unicode="&#x395;" horiz-adv-x="776" 
d="M-2 0l310 1462h561l-38 -179h-357l-91 -431h333l-39 -180h-333l-105 -491h359l-38 -181h-562z" />
    <glyph glyph-name="Zeta" unicode="&#x396;" horiz-adv-x="738" 
d="M-83 0l32 151l652 1131h-401l38 180h632l-32 -153l-655 -1128h427l-38 -181h-655z" />
    <glyph glyph-name="Eta" unicode="&#x397;" horiz-adv-x="1027" 
d="M-2 0l310 1462h204l-129 -606h366l129 606h204l-311 -1462h-204l142 673h-365l-142 -673h-204z" />
    <glyph glyph-name="Theta" unicode="&#x398;" horiz-adv-x="1086" 
d="M425 -20q-119 0 -197.5 48t-117 147t-38.5 251q0 100 16.5 216t50.5 235t85.5 227.5t122 194.5t160 135.5t199.5 49.5q173 0 261 -106.5t88 -326.5q0 -118 -18 -242.5t-54.5 -244.5t-89.5 -225t-123 -186t-156.5 -127t-188.5 -46zM439 164q70 0 127.5 47t103 126
t79.5 175.5t56 197t33 190.5t11 155q0 126 -40 186.5t-118 60.5q-71 0 -129.5 -46.5t-104 -124t-78.5 -172.5t-54.5 -194t-32 -188t-10.5 -153q0 -95 18 -152t53.5 -82.5t85.5 -25.5zM423 663l38 174h248l-38 -174h-248z" />
    <glyph glyph-name="Iota" unicode="&#x399;" horiz-adv-x="458" 
d="M-3 0l311 1462h202l-309 -1462h-204z" />
    <glyph glyph-name="Kappa" unicode="&#x39a;" horiz-adv-x="880" 
d="M-2 0l310 1462h204l-148 -695l104 166l365 529h224l-462 -673l163 -789h-222l-118 639l-102 -100l-114 -539h-204z" />
    <glyph glyph-name="Lambda" unicode="&#x39b;" horiz-adv-x="875" 
d="M-130 0l628 1467h240l11 -1467h-213l8 921q1 57 3 120.5t6 124.5q-25 -76 -53 -148.5t-60 -151.5l-356 -866h-214z" />
    <glyph glyph-name="Mu" unicode="&#x39c;" horiz-adv-x="1369" 
d="M-2 0l310 1462h276l39 -1115h5l499 1115h296l-311 -1462h-200l195 916q6 30 13.5 59t15 59.5t15.5 61.5h-4l-499 -1096h-188l-39 1092h-5q-8 -42 -14 -79.5t-12 -72t-14 -68.5l-184 -872h-194z" />
    <glyph glyph-name="Nu" unicode="&#x39d;" horiz-adv-x="1094" 
d="M-2 0l310 1462h235l184 -1088h6q11 67 22.5 131t22.5 119.5t18 94.5l159 743h194l-310 -1462h-232l-186 1110h-6q-7 -53 -16 -108.5t-19.5 -108t-19.5 -96t-15 -73.5l-153 -724h-194z" />
    <glyph glyph-name="Xi" unicode="&#x39e;" horiz-adv-x="774" 
d="M-53 0l38 181h630l-38 -181h-630zM152 677l37 180h509l-40 -180h-506zM239 1283l38 179h591l-37 -179h-592z" />
    <glyph glyph-name="Omicron" unicode="&#x39f;" horiz-adv-x="1051" 
d="M415 -20q-115 0 -191 48t-114 147t-38 251q0 111 17.5 231.5t51.5 239.5t85.5 224.5t120 187.5t154.5 128.5t189 46.5q174 0 256 -107.5t82 -325.5q0 -97 -15 -212.5t-46.5 -236t-80.5 -231.5t-116.5 -199t-156 -140t-198.5 -52zM431 164q65 0 118.5 44t96.5 118.5
t75.5 168.5t54 194t32 195t10.5 171q0 126 -36.5 186.5t-109.5 60.5q-68 0 -123.5 -46t-98 -123.5t-74 -172.5t-52 -194t-30 -188t-9.5 -154q0 -95 16.5 -152t49 -82.5t80.5 -25.5z" />
    <glyph glyph-name="Pi" unicode="&#x3a0;" horiz-adv-x="1012" 
d="M-2 0l310 1462h759l-309 -1462h-204l271 1280h-353l-270 -1280h-204z" />
    <glyph glyph-name="Rho" unicode="&#x3a1;" horiz-adv-x="862" 
d="M-1 0l309 1462h251q117 0 194.5 -40t115.5 -113.5t38 -172.5q0 -117 -32 -222.5t-94.5 -186.5t-155.5 -127.5t-216 -46.5h-90l-116 -553h-204zM357 734h51q94 0 158 47.5t96.5 132.5t32.5 196q0 88 -42 130.5t-128 42.5h-51z" />
    <glyph glyph-name="Sigma" unicode="&#x3a3;" horiz-adv-x="783" 
d="M-70 0l33 168l427 598l-174 529l35 167h632l-37 -179h-403l166 -518l-414 -584h447l-38 -181h-674z" />
    <glyph glyph-name="Tau" unicode="&#x3a4;" horiz-adv-x="745" 
d="M139 0l272 1280h-248l40 182h700l-40 -182h-248l-272 -1280h-204z" />
    <glyph glyph-name="Upsilon" unicode="&#x3a5;" horiz-adv-x="792" 
d="M165 0l118 561l-105 901h212l49 -630l315 630h219l-483 -896l-121 -566h-204z" />
    <glyph glyph-name="Phi" unicode="&#x3a6;" horiz-adv-x="1225" 
d="M373 -20l49 225q-104 7 -179.5 52t-116.5 130.5t-41 212.5q0 141 37 266.5t109.5 222t179 153.5t244.5 61l38 180h198l-37 -180q103 -6 178.5 -53.5t116.5 -133.5t41 -206q0 -144 -39 -270.5t-112.5 -223.5t-179 -153t-239.5 -58l-49 -225h-198zM458 380l160 747
q-85 -1 -147 -48.5t-102 -125t-59.5 -167.5t-19.5 -178q0 -75 19.5 -125t57 -75t91.5 -28zM656 380q78 2 138.5 46.5t102.5 119.5t64 166.5t22 185.5q0 77 -20 127t-57.5 75.5t-90.5 26.5z" />
    <glyph glyph-name="Chi" unicode="&#x3a7;" horiz-adv-x="821" 
d="M-120 0l448 761l-109 701h211l59 -498l262 498h218l-408 -714l118 -748h-219l-57 542l-305 -542h-218z" />
    <glyph glyph-name="Psi" unicode="&#x3a8;" horiz-adv-x="1226" 
d="M379 0l91 428h-2q-103 4 -173.5 40t-107 106.5t-36.5 177.5q0 50 7.5 110t21.5 125l101 475h204l-106 -496q-12 -59 -19 -106t-7 -85q0 -63 20 -98.5t54 -50.5t78 -15h4l180 851h200l-182 -851h5q90 0 141 44t80 121t49 174l110 512h203l-111 -529q-25 -117 -60.5 -210.5
t-92 -159t-143 -100.5t-213.5 -35h-6l-90 -428h-200z" />
    <glyph glyph-name="uni03A9" unicode="&#x3a9;" horiz-adv-x="1062" 
d="M-78 0l37 181h252q-39 47 -65 110t-38.5 136.5t-12.5 151.5q0 124 25 252t74.5 244.5t121.5 209t165 146t207 53.5q119 0 198 -51t119 -143.5t40 -217.5q0 -132 -25.5 -260.5t-74 -246t-118.5 -215.5t-158 -169h255l-40 -181h-427l39 185q80 67 142 166.5t105 217.5
t65 241.5t22 236.5q0 84 -18 141t-54.5 85.5t-91.5 28.5q-77 0 -137.5 -55.5t-105 -144.5t-74 -194.5t-43.5 -208.5t-14 -182q0 -105 21 -186.5t64 -145.5l-39 -185h-416z" />
    <glyph glyph-name="Iotadieresis" unicode="&#x3aa;" horiz-adv-x="458" 
d="M-3 0l311 1462h202l-309 -1462h-204zM615 1666q-41 0 -62.5 21.5t-21.5 62.5q0 58 33 102.5t93 44.5q38 0 59 -20.5t21 -59.5q0 -66 -35 -108.5t-87 -42.5zM291 1666q-41 0 -62.5 21.5t-21.5 62.5q0 58 33 102.5t93 44.5q25 0 42 -9t26 -26.5t9 -44.5q0 -66 -34 -108.5
t-85 -42.5z" />
    <glyph glyph-name="Upsilondieresis" unicode="&#x3ab;" horiz-adv-x="792" 
d="M165 0l118 561l-105 901h212l49 -630l315 630h219l-483 -896l-121 -566h-204zM746 1623q-41 0 -62.5 21.5t-21.5 62.5q0 58 33 102.5t93 44.5q38 0 59 -20.5t21 -59.5q0 -66 -35 -108.5t-87 -42.5zM422 1623q-41 0 -62.5 21.5t-21.5 62.5q0 58 33 102.5t93 44.5
q25 0 42 -9t26 -26.5t9 -44.5q0 -66 -34 -108.5t-85 -42.5z" />
    <glyph glyph-name="alphatonos" unicode="&#x3ac;" horiz-adv-x="934" 
d="M268 -20q-104 0 -163 82t-59 231q0 110 19.5 226t57 224.5t92 195t124 137.5t153.5 51q75 0 129 -43t75 -126h7q11 29 24 56t27 51t27 41h167q-25 -52 -48 -114.5t-42.5 -134t-37.5 -151.5l-81 -385q-8 -33 -12.5 -63.5t-4.5 -54.5q0 -29 11.5 -40t31.5 -11
q11 0 25.5 3.5t29.5 10.5v-158q-26 -11 -63 -19.5t-62 -8.5q-76 0 -112 28t-46 68t-8 76h-6q-36 -55 -75 -93.5t-83 -58.5t-97 -20zM340 148q63 0 109.5 55t79 137t50.5 161q23 97 33.5 168.5t10.5 128.5q0 79 -26.5 117.5t-79.5 38.5q-52 0 -94.5 -46.5t-75 -121.5
t-54.5 -161t-33.5 -167.5t-11.5 -138.5q0 -87 22.5 -129t69.5 -42zM505 1241l6 25q15 27 36 70t42.5 91.5t40 92t29.5 70.5h189l-4 -20q-16 -27 -44 -71t-60.5 -94t-62.5 -93.5t-50 -70.5h-122z" />
    <glyph glyph-name="epsilontonos" unicode="&#x3ad;" horiz-adv-x="702" 
d="M290 -20q-95 0 -160 31.5t-97.5 91.5t-32.5 146q0 79 29 149.5t86.5 120t142.5 66.5l2 8q-48 24 -76.5 77t-28.5 132q0 91 41 164.5t117 117t180 43.5q73 0 137.5 -18t119.5 -59l-91 -149q-35 29 -76.5 43.5t-82.5 14.5q-72 0 -114 -49.5t-42 -128.5q0 -64 31 -95t95 -31
h63l-32 -152h-79q-67 0 -116 -28.5t-74.5 -77.5t-25.5 -111q0 -65 32 -101t102 -36q52 0 102.5 15.5t107.5 48.5v-169q-58 -32 -125 -48t-135 -16zM424 1241l6 25q15 27 36 70t42.5 91.5t40 92t29.5 70.5h189l-4 -20q-16 -27 -44 -71t-60.5 -94t-62.5 -93.5t-50 -70.5h-122z
" />
    <glyph glyph-name="etatonos" unicode="&#x3ae;" horiz-adv-x="880" 
d="M347 -492l248 1161q10 50 18.5 99.5t8.5 87.5q0 44 -20 67.5t-61 23.5q-55 0 -97 -42.5t-73.5 -122.5t-55.5 -193l-124 -589h-198l235 1106h158l-15 -144h5q31 53 68 89.5t81 56t93 19.5q57 0 104.5 -22.5t76 -70.5t28.5 -128q0 -40 -8.5 -92t-19.5 -106l-255 -1200h-197
zM500 1241l6 25q15 27 36 70t42.5 91.5t40 92t29.5 70.5h189l-4 -20q-16 -27 -44 -71t-60.5 -94t-62.5 -93.5t-50 -70.5h-122z" />
    <glyph glyph-name="iotatonos" unicode="&#x3af;" horiz-adv-x="506" 
d="M221 -20q-87 0 -132.5 47.5t-45.5 134.5q0 27 5.5 66t13.5 78l170 800h196l-174 -819q-5 -21 -8 -39.5t-3 -36.5q0 -27 12 -42t36 -15q20 0 44 7t46 17v-157q-37 -20 -79.5 -30.5t-80.5 -10.5zM277 1241l6 25q15 27 36 70t42.5 91.5t40 92t29.5 70.5h189l-4 -20
q-16 -27 -44 -71t-60.5 -94t-62.5 -93.5t-50 -70.5h-122z" />
    <glyph glyph-name="upsilondieresistonos" unicode="&#x3b0;" horiz-adv-x="880" 
d="M322 -18q-137 0 -201 69.5t-64 195.5q0 47 9.5 110t22.5 133l133 616h196l-137 -645q-12 -50 -19.5 -99t-7.5 -87q0 -58 23.5 -88t65.5 -30q56 0 100 46.5t77 126t56.5 179t38.5 206t22.5 208t9.5 183.5h194q-2 -150 -17 -307.5t-49.5 -303.5t-93.5 -261.5t-147 -183.5
t-212 -68zM512 1402v19q18 36 41.5 93t45.5 113.5t31 88.5h172l-3 -17q-16 -35 -51.5 -93.5t-73.5 -115.5t-64 -88h-98zM350 1285q-39 0 -59.5 21.5t-20.5 62.5q0 58 31.5 102.5t88.5 44.5q35 0 54.5 -20.5t19.5 -59.5q0 -66 -33.5 -108.5t-80.5 -42.5zM781 1285
q-37 0 -57 21.5t-20 62.5q0 58 31 102.5t87 44.5q34 0 54 -20.5t20 -59.5q0 -66 -33 -108.5t-82 -42.5z" />
    <glyph glyph-name="alpha" unicode="&#x3b1;" horiz-adv-x="934" 
d="M268 -20q-104 0 -163 82t-59 231q0 110 19.5 226t57 224.5t92 195t124 137.5t153.5 51q75 0 129 -43t75 -126h7q11 29 24 56t27 51t27 41h167q-25 -52 -48 -114.5t-42.5 -134t-37.5 -151.5l-81 -385q-8 -33 -12.5 -63.5t-4.5 -54.5q0 -29 11.5 -40t31.5 -11
q11 0 25.5 3.5t29.5 10.5v-158q-26 -11 -63 -19.5t-62 -8.5q-76 0 -112 28t-46 68t-8 76h-6q-36 -55 -75 -93.5t-83 -58.5t-97 -20zM340 148q63 0 109.5 55t79 137t50.5 161q23 97 33.5 168.5t10.5 128.5q0 79 -26.5 117.5t-79.5 38.5q-52 0 -94.5 -46.5t-75 -121.5
t-54.5 -161t-33.5 -167.5t-11.5 -138.5q0 -87 22.5 -129t69.5 -42z" />
    <glyph glyph-name="beta" unicode="&#x3b2;" horiz-adv-x="900" 
d="M-110 -492l350 1654q28 128 75.5 218.5t125 138.5t196.5 48q89 0 153 -36.5t97.5 -102.5t33.5 -154q0 -110 -31.5 -205t-95.5 -160t-164 -87q91 -17 139.5 -100t48.5 -193q0 -96 -25.5 -193t-77 -177.5t-129 -129.5t-181.5 -49q-62 0 -117 17t-90 45l-117 -534h-191z
M377 155q67 0 113.5 37t74 94.5t40 121.5t12.5 118q0 95 -36.5 147.5t-104.5 52.5h-40l37 170h30q56 0 96 34t66 88t38.5 117t12.5 122q0 68 -27.5 104t-81.5 36q-44 0 -76.5 -25.5t-55 -75.5t-38.5 -124l-202 -951q24 -31 64 -48.5t78 -17.5z" />
    <glyph glyph-name="gamma" unicode="&#x3b3;" horiz-adv-x="747" 
d="M-8 -492q18 82 42.5 164t54 164t61.5 163l-25 1107h198l-1 -511q0 -33 -0.5 -72t-2 -79.5t-3.5 -78.5t-5 -70h8q23 75 49.5 147.5t62.5 153.5l212 510h209l-469 -1053q-41 -92 -77.5 -190.5t-64.5 -190.5t-44 -164h-205z" />
    <glyph glyph-name="delta" unicode="&#x3b4;" horiz-adv-x="880" 
d="M351 -20q-104 0 -173.5 41.5t-104.5 117.5t-35 181q0 137 49 256t139 210t214 142q-54 73 -86 144.5t-32 158.5q0 100 45 174.5t125 116.5t185 42q98 0 174 -26.5t119 -62.5l-96 -157q-49 38 -99.5 57t-103.5 19q-71 0 -111 -41t-40 -110q0 -48 21.5 -92t54.5 -87.5
t65 -89.5q47 -66 76.5 -132t43.5 -136.5t14 -149.5q0 -115 -27.5 -218.5t-82 -184t-138 -127t-196.5 -46.5zM368 148q61 0 104 41t69.5 104t38.5 130.5t12 121.5q0 85 -19 153.5t-60 126.5q-61 -29 -111 -83t-86 -123t-56 -144.5t-20 -148.5q0 -78 32.5 -128t95.5 -50z" />
    <glyph glyph-name="epsilon" unicode="&#x3b5;" horiz-adv-x="702" 
d="M290 -20q-95 0 -160 31.5t-97.5 91.5t-32.5 146q0 79 29 149.5t86.5 120t142.5 66.5l2 8q-48 24 -76.5 77t-28.5 132q0 91 41 164.5t117 117t180 43.5q73 0 137.5 -18t119.5 -59l-91 -149q-35 29 -76.5 43.5t-82.5 14.5q-72 0 -114 -49.5t-42 -128.5q0 -64 31 -95t95 -31
h63l-32 -152h-79q-67 0 -116 -28.5t-74.5 -77.5t-25.5 -111q0 -65 32 -101t102 -36q52 0 102.5 15.5t107.5 48.5v-169q-58 -32 -125 -48t-135 -16z" />
    <glyph glyph-name="zeta" unicode="&#x3b6;" horiz-adv-x="672" 
d="M142 -397q34 38 70 86.5t61 101t25 100.5q0 47 -33 79t-78 65q-48 35 -83.5 72.5t-55.5 88t-20 125.5q0 142 48.5 284.5t130 280.5t183 267t207.5 244q-29 -5 -64 -7t-76 -2h-170l36 168h532l-29 -136q-106 -115 -210 -247.5t-189.5 -269.5t-137 -269.5t-51.5 -248.5
q0 -56 20 -94.5t52.5 -68.5t70.5 -62q34 -23 65 -52.5t50.5 -66.5t19.5 -86q0 -67 -22.5 -127.5t-61 -116t-86.5 -108.5h-204z" />
    <glyph glyph-name="eta" unicode="&#x3b7;" horiz-adv-x="880" 
d="M347 -492l248 1161q10 50 18.5 99.5t8.5 87.5q0 44 -20 67.5t-61 23.5q-55 0 -97 -42.5t-73.5 -122.5t-55.5 -193l-124 -589h-198l235 1106h158l-15 -144h5q31 53 68 89.5t81 56t93 19.5q57 0 104.5 -22.5t76 -70.5t28.5 -128q0 -40 -8.5 -92t-19.5 -106l-255 -1200h-197
z" />
    <glyph glyph-name="theta" unicode="&#x3b8;" horiz-adv-x="891" 
d="M337 -20q-91 0 -152 42.5t-92 129.5t-31 222q0 66 7 143t21 161t33 172q30 134 75 263.5t106.5 235t143 168t185.5 62.5q84 0 145 -39.5t94 -126t33 -228.5q0 -102 -17.5 -233.5t-49.5 -266.5t-77 -246q-37 -101 -81 -185t-96.5 -145.5t-113.5 -95t-133 -33.5zM349 143
q48 0 90.5 45t78.5 124t67 181.5t58 217.5h-349q-22 -119 -34 -211.5t-12 -152.5q0 -107 27 -155.5t74 -48.5zM330 873h346q16 108 26.5 194.5t10.5 148.5q0 103 -24.5 151t-74.5 48q-45 0 -85 -40t-75.5 -112.5t-66 -171.5t-57.5 -218z" />
    <glyph glyph-name="iota" unicode="&#x3b9;" horiz-adv-x="506" 
d="M221 -20q-87 0 -132.5 47.5t-45.5 134.5q0 27 5.5 66t13.5 78l170 800h196l-174 -819q-5 -21 -8 -39.5t-3 -36.5q0 -27 12 -42t36 -15q20 0 44 7t46 17v-157q-37 -20 -79.5 -30.5t-80.5 -10.5z" />
    <glyph glyph-name="kappa" unicode="&#x3ba;" horiz-adv-x="797" 
d="M-6 0l236 1106h196l-58 -266q-12 -48 -25 -104t-32 -120h5l363 490h214l-342 -455l128 -651h-210l-88 490l-116 -123l-75 -367h-196z" />
    <glyph glyph-name="lambda" unicode="&#x3bb;" horiz-adv-x="801" 
d="M613 -20q-80 0 -123 32.5t-59.5 92.5t-17.5 142l4 345q1 46 1.5 89.5t1.5 88.5q-5 -16 -10.5 -34t-11 -35.5t-12 -34t-13.5 -32.5l-277 -634h-203l505 1084l2 197q-1 68 -20 95t-58 27q-16 0 -30 -3t-34 -11v164q24 7 60.5 12.5t67.5 5.5q83 0 127.5 -36t62.5 -102
t20 -157l7 -1004q0 -42 6.5 -67.5t19.5 -36.5t34 -11q15 0 29 2.5t32 8.5v-172q-22 -6 -55 -11t-56 -5z" />
    <glyph glyph-name="uni03BC" unicode="&#x3bc;" horiz-adv-x="880" 
d="M-112 -492l339 1598h195l-144 -683q-10 -46 -15.5 -84t-5.5 -68q0 -55 19.5 -83.5t60.5 -28.5q50 0 90 34t72.5 110t58.5 203l129 600h194l-233 -1106h-154l5 125h-4q-27 -52 -58.5 -84t-65.5 -46.5t-71 -14.5q-40 0 -67 19t-44 53h-4q-1 -24 -3 -49.5t-6 -51t-9 -52.5
l-84 -391h-195z" />
    <glyph glyph-name="nu" unicode="&#x3bd;" horiz-adv-x="786" 
d="M130 0l2 1106h200l-9 -616q-1 -62 -3 -124.5t-5 -118.5q74 109 136 243t112.5 288.5t86.5 327.5h203q-44 -207 -114.5 -397t-171 -366t-237.5 -343h-200z" />
    <glyph glyph-name="xi" unicode="&#x3be;" horiz-adv-x="697" 
d="M140 -397q36 39 75.5 91.5t67.5 107.5t27 101q-1 43 -25 70t-72 55q-59 34 -99 76t-61 100t-21 140q0 108 35 206t105.5 170t178.5 100l2 7q-69 28 -99.5 81t-30.5 127q0 59 17.5 115.5t51 105.5t81.5 85.5t108 54.5q-35 -4 -65.5 -6t-58.5 -2h-83l36 168h527l-36 -164
h-67q-57 0 -104.5 -18.5t-85.5 -51t-64.5 -75.5t-40.5 -92.5t-14 -102.5q0 -78 38 -115t117 -37h81l-36 -170h-89q-94 0 -160 -45t-101 -124t-35 -181q0 -57 16 -92.5t46.5 -61t74.5 -54.5q42 -23 73 -50.5t47.5 -65.5t16.5 -93q0 -61 -20.5 -121.5t-58.5 -120t-92 -118.5
h-203z" />
    <glyph glyph-name="omicron" unicode="&#x3bf;" horiz-adv-x="866" 
d="M331 -20q-89 0 -152.5 40t-97 117.5t-33.5 187.5q0 85 16.5 190.5t51.5 213t92.5 197.5t139.5 145.5t190 55.5q89 0 151.5 -41.5t96 -119t33.5 -188.5q0 -99 -18 -209t-55.5 -214.5t-95.5 -189t-137.5 -135t-181.5 -50.5zM353 149q51 0 93 42.5t74 112.5t54.5 154.5
t34 168.5t11.5 154q0 56 -11.5 96t-35.5 60.5t-60 20.5q-54 0 -97 -45.5t-75 -119t-53 -159t-31.5 -168t-10.5 -143.5q0 -84 27 -129t80 -45z" />
    <glyph glyph-name="pi" unicode="&#x3c0;" horiz-adv-x="947" 
d="M663 -14q-83 0 -130 45.5t-47 138.5q0 31 5.5 69.5t13.5 77.5l132 622h-217l-201 -939h-195l201 939h-147l19 87l121 80h792l-35 -167h-142l-137 -641q-4 -21 -6.5 -40.5t-2.5 -40.5q0 -28 13 -42t40 -14q19 0 37.5 6t33.5 12v-157q-32 -18 -72 -27t-76 -9z" />
    <glyph glyph-name="rho" unicode="&#x3c1;" horiz-adv-x="883" 
d="M-108 -492l232 1106q36 172 88 285.5t133 170.5t203 57q98 0 163.5 -41.5t99 -118t33.5 -183.5q0 -91 -17.5 -199t-52 -214.5t-87.5 -195t-124 -142t-162 -53.5q-70 0 -121 23t-83 62q-3 -34 -11 -74t-16 -78l-84 -405h-194zM370 152q55 0 98.5 45t76 117t54 157t32 167
t10.5 143q0 86 -28.5 130.5t-81.5 44.5q-52 0 -90.5 -36.5t-68.5 -118.5t-58 -219l-73 -346q18 -35 50.5 -59.5t78.5 -24.5z" />
    <glyph glyph-name="uni03C2" unicode="&#x3c2;" horiz-adv-x="690" 
d="M163 -397q50 59 84 107.5t51.5 90.5t17.5 79q0 31 -12 56t-35.5 48.5t-58.5 48.5q-61 44 -96.5 89t-51 104t-16.5 145q0 94 19 198t57.5 203t98 179.5t140.5 128t184 47.5q63 0 117 -14.5t97 -43.5l-77 -156q-29 18 -62 29.5t-64 11.5q-59 0 -107 -39t-84.5 -102
t-61 -137.5t-37.5 -147t-13 -129.5q0 -59 15 -100t43 -71.5t67 -61.5q44 -31 78.5 -63.5t54.5 -74t20 -100.5q0 -49 -18.5 -102t-54.5 -109t-91 -114h-204z" />
    <glyph glyph-name="sigma" unicode="&#x3c3;" horiz-adv-x="903" 
d="M334 -20q-134 0 -209.5 91.5t-75.5 255.5q0 100 18.5 208.5t59 210t104.5 183t155.5 129.5t211.5 48h377l-35 -168h-174q17 -42 27.5 -94.5t10.5 -119.5q0 -94 -19 -197t-56.5 -200t-94 -175.5t-131.5 -125t-169 -46.5zM356 148q52 0 93.5 41.5t72 110t50.5 152.5t30 171
t10 164q0 47 -2.5 85t-7.5 66h-34q-85 0 -145.5 -59.5t-99 -153t-57 -199.5t-18.5 -199q0 -87 26.5 -133t81.5 -46z" />
    <glyph glyph-name="tau" unicode="&#x3c4;" horiz-adv-x="623" 
d="M307 -23q-94 0 -146 51.5t-52 148.5q0 34 5.5 76t17.5 92l127 593h-188l19 87l121 81h498l-36 -168h-218l-130 -617q-6 -28 -10 -50.5t-4 -45.5q0 -35 17.5 -54t50.5 -19q22 0 46.5 7.5t46.5 16.5v-157q-37 -21 -81 -31.5t-84 -10.5z" />
    <glyph glyph-name="upsilon" unicode="&#x3c5;" horiz-adv-x="880" 
d="M322 -18q-137 0 -201 69.5t-64 195.5q0 47 9.5 110t22.5 133l133 616h196l-137 -645q-12 -50 -19.5 -99t-7.5 -87q0 -58 23.5 -88t65.5 -30q56 0 100 46.5t77 126t56.5 179t38.5 206t22.5 208t9.5 183.5h194q-2 -150 -17 -307.5t-49.5 -303.5t-93.5 -261.5t-147 -183.5
t-212 -68z" />
    <glyph glyph-name="phi" unicode="&#x3c6;" horiz-adv-x="1166" 
d="M256 -492l101 478q-88 11 -157.5 56.5t-109.5 129.5t-40 210q0 130 37 260.5t106 253t167 227.5l138 -96q-72 -85 -128 -188.5t-88 -218t-32 -234.5q0 -68 17 -116.5t49.5 -77t77.5 -37.5l131 626q34 159 111.5 252.5t218.5 93.5q122 0 192.5 -84t70.5 -250
q0 -112 -23.5 -225t-70 -215.5t-115.5 -183.5t-159 -130t-201 -54l-101 -477h-192zM586 154q77 11 133 59.5t94.5 120t62 154t34 163.5t10.5 146q0 78 -22 119t-61 41q-42 0 -71 -41t-51 -154z" />
    <glyph glyph-name="chi" unicode="&#x3c7;" horiz-adv-x="770" 
d="M-247 -492l482 860l-10 458q-1 61 -14.5 92t-48.5 31q-18 0 -36 -4.5t-34 -9.5l22 171q21 8 54.5 11.5t64.5 3.5q97 0 137.5 -61t45.5 -171l-1 -247l233 464h211l-428 -772l12 -532q1 -63 14.5 -91t44.5 -28q16 0 37 6t37 14v-165q-34 -14 -72.5 -22t-73.5 -8
q-59 0 -97.5 26t-58 83t-23.5 149l-1 308l-287 -566h-210z" />
    <glyph glyph-name="psi" unicode="&#x3c8;" horiz-adv-x="1125" 
d="M241 -492l102 475q-142 16 -214.5 99t-72.5 230q0 49 8.5 108.5t21.5 127.5l120 558h197l-125 -586q-13 -55 -20.5 -103.5t-7.5 -92.5q0 -81 31 -120t98 -46l298 1400h191l-295 -1398q78 0 134.5 63t94 167.5t59 230t31 252.5t10.5 233h192q-2 -151 -15.5 -309
t-48.5 -303t-97.5 -260t-160 -182.5t-238.5 -69.5l-100 -474h-193z" />
    <glyph glyph-name="omega" unicode="&#x3c9;" horiz-adv-x="1121" 
d="M240 -20q-105 0 -156.5 78.5t-51.5 221.5q0 126 32.5 270.5t87.5 288t122 267.5h197q-69 -136 -123.5 -280.5t-86.5 -284t-32 -259.5q0 -62 18 -91t47 -29q56 0 87 74t64 235l55 260h192l-56 -260q-10 -50 -17 -89t-10.5 -69.5t-3.5 -56.5q0 -47 14 -70.5t42 -23.5
q45 0 80.5 53.5t62.5 140t44.5 187t26.5 196.5t9 166q0 64 -2.5 112.5t-6.5 88.5h198q3 -37 5 -86t2 -117q0 -105 -13.5 -229t-44 -246.5t-80 -223.5t-121.5 -162.5t-168 -61.5q-66 0 -105.5 24.5t-56.5 64.5t-18 86q-40 -85 -97.5 -130t-135.5 -45z" />
    <glyph glyph-name="iotadieresis" unicode="&#x3ca;" horiz-adv-x="506" 
d="M221 -20q-87 0 -132.5 47.5t-45.5 134.5q0 27 5.5 66t13.5 78l170 800h196l-174 -819q-5 -21 -8 -39.5t-3 -36.5q0 -27 12 -42t36 -15q20 0 44 7t46 17v-157q-37 -20 -79.5 -30.5t-80.5 -10.5zM516 1285q-41 0 -62.5 21.5t-21.5 62.5q0 58 33 102.5t93 44.5
q38 0 59 -20.5t21 -59.5q0 -66 -35 -108.5t-87 -42.5zM192 1285q-41 0 -62.5 21.5t-21.5 62.5q0 58 33 102.5t93 44.5q25 0 42 -9t26 -26.5t9 -44.5q0 -66 -34 -108.5t-85 -42.5z" />
    <glyph glyph-name="upsilondieresis" unicode="&#x3cb;" horiz-adv-x="880" 
d="M322 -18q-137 0 -201 69.5t-64 195.5q0 47 9.5 110t22.5 133l133 616h196l-137 -645q-12 -50 -19.5 -99t-7.5 -87q0 -58 23.5 -88t65.5 -30q56 0 100 46.5t77 126t56.5 179t38.5 206t22.5 208t9.5 183.5h194q-2 -150 -17 -307.5t-49.5 -303.5t-93.5 -261.5t-147 -183.5
t-212 -68zM716 1285q-41 0 -62.5 21.5t-21.5 62.5q0 58 33 102.5t93 44.5q38 0 59 -20.5t21 -59.5q0 -66 -35 -108.5t-87 -42.5zM392 1285q-41 0 -62.5 21.5t-21.5 62.5q0 58 33 102.5t93 44.5q25 0 42 -9t26 -26.5t9 -44.5q0 -66 -34 -108.5t-85 -42.5z" />
    <glyph glyph-name="omicrontonos" unicode="&#x3cc;" horiz-adv-x="866" 
d="M331 -20q-89 0 -152.5 40t-97 117.5t-33.5 187.5q0 85 16.5 190.5t51.5 213t92.5 197.5t139.5 145.5t190 55.5q89 0 151.5 -41.5t96 -119t33.5 -188.5q0 -99 -18 -209t-55.5 -214.5t-95.5 -189t-137.5 -135t-181.5 -50.5zM353 149q51 0 93 42.5t74 112.5t54.5 154.5
t34 168.5t11.5 154q0 56 -11.5 96t-35.5 60.5t-60 20.5q-54 0 -97 -45.5t-75 -119t-53 -159t-31.5 -168t-10.5 -143.5q0 -84 27 -129t80 -45zM459 1241l6 25q15 27 36 70t42.5 91.5t40 92t29.5 70.5h189l-4 -20q-16 -27 -44 -71t-60.5 -94t-62.5 -93.5t-50 -70.5h-122z" />
    <glyph glyph-name="upsilontonos" unicode="&#x3cd;" horiz-adv-x="880" 
d="M322 -18q-137 0 -201 69.5t-64 195.5q0 47 9.5 110t22.5 133l133 616h196l-137 -645q-12 -50 -19.5 -99t-7.5 -87q0 -58 23.5 -88t65.5 -30q56 0 100 46.5t77 126t56.5 179t38.5 206t22.5 208t9.5 183.5h194q-2 -150 -17 -307.5t-49.5 -303.5t-93.5 -261.5t-147 -183.5
t-212 -68zM466 1241l6 25q15 27 36 70t42.5 91.5t40 92t29.5 70.5h189l-4 -20q-16 -27 -44 -71t-60.5 -94t-62.5 -93.5t-50 -70.5h-122z" />
    <glyph glyph-name="omegatonos" unicode="&#x3ce;" horiz-adv-x="1121" 
d="M240 -20q-105 0 -156.5 78.5t-51.5 221.5q0 126 32.5 270.5t87.5 288t122 267.5h197q-69 -136 -123.5 -280.5t-86.5 -284t-32 -259.5q0 -62 18 -91t47 -29q56 0 87 74t64 235l55 260h192l-56 -260q-10 -50 -17 -89t-10.5 -69.5t-3.5 -56.5q0 -47 14 -70.5t42 -23.5
q45 0 80.5 53.5t62.5 140t44.5 187t26.5 196.5t9 166q0 64 -2.5 112.5t-6.5 88.5h198q3 -37 5 -86t2 -117q0 -105 -13.5 -229t-44 -246.5t-80 -223.5t-121.5 -162.5t-168 -61.5q-66 0 -105.5 24.5t-56.5 64.5t-18 86q-40 -85 -97.5 -130t-135.5 -45zM593 1241l6 25
q15 27 36 70t42.5 91.5t40 92t29.5 70.5h189l-4 -20q-16 -27 -44 -71t-60.5 -94t-62.5 -93.5t-50 -70.5h-122z" />
    <glyph glyph-name="uni03D1" unicode="&#x3d1;" horiz-adv-x="979" 
d="M333 -20q-74 0 -136 21.5t-100 71.5t-38 136q0 59 15.5 117.5t33.5 115.5q16 48 28.5 90t12.5 75q0 25 -10.5 38t-29.5 13q-14 0 -31.5 -4.5t-37.5 -15.5v168q26 11 66.5 19t80.5 8q71 0 117.5 -41.5t46.5 -123.5q0 -41 -13.5 -90.5t-31.5 -101.5q-18 -60 -32.5 -118.5
t-14.5 -111.5q0 -49 21.5 -75.5t67.5 -26.5q42 0 80 25.5t73.5 76.5t68.5 129t62.5 183.5t56.5 239.5q-125 1 -214.5 46.5t-137 130t-47.5 204.5q0 102 39 193.5t115 149t189 57.5q109 0 175 -45t96 -131.5t30 -208.5q0 -55 -4.5 -109.5t-11.5 -118.5h112l-37 -169h-107
q-34 -169 -74.5 -301t-89.5 -229t-108 -161t-129 -95t-152 -31zM720 966q10 65 14.5 120t4.5 102q0 99 -23.5 163.5t-87.5 64.5q-45 0 -76.5 -36t-47.5 -89.5t-16 -107.5q0 -74 28 -121.5t80 -70.5t124 -25z" />
    <glyph glyph-name="uni03D2" unicode="&#x3d2;" horiz-adv-x="786" 
d="M165 0l118 561l-105 901h209l49 -630q37 83 73.5 160t71 145t66.5 124.5t61 98.5q38 59 77.5 87t98.5 28q31 0 57.5 -6t44.5 -16l-31 -172q-12 6 -23.5 9.5t-24.5 3.5q-32 0 -58.5 -29t-69.5 -103q-33 -60 -67.5 -129.5t-71.5 -146.5t-75 -160.5t-78 -171.5l-118 -554
h-204z" />
    <glyph glyph-name="uni03D6" unicode="&#x3d6;" horiz-adv-x="1193" 
d="M272 -20q-105 0 -156.5 78.5t-51.5 221.5q0 102 23.5 217.5t61.5 230t82 210.5h-150l19 87l124 81h1057l-37 -168h-143q2 -26 3.5 -53.5t1.5 -59.5q0 -104 -16.5 -220t-49 -226.5t-82.5 -200.5t-118 -144t-155 -54q-86 0 -131.5 46.5t-45.5 139.5q-43 -94 -98 -140
t-138 -46zM326 162q43 0 69.5 42t45.5 112t37 155l41 194h192l-41 -194q-10 -50 -17.5 -89t-11.5 -69.5t-4 -56.5q0 -47 15 -70.5t43 -23.5q41 0 75 47t60 124t44 166t27.5 175.5t9.5 151.5q0 27 -1 55t-3 57h-475q-47 -105 -85.5 -218.5t-61 -225t-22.5 -212.5
q0 -62 17 -91t46 -29z" />
    <glyph glyph-name="uni0400" unicode="&#x400;" horiz-adv-x="776" 
d="M-2 0l310 1462h561l-38 -179h-357l-91 -431h333l-39 -180h-333l-105 -491h359l-38 -181h-562zM563 1600q-26 36 -62.5 92.5t-68.5 115.5t-49 101v18h223q12 -46 25.5 -95.5t30.5 -101.5t38 -107l-3 -23h-134z" />
    <glyph glyph-name="uni0401" unicode="&#x401;" horiz-adv-x="776" 
d="M-2 0l310 1462h561l-38 -179h-357l-91 -431h333l-39 -180h-333l-105 -491h359l-38 -181h-562zM769 1623q-41 0 -62.5 21.5t-21.5 62.5q0 58 33 102.5t93 44.5q38 0 59 -20.5t21 -59.5q0 -66 -35 -108.5t-87 -42.5zM445 1623q-41 0 -62.5 21.5t-21.5 62.5q0 58 33 102.5
t93 44.5q25 0 42 -9t26 -26.5t9 -44.5q0 -66 -34 -108.5t-85 -42.5z" />
    <glyph glyph-name="uni0402" unicode="&#x402;" horiz-adv-x="989" 
d="M534 -20q-33 0 -69 6t-65 17l36 176q18 -10 38.5 -14.5t39.5 -4.5q41 0 65.5 23t38.5 62t24 86l47 214q4 20 7 43t3 40q0 51 -29 75t-93 24h-106l-156 -727h-204l272 1280h-219l39 182h664l-39 -182h-241l-78 -369h113q141 0 211 -63.5t70 -179.5q0 -28 -4.5 -65
t-12.5 -73l-53 -258q-20 -95 -57 -160t-96 -98.5t-146 -33.5z" />
    <glyph glyph-name="uni0403" unicode="&#x403;" horiz-adv-x="705" 
d="M-2 0l310 1462h551l-38 -181h-348l-271 -1281h-204zM449 1599l2 20q45 53 85.5 106t75 104.5t62.5 97.5h228l-2 -17q-22 -28 -63 -71t-88.5 -90t-91.5 -87t-73 -63h-135z" />
    <glyph glyph-name="uni0404" unicode="&#x404;" horiz-adv-x="873" 
d="M426 -20q-119 0 -197.5 54.5t-116.5 161.5t-38 264q0 136 28.5 279.5t83 276.5t133.5 238.5t180.5 167.5t224.5 62q84 0 153 -20t119 -59l-102 -165q-39 32 -80 47t-87 15q-74 0 -134.5 -41.5t-108 -109t-81.5 -147t-55 -155.5h384l-40 -181h-386q-8 -53 -13 -105t-5 -98
q0 -97 16.5 -164.5t57.5 -103t111 -35.5q31 0 67.5 8t75 22t74.5 31v-183q-38 -19 -85.5 -32t-94.5 -20.5t-84 -7.5z" />
    <glyph glyph-name="uni0405" unicode="&#x405;" horiz-adv-x="798" 
d="M251 -20q-94 0 -168.5 18t-127.5 55l35 213q53 -39 123 -66t142 -27q48 0 89 15t71.5 44.5t47.5 74t17 103.5q0 49 -12 88.5t-43 82t-90 100.5q-56 55 -96 108.5t-60.5 116.5t-20.5 146q0 96 29.5 175t85.5 136.5t136.5 88.5t183.5 31q75 0 154.5 -22.5t133.5 -61.5
l-95 -186q-50 37 -102.5 58.5t-103.5 21.5q-44 0 -81.5 -14.5t-66 -42.5t-44.5 -69t-16 -93q0 -51 16.5 -92.5t52.5 -84.5t93 -99q56 -52 91.5 -106t52.5 -117.5t17 -143.5q0 -95 -28.5 -177t-84.5 -143.5t-139 -96t-192 -34.5z" />
    <glyph glyph-name="uni0406" unicode="&#x406;" horiz-adv-x="458" 
d="M-3 0l311 1462h202l-309 -1462h-204z" />
    <glyph glyph-name="uni0407" unicode="&#x407;" horiz-adv-x="458" 
d="M-3 0l311 1462h202l-309 -1462h-204zM611 1666q-41 0 -62.5 21.5t-21.5 62.5q0 58 33 102.5t93 44.5q38 0 59 -20.5t21 -59.5q0 -66 -35 -108.5t-87 -42.5zM287 1666q-41 0 -62.5 21.5t-21.5 62.5q0 58 33 102.5t93 44.5q25 0 42 -9t26 -26.5t9 -44.5q0 -66 -34 -108.5
t-85 -42.5z" />
    <glyph glyph-name="uni0408" unicode="&#x408;" horiz-adv-x="448" 
d="M-157 -407q-49 0 -84.5 6t-64.5 18l43 180q24 -11 48.5 -17.5t49.5 -6.5q50 0 82 33t52.5 89.5t35.5 126.5l304 1440h204l-311 -1474q-30 -139 -79.5 -226.5t-119 -128t-160.5 -40.5z" />
    <glyph glyph-name="uni0409" unicode="&#x409;" horiz-adv-x="1372" 
d="M-14 -14q-25 0 -50.5 4t-47.5 12v181q20 -9 39.5 -13.5t36.5 -4.5q32 0 57.5 14.5t50.5 58t55 128.5q27 68 62.5 175t78 248t92 310.5t104.5 362.5h564l-126 -593h45q112 0 188.5 -37t115.5 -110t39 -182q0 -101 -28 -197.5t-87.5 -173.5t-155 -123t-229.5 -46h-274
l268 1270h-181q-39 -138 -82 -285t-85 -283.5t-78 -243.5t-59 -165q-43 -116 -86.5 -183t-97 -95.5t-129.5 -28.5zM755 179h70q66 0 114 27.5t79.5 75.5t46.5 110.5t15 133.5q0 87 -43.5 125.5t-132.5 38.5h-40z" />
    <glyph glyph-name="uni040A" unicode="&#x40a;" horiz-adv-x="1347" 
d="M-1 0l309 1462h204l-128 -599h290l128 599h204l-125 -593h38q113 0 190 -38t116.5 -111.5t39.5 -182.5q0 -113 -31.5 -210.5t-94.5 -170.5t-157 -114.5t-221 -41.5h-267l144 683h-292l-143 -683h-204zM736 179h66q80 0 136.5 43t86.5 121t30 181q0 87 -46 126.5
t-138 39.5h-26z" />
    <glyph glyph-name="uni040B" unicode="&#x40b;" horiz-adv-x="1005" 
d="M119 0l272 1280h-219l37 182h664l-37 -182h-241l-79 -369h114q140 0 207 -65.5t67 -173.5q0 -40 -6 -81t-13 -76l-110 -515h-203l118 545q4 22 6.5 45t2.5 41q0 52 -29 74t-89 22h-103l-155 -727h-204z" />
    <glyph glyph-name="uni040C" unicode="&#x40c;" horiz-adv-x="875" 
d="M-1 0l309 1462h204l-149 -702l470 702h224l-497 -713l198 -749h-217l-181 745l-157 -745h-204zM545 1599l2 20q45 53 85.5 106t75 104.5t62.5 97.5h228l-2 -17q-22 -28 -63 -71t-88.5 -90t-91.5 -87t-73 -63h-135z" />
    <glyph glyph-name="uni040D" unicode="&#x40d;" horiz-adv-x="1104" 
d="M-2 0l310 1462h199l-132 -619q-15 -71 -31.5 -147.5t-34.5 -153t-39 -149.5h7l644 1069h240l-310 -1462h-199l129 612q17 75 36 160.5t39 166t38 141.5h-7l-647 -1080h-242zM719 1600q-26 36 -62.5 92.5t-68.5 115.5t-49 101v18h223q12 -46 25.5 -95.5t30.5 -101.5
t38 -107l-3 -23h-134z" />
    <glyph glyph-name="uni040E" unicode="&#x40e;" horiz-adv-x="792" 
d="M65 -18q-45 0 -76 6.5t-57 17.5v181q24 -14 56.5 -20.5t56.5 -6.5q33 0 58.5 12.5t48.5 42t49 80.5t61 129l-82 1038h209l28 -550q2 -32 4 -74.5t3.5 -82.5t2.5 -65q20 52 44 111t51 121l242 540h216l-536 -1126q-48 -102 -102 -182t-121 -126t-156 -46zM605 1593
q-87 0 -142 28.5t-82 81t-27 123.5q0 17 2.5 40.5t5.5 44.5h160q-3 -19 -5 -40t-2 -40q0 -54 24.5 -83t76.5 -29q64 0 102.5 49t58.5 143h162q-23 -110 -68.5 -180.5t-112 -104t-153.5 -33.5z" />
    <glyph glyph-name="uni040F" unicode="&#x40f;" horiz-adv-x="1012" 
d="M194 -405l84 405h-278l310 1462h204l-274 -1281h353l272 1281h204l-310 -1462h-280l-87 -405h-198z" />
    <glyph glyph-name="uni0410" unicode="&#x410;" horiz-adv-x="887" 
d="M-130 0l617 1468h259l10 -1468h-214l4 426h-282l-171 -426h-223zM333 607h222l10 484q1 50 3 94.5t6 86.5h-6q-8 -40 -21.5 -83.5t-31.5 -94.5z" />
    <glyph glyph-name="uni0411" unicode="&#x411;" horiz-adv-x="868" 
d="M-1 0l309 1462h607l-38 -183h-403l-88 -410h60q113 0 189.5 -37.5t116 -111t39.5 -183.5q0 -111 -31 -208.5t-93.5 -171t-157.5 -115.5t-223 -42h-287zM239 179h89q79 0 135.5 43t86.5 121t30 181q0 87 -47.5 126.5t-137.5 39.5h-47z" />
    <glyph glyph-name="uni0412" unicode="&#x412;" horiz-adv-x="921" 
d="M-2 0l309 1462h299q92 0 167 -31t120 -95t45 -165q0 -90 -29 -172.5t-90 -143t-156 -87.5v-7q76 -24 117 -96.5t41 -170.5q0 -133 -53.5 -245.5t-158 -180.5t-259.5 -68h-352zM240 177h111q90 0 147.5 45t84.5 119t27 161q0 88 -41.5 131.5t-115.5 43.5h-108zM381 847
h102q77 0 130 41.5t81 108.5t28 142q0 74 -38 111.5t-117 37.5h-92z" />
    <glyph glyph-name="uni0413" unicode="&#x413;" horiz-adv-x="705" 
d="M-2 0l310 1462h551l-38 -181h-348l-271 -1281h-204z" />
    <glyph glyph-name="uni0414" unicode="&#x414;" horiz-adv-x="1015" 
d="M-195 -405l125 586h82q72 129 140 277.5t129.5 312t114 338t93.5 353.5h563l-274 -1281h125l-125 -586h-200l87 405h-574l-86 -405h-200zM228 181h348l235 1103h-172q-37 -151 -85 -303t-102 -296t-111 -272t-113 -232z" />
    <glyph glyph-name="uni0415" unicode="&#x415;" horiz-adv-x="776" 
d="M-2 0l310 1462h561l-38 -179h-357l-91 -431h333l-39 -180h-333l-105 -491h359l-38 -181h-562z" />
    <glyph glyph-name="uni0416" unicode="&#x416;" horiz-adv-x="1250" 
d="M-137 0l497 767l-186 695h209l174 -702l148 702h200l-150 -701l457 701h221l-484 -712l179 -750h-215l-161 747l-158 -747h-198l158 747l-466 -747h-225z" />
    <glyph glyph-name="uni0417" unicode="&#x417;" horiz-adv-x="841" 
d="M240 -20q-94 0 -160.5 14.5t-117.5 42.5v208q50 -40 118 -61.5t146 -21.5q73 0 127.5 22.5t90.5 64t54 98t18 123.5q0 104 -53.5 152t-154.5 48h-116l39 181h115q95 0 161 39.5t100.5 107.5t34.5 153q0 69 -39.5 110t-115.5 41q-70 0 -123 -25.5t-104 -66.5l-74 149
q79 60 164 92t188 32q97 0 166 -36t106.5 -103.5t38.5 -162.5q0 -105 -38.5 -191t-110 -144t-169.5 -79l-2 -6q55 -15 99.5 -52t70.5 -98t26 -148q0 -104 -34 -192t-97.5 -153t-153.5 -101.5t-200 -36.5z" />
    <glyph glyph-name="uni0418" unicode="&#x418;" horiz-adv-x="1104" 
d="M-2 0l310 1462h199l-132 -619q-15 -71 -31.5 -147.5t-34.5 -153t-39 -149.5h7l644 1069h240l-310 -1462h-199l129 612q17 75 36 160.5t39 166t38 141.5h-7l-647 -1080h-242z" />
    <glyph glyph-name="uni0419" unicode="&#x419;" horiz-adv-x="1104" 
d="M-2 0l310 1462h199l-132 -619q-15 -71 -31.5 -147.5t-34.5 -153t-39 -149.5h7l644 1069h240l-310 -1462h-199l129 612q17 75 36 160.5t39 166t38 141.5h-7l-647 -1080h-242zM758 1593q-87 0 -142 28.5t-82 81t-27 123.5q0 17 2.5 40.5t5.5 44.5h160q-3 -19 -5 -40t-2 -40
q0 -54 24.5 -83t76.5 -29q64 0 102.5 49t58.5 143h162q-23 -110 -68.5 -180.5t-112 -104t-153.5 -33.5z" />
    <glyph glyph-name="uni041A" unicode="&#x41a;" horiz-adv-x="875" 
d="M-1 0l309 1462h204l-149 -702l470 702h224l-497 -713l198 -749h-217l-181 745l-157 -745h-204z" />
    <glyph glyph-name="uni041B" unicode="&#x41b;" horiz-adv-x="987" 
d="M-4 -14q-26 0 -53.5 4t-48.5 12v181q19 -9 40 -13.5t40 -4.5q28 0 52 14.5t47 48.5t45 92q26 71 65.5 193t87 278t99 328.5t101.5 342.5h590l-311 -1462h-204l271 1270h-209q-28 -99 -61.5 -216t-69.5 -238t-71.5 -233.5t-67.5 -205.5t-56 -152q-37 -83 -76.5 -136
t-89.5 -78t-120 -25z" />
    <glyph glyph-name="uni041C" unicode="&#x41c;" horiz-adv-x="1369" 
d="M-2 0l310 1462h276l39 -1115h5l499 1115h296l-311 -1462h-200l195 916q6 30 13.5 59t15 59.5t15.5 61.5h-4l-499 -1096h-188l-39 1092h-5q-8 -42 -14 -79.5t-12 -72t-14 -68.5l-184 -872h-194z" />
    <glyph glyph-name="uni041D" unicode="&#x41d;" horiz-adv-x="1027" 
d="M-2 0l310 1462h204l-129 -606h366l129 606h204l-311 -1462h-204l142 673h-365l-142 -673h-204z" />
    <glyph glyph-name="uni041E" unicode="&#x41e;" horiz-adv-x="1051" 
d="M415 -20q-115 0 -191 48t-114 147t-38 251q0 111 17.5 231.5t51.5 239.5t85.5 224.5t120 187.5t154.5 128.5t189 46.5q174 0 256 -107.5t82 -325.5q0 -97 -15 -212.5t-46.5 -236t-80.5 -231.5t-116.5 -199t-156 -140t-198.5 -52zM431 164q65 0 118.5 44t96.5 118.5
t75.5 168.5t54 194t32 195t10.5 171q0 126 -36.5 186.5t-109.5 60.5q-68 0 -123.5 -46t-98 -123.5t-74 -172.5t-52 -194t-30 -188t-9.5 -154q0 -95 16.5 -152t49 -82.5t80.5 -25.5z" />
    <glyph glyph-name="uni041F" unicode="&#x41f;" horiz-adv-x="1012" 
d="M-2 0l310 1462h759l-309 -1462h-204l271 1280h-353l-270 -1280h-204z" />
    <glyph glyph-name="uni0420" unicode="&#x420;" horiz-adv-x="862" 
d="M-1 0l309 1462h251q117 0 194.5 -40t115.5 -113.5t38 -172.5q0 -117 -32 -222.5t-94.5 -186.5t-155.5 -127.5t-216 -46.5h-90l-116 -553h-204zM357 734h51q94 0 158 47.5t96.5 132.5t32.5 196q0 88 -42 130.5t-128 42.5h-51z" />
    <glyph glyph-name="uni0421" unicode="&#x421;" horiz-adv-x="831" 
d="M411 -20q-111 0 -186.5 54t-113.5 159.5t-38 258.5q0 127 26 268.5t77.5 277t128.5 245.5t179 175.5t229 65.5q75 0 142 -19t121 -60l-102 -165q-37 32 -76.5 47t-82.5 15q-88 0 -157 -61t-120 -159t-84.5 -212t-50 -221t-16.5 -184q0 -159 42.5 -231t132.5 -72
q50 0 102.5 15t107.5 40v-184q-61 -27 -129 -40t-132 -13z" />
    <glyph glyph-name="uni0422" unicode="&#x422;" horiz-adv-x="745" 
d="M139 0l272 1280h-248l40 182h700l-40 -182h-248l-272 -1280h-204z" />
    <glyph glyph-name="uni0423" unicode="&#x423;" horiz-adv-x="792" 
d="M65 -18q-45 0 -76 6.5t-57 17.5v181q24 -14 56.5 -20.5t56.5 -6.5q33 0 58.5 12.5t48.5 42t49 80.5t61 129l-82 1038h209l28 -550q2 -32 4 -74.5t3.5 -82.5t2.5 -65q20 52 44 111t51 121l242 540h216l-536 -1126q-48 -102 -102 -182t-121 -126t-156 -46z" />
    <glyph glyph-name="uni0424" unicode="&#x424;" horiz-adv-x="1225" 
d="M373 -20l49 225q-104 7 -179.5 52t-116.5 130.5t-41 212.5q0 141 37 266.5t109.5 222t179 153.5t244.5 61l38 180h198l-37 -180q103 -6 178.5 -53.5t116.5 -133.5t41 -206q0 -144 -39 -270.5t-112.5 -223.5t-179 -153t-239.5 -58l-49 -225h-198zM458 380l160 747
q-85 -1 -147 -48.5t-102 -125t-59.5 -167.5t-19.5 -178q0 -75 19.5 -125t57 -75t91.5 -28zM656 380q78 2 138.5 46.5t102.5 119.5t64 166.5t22 185.5q0 77 -20 127t-57.5 75.5t-90.5 26.5z" />
    <glyph glyph-name="uni0425" unicode="&#x425;" horiz-adv-x="821" 
d="M-120 0l448 761l-109 701h211l59 -498l262 498h218l-408 -714l118 -748h-219l-57 542l-305 -542h-218z" />
    <glyph glyph-name="uni0426" unicode="&#x426;" horiz-adv-x="1073" 
d="M619 -405l87 405h-702l311 1462h204l-273 -1281h360l272 1281h204l-272 -1281h135l-127 -586h-199z" />
    <glyph glyph-name="uni0427" unicode="&#x427;" horiz-adv-x="978" 
d="M511 0l122 580q-61 -33 -130 -57t-130 -24q-78 0 -130 29.5t-78 85t-26 131.5q0 35 5 76.5t14 80.5l120 560h204l-114 -535q-8 -37 -12 -65.5t-4 -54.5q0 -65 27.5 -95t81.5 -30t107.5 22.5t100.5 50.5l151 707h204l-309 -1462h-204z" />
    <glyph glyph-name="uni0428" unicode="&#x428;" horiz-adv-x="1441" 
d="M-2 0l310 1462h204l-274 -1281h294l273 1281h204l-273 -1281h292l272 1281h204l-310 -1462h-1196z" />
    <glyph glyph-name="uni0429" unicode="&#x429;" horiz-adv-x="1487" 
d="M1043 -405l88 405h-1133l310 1462h204l-274 -1281h294l273 1281h204l-273 -1281h292l274 1281h204l-274 -1281h137l-127 -586h-199z" />
    <glyph glyph-name="uni042A" unicode="&#x42a;" horiz-adv-x="1005" 
d="M130 0l270 1277h-250l39 185h456l-126 -593h60q113 0 189 -37t115 -110.5t39 -184.5q0 -110 -30.5 -207t-92 -171t-154.5 -116.5t-217 -42.5h-298zM373 179h87q81 0 137.5 43t86 121t29.5 181q0 87 -45.5 126.5t-128.5 39.5h-57z" />
    <glyph glyph-name="uni042B" unicode="&#x42b;" horiz-adv-x="1314" 
d="M-1 0l308 1462h204l-125 -593h64q112 0 188 -36.5t114.5 -109.5t38.5 -183q0 -103 -28.5 -199.5t-89 -173t-155 -122t-226.5 -45.5h-293zM239 179h85q67 0 115 27.5t79.5 75.5t47 110.5t15.5 133.5q0 86 -45 125t-136 39h-52zM851 0l311 1462h204l-311 -1462h-204z" />
    <glyph glyph-name="uni042C" unicode="&#x42c;" horiz-adv-x="872" 
d="M-1 0l308 1462h204l-125 -593h63q112 0 188 -37t115 -110t39 -182q0 -103 -28.5 -199.5t-89 -173t-155 -122t-226.5 -45.5h-293zM239 179h85q67 0 115 27.5t79.5 75.5t47 110.5t15.5 133.5q0 87 -46 125.5t-130 38.5h-57z" />
    <glyph glyph-name="uni042D" unicode="&#x42d;" horiz-adv-x="879" 
d="M214 -20q-77 0 -134.5 13.5t-104.5 39.5v189q37 -20 77 -33t80.5 -19.5t77.5 -6.5q91 0 164 57t128 169t89 278h-392l39 181h383q6 36 9.5 76t3.5 78q0 99 -21 165.5t-61.5 100.5t-99.5 34q-52 0 -100 -15.5t-106 -47.5l-54 161q69 41 141.5 62.5t151.5 21.5
q113 0 193 -54.5t122.5 -163t42.5 -271.5q0 -130 -22.5 -271.5t-70 -273.5t-122 -238.5t-177.5 -169t-237 -62.5z" />
    <glyph glyph-name="uni042E" unicode="&#x42e;" horiz-adv-x="1393" 
d="M793 -20q-104 0 -173.5 44.5t-103.5 138.5t-34 240q0 55 6.5 123.5t20.5 145.5h-165l-142 -672h-204l310 1462h204l-129 -608h161q29 118 74.5 230.5t108.5 203t146.5 143.5t189.5 53q150 0 230.5 -100.5t80.5 -313.5q0 -93 -15 -209t-45 -238.5t-77 -237t-111.5 -206
t-147 -145.5t-185.5 -54zM802 164q61 0 111.5 51t90.5 135.5t69.5 186t49 204.5t29.5 192t10 145q0 113 -30 168.5t-92 55.5q-59 0 -109 -49t-89.5 -130.5t-70 -180.5t-50.5 -201t-30 -191t-10 -150q0 -88 13.5 -140t41 -74t66.5 -22z" />
    <glyph glyph-name="uni042F" unicode="&#x42f;" horiz-adv-x="897" 
d="M-118 0l422 648q-65 36 -101.5 108.5t-36.5 179.5q0 111 32 206.5t95.5 167.5t158 112t219.5 40h279l-309 -1462h-204l125 595h-78l-373 -595h-229zM536 767h63l109 519h-71q-68 0 -117 -27.5t-81 -75.5t-47.5 -108t-15.5 -124q0 -90 41.5 -137t118.5 -47z" />
    <glyph glyph-name="uni0430" unicode="&#x430;" horiz-adv-x="894" 
d="M264 -20q-69 0 -118.5 37t-75 107.5t-25.5 169.5q0 91 17 202t51 222t87 203.5t124.5 149t163.5 56.5q46 0 82.5 -17.5t63.5 -53t42 -90.5h6l47 140h169l-235 -1106h-159l9 152h-5q-36 -52 -73 -91t-78.5 -60t-92.5 -21zM338 149q63 0 108 54t76.5 135.5t52.5 164.5
q24 98 34.5 169t10.5 131q0 72 -26.5 111.5t-75.5 39.5q-50 0 -92.5 -44t-75 -115.5t-55.5 -157t-35 -170t-12 -151.5q0 -84 22.5 -125.5t67.5 -41.5z" />
    <glyph glyph-name="uni0431" unicode="&#x431;" horiz-adv-x="858" 
d="M331 -20q-83 0 -146.5 36.5t-100 117t-36.5 213.5q0 107 16.5 243t54 278.5t101.5 271.5t159.5 225.5t227.5 137.5q29 10 66 19.5t81 18t95 16t108 13.5v-181q-57 -5 -108.5 -12t-101.5 -17t-104 -26q-82 -26 -141.5 -89.5t-100.5 -153t-70 -194.5h8q42 61 101.5 96
t123.5 35q73 0 125 -34.5t80 -105t28 -178.5q0 -123 -31 -251t-91 -236.5t-146 -175.5t-198 -67zM342 149q48 0 87.5 37t69.5 98.5t51 134t31.5 145t10.5 130.5q0 67 -19.5 118.5t-80.5 51.5q-35 0 -72.5 -23.5t-71.5 -63.5t-59 -90q-21 -100 -33 -188.5t-12 -162.5
q0 -62 11.5 -104t33 -62.5t53.5 -20.5z" />
    <glyph glyph-name="uni0432" unicode="&#x432;" horiz-adv-x="897" 
d="M364 -20q-93 0 -164.5 38t-112.5 116t-41 197q0 98 16.5 207t54 213.5t98.5 189t149.5 135.5t207.5 51q88 0 152.5 -29.5t100 -86.5t35.5 -139q0 -77 -28.5 -137.5t-84.5 -101.5t-139 -60l-2 -7q68 -14 112.5 -71.5t44.5 -159.5q0 -94 -45.5 -175t-134 -130.5
t-219.5 -49.5zM390 134q53 0 93 28t62.5 74t22.5 101q0 49 -17 84t-52.5 54.5t-90.5 19.5h-148q-6 -39 -10 -78t-4 -83q0 -112 38.5 -156t105.5 -44zM292 644h147q66 0 114.5 25t75.5 72t27 113q0 56 -26.5 87t-79.5 31q-63 0 -111.5 -40.5t-84.5 -114t-62 -173.5z" />
    <glyph glyph-name="uni0433" unicode="&#x433;" horiz-adv-x="692" 
d="M293 -20q-83 0 -148 26t-103 83t-40 150q0 74 19 132.5t54.5 105.5t84 85t106.5 70q61 36 108 70t74.5 74t27.5 95q0 45 -27.5 66.5t-72.5 21.5q-51 0 -94 -17t-80 -39l-49 147q61 37 124.5 57t132.5 20q87 0 146.5 -30.5t89.5 -86.5t30 -134q0 -69 -19 -123.5t-53.5 -98
t-80.5 -78.5t-101 -66q-81 -46 -128 -84t-66.5 -78t-19.5 -92q0 -54 34.5 -80.5t88.5 -26.5q36 0 72 8t71.5 23t68.5 33v-171q-57 -31 -121.5 -46.5t-128.5 -15.5z" />
    <glyph glyph-name="uni0434" unicode="&#x434;" horiz-adv-x="889" 
d="M349 -20q-98 0 -165 40.5t-101 116t-34 180.5q0 80 14.5 177.5t45.5 194.5t81.5 178.5t122.5 131t167 49.5q43 0 79 -12t63.5 -31.5t45.5 -41.5h4q4 36 4.5 74.5t0.5 69.5q0 158 -41.5 230.5t-128.5 72.5q-43 0 -87.5 -14.5t-91.5 -41.5l-45 157q59 32 126.5 48.5
t130.5 16.5q116 0 190 -59t109.5 -167.5t35.5 -259.5q0 -101 -10.5 -222t-34 -246t-62.5 -239.5t-97.5 -205.5t-138 -144t-183.5 -53zM358 143q52 0 94.5 42.5t75.5 113t56.5 155.5t38.5 172t21 160q-12 29 -33.5 51.5t-49 35t-59.5 12.5q-52 0 -93.5 -39.5t-71.5 -103.5
t-50 -140t-29.5 -151t-9.5 -134q0 -91 27 -132.5t83 -41.5z" />
    <glyph glyph-name="uni0435" unicode="&#x435;" horiz-adv-x="817" 
d="M352 -20q-95 0 -163.5 40.5t-105 118t-36.5 186.5q0 157 34.5 301t99.5 256.5t157 178t207 65.5q111 0 178 -62.5t67 -179.5q0 -93 -35.5 -167t-103 -125t-163.5 -78t-218 -27h-15q-6 -34 -10 -69.5t-4 -69.5q0 -109 39.5 -157.5t118.5 -48.5q60 0 110.5 15.5t115.5 52.5
v-158q-62 -39 -130 -55.5t-143 -16.5zM283 633h7q115 0 184.5 30.5t100.5 84t31 121.5q0 45 -21.5 71t-66.5 26q-48 0 -93 -41.5t-81 -116.5t-61 -175z" />
    <glyph glyph-name="uni0436" unicode="&#x436;" horiz-adv-x="1362" 
d="M-3 -17q-22 0 -43.5 2.5t-43.5 7.5l46 168q9 -4 19.5 -5.5t27.5 -1.5q60 0 106.5 44.5t80.5 116t55.5 155t31.5 163.5t10 139q0 95 -29.5 138.5t-86.5 43.5q-11 0 -24.5 -2.5t-26.5 -6.5v165q19 7 44 10.5t51 3.5q129 0 197.5 -83.5t68.5 -243.5q0 -36 -3 -74.5t-9 -78.5
h131l100 462h189l-99 -462h125q23 95 60 181.5t90.5 153.5t125.5 106t165 39q21 0 41.5 -2t41.5 -7l-47 -168q-8 4 -17.5 5t-24.5 1q-56 0 -102 -41.5t-80 -109.5t-57 -150t-35 -165t-12 -153q0 -92 29.5 -136.5t87.5 -44.5q14 0 27.5 2t27.5 6v-164q-21 -6 -46 -10t-52 -4
q-86 0 -146 37.5t-91 110.5t-31 179q0 40 3.5 83.5t9.5 88.5h-129l-101 -482h-190l102 482h-123q-30 -121 -73 -214.5t-99 -156.5t-124 -95.5t-149 -32.5z" />
    <glyph glyph-name="uni0437" unicode="&#x437;" horiz-adv-x="687" 
d="M211 -20q-74 0 -138.5 15t-113.5 45v185q56 -39 115.5 -58t115.5 -19q65 0 108 26.5t64.5 74t21.5 109.5q0 71 -35.5 108t-105.5 37h-88l33 152h77q56 0 99.5 25t68 68.5t24.5 96.5q0 59 -26.5 87.5t-77.5 28.5q-40 0 -78.5 -12.5t-81.5 -35.5l-51 145q68 41 130 55
t128 14q83 0 139.5 -29t85.5 -84.5t29 -134.5q0 -72 -25.5 -130t-72.5 -98.5t-112 -61.5l-2 -8q67 -20 103.5 -80t36.5 -149q0 -103 -44 -187.5t-127 -134.5t-200 -50z" />
    <glyph glyph-name="uni0438" unicode="&#x438;" horiz-adv-x="880" 
d="M256 -20q-67 0 -113.5 26.5t-70.5 76.5t-24 121q0 37 7 86t16 94l155 722h195l-144 -683q-11 -46 -17.5 -90t-6.5 -81q0 -44 19.5 -69.5t59.5 -25.5q56 0 98 43.5t74 124.5t55 193l126 588h195l-233 -1106h-157l11 138h-6q-31 -49 -68.5 -84.5t-80.5 -54.5t-90 -19z" />
    <glyph glyph-name="uni0439" unicode="&#x439;" horiz-adv-x="880" 
d="M256 -20q-67 0 -113.5 26.5t-70.5 76.5t-24 121q0 37 7 86t16 94l155 722h195l-144 -683q-11 -46 -17.5 -90t-6.5 -81q0 -44 19.5 -69.5t59.5 -25.5q56 0 98 43.5t74 124.5t55 193l126 588h195l-233 -1106h-157l11 138h-6q-31 -49 -68.5 -84.5t-80.5 -54.5t-90 -19z
M577 1234q-87 0 -142 28.5t-82 81t-27 123.5q0 17 2.5 40.5t5.5 44.5h160q-3 -19 -5 -40t-2 -40q0 -54 24.5 -83t76.5 -29q64 0 102.5 49t58.5 143h162q-23 -110 -68.5 -180.5t-112 -104t-153.5 -33.5z" />
    <glyph glyph-name="uni043A" unicode="&#x43a;" horiz-adv-x="794" 
d="M-5 0l235 1106h196l-111 -519l357 519h218l-385 -536l171 -570h-210l-157 560l-118 -560h-196z" />
    <glyph glyph-name="uni043B" unicode="&#x43b;" horiz-adv-x="850" 
d="M-6 -14q-30 0 -49.5 5t-40.5 14v171q14 -8 30 -11.5t33 -3.5q31 0 58.5 18.5t52 64t48 126t47.5 204.5q27 137 64 238.5t90.5 169.5t130 101.5t183.5 33.5q65 0 118.5 -5t115.5 -13l-232 -1099h-196l199 940q-10 2 -22 3t-26 1q-65 0 -109 -45t-76 -141t-66 -251
q-26 -123 -56 -219.5t-70 -163.5t-95.5 -102t-131.5 -36z" />
    <glyph glyph-name="uni043C" unicode="&#x43c;" horiz-adv-x="1109" 
d="M-6 0l236 1106h264l1 -796h4l338 796h273l-234 -1106h-188l122 567q14 60 26.5 116t26.5 115h-3l-348 -798h-156l-10 798h-2q-10 -53 -19 -103t-20 -104l-126 -591h-185z" />
    <glyph glyph-name="uni043D" unicode="&#x43d;" horiz-adv-x="888" 
d="M-6 0l236 1106h196l-95 -449h266l94 449h197l-235 -1106h-195l104 488h-268l-103 -488h-197z" />
    <glyph glyph-name="uni043E" unicode="&#x43e;" horiz-adv-x="866" 
d="M331 -20q-89 0 -152.5 40t-97 117.5t-33.5 187.5q0 85 16.5 190.5t51.5 213t92.5 197.5t139.5 145.5t190 55.5q89 0 151.5 -41.5t96 -119t33.5 -188.5q0 -99 -18 -209t-55.5 -214.5t-95.5 -189t-137.5 -135t-181.5 -50.5zM353 149q51 0 93 42.5t74 112.5t54.5 154.5
t34 168.5t11.5 154q0 56 -11.5 96t-35.5 60.5t-60 20.5q-54 0 -97 -45.5t-75 -119t-53 -159t-31.5 -168t-10.5 -143.5q0 -84 27 -129t80 -45z" />
    <glyph glyph-name="uni043F" unicode="&#x43f;" horiz-adv-x="878" 
d="M-7 0l235 1106h158l-15 -144h5q31 53 68 89.5t81 56t93 19.5q57 0 104.5 -22.5t76 -70.5t28.5 -128q0 -40 -8.5 -92t-19.5 -106l-150 -708h-196l142 669q10 50 18.5 99.5t8.5 87.5q0 44 -20 67.5t-61 23.5q-55 0 -97 -42.5t-73.5 -122.5t-55.5 -193l-124 -589h-198z" />
    <glyph glyph-name="uni0440" unicode="&#x440;" horiz-adv-x="886" 
d="M-105 -479l334 1585h161l-17 -156h7q38 60 77 99t82 58.5t91 19.5q69 0 117 -34.5t74 -104.5t26 -177q0 -95 -18 -207t-53 -222t-88.5 -201t-124.5 -146t-160 -55q-47 0 -84 18.5t-63 52.5t-39 80h-6q-7 -53 -16 -104t-18 -91l-89 -415h-193zM374 152q50 0 92 43.5
t75 115.5t56.5 157t35.5 170t12 154q0 86 -23 126.5t-68 40.5t-84 -34t-70 -91.5t-55 -128t-40 -144.5t-24.5 -140.5t-8.5 -115.5q0 -75 25.5 -114t76.5 -39z" />
    <glyph glyph-name="uni0441" unicode="&#x441;" horiz-adv-x="687" 
d="M325 -20q-89 0 -151 39.5t-93.5 115t-31.5 185.5q0 99 17.5 209.5t54.5 216.5t95 192t139.5 137.5t187.5 51.5q60 0 111 -14.5t96 -43.5l-80 -159q-28 20 -61.5 32t-65.5 12q-75 0 -130.5 -62t-91 -157.5t-53 -200t-17.5 -189.5q0 -66 13.5 -109t41 -64t67.5 -21t85.5 17
t94.5 50v-171q-42 -28 -102.5 -47.5t-125.5 -19.5z" />
    </font>
</defs>
</svg>
