<?xml version="1.0" standalone="no"?>
<!DOCTYPE svg PUBLIC "-//W3C//DTD SVG 1.1//EN" "http://www.w3.org/Graphics/SVG/1.1/DTD/svg11.dtd" >
<svg xmlns="http://www.w3.org/2000/svg" xmlns:xlink="http://www.w3.org/1999/xlink" version="1.1">
<metadata>
Created by FontForge 20170731 at Wed Feb 10 17:54:38 2021
 By Aleksey,,,
Copyright 2020 The Open Sans Project Authors (https://github.com/googlefonts/opensans)
</metadata>
<defs>
<font id="OpenSansSemiCondensed-Bold" horiz-adv-x="0" >
  <font-face 
    font-family="Open Sans SemiCondensed"
    font-weight="700"
    font-stretch="semi-condensed"
    units-per-em="2048"
    panose-1="0 0 0 0 0 0 0 0 0 0"
    ascent="1638"
    descent="-410"
    x-height="1119"
    cap-height="1462"
    bbox="-1196 -627 2410 2211"
    underline-thickness="50"
    underline-position="-175"
    unicode-range="U+000D-FFFD"
  />
<missing-glyph horiz-adv-x="1229" 
 />
    <glyph glyph-name="f_f" unicode="ff" horiz-adv-x="1403" 
d="M685 894h-222v-894h-286v894h-148v145l148 80v59q0 142 39 227.5t115.5 123.5t188.5 38q74 0 134.5 -12.5t114.5 -33.5l-67 -212q-32 10 -65 17t-72 7q-54 0 -78 -38t-24 -114v-62h222v-225zM1387 894h-222v-894h-286v894h-148v145l148 80v59q0 142 39 227.5t115.5 123.5
t188.5 38q74 0 134.5 -12.5t114.5 -33.5l-67 -212q-32 10 -65 17t-72 7q-54 0 -78 -38t-24 -114v-62h222v-225z" />
    <glyph glyph-name="fi" unicode="fi" horiz-adv-x="1264" 
d="M685 894h-222v-894h-286v894h-148v145l148 80v59q0 142 39 227.5t115.5 123.5t188.5 38q74 0 134.5 -12.5t114.5 -33.5l-67 -212q-32 10 -65 17t-72 7q-54 0 -78 -38t-24 -114v-62h222v-225zM1126 1119v-1119h-285v1119h285zM984 1559q71 0 113 -35.5t42 -116.5
q0 -79 -42.5 -114.5t-112.5 -35.5t-113 35.5t-43 114.5q0 82 42 117t114 35z" />
    <glyph glyph-name="fl" unicode="fl" horiz-adv-x="1262" 
d="M685 894h-222v-894h-286v894h-148v145l148 80v59q0 142 39 227.5t115.5 123.5t188.5 38q74 0 134.5 -12.5t114.5 -33.5l-67 -212q-32 10 -65 17t-72 7q-54 0 -78 -38t-24 -114v-62h222v-225zM1125 0h-285v1556h285v-1556z" />
    <glyph glyph-name="f_f_i" unicode="ffi" horiz-adv-x="1965" 
d="M685 894h-222v-894h-286v894h-148v145l148 80v59q0 142 39 227.5t115.5 123.5t188.5 38q74 0 134.5 -12.5t114.5 -33.5l-67 -212q-32 10 -65 17t-72 7q-54 0 -78 -38t-24 -114v-62h222v-225zM1387 894h-222v-894h-286v894h-148v145l148 80v59q0 142 39 227.5t115.5 123.5
t188.5 38q74 0 134.5 -12.5t114.5 -33.5l-67 -212q-32 10 -65 17t-72 7q-54 0 -78 -38t-24 -114v-62h222v-225zM1827 1119v-1119h-285v1119h285zM1685 1559q71 0 113 -35.5t42 -116.5q0 -79 -42.5 -114.5t-112.5 -35.5t-113 35.5t-43 114.5q0 82 42 117t114 35z" />
    <glyph glyph-name="f_f_l" unicode="ffl" horiz-adv-x="1963" 
d="M685 894h-222v-894h-286v894h-148v145l148 80v59q0 142 39 227.5t115.5 123.5t188.5 38q74 0 134.5 -12.5t114.5 -33.5l-67 -212q-32 10 -65 17t-72 7q-54 0 -78 -38t-24 -114v-62h222v-225zM1387 894h-222v-894h-286v894h-148v145l148 80v59q0 142 39 227.5t115.5 123.5
t188.5 38q74 0 134.5 -12.5t114.5 -33.5l-67 -212q-32 10 -65 17t-72 7q-54 0 -78 -38t-24 -114v-62h222v-225zM1826 0h-285v1556h285v-1556z" />
    <glyph glyph-name=".notdef" horiz-adv-x="1229" 
 />
    <glyph glyph-name=".null" 
 />
    <glyph glyph-name="nonmarkingreturn" horiz-adv-x="682" 
 />
    <glyph glyph-name="NULL" 
 />
    <glyph glyph-name="NULL" 
 />
    <glyph glyph-name="CR" unicode="&#xd;" horiz-adv-x="450" 
 />
    <glyph glyph-name="space" unicode=" " horiz-adv-x="450" 
 />
    <glyph glyph-name="exclam" unicode="!" horiz-adv-x="556" 
d="M396 480h-234l-48 982h329zM111 144q0 88 46 128.5t122 40.5q72 0 118.5 -40t46.5 -129q0 -85 -47 -127t-118 -42q-74 0 -121 42t-47 127z" />
    <glyph glyph-name="quotedbl" unicode="&#x22;" horiz-adv-x="937" 
d="M400 1462l-40 -528h-206l-40 528h286zM824 1462l-40 -528h-206l-40 528h286z" />
    <glyph glyph-name="numbersign" unicode="#" horiz-adv-x="1186" 
d="M909 855l-41 -246h222v-200h-253l-66 -409h-210l68 409h-176l-65 -409h-204l63 409h-204v200h237l41 246h-218v204h250l66 402h207l-66 -402h177l66 402h205l-67 -402h207v-204h-239zM487 609h176l41 246h-176z" />
    <glyph glyph-name="dollar" unicode="$" horiz-adv-x="1066" 
d="M470 -119v202q-109 3 -203.5 24.5t-173.5 57.5v254q77 -43 179.5 -77t197.5 -39v338q-135 54 -219.5 110t-123.5 127.5t-39 169.5q0 103 48.5 178t135 120t198.5 56v152h133v-149q96 -4 184 -26t172 -63l-78 -218q-69 32 -140 51t-138 25v-323q111 -42 197 -90.5
t134.5 -119t48.5 -178.5q0 -147 -96 -248.5t-284 -126.5v-207h-133zM603 315q64 14 94 48.5t30 83.5q0 31 -14 55.5t-41.5 45t-68.5 39.5v-272zM470 907v264q-41 -7 -68 -24t-40.5 -42.5t-13.5 -58.5q0 -32 12.5 -55.5t39.5 -43.5t70 -40z" />
    <glyph glyph-name="percent" unicode="%" horiz-adv-x="1712" 
d="M379 1483q154 0 238 -120.5t84 -336.5q0 -218 -80.5 -339.5t-241.5 -121.5q-152 0 -234.5 123t-82.5 338q0 219 79 338t238 119zM381 1284q-45 0 -66.5 -64t-21.5 -196t21.5 -197t67.5 -65t67 64t21 198q0 132 -21.5 196t-67.5 64zM1309 1462l-688 -1462h-222l689 1462
h221zM1329 899q153 0 237 -120.5t84 -336.5q0 -217 -80 -338.5t-241 -121.5q-153 0 -235 123.5t-82 336.5q0 220 78.5 338.5t238.5 118.5zM1330 702q-46 0 -67 -65t-21 -197t21.5 -196.5t67.5 -64.5t67 67t21 194t-21.5 194.5t-67.5 67.5z" />
    <glyph glyph-name="ampersand" unicode="&#x26;" horiz-adv-x="1360" 
d="M572 1482q112 0 194.5 -38.5t128 -111t45.5 -175.5q0 -128 -68.5 -222.5t-179.5 -169.5l224 -259q31 58 53 127t38 145h299q-23 -117 -73 -245t-129 -239l260 -294h-357l-94 112q-54 -41 -114.5 -70.5t-129.5 -45.5t-150 -16q-145 0 -246.5 52t-153.5 145t-52 216
q0 96 29 170t85.5 133.5t139.5 108.5q-47 60 -76.5 114t-42.5 110t-13 119q0 102 48 177t134.5 116t200.5 41zM473 630q-35 -29 -59.5 -61.5t-36.5 -69.5t-12 -83q0 -84 52 -136t134 -52q60 0 108 19.5t90 55.5zM570 1265q-44 0 -79 -29.5t-35 -97.5q0 -50 22.5 -102
t62.5 -102q67 44 101 97t34 115t-32 90.5t-74 28.5z" />
    <glyph glyph-name="quotesingle" unicode="'" horiz-adv-x="513" 
d="M400 1462l-40 -528h-206l-40 528h286z" />
    <glyph glyph-name="parenleft" unicode="(" horiz-adv-x="667" 
d="M87 568q0 177 33.5 339t98.5 306t158 264h247q-137 -196 -206 -426t-69 -480q0 -163 31.5 -318.5t92.5 -300t149 -276.5h-245q-94 119 -159 259.5t-98 299.5t-33 333z" />
    <glyph glyph-name="parenright" unicode=")" horiz-adv-x="667" 
d="M581 568q0 -173 -33.5 -332.5t-98.5 -300t-160 -259.5h-244q89 133 149.5 277.5t92 299.5t31.5 318q0 167 -31 325.5t-91.5 304t-151.5 276.5h245q94 -120 159 -264t99 -306.5t34 -338.5z" />
    <glyph glyph-name="asterisk" unicode="*" horiz-adv-x="1014" 
d="M635 1559l-39 -330l319 100l45 -244l-304 -27l211 -261l-216 -130l-147 287l-138 -287l-219 130l208 261l-302 27l47 244l316 -100l-38 330h257z" />
    <glyph glyph-name="plus" unicode="+" horiz-adv-x="1070" 
d="M645 831h346v-218h-346v-383h-220v383h-347v218h347v388h220v-388z" />
    <glyph glyph-name="comma" unicode="," horiz-adv-x="553" 
d="M429 255l14 -22q-18 -87 -43 -175t-54 -171t-62 -158h-218q18 80 36 174.5t33 187t22 164.5h272z" />
    <glyph glyph-name="hyphen" unicode="-" horiz-adv-x="642" 
d="M59 423v253h524v-253h-524z" />
    <glyph glyph-name="period" unicode="." horiz-adv-x="553" 
d="M111 144q0 88 46 128.5t122 40.5q72 0 118.5 -40t46.5 -129q0 -85 -47 -127t-118 -42q-73 0 -120.5 42t-47.5 127z" />
    <glyph glyph-name="slash" unicode="/" horiz-adv-x="837" 
d="M825 1470l-551 -1477h-258l553 1477h256z" />
    <glyph glyph-name="zero" unicode="0" horiz-adv-x="1066" 
d="M990 731q0 -171 -23.5 -309.5t-77 -237t-141.5 -151.5t-216 -53q-154 0 -255.5 83.5t-151.5 250.5t-50 417q0 247 47 414.5t147.5 253t262.5 85.5q155 0 256.5 -86.5t151.5 -254.5t50 -412zM367 731q0 -170 15 -282t50.5 -167.5t99.5 -55.5q63 0 99 55t51 167t15 283
q0 168 -15 280.5t-51 169t-99 56.5t-99 -56t-51 -168.5t-15 -281.5z" />
    <glyph glyph-name="one" unicode="1" horiz-adv-x="1066" 
d="M790 0h-292v850q0 41 1 89t2.5 97t3.5 92q-12 -16 -38.5 -44t-53.5 -55l-148 -133l-156 174l432 392h249v-1462z" />
    <glyph glyph-name="two" unicode="2" horiz-adv-x="1066" 
d="M980 0h-909v207l324 381q100 120 157.5 199.5t81 142.5t23.5 132q0 82 -42.5 126.5t-119.5 44.5q-71 0 -136.5 -34.5t-140.5 -108.5l-151 190q62 63 127 109t144.5 70t183.5 24q130 0 226 -50.5t148.5 -139.5t52.5 -204q0 -109 -35.5 -203t-109 -190.5t-185.5 -215.5
l-192 -217v-12h553v-251z" />
    <glyph glyph-name="three" unicode="3" horiz-adv-x="1066" 
d="M945 1124q0 -90 -35 -160.5t-98.5 -119.5t-148.5 -75v-6q156 -25 236.5 -112.5t80.5 -231.5q0 -130 -59 -229t-176 -154.5t-292 -55.5q-108 0 -199 17t-181 57v261q85 -46 174.5 -70t168.5 -24q139 0 198.5 56t59.5 157q0 67 -29.5 111.5t-98 66.5t-184.5 22h-92v234h94
q110 0 174 25.5t91.5 72t27.5 108.5q0 79 -44.5 122t-140.5 43q-55 0 -103 -14t-90 -37t-79 -51l-126 207q88 68 192 103.5t243 35.5q201 0 318.5 -93t117.5 -266z" />
    <glyph glyph-name="four" unicode="4" horiz-adv-x="1066" 
d="M1037 300h-162v-300h-286v300h-554v218l561 946h279v-930h162v-234zM588 534v293q0 25 1 65t2.5 82.5t3 75.5t2.5 46h-8q-16 -43 -34.5 -81.5t-41.5 -77.5l-230 -403h305z" />
    <glyph glyph-name="five" unicode="5" horiz-adv-x="1066" 
d="M565 935q120 0 212 -54t144.5 -155t52.5 -241q0 -157 -59 -270.5t-175.5 -174t-291.5 -60.5q-103 0 -191 18.5t-157 55.5v262q71 -39 161.5 -65.5t171.5 -26.5t135.5 28.5t82 82.5t27.5 132q0 110 -62.5 168t-189.5 58q-48 0 -100.5 -9.5t-94.5 -23.5l-108 67l49 735h714
v-252h-463l-23 -294q39 9 77 14t88 5z" />
    <glyph glyph-name="six" unicode="6" horiz-adv-x="1066" 
d="M74 621q0 135 17.5 261.5t59.5 235t115.5 190.5t184.5 127.5t267 45.5q46 0 98.5 -4t93.5 -13v-241q-39 9 -82.5 14.5t-88.5 5.5q-142 0 -226 -53.5t-123 -156t-45 -249.5h11q25 52 63 89.5t90 58.5t120 21q115 0 197.5 -56.5t127 -161t44.5 -249.5q0 -154 -53.5 -268
t-153.5 -176t-240 -62q-105 0 -192.5 41t-151.5 121.5t-98.5 200.5t-34.5 278zM545 223q75 0 120.5 63t45.5 195q0 114 -40.5 175t-121.5 61q-55 0 -96.5 -29t-63.5 -75t-22 -99t11 -104.5t33.5 -93.5t56 -67.5t77.5 -25.5z" />
    <glyph glyph-name="seven" unicode="7" horiz-adv-x="1066" 
d="M203 0l488 1211h-628v251h933v-192l-486 -1270h-307z" />
    <glyph glyph-name="eight" unicode="8" horiz-adv-x="1066" 
d="M534 1482q123 0 218.5 -40.5t150 -118.5t54.5 -192q0 -84 -28.5 -150t-81.5 -118t-127 -93q81 -49 143.5 -106t98 -126.5t35.5 -157.5q0 -123 -57.5 -212.5t-161.5 -138.5t-244 -49q-149 0 -253.5 47t-158.5 135t-54 211q0 91 30.5 162.5t88 128t135.5 100.5
q-65 47 -113 102t-74 120.5t-26 145.5q0 113 56 191t152 118.5t217 40.5zM343 384q0 -79 47.5 -129.5t139.5 -50.5q97 0 144.5 48.5t47.5 130.5q0 48 -22 87.5t-61 75t-90 70.5l-28 18q-58 -33 -97.5 -70.5t-60 -81.5t-20.5 -98zM533 1259q-65 0 -106.5 -40t-41.5 -110
q0 -46 19 -83t52 -67t77 -57q46 28 79.5 58t51.5 66t18 83q0 70 -42 110t-107 40z" />
    <glyph glyph-name="nine" unicode="9" horiz-adv-x="1066" 
d="M991 844q0 -137 -18.5 -265t-61.5 -237t-117 -190t-184.5 -126.5t-263.5 -45.5q-46 0 -99.5 4.5t-93.5 12.5v242q38 -10 82 -16t89 -6q146 0 230.5 57.5t122.5 160.5t43 241h-11q-26 -51 -62.5 -89t-88.5 -59t-126 -21q-114 0 -196 57t-125.5 162t-43.5 248
q0 155 53.5 268.5t154 176t240.5 62.5q105 0 192.5 -40.5t151 -121t98 -199.5t34.5 -276zM519 1237q-73 0 -119.5 -63t-46.5 -195q0 -113 40.5 -174.5t121.5 -61.5q59 0 99.5 32t62 79.5t21.5 94.5q0 43 -9.5 93t-30.5 94t-55 72.5t-84 28.5z" />
    <glyph glyph-name="colon" unicode=":" horiz-adv-x="558" 
d="M113 144q0 88 46 128.5t122 40.5q72 0 118 -40t46 -129q0 -85 -46.5 -127t-117.5 -42q-74 0 -121 42t-47 127zM113 966q0 88 46 129t122 41q73 0 118.5 -41t45.5 -129q0 -86 -46.5 -127.5t-117.5 -41.5q-74 0 -121 42t-47 127z" />
    <glyph glyph-name="semicolon" unicode=";" horiz-adv-x="558" 
d="M429 255l14 -22q-18 -87 -43 -175t-54.5 -171t-61.5 -158h-219q19 81 36.5 175t32 186t22.5 165h273zM113 966q0 88 46 129t122 41q73 0 118.5 -41t45.5 -129q0 -86 -46.5 -127.5t-117.5 -41.5q-74 0 -121 42t-47 127z" />
    <glyph glyph-name="less" unicode="&#x3c;" horiz-adv-x="1070" 
d="M991 225l-917 428v143l917 456v-242l-607 -281l607 -264v-240z" />
    <glyph glyph-name="equal" unicode="=" horiz-adv-x="1070" 
d="M78 823v217h913v-217h-913zM78 403v219h913v-219h-913z" />
    <glyph glyph-name="greater" unicode="&#x3e;" horiz-adv-x="1070" 
d="M77 465l607 264l-607 281v242l917 -456v-143l-917 -428v240z" />
    <glyph glyph-name="question" unicode="?" horiz-adv-x="867" 
d="M245 480v75q0 68 15.5 120.5t50.5 99t93 96.5q53 45 85 81.5t46.5 72t14.5 80.5q0 67 -40.5 101t-115.5 34q-71 0 -141 -25.5t-145 -69.5l-100 214q93 59 194 91.5t214 32.5q198 0 304 -98t106 -260q0 -86 -23.5 -149.5t-70.5 -117.5t-117 -114q-54 -46 -81.5 -77.5
t-36.5 -61.5t-9 -71v-54h-243zM205 144q0 88 46 128.5t122 40.5q73 0 119 -40t46 -129q0 -85 -46.5 -127t-118.5 -42q-73 0 -120.5 42t-47.5 127z" />
    <glyph glyph-name="at" unicode="@" horiz-adv-x="1658" 
d="M1567 742q0 -106 -22 -200t-65 -165.5t-105 -112t-143 -40.5q-78 0 -131.5 38.5t-74.5 105.5h-14q-38 -66 -96.5 -105t-138.5 -39q-156 0 -240.5 106.5t-84.5 288.5q0 141 51 247t146.5 165.5t226.5 59.5q78 0 163.5 -16t143.5 -38l-18 -422q-2 -25 -3 -51t-1 -42
q0 -70 21 -97t51 -27q41 0 69.5 40.5t43 118t14.5 188.5q1 167 -59 290.5t-169 191t-256 67.5q-143 0 -250.5 -53.5t-180 -148t-109 -220t-36.5 -271.5q0 -182 59 -314.5t175.5 -203.5t289.5 -71q104 0 217 25.5t209 65.5v-186q-90 -39 -196 -61.5t-225 -22.5
q-234 0 -398.5 90.5t-251.5 261t-87 408.5q0 194 55.5 355t158.5 278t247.5 181t321.5 64q206 0 362 -91t243 -255t87 -383zM670 616q0 -114 35.5 -166t96.5 -52q75 0 108 73.5t41 222.5l12 215q-18 5 -39 7t-45 2q-72 0 -118.5 -40t-68.5 -108t-22 -154z" />
    <glyph glyph-name="A" unicode="A" horiz-adv-x="1245" 
d="M929 0l-91 350h-429l-91 -350h-318l435 1465h371l439 -1465h-316zM779 602l-92 364q-9 41 -21 90.5t-23.5 98.5t-19.5 88q-6 -38 -18 -89t-24 -101t-20 -85l-92 -366h310z" />
    <glyph glyph-name="B" unicode="B" horiz-adv-x="1228" 
d="M158 1462h420q259 0 390 -85t131 -280q0 -84 -25 -151.5t-72 -111t-114 -58.5v-10q76 -18 130 -58.5t83.5 -110t29.5 -173.5q0 -131 -58.5 -226t-167 -146.5t-259.5 -51.5h-488v1462zM453 877h142q110 0 157 45.5t47 134.5q0 84 -52.5 124t-161.5 40h-132v-344zM453 642
v-396h165q112 0 160.5 53t48.5 152q0 59 -22.5 102t-70.5 66t-127 23h-154z" />
    <glyph glyph-name="C" unicode="C" horiz-adv-x="1147" 
d="M719 1233q-76 0 -134.5 -36t-97.5 -103.5t-58.5 -160.5t-19.5 -206q0 -159 34.5 -270t105 -168.5t177.5 -57.5q79 0 154 21.5t158 55.5v-255q-80 -37 -163.5 -55t-183.5 -18q-195 0 -325.5 90.5t-196 258.5t-65.5 400q0 165 39.5 303t116.5 239t190 156.5t259 55.5
q98 0 194 -24.5t184 -71.5l-90 -242q-68 38 -137 63t-141 25z" />
    <glyph glyph-name="D" unicode="D" horiz-adv-x="1331" 
d="M1227 752q0 -246 -81 -413.5t-235 -253t-374 -85.5h-379v1462h412q205 0 352 -81t226 -239.5t79 -389.5zM922 741q0 163 -39.5 268t-116.5 155t-190 50h-123v-963h97q190 0 281 122t91 368z" />
    <glyph glyph-name="E" unicode="E" horiz-adv-x="1011" 
d="M907 0h-749v1462h749v-246h-454v-333h423v-247h-423v-386h454v-250z" />
    <glyph glyph-name="F" unicode="F" horiz-adv-x="986" 
d="M451 0h-293v1462h745v-246h-452v-388h422v-246h-422v-582z" />
    <glyph glyph-name="G" unicode="G" horiz-adv-x="1330" 
d="M677 822h518v-760q-109 -39 -226 -60.5t-252 -21.5q-199 0 -336 89.5t-207 258t-70 406.5q0 230 79 397.5t231 259.5t372 92q111 0 213.5 -25t184.5 -66l-92 -240q-65 37 -142 59t-160 22q-120 0 -205.5 -60.5t-130.5 -173.5t-45 -272q0 -148 34 -260t106.5 -174
t186.5 -62q53 0 94 6t77 15v323h-230v247z" />
    <glyph glyph-name="H" unicode="H" horiz-adv-x="1377" 
d="M1219 0h-295v635h-471v-635h-295v1462h295v-576h471v576h295v-1462z" />
    <glyph glyph-name="I" unicode="I" horiz-adv-x="611" 
d="M158 0v1462h295v-1462h-295z" />
    <glyph glyph-name="J" unicode="J" horiz-adv-x="610" 
d="M36 -432q-50 0 -93 6t-76 16v249q28 -8 60.5 -14t68.5 -6q52 0 88.5 22t55.5 78.5t19 158.5v1384h294v-1381q0 -189 -50.5 -301.5t-144.5 -162t-222 -49.5z" />
    <glyph glyph-name="K" unicode="K" horiz-adv-x="1204" 
d="M1211 0h-332l-315 606l-111 -88v-518h-295v1462h295v-671q20 41 47 86.5t58 97.5l326 487h323l-434 -649z" />
    <glyph glyph-name="L" unicode="L" horiz-adv-x="994" 
d="M158 0v1462h295v-1212h491v-250h-786z" />
    <glyph glyph-name="M" unicode="M" horiz-adv-x="1756" 
d="M740 0l-321 1113h-8q3 -54 7 -124.5t6.5 -142t2.5 -129.5v-717h-269v1462h404l308 -1059h7l318 1059h404v-1462h-279v724q0 57 2 127t5.5 139t6.5 121h-9l-334 -1111h-251z" />
    <glyph glyph-name="N" unicode="N" horiz-adv-x="1470" 
d="M1312 0h-362l-532 1063h-8q5 -70 8 -136t5.5 -127t3.5 -117v-683h-269v1462h359l531 -1046h7q-3 69 -6 132t-5 122t-3 114v678h271v-1462z" />
    <glyph glyph-name="O" unicode="O" horiz-adv-x="1422" 
d="M1319 733q0 -171 -37 -310t-112 -238t-189 -152t-269 -53q-156 0 -270.5 53t-189 152.5t-111.5 238.5t-37 311q0 237 66.5 404.5t202 256.5t340.5 89q207 0 341 -92t199.5 -260.5t65.5 -399.5zM412 733q0 -160 32 -271.5t98.5 -169.5t169.5 -58q104 0 170 57t97.5 168.5
t31.5 273.5q0 244 -71.5 372.5t-226.5 128.5q-103 0 -170 -58t-99 -170t-32 -273z" />
    <glyph glyph-name="P" unicode="P" horiz-adv-x="1145" 
d="M577 1462q253 0 372 -118.5t119 -335.5q0 -103 -28 -192t-89 -155.5t-158 -104t-235 -37.5h-105v-519h-295v1462h419zM558 1216h-105v-450h76q77 0 131.5 24t83.5 76t29 136q0 110 -53 162t-162 52z" />
    <glyph glyph-name="Q" unicode="Q" horiz-adv-x="1422" 
d="M1319 733q0 -168 -34 -303.5t-103 -232t-173 -151.5l296 -394h-359l-223 329h-11h-12q-153 0 -265 55t-185.5 155.5t-109.5 239t-36 304.5q0 237 66.5 404.5t202 256.5t340.5 89q203 0 337.5 -89t201.5 -257t67 -406zM412 733q0 -160 32 -271.5t98.5 -169.5t169.5 -58
q104 0 170 57t97.5 168.5t31.5 273.5q0 244 -71.5 372.5t-226.5 128.5q-103 0 -170 -58t-99 -170t-32 -273z" />
    <glyph glyph-name="R" unicode="R" horiz-adv-x="1201" 
d="M541 1462q180 0 298.5 -47.5t176 -143t57.5 -240.5q0 -95 -30 -169t-84 -129t-126 -93l365 -640h-326l-294 567h-125v-567h-295v1462h383zM529 1217h-76v-413h82q124 0 181.5 54.5t57.5 161.5q0 104 -60 150.5t-185 46.5z" />
    <glyph glyph-name="S" unicode="S" horiz-adv-x="1013" 
d="M942 417q0 -131 -58 -229.5t-166.5 -153t-260.5 -54.5q-68 0 -133 9t-125.5 27.5t-118.5 47.5v287q92 -49 191 -81t191 -32q65 0 106 20.5t60 56t19 80.5q0 52 -26 89.5t-79.5 73t-134.5 78.5q-58 31 -113.5 68.5t-101 86.5t-72 117t-26.5 161q-1 128 54 221t157.5 143.5
t243.5 49.5q102 0 196.5 -25t190.5 -72l-89 -245q-86 42 -157.5 63.5t-140.5 21.5q-53 0 -89.5 -18.5t-55.5 -51t-19 -75.5q0 -52 23.5 -87.5t76.5 -69.5t141 -80q101 -53 171.5 -111.5t107.5 -134t37 -181.5z" />
    <glyph glyph-name="T" unicode="T" horiz-adv-x="1033" 
d="M663 0h-293v1212h-335v250h962v-250h-334v-1212z" />
    <glyph glyph-name="U" unicode="U" horiz-adv-x="1350" 
d="M1201 1462v-963q0 -160 -59 -276t-177 -179.5t-294 -63.5q-254 0 -388 135.5t-134 382.5v964h294v-936q0 -160 59 -226t174 -66q80 0 131 30t76 95t25 169v934h293z" />
    <glyph glyph-name="V" unicode="V" horiz-adv-x="1191" 
d="M1191 1462l-431 -1462h-331l-429 1462h303l226 -847q8 -34 21.5 -95t26.5 -125t18 -108q6 44 18.5 107.5t26 124.5t22.5 96l227 847h302z" />
    <glyph glyph-name="W" unicode="W" horiz-adv-x="1784" 
d="M1782 1462l-330 -1462h-337l-166 732q-6 29 -14.5 72t-17 92.5t-15.5 97.5t-11 88q-3 -34 -10 -79.5t-15 -95.5t-16.5 -96t-15.5 -79l-166 -732h-336l-331 1462h290l160 -768q8 -40 17 -90.5t18 -104t16.5 -104.5t11.5 -91q6 44 13.5 96.5t16.5 104.5t18 98t17 78
l181 781h264l177 -780q7 -33 16 -79.5t18 -99t17 -104t13 -95.5q6 55 16.5 124.5t23 140t23.5 125.5l161 768h293z" />
    <glyph glyph-name="X" unicode="X" horiz-adv-x="1168" 
d="M1167 0h-328l-260 521l-265 -521h-313l405 749l-376 713h316l238 -493l233 493h315l-376 -721z" />
    <glyph glyph-name="Y" unicode="Y" horiz-adv-x="1125" 
d="M563 864l250 598h312l-416 -896v-566h-293v557l-416 905h314z" />
    <glyph glyph-name="Z" unicode="Z" horiz-adv-x="1032" 
d="M986 0h-938v201l587 1013h-573v248h908v-200l-587 -1012h603v-250z" />
    <glyph glyph-name="bracketleft" unicode="[" horiz-adv-x="653" 
d="M605 -331h-479v1808h479v-210h-224v-1388h224v-210z" />
    <glyph glyph-name="backslash" unicode="\" horiz-adv-x="837" 
d="M272 1470l551 -1477h-258l-551 1477h258z" />
    <glyph glyph-name="bracketright" unicode="]" horiz-adv-x="653" 
d="M49 -121h223v1388h-223v210h478v-1808h-478v210z" />
    <glyph glyph-name="asciicircum" unicode="^" horiz-adv-x="1100" 
d="M33 544l431 922h143l460 -922h-242l-286 591l-265 -591h-241z" />
    <glyph glyph-name="underscore" unicode="_" horiz-adv-x="908" 
d="M912 -336h-916v171h916v-171z" />
    <glyph glyph-name="grave" unicode="`" horiz-adv-x="689" 
d="M406 1569q24 -44 61 -101.5t75 -111t65 -88.5v-27h-196q-33 26 -78.5 66t-94 85.5t-90 87t-66.5 69.5v20h324z" />
    <glyph glyph-name="a" unicode="a" horiz-adv-x="1094" 
d="M561 1141q194 0 297 -99t103 -299v-743h-204l-51 151h-7q-41 -58 -85.5 -96t-101.5 -56.5t-136 -18.5q-96 0 -164 44t-103.5 123.5t-35.5 184.5q0 177 111 264t325 95l167 6v47q0 90 -37.5 133.5t-110.5 43.5q-65 0 -132.5 -21t-140.5 -59l-87 203q82 46 183 71.5
t210 25.5zM676 519l-97 -4q-116 -4 -165.5 -50t-49.5 -128q0 -72 33 -105.5t91 -33.5q80 0 134 59.5t54 164.5v97z" />
    <glyph glyph-name="b" unicode="b" horiz-adv-x="1160" 
d="M423 1556v-375q0 -48 -2.5 -102.5t-7.5 -104.5h11q44 78 113 121.5t168 43.5q170 0 271 -149t101 -428q0 -186 -46 -316t-131 -198t-201 -68q-100 0 -163 37.5t-112 104.5h-17l-45 -122h-224v1556h285zM611 902q-70 0 -110.5 -35t-58.5 -103.5t-19 -169.5v-44
q0 -167 43 -250.5t148 -83.5q81 0 127 87.5t46 261.5q0 169 -45.5 253t-130.5 84z" />
    <glyph glyph-name="c" unicode="c" horiz-adv-x="935" 
d="M554 -20q-153 0 -258 61.5t-159 189t-54 323.5q0 188 57.5 319t166 199t263.5 68q99 0 174.5 -20.5t136.5 -54.5l-82 -224q-59 28 -112.5 44t-106.5 16q-68 0 -114 -39t-69 -115.5t-23 -191.5q0 -113 24 -188t70.5 -112t113.5 -37q76 0 142 23.5t128 66.5v-245
q-62 -43 -133.5 -63t-164.5 -20z" />
    <glyph glyph-name="d" unicode="d" horiz-adv-x="1160" 
d="M460 -20q-174 0 -275.5 150.5t-101.5 428.5q0 281 102 431t275 150q66 0 118.5 -20t93.5 -56.5t71 -87.5h10q-5 49 -10.5 103.5t-5.5 103.5v373h286v-1556h-223l-48 134h-15q-30 -48 -69 -82.5t-89.5 -53t-118.5 -18.5zM553 213q103 0 148 76.5t47 234.5v49
q0 164 -44 245.5t-153 81.5q-87 0 -132.5 -87t-45.5 -255q0 -172 46.5 -258.5t133.5 -86.5z" />
    <glyph glyph-name="e" unicode="e" horiz-adv-x="1073" 
d="M550 1139q141 0 240.5 -60.5t152.5 -174t53 -272.5v-149h-627q3 -138 65.5 -209.5t180.5 -71.5q89 0 165 20.5t159 64.5v-229q-75 -40 -158 -59t-192 -19q-161 0 -274 66t-172.5 193.5t-59.5 312.5q0 193 56 323.5t160.5 197t250.5 66.5zM554 926q-77 0 -126 -58
t-55 -187h357q-1 74 -20.5 129t-58.5 85.5t-97 30.5z" />
    <glyph glyph-name="f" unicode="f" horiz-adv-x="702" 
d="M685 894h-222v-894h-286v894h-148v145l148 80v59q0 142 39 227.5t115.5 123.5t188.5 38q74 0 134.5 -12.5t114.5 -33.5l-67 -212q-32 10 -65 17t-72 7q-54 0 -78 -38t-24 -114v-62h222v-225z" />
    <glyph glyph-name="g" unicode="g" horiz-adv-x="1048" 
d="M445 -492q-210 0 -323 82t-113 230q0 100 60 169t167 96q-47 20 -80 64t-33 98q0 64 33 106t92 85q-75 39 -120 124.5t-45 194.5q0 121 48.5 206.5t141.5 130t227 44.5q34 0 68 -3.5t61.5 -9t41.5 -9.5h357v-158l-154 -37q22 -37 32 -78.5t10 -89.5q0 -180 -111.5 -279.5
t-311.5 -99.5q-54 1 -91 8q-19 -16 -32.5 -36.5t-13.5 -47.5q0 -23 15.5 -38.5t47.5 -23.5t79 -8h188q159 0 243.5 -77t84.5 -230q0 -198 -146 -305.5t-423 -107.5zM461 -293q95 0 160 20.5t98.5 58.5t33.5 91q0 43 -18.5 66.5t-59 33t-106.5 9.5h-152q-44 0 -78 -17
t-53.5 -48.5t-19.5 -77.5q0 -65 51.5 -100.5t143.5 -35.5zM501 559q68 0 101.5 51t33.5 144q0 101 -34 150.5t-102 49.5t-102.5 -50t-34.5 -149q0 -93 34 -144.5t104 -51.5z" />
    <glyph glyph-name="h" unicode="h" horiz-adv-x="1186" 
d="M423 1556v-331q0 -72 -5 -138.5t-12 -110.5h16q29 56 71.5 92t95.5 54t116 18q109 0 186.5 -44.5t119.5 -134.5t42 -227v-734h-286v659q0 121 -35 180t-109 59q-76 0 -119.5 -40.5t-62 -121.5t-18.5 -203v-533h-285v1556h285z" />
    <glyph glyph-name="i" unicode="i" horiz-adv-x="563" 
d="M424 1119v-1119h-285v1119h285zM282 1559q71 0 113 -35.5t42 -116.5q0 -79 -42.5 -114.5t-112.5 -35.5t-113 35.5t-43 114.5q0 82 42 117t114 35z" />
    <glyph glyph-name="j" unicode="j" horiz-adv-x="563" 
d="M78 -492q-44 0 -90 6.5t-82 17.5v235q29 -10 56 -14.5t58 -4.5q54 0 86.5 36t32.5 125v1210h285v-1240q0 -114 -37 -197t-113.5 -128t-195.5 -46zM126 1407q0 82 42 117t114 35q71 0 113 -35.5t42 -116.5q0 -79 -42.5 -114.5t-112.5 -35.5t-113 35.5t-43 114.5z" />
    <glyph glyph-name="k" unicode="k" horiz-adv-x="1120" 
d="M423 1556v-686q0 -67 -3.5 -132.5t-10.5 -130.5h6q25 44 52 85t54 76l265 351h315l-367 -471l388 -648h-322l-259 458l-118 -104v-354h-285v1556h285z" />
    <glyph glyph-name="l" unicode="l" horiz-adv-x="561" 
d="M423 0h-285v1556h285v-1556z" />
    <glyph glyph-name="m" unicode="m" horiz-adv-x="1771" 
d="M1304 1140q167 0 251 -98.5t84 -308.5v-733h-286v656q0 123 -34.5 183t-105.5 60q-100 0 -141 -84.5t-41 -250.5v-564h-286v658q0 81 -15 134.5t-45 80t-78 26.5q-71 0 -111 -42t-56.5 -124t-16.5 -202v-531h-285v1119h222l34 -143h17q28 56 72.5 92t101 54t119.5 18
q110 0 181 -42.5t106 -119.5h23q44 82 120 122t170 40z" />
    <glyph glyph-name="n" unicode="n" horiz-adv-x="1186" 
d="M707 1140q160 0 253 -100t93 -305v-735h-286v659q0 119 -33.5 179.5t-113.5 60.5q-112 0 -154.5 -88.5t-42.5 -277.5v-533h-285v1119h222l34 -143h17q31 56 75.5 92t101 54t119.5 18z" />
    <glyph glyph-name="o" unicode="o" horiz-adv-x="1134" 
d="M1051 562q0 -128 -30.5 -234.5t-91.5 -184.5t-152 -120.5t-212 -42.5q-114 0 -203 42t-151.5 119.5t-95 184.5t-32.5 236q0 178 55.5 307.5t163.5 200t268 70.5q143 0 251.5 -67t169 -195.5t60.5 -315.5zM374 560q0 -113 20 -190t63 -116t111 -39t110 39t61.5 116.5
t19.5 191.5q0 115 -19.5 190.5t-62 113.5t-110.5 38q-102 0 -147.5 -85t-45.5 -259z" />
    <glyph glyph-name="p" unicode="p" horiz-adv-x="1160" 
d="M702 1140q173 0 274 -149.5t101 -431.5q0 -185 -46.5 -314t-131 -197t-197.5 -68q-66 0 -118 19.5t-91 54t-69 81.5h-13q7 -52 9.5 -96.5t2.5 -80.5v-450h-285v1611h231l41 -146h14q32 56 71.5 93t90.5 55.5t116 18.5zM611 905q-67 0 -108 -33.5t-60 -102.5t-20 -177v-44
q0 -110 18.5 -183t60.5 -109.5t111 -36.5q59 0 97.5 38.5t57.5 114.5t19 188q0 173 -43 259t-133 86z" />
    <glyph glyph-name="q" unicode="q" horiz-adv-x="1160" 
d="M737 -492v452q0 37 3.5 84t8.5 104h-12q-43 -79 -111.5 -123.5t-169.5 -44.5q-170 0 -271.5 148.5t-101.5 426.5q0 189 47 319.5t132.5 198t200.5 67.5q102 0 168 -42t112 -122h12l25 143h243v-1611h-286zM555 215q69 0 111 33t61.5 100t20.5 169v46q0 171 -44 254
t-153 83q-89 0 -133 -88t-44 -261q0 -170 44.5 -253t136.5 -83z" />
    <glyph glyph-name="r" unicode="r" horiz-adv-x="821" 
d="M693 1140q23 0 48.5 -3t49.5 -9l-24 -285q-17 7 -42.5 9.5t-49.5 2.5q-53 0 -98.5 -17.5t-80 -53t-53.5 -89t-19 -125.5v-570h-285v1119h218l41 -186h14q28 55 69 102.5t95 76t117 28.5z" />
    <glyph glyph-name="s" unicode="s" horiz-adv-x="892" 
d="M826 330q0 -114 -48 -192t-141.5 -118t-228.5 -40q-99 0 -177.5 15.5t-153.5 48.5v255q72 -39 160 -65.5t164 -26.5q72 0 106.5 26.5t34.5 72.5q0 28 -14 51.5t-57.5 51.5t-133.5 69q-87 41 -145.5 88t-87.5 109.5t-29 149.5q0 152 106 233.5t287 81.5q93 0 176.5 -21.5
t168.5 -66.5l-82 -212q-66 34 -129 56.5t-129 22.5q-58 0 -88 -21t-30 -60q0 -28 15 -49t58 -46.5t126 -66.5q82 -39 143 -84t95 -107t34 -155z" />
    <glyph glyph-name="t" unicode="t" horiz-adv-x="769" 
d="M560 218q39 0 78.5 9t80.5 24v-220q-47 -23 -109.5 -37t-134.5 -14q-98 0 -168 35.5t-107 115t-37 211.5v552h-128v136l150 86l75 240h189v-237h257v-225h-257v-547q0 -65 28.5 -97t82.5 -32z" />
    <glyph glyph-name="u" unicode="u" horiz-adv-x="1186" 
d="M1049 1119v-1119h-222l-35 143h-16q-30 -55 -75 -91t-101 -54t-119 -18q-110 0 -187.5 46t-118.5 136.5t-41 226.5v730h285v-652q0 -123 34 -185t109 -62q80 0 123.5 41t60.5 119.5t17 191.5v547h286z" />
    <glyph glyph-name="v" unicode="v" horiz-adv-x="1037" 
d="M368 0l-365 1119h298l172 -614q16 -57 25.5 -117.5t15.5 -117.5h8q2 49 12.5 107.5t27.5 119.5l175 622h297l-365 -1119h-301z" />
    <glyph glyph-name="w" unicode="w" horiz-adv-x="1578" 
d="M961 0l-94 477q-6 35 -16.5 88t-22.5 111.5t-22 110.5t-15 84h-8q-6 -34 -16 -87t-21.5 -111.5t-22 -111t-17.5 -85.5l-97 -476h-316l-277 1119h286l104 -462q12 -54 22 -121.5t18.5 -133.5t13.5 -117h7q3 34 8.5 78.5t13 92.5t15 93t14.5 79l112 491h321l107 -494
q8 -44 18.5 -106t19 -125t11.5 -109h8q4 42 11.5 102.5t18 126.5t22.5 120l113 485h281l-281 -1119h-319z" />
    <glyph glyph-name="x" unicode="x" horiz-adv-x="1038" 
d="M333 572l-305 547h317l174 -346l174 346h317l-306 -549l320 -570h-317l-191 372l-188 -372h-315z" />
    <glyph glyph-name="y" unicode="y" horiz-adv-x="1037" 
d="M3 1119h307l171 -585q9 -34 16.5 -68t13 -68t8.5 -68h7q5 48 15.5 97t26.5 105l165 587h301l-403 -1245q-40 -127 -100 -207.5t-138.5 -119.5t-178.5 -39q-43 0 -77.5 5.5t-63.5 11.5v239q21 -6 47 -10t53 -4q53 0 88.5 21.5t61 66t46.5 111.5l17 61z" />
    <glyph glyph-name="z" unicode="z" horiz-adv-x="869" 
d="M819 0h-771v173l433 717h-407v229h728v-189l-419 -702h436v-228z" />
    <glyph glyph-name="braceleft" unicode="{" horiz-adv-x="778" 
d="M708 -331q-166 0 -261.5 29.5t-135 97t-39.5 181.5v299q0 62 -25.5 101.5t-76.5 59t-130 19.5v225q78 0 129 18.5t77 58.5t26 103v303q0 108 37 175t132 98.5t267 32.5v-219q-56 -2 -96 -13.5t-60.5 -41.5t-20.5 -87v-296q0 -104 -51.5 -162.5t-158.5 -75.5v-12
q107 -17 158.5 -75t51.5 -159v-298q0 -54 19 -84.5t58.5 -43.5t99.5 -14v-220z" />
    <glyph glyph-name="bar" unicode="|" horiz-adv-x="988" 
d="M380 1562h228v-2032h-228v2032z" />
    <glyph glyph-name="braceright" unicode="}" horiz-adv-x="778" 
d="M70 -331v220q59 1 98.5 13.5t59 43t19.5 85.5v298q0 102 51 159.5t158 74.5v12q-107 17 -158 76t-51 162v296q0 58 -22.5 87.5t-62 41t-92.5 13.5v219q166 -1 261 -30.5t134.5 -96.5t39.5 -179v-303q0 -61 25 -101t76.5 -59.5t130.5 -19.5v-225q-77 0 -129 -19t-77.5 -59
t-25.5 -102v-299q0 -109 -37 -177t-131.5 -99.5t-266.5 -31.5z" />
    <glyph glyph-name="asciitilde" unicode="~" horiz-adv-x="1070" 
d="M502 616q-64 30 -115.5 43t-96.5 13q-52 0 -108.5 -33t-108.5 -88v232q48 54 107.5 81t132.5 27q60 0 118 -14.5t136 -49.5q66 -29 116.5 -42t95.5 -13q52 0 110 34t106 87v-232q-47 -53 -106.5 -80t-131.5 -27q-62 0 -118.5 14t-136.5 48z" />
    <glyph glyph-name="uni00A0" unicode="&#xa0;" horiz-adv-x="450" 
 />
    <glyph glyph-name="exclamdown" unicode="&#xa1;" horiz-adv-x="556" 
d="M160 622h234l47 -994h-329zM446 959q0 -90 -46.5 -130t-121.5 -40q-73 0 -119 40.5t-46 129.5q0 84 46 126t119 42t120.5 -41.5t47.5 -126.5z" />
    <glyph glyph-name="cent" unicode="&#xa2;" horiz-adv-x="1066" 
d="M674 1483v-159q76 -4 141.5 -23.5t116.5 -48.5l-81 -225q-58 29 -112.5 45.5t-104.5 16.5q-70 0 -115.5 -37t-68.5 -113.5t-23 -196.5q0 -116 23 -190.5t68.5 -110t113.5 -35.5q74 0 139.5 21t132.5 58v-241q-51 -30 -109 -48.5t-121 -25.5v-190h-164v195
q-123 16 -206.5 84.5t-126 189.5t-42.5 292q0 177 44.5 299t128 191.5t202.5 85.5v166h164z" />
    <glyph glyph-name="sterling" unicode="&#xa3;" horiz-adv-x="1066" 
d="M640 1483q95 0 180.5 -22t159.5 -61l-84 -224q-62 30 -120.5 45.5t-111.5 15.5q-61 0 -97.5 -40t-36.5 -133v-205h316v-212h-316v-148q0 -64 -19 -111t-50.5 -80t-71.5 -56h621v-252h-923v240q51 26 85.5 57.5t52.5 79t18 120.5v150h-157v212h157v206q0 144 50.5 236.5
t140 137t206.5 44.5z" />
    <glyph glyph-name="currency" unicode="&#xa4;" horiz-adv-x="1145" 
d="M173 723q0 55 15.5 106t44.5 98l-131 130l136 135l128 -129q45 29 97.5 43.5t107.5 14.5q56 0 106.5 -15t97.5 -45l129 131l138 -132l-130 -131q28 -45 42.5 -97t14.5 -109t-14.5 -109t-42.5 -98l127 -127l-135 -134l-129 128q-46 -27 -97.5 -41.5t-106.5 -14.5
q-58 0 -110.5 14t-96.5 42l-126 -126l-134 134l129 127q-29 46 -44.5 97t-15.5 108zM365 723q0 -56 27.5 -103.5t74.5 -75t104 -27.5q59 0 106.5 27.5t75.5 75t28 103.5q0 58 -28.5 105t-76 75.5t-105.5 28.5q-57 0 -104 -28t-74.5 -75.5t-27.5 -105.5z" />
    <glyph glyph-name="yen" unicode="&#xa5;" horiz-adv-x="1066" 
d="M533 875l212 587h301l-327 -742h198v-177h-245v-139h245v-177h-245v-227h-280v227h-245v177h245v139h-245v177h192l-321 742h301z" />
    <glyph glyph-name="brokenbar" unicode="&#xa6;" horiz-adv-x="988" 
d="M380 1552h228v-812h-228v812zM380 341h228v-812h-228v812z" />
    <glyph glyph-name="section" unicode="&#xa7;" horiz-adv-x="918" 
d="M101 802q0 82 39 143t101 100q-63 45 -96.5 103.5t-33.5 130.5q0 130 103.5 207t267.5 77q91 0 171 -21.5t159 -59.5l-76 -188q-64 35 -127 57.5t-124 22.5q-69 0 -102.5 -23.5t-33.5 -70.5q0 -33 20 -58.5t60.5 -49t103.5 -51.5q93 -41 158.5 -87.5t99.5 -105.5t34 -137
q0 -92 -33.5 -153t-92.5 -104q60 -44 89 -99t29 -128q0 -145 -108 -231t-293 -86q-97 0 -175.5 20.5t-143.5 59.5v208q46 -27 101.5 -50t112 -36.5t101.5 -13.5q90 0 129 32t39 82q0 35 -14.5 59t-54.5 49.5t-119 62.5q-99 47 -163.5 92.5t-96 104t-31.5 142.5zM319 830
q0 -38 19.5 -69.5t60 -60t102.5 -58.5l38 -20q27 22 46.5 55t19.5 78q0 42 -18 75t-62 64t-125 65q-36 -15 -58.5 -49t-22.5 -80z" />
    <glyph glyph-name="dieresis" unicode="&#xa8;" horiz-adv-x="1118" 
d="M233 1400q0 70 37 103t94 33t95 -34t38 -102q0 -65 -38 -99.5t-95 -34.5t-94 34t-37 100zM620 1400q0 70 37 103t96 33q57 0 95 -34t38 -102q0 -65 -38 -99.5t-95 -34.5q-59 0 -96 34.5t-37 99.5z" />
    <glyph glyph-name="copyright" unicode="&#xa9;" horiz-adv-x="1698" 
d="M845 -20q-166 0 -304 56.5t-238.5 157.5t-155 238t-54.5 298q0 162 57.5 299.5t161 239t241 158t297.5 56.5q161 0 298.5 -56t240 -158t159.5 -239.5t57 -300.5t-56.5 -300.5t-159 -238t-241 -155.5t-303.5 -55zM881 264q-206 0 -314 125.5t-108 340.5q0 142 49.5 246.5
t145 162.5t230.5 58q70 0 140 -17t135 -49l-69 -147q-51 26 -101 39.5t-95 13.5q-115 0 -178 -79.5t-63 -230.5t57.5 -227t183.5 -76q52 0 112 14.5t115 39.5v-159q-55 -25 -112 -40t-128 -15zM852 113q129 0 239 45t192 127.5t127 195.5t45 248q0 134 -45.5 247.5
t-128 197.5t-193 130.5t-240.5 46.5q-133 0 -244.5 -46.5t-193 -130.5t-126 -198t-44.5 -248q0 -137 46 -250t128.5 -194.5t194 -126t243.5 -44.5z" />
    <glyph glyph-name="ordfeminine" unicode="&#xaa;" horiz-adv-x="731" 
d="M382 1479q130 0 195.5 -71t65.5 -199v-446h-134l-32 110q-36 -57 -90.5 -89.5t-128.5 -32.5q-65 0 -112.5 27.5t-73.5 78t-26 117.5q0 82 39 129t110 69t168 28l86 5v21q0 48 -25.5 73t-81.5 25q-46 0 -94 -16t-100 -42l-61 137q64 33 136 54.5t159 21.5zM449 1087
l-78 -6q-73 -6 -100 -33.5t-27 -68.5q0 -38 20.5 -57.5t53.5 -19.5q61 0 96 42.5t35 107.5v35z" />
    <glyph glyph-name="guillemotleft" unicode="&#xab;" horiz-adv-x="1164" 
d="M69 574l340 450l205 -109l-245 -354l245 -352l-205 -111l-340 449v27zM547 574l340 450l205 -109l-244 -354l244 -352l-205 -111l-340 449v27z" />
    <glyph glyph-name="logicalnot" unicode="&#xac;" horiz-adv-x="1070" 
d="M985 831v-586h-220v368h-687v218h907z" />
    <glyph glyph-name="uni00AD" unicode="&#xad;" horiz-adv-x="642" 
d="M59 423v253h524v-253h-524z" />
    <glyph glyph-name="registered" unicode="&#xae;" horiz-adv-x="1698" 
d="M549 295v891h276q169 0 252 -68.5t83 -201.5q0 -92 -41.5 -150t-109.5 -88l217 -383h-208l-174 338h-106v-338h-189zM738 776h78q74 0 113.5 34.5t39.5 98.5q0 66 -35 95t-118 29h-78v-257zM845 -20q-166 0 -304 56.5t-238.5 157.5t-155 238t-54.5 298q0 162 57.5 299.5
t161 239t241 158t297.5 56.5q161 0 298.5 -56t240 -158t159.5 -239.5t57 -300.5t-56.5 -300.5t-159 -238t-241 -155.5t-303.5 -55zM852 113q129 0 239 45t192 127.5t127 195.5t45 248q0 134 -45.5 247.5t-128 197.5t-193 130.5t-240.5 46.5q-133 0 -244.5 -46.5t-193 -130.5
t-126 -198t-44.5 -248q0 -137 46 -250t128.5 -194.5t194 -126t243.5 -44.5z" />
    <glyph glyph-name="overscore" unicode="&#xaf;" horiz-adv-x="996" 
d="M1002 1556h-1007v201h1007v-201z" />
    <glyph glyph-name="degree" unicode="&#xb0;" horiz-adv-x="809" 
d="M404 838q-96 0 -171.5 41t-118.5 114t-43 168q0 94 43 167t118.5 114t171.5 41q97 0 172 -41t118 -114t43 -167q0 -96 -43.5 -169t-118.5 -113.5t-171 -40.5zM404 1013q65 0 106 39.5t41 108.5q0 68 -41 108t-106 40t-106 -40.5t-41 -107.5q0 -69 41.5 -108.5
t105.5 -39.5z" />
    <glyph glyph-name="plusminus" unicode="&#xb1;" horiz-adv-x="1070" 
d="M78 0v218h913v-218h-913zM645 907h346v-218h-346v-383h-220v383h-347v218h347v388h220v-388z" />
    <glyph glyph-name="uni00B2" unicode="&#xb2;" horiz-adv-x="731" 
d="M654 851h-597v170l205 218q55 61 87.5 102.5t47 74.5t14.5 70q0 38 -24 60t-65 22q-40 0 -80 -21t-84 -66l-109 140q52 55 128.5 91.5t173.5 36.5q129 0 204.5 -65.5t75.5 -177.5q0 -67 -23.5 -124t-77 -120t-143.5 -152l-72 -72h339v-187z" />
    <glyph glyph-name="uni00B3" unicode="&#xb3;" horiz-adv-x="731" 
d="M347 1747q122 0 200 -60t78 -165q0 -73 -37.5 -125t-114.5 -82v-10q89 -22 133 -78.5t44 -134.5q0 -120 -87.5 -188.5t-247.5 -68.5q-72 0 -134 16.5t-120 49.5v190q57 -39 119.5 -60.5t132.5 -21.5q67 0 99 26t32 74q0 49 -34.5 79.5t-119.5 30.5h-97v157h81
q86 0 117.5 31.5t31.5 77.5q0 41 -23.5 66t-74.5 25q-45 0 -85 -18t-89 -57l-94 135q61 52 132 81.5t158 29.5z" />
    <glyph glyph-name="acute" unicode="&#xb4;" horiz-adv-x="689" 
d="M607 1569v-20q-25 -28 -65 -68t-86.5 -84t-93 -85t-83.5 -71h-197v27q35 46 71.5 98t71 104.5t59.5 98.5h323z" />
    <glyph glyph-name="uni00B5" unicode="&#xb5;" horiz-adv-x="1189" 
d="M1052 1119v-1119h-220l-37 147h-14q-22 -54 -52.5 -91t-69 -56.5t-85.5 -19.5q-52 0 -90.5 23t-64.5 67h-6q3 -27 5 -67t3 -83.5t1 -81.5v-330h-285v1611h285v-655q0 -120 34.5 -182t109.5 -62q79 0 122.5 44.5t60.5 127t17 194.5v533h286z" />
    <glyph glyph-name="paragraph" unicode="&#xb6;" horiz-adv-x="1183" 
d="M1031 -260h-156v1645h-146v-1645h-156v819q-25 -9 -53.5 -13.5t-63.5 -4.5q-113 0 -192.5 51.5t-121 162t-41.5 287.5q0 183 45 296.5t131.5 165.5t209.5 52h544v-1816z" />
    <glyph glyph-name="periodcentered" unicode="&#xb7;" horiz-adv-x="553" 
d="M111 721q0 88 46 128.5t122 40.5q72 0 118.5 -40t46.5 -129q0 -85 -47 -127t-118 -42q-73 0 -120.5 42t-47.5 127z" />
    <glyph glyph-name="cedilla" unicode="&#xb8;" horiz-adv-x="380" 
d="M394 -258q0 -110 -66.5 -172t-215.5 -62q-45 0 -82 5.5t-67 13.5v162q29 -7 63 -12.5t60 -5.5q38 0 61 16.5t23 51.5q0 39 -37.5 65.5t-117.5 34.5l74 161h164l-31 -71q50 -12 88.5 -37t61 -62.5t22.5 -87.5z" />
    <glyph glyph-name="uni00B9" unicode="&#xb9;" horiz-adv-x="731" 
d="M547 1728v-877h-218v437q0 31 0.5 70t2 76t4.5 63q-13 -16 -30.5 -33t-31.5 -28l-90 -72l-103 129l290 235h176z" />
    <glyph glyph-name="ordmasculine" unicode="&#xba;" horiz-adv-x="737" 
d="M682 1115q0 -171 -83.5 -267.5t-230.5 -96.5q-142 0 -228 97.5t-86 266.5q0 173 85 268.5t231 95.5q92 0 162 -42.5t110 -123.5t40 -198zM252 1115q0 -102 28 -152.5t89 -50.5t88 50.5t27 152.5t-27.5 152.5t-87.5 50.5t-88.5 -50.5t-28.5 -152.5z" />
    <glyph glyph-name="guillemotright" unicode="&#xbb;" horiz-adv-x="1164" 
d="M1095 547l-340 -449l-205 111l245 352l-245 354l205 109l340 -450v-27zM618 547l-340 -449l-205 111l243 352l-243 354l205 109l340 -450v-27z" />
    <glyph glyph-name="onequarter" unicode="&#xbc;" horiz-adv-x="1667" 
d="M345 0l767 1462h228l-768 -1462h-227zM301 586v437q0 31 1 69.5t2.5 76t3.5 63.5q-12 -16 -30 -33.5t-32 -28.5l-90 -71l-103 128l290 235h177v-876h-219zM1312 0v155h-355v150l347 576h224v-562h116v-164h-116v-155h-216zM1131 319h181v183q0 41 1.5 83t4.5 81
q-12 -32 -30.5 -72.5t-33.5 -65.5z" />
    <glyph glyph-name="onehalf" unicode="&#xbd;" horiz-adv-x="1724" 
d="M330 0l767 1462h227l-768 -1462h-226zM301 586v437q0 23 0.5 50.5t1.5 56.5t2.5 55.5t2.5 46.5q-12 -16 -30 -33.5t-32 -28.5l-90 -71l-103 128l290 235h177v-876h-219zM1050 0v170l203 214q58 61 91 102t46.5 75t13.5 71q0 39 -24 61.5t-66 22.5q-40 0 -80 -21t-84 -66
l-108 141q51 55 128 91.5t174 36.5q129 0 204 -65.5t75 -176.5q0 -68 -22 -123t-65 -107.5t-106 -114.5l-123 -124h340v-187h-597z" />
    <glyph glyph-name="threequarters" unicode="&#xbe;" horiz-adv-x="1688" 
d="M383 0l767 1462h228l-768 -1462h-227zM330 569q-71 0 -133.5 16.5t-119.5 49.5v189q57 -37 119 -59.5t132 -22.5q67 0 99 26.5t32 74.5q0 50 -34.5 80t-119.5 30h-97v158h81q86 0 117.5 31t31.5 78q0 41 -23.5 66t-74.5 25q-45 0 -85 -18.5t-89 -57.5l-93 136
q60 52 131 81.5t159 29.5q121 0 199 -60t78 -165q0 -73 -37.5 -125.5t-114.5 -81.5v-11q89 -22 133.5 -78t44.5 -136q0 -118 -88 -187t-248 -69zM1333 0v155h-356v150l347 576h224v-562h116v-164h-116v-155h-215zM1151 319h182v183q0 41 1.5 83t4.5 81q-12 -32 -30.5 -72.5
t-34.5 -65.5z" />
    <glyph glyph-name="questiondown" unicode="&#xbf;" horiz-adv-x="867" 
d="M625 621v-75q0 -67 -15.5 -119.5t-50.5 -99t-93 -96.5q-52 -46 -84.5 -82t-47 -72t-14.5 -81q0 -65 41 -100t115 -35q71 0 141 25.5t145 69.5l100 -214q-93 -58 -193.5 -91t-214.5 -33q-197 0 -303.5 98.5t-106.5 259.5q0 86 23.5 149.5t70.5 118t117 114.5
q55 46 82 77.5t36 61.5t9 71v53h243zM665 957q0 -88 -46 -128.5t-122 -40.5q-72 0 -118.5 40.5t-46.5 128.5q0 86 47 127.5t118 41.5q74 0 121 -41.5t47 -127.5z" />
    <glyph glyph-name="Agrave" unicode="&#xc0;" horiz-adv-x="1245" 
d="M929 0l-91 350h-429l-91 -350h-318l435 1465h371l439 -1465h-316zM779 602l-92 364q-9 41 -21 90.5t-23.5 98.5t-19.5 88q-6 -38 -18 -89t-24 -101t-20 -85l-92 -366h310zM587 1907q24 -44 61 -101.5t75 -111t65 -88.5v-27h-196q-33 26 -78.5 66t-94 85.5t-90 87
t-66.5 69.5v20h324z" />
    <glyph glyph-name="Aacute" unicode="&#xc1;" horiz-adv-x="1245" 
d="M929 0l-91 350h-429l-91 -350h-318l435 1465h371l439 -1465h-316zM779 602l-92 364q-9 41 -21 90.5t-23.5 98.5t-19.5 88q-6 -38 -18 -89t-24 -101t-20 -85l-92 -366h310zM986 1907v-20q-25 -28 -65 -68t-86.5 -84t-93 -85t-83.5 -71h-197v27q35 46 71.5 98t71 104.5
t59.5 98.5h323z" />
    <glyph glyph-name="Acircumflex" unicode="&#xc2;" horiz-adv-x="1245" 
d="M929 0l-91 350h-429l-91 -350h-318l435 1465h371l439 -1465h-316zM779 602l-92 364q-9 41 -21 90.5t-23.5 98.5t-19.5 88q-6 -38 -18 -89t-24 -101t-20 -85l-92 -366h310zM774 1907q26 -45 64.5 -98.5t81 -106t79.5 -96.5v-27h-181q-45 32 -96 75t-99 96q-49 -53 -99 -97
t-92 -74h-183v27q35 39 78.5 93t83.5 110t63 98h300z" />
    <glyph glyph-name="Atilde" unicode="&#xc3;" horiz-adv-x="1245" 
d="M929 0l-91 350h-429l-91 -350h-318l435 1465h371l439 -1465h-316zM779 602l-92 364q-9 41 -21 90.5t-23.5 98.5t-19.5 88q-6 -38 -18 -89t-24 -101t-20 -85l-92 -366h310zM248 1577q4 64 19.5 120t43.5 98t68.5 65.5t93.5 23.5q41 0 79.5 -15.5t75 -36.5t72 -36.5
t69.5 -15.5q29 0 50 27.5t31 78.5h148q-8 -153 -72.5 -230t-153.5 -77q-40 0 -79.5 16t-77 36.5t-72 36.5t-64.5 16q-27 0 -50.5 -26t-33.5 -81h-147z" />
    <glyph glyph-name="Adieresis" unicode="&#xc4;" horiz-adv-x="1245" 
d="M929 0l-91 350h-429l-91 -350h-318l435 1465h371l439 -1465h-316zM779 602l-92 364q-9 41 -21 90.5t-23.5 98.5t-19.5 88q-6 -38 -18 -89t-24 -101t-20 -85l-92 -366h310zM297 1738q0 70 37 103t94 33t95 -34t38 -102q0 -65 -38 -99.5t-95 -34.5t-94 34t-37 100z
M684 1738q0 70 37 103t96 33q57 0 95 -34t38 -102q0 -65 -38 -99.5t-95 -34.5q-59 0 -96 34.5t-37 99.5z" />
    <glyph glyph-name="Aring" unicode="&#xc5;" horiz-adv-x="1245" 
d="M929 0l-91 350h-429l-91 -350h-318l435 1465h371l439 -1465h-316zM779 602l-92 364q-9 41 -21 90.5t-23.5 98.5t-19.5 88q-6 -38 -18 -89t-24 -101t-20 -85l-92 -366h310zM621 1326q-109 0 -176 64.5t-67 171.5t67 171.5t176 64.5q106 0 176.5 -64.5t70.5 -169.5
q0 -107 -69.5 -172.5t-177.5 -65.5zM622 1468q41 0 68 26t27 69q0 42 -27 68t-68 26t-68.5 -26t-27.5 -68q0 -43 24.5 -69t71.5 -26z" />
    <glyph glyph-name="AE" unicode="&#xc6;" horiz-adv-x="1684" 
d="M1580 0h-763v350h-386l-124 -350h-310l551 1462h1032v-247h-470v-332h439v-247h-439v-386h470v-250zM521 602h296v608h-86z" />
    <glyph glyph-name="Ccedilla" unicode="&#xc7;" horiz-adv-x="1147" 
d="M719 1233q-76 0 -134.5 -36t-97.5 -103.5t-58.5 -160.5t-19.5 -206q0 -159 34.5 -270t105 -168.5t177.5 -57.5q79 0 154 21.5t158 55.5v-255q-80 -37 -163.5 -55t-183.5 -18q-195 0 -325.5 90.5t-196 258.5t-65.5 400q0 165 39.5 303t116.5 239t190 156.5t259 55.5
q98 0 194 -24.5t184 -71.5l-90 -242q-68 38 -137 63t-141 25zM883 -258q0 -110 -66.5 -172t-215.5 -62q-45 0 -82 5.5t-67 13.5v162q29 -7 63 -12.5t60 -5.5q38 0 61 16.5t23 51.5q0 39 -37.5 65.5t-117.5 34.5l74 161h164l-31 -71q50 -12 88.5 -37t61 -62.5t22.5 -87.5z
" />
    <glyph glyph-name="Egrave" unicode="&#xc8;" horiz-adv-x="1011" 
d="M907 0h-749v1462h749v-246h-454v-333h423v-247h-423v-386h454v-250zM505 1907q24 -44 61 -101.5t75 -111t65 -88.5v-27h-196q-33 26 -78.5 66t-94 85.5t-90 87t-66.5 69.5v20h324z" />
    <glyph glyph-name="Eacute" unicode="&#xc9;" horiz-adv-x="1011" 
d="M907 0h-749v1462h749v-246h-454v-333h423v-247h-423v-386h454v-250zM905 1907v-20q-25 -28 -65 -68t-86.5 -84t-93 -85t-83.5 -71h-197v27q35 46 71.5 98t71 104.5t59.5 98.5h323z" />
    <glyph glyph-name="Ecircumflex" unicode="&#xca;" horiz-adv-x="1011" 
d="M907 0h-749v1462h749v-246h-454v-333h423v-247h-423v-386h454v-250zM688 1907q26 -45 64.5 -98.5t81 -106t79.5 -96.5v-27h-181q-45 32 -96 75t-99 96q-49 -53 -99 -97t-92 -74h-183v27q35 39 78.5 93t83.5 110t63 98h300z" />
    <glyph glyph-name="Edieresis" unicode="&#xcb;" horiz-adv-x="1011" 
d="M907 0h-749v1462h749v-246h-454v-333h423v-247h-423v-386h454v-250zM210 1738q0 70 37 103t94 33t95 -34t38 -102q0 -65 -38 -99.5t-95 -34.5t-94 34t-37 100zM597 1738q0 70 37 103t96 33q57 0 95 -34t38 -102q0 -65 -38 -99.5t-95 -34.5q-59 0 -96 34.5t-37 99.5z" />
    <glyph glyph-name="Igrave" unicode="&#xcc;" horiz-adv-x="611" 
d="M158 0v1462h295v-1462h-295zM244 1912q24 -44 61 -101.5t75 -111t65 -88.5v-27h-196q-33 26 -78.5 66t-94 85.5t-90 87t-66.5 69.5v20h324z" />
    <glyph glyph-name="Iacute" unicode="&#xcd;" horiz-adv-x="611" 
d="M158 0v1462h295v-1462h-295zM691 1912v-20q-25 -28 -65 -68t-86.5 -84t-93 -85t-83.5 -71h-197v27q35 46 71.5 98t71 104.5t59.5 98.5h323z" />
    <glyph glyph-name="Icircumflex" unicode="&#xce;" horiz-adv-x="611" 
d="M158 0v1462h295v-1462h-295zM456 1912q26 -45 64.5 -98.5t81 -106t79.5 -96.5v-27h-181q-45 32 -96 75t-99 96q-49 -53 -99 -97t-92 -74h-183v27q35 39 78.5 93t83.5 110t63 98h300z" />
    <glyph glyph-name="Idieresis" unicode="&#xcf;" horiz-adv-x="611" 
d="M158 0v1462h295v-1462h-295zM-22 1743q0 70 37 103t94 33t95 -34t38 -102q0 -65 -38 -99.5t-95 -34.5t-94 34t-37 100zM365 1743q0 70 37 103t96 33q57 0 95 -34t38 -102q0 -65 -38 -99.5t-95 -34.5q-59 0 -96 34.5t-37 99.5z" />
    <glyph glyph-name="Eth" unicode="&#xd0;" horiz-adv-x="1331" 
d="M570 1462q205 0 352 -81t226 -239.5t79 -389.5q0 -246 -81 -413.5t-235 -253t-374 -85.5h-379v623h-126v232h126v607h412zM575 1214h-122v-359h199v-232h-199v-372h96q188 0 280.5 122t92.5 368q0 163 -40 268t-117.5 155t-189.5 50z" />
    <glyph glyph-name="Ntilde" unicode="&#xd1;" horiz-adv-x="1469" 
d="M1312 0h-362l-532 1063h-8q5 -70 8 -136t5.5 -127t3.5 -117v-683h-269v1462h359l531 -1046h7q-3 69 -6 132t-5 122t-3 114v678h271v-1462zM362 1577q4 64 19.5 120t43.5 98t68.5 65.5t93.5 23.5q41 0 79.5 -15.5t75 -36.5t72 -36.5t69.5 -15.5q29 0 50 27.5t31 78.5h148
q-8 -153 -72.5 -230t-153.5 -77q-40 0 -79.5 16t-77 36.5t-72 36.5t-64.5 16q-27 0 -50.5 -26t-33.5 -81h-147z" />
    <glyph glyph-name="Ograve" unicode="&#xd2;" horiz-adv-x="1422" 
d="M1319 733q0 -171 -37 -310t-112 -238t-189 -152t-269 -53q-156 0 -270.5 53t-189 152.5t-111.5 238.5t-37 311q0 237 66.5 404.5t202 256.5t340.5 89q207 0 341 -92t199.5 -260.5t65.5 -399.5zM412 733q0 -160 32 -271.5t98.5 -169.5t169.5 -58q104 0 170 57t97.5 168.5
t31.5 273.5q0 244 -71.5 372.5t-226.5 128.5q-103 0 -170 -58t-99 -170t-32 -273zM678 1907q24 -44 61 -101.5t75 -111t65 -88.5v-27h-196q-33 26 -78.5 66t-94 85.5t-90 87t-66.5 69.5v20h324z" />
    <glyph glyph-name="Oacute" unicode="&#xd3;" horiz-adv-x="1422" 
d="M1319 733q0 -171 -37 -310t-112 -238t-189 -152t-269 -53q-156 0 -270.5 53t-189 152.5t-111.5 238.5t-37 311q0 237 66.5 404.5t202 256.5t340.5 89q207 0 341 -92t199.5 -260.5t65.5 -399.5zM412 733q0 -160 32 -271.5t98.5 -169.5t169.5 -58q104 0 170 57t97.5 168.5
t31.5 273.5q0 244 -71.5 372.5t-226.5 128.5q-103 0 -170 -58t-99 -170t-32 -273zM1085 1907v-20q-25 -28 -65 -68t-86.5 -84t-93 -85t-83.5 -71h-197v27q35 46 71.5 98t71 104.5t59.5 98.5h323z" />
    <glyph glyph-name="Ocircumflex" unicode="&#xd4;" horiz-adv-x="1422" 
d="M1319 733q0 -171 -37 -310t-112 -238t-189 -152t-269 -53q-156 0 -270.5 53t-189 152.5t-111.5 238.5t-37 311q0 237 66.5 404.5t202 256.5t340.5 89q207 0 341 -92t199.5 -260.5t65.5 -399.5zM412 733q0 -160 32 -271.5t98.5 -169.5t169.5 -58q104 0 170 57t97.5 168.5
t31.5 273.5q0 244 -71.5 372.5t-226.5 128.5q-103 0 -170 -58t-99 -170t-32 -273zM863 1907q26 -45 64.5 -98.5t81 -106t79.5 -96.5v-27h-181q-45 32 -96 75t-99 96q-49 -53 -99 -97t-92 -74h-183v27q35 39 78.5 93t83.5 110t63 98h300z" />
    <glyph glyph-name="Otilde" unicode="&#xd5;" horiz-adv-x="1422" 
d="M1319 733q0 -171 -37 -310t-112 -238t-189 -152t-269 -53q-156 0 -270.5 53t-189 152.5t-111.5 238.5t-37 311q0 237 66.5 404.5t202 256.5t340.5 89q207 0 341 -92t199.5 -260.5t65.5 -399.5zM412 733q0 -160 32 -271.5t98.5 -169.5t169.5 -58q104 0 170 57t97.5 168.5
t31.5 273.5q0 244 -71.5 372.5t-226.5 128.5q-103 0 -170 -58t-99 -170t-32 -273zM338 1577q4 64 19.5 120t43.5 98t68.5 65.5t93.5 23.5q41 0 79.5 -15.5t75 -36.5t72 -36.5t69.5 -15.5q29 0 50 27.5t31 78.5h148q-8 -153 -72.5 -230t-153.5 -77q-40 0 -79.5 16t-77 36.5
t-72 36.5t-64.5 16q-27 0 -50.5 -26t-33.5 -81h-147z" />
    <glyph glyph-name="Odieresis" unicode="&#xd6;" horiz-adv-x="1422" 
d="M1319 733q0 -171 -37 -310t-112 -238t-189 -152t-269 -53q-156 0 -270.5 53t-189 152.5t-111.5 238.5t-37 311q0 237 66.5 404.5t202 256.5t340.5 89q207 0 341 -92t199.5 -260.5t65.5 -399.5zM412 733q0 -160 32 -271.5t98.5 -169.5t169.5 -58q104 0 170 57t97.5 168.5
t31.5 273.5q0 244 -71.5 372.5t-226.5 128.5q-103 0 -170 -58t-99 -170t-32 -273zM387 1738q0 70 37 103t94 33t95 -34t38 -102q0 -65 -38 -99.5t-95 -34.5t-94 34t-37 100zM774 1738q0 70 37 103t96 33q57 0 95 -34t38 -102q0 -65 -38 -99.5t-95 -34.5q-59 0 -96 34.5
t-37 99.5z" />
    <glyph glyph-name="multiply" unicode="&#xd7;" horiz-adv-x="1070" 
d="M816 1158l153 -150l-285 -285l281 -282l-150 -151l-283 280l-283 -279l-147 152l277 280l-278 281l149 153l282 -279z" />
    <glyph glyph-name="Oslash" unicode="&#xd8;" horiz-adv-x="1422" 
d="M1319 733q0 -176 -38 -315.5t-113.5 -237t-189 -149t-266.5 -51.5q-85 0 -158 16.5t-134 49.5l-81 -143l-152 87l93 162q-93 107 -134.5 253t-41.5 330q0 237 66.5 404.5t202 256.5t340.5 89q87 0 162.5 -18.5t137.5 -54.5l76 131l149 -84l-88 -155q85 -96 127 -240.5
t42 -330.5zM1015 733q0 82 -9 151.5t-28 124.5l-425 -729q32 -25 71.5 -38t87.5 -13q105 0 172 58.5t99 171t32 274.5zM409 733q0 -88 10 -161.5t31 -130.5l431 735q-34 31 -75.5 46t-91.5 15q-105 0 -173 -58.5t-100 -171t-32 -274.5z" />
    <glyph glyph-name="Ugrave" unicode="&#xd9;" horiz-adv-x="1350" 
d="M1201 1462v-963q0 -160 -59 -276t-177 -179.5t-294 -63.5q-254 0 -388 135.5t-134 382.5v964h294v-936q0 -160 59 -226t174 -66q80 0 131 30t76 95t25 169v934h293zM644 1907q24 -44 61 -101.5t75 -111t65 -88.5v-27h-196q-33 26 -78.5 66t-94 85.5t-90 87t-66.5 69.5v20
h324z" />
    <glyph glyph-name="Uacute" unicode="&#xda;" horiz-adv-x="1350" 
d="M1201 1462v-963q0 -160 -59 -276t-177 -179.5t-294 -63.5q-254 0 -388 135.5t-134 382.5v964h294v-936q0 -160 59 -226t174 -66q80 0 131 30t76 95t25 169v934h293zM1047 1907v-20q-25 -28 -65 -68t-86.5 -84t-93 -85t-83.5 -71h-197v27q35 46 71.5 98t71 104.5
t59.5 98.5h323z" />
    <glyph glyph-name="Ucircumflex" unicode="&#xdb;" horiz-adv-x="1350" 
d="M1201 1462v-963q0 -160 -59 -276t-177 -179.5t-294 -63.5q-254 0 -388 135.5t-134 382.5v964h294v-936q0 -160 59 -226t174 -66q80 0 131 30t76 95t25 169v934h293zM826 1907q26 -45 64.5 -98.5t81 -106t79.5 -96.5v-27h-181q-45 32 -96 75t-99 96q-49 -53 -99 -97
t-92 -74h-183v27q35 39 78.5 93t83.5 110t63 98h300z" />
    <glyph glyph-name="Udieresis" unicode="&#xdc;" horiz-adv-x="1350" 
d="M1201 1462v-963q0 -160 -59 -276t-177 -179.5t-294 -63.5q-254 0 -388 135.5t-134 382.5v964h294v-936q0 -160 59 -226t174 -66q80 0 131 30t76 95t25 169v934h293zM349 1738q0 70 37 103t94 33t95 -34t38 -102q0 -65 -38 -99.5t-95 -34.5t-94 34t-37 100zM736 1738
q0 70 37 103t96 33q57 0 95 -34t38 -102q0 -65 -38 -99.5t-95 -34.5q-59 0 -96 34.5t-37 99.5z" />
    <glyph glyph-name="Yacute" unicode="&#xdd;" horiz-adv-x="1125" 
d="M563 864l250 598h312l-416 -896v-566h-293v557l-416 905h314zM935 1907v-20q-25 -28 -65 -68t-86.5 -84t-93 -85t-83.5 -71h-197v27q35 46 71.5 98t71 104.5t59.5 98.5h323z" />
    <glyph glyph-name="Thorn" unicode="&#xde;" horiz-adv-x="1130" 
d="M1061 777q0 -100 -26.5 -188t-85 -155t-152 -105t-227.5 -38h-117v-291h-295v1462h295v-229h132q244 0 360 -120t116 -336zM453 536h77q80 0 132 24.5t78 77t26 137.5q0 109 -52 160.5t-163 51.5h-98v-451z" />
    <glyph glyph-name="germandbls" unicode="&#xdf;" horiz-adv-x="1277" 
d="M1098 1232q0 -74 -24.5 -127.5t-60.5 -92.5t-71.5 -69t-60 -57.5t-24.5 -57.5q0 -24 15.5 -47t50.5 -50.5t92 -67.5q64 -47 108 -94.5t67 -104.5t23 -134q0 -114 -46 -192t-135 -118t-220 -40q-78 0 -145 14t-125 46v247q32 -22 73 -41t85 -30t84 -11q67 0 102.5 29.5
t35.5 83.5q0 34 -13 60.5t-47 56.5t-100 74q-75 52 -117 98.5t-58.5 92.5t-16.5 96q0 61 24 104t60 76.5t71 65t59 68.5t24 87q0 61 -49.5 99.5t-133.5 38.5q-61 0 -106.5 -24t-70.5 -73t-25 -123v-1115h-285v1134q0 141 62 237t172 146t254 50q138 0 244 -39.5t167 -114
t61 -181.5z" />
    <glyph glyph-name="agrave" unicode="&#xe0;" horiz-adv-x="1094" 
d="M561 1141q194 0 297 -99t103 -299v-743h-204l-51 151h-7q-41 -58 -85.5 -96t-101.5 -56.5t-136 -18.5q-96 0 -164 44t-103.5 123.5t-35.5 184.5q0 177 111 264t325 95l167 6v47q0 90 -37.5 133.5t-110.5 43.5q-65 0 -132.5 -21t-140.5 -59l-87 203q82 46 183 71.5
t210 25.5zM676 519l-97 -4q-116 -4 -165.5 -50t-49.5 -128q0 -72 33 -105.5t91 -33.5q80 0 134 59.5t54 164.5v97zM532 1569q24 -44 61 -101.5t75 -111t65 -88.5v-27h-196q-33 26 -78.5 66t-94 85.5t-90 87t-66.5 69.5v20h324z" />
    <glyph glyph-name="aacute" unicode="&#xe1;" horiz-adv-x="1094" 
d="M561 1141q194 0 297 -99t103 -299v-743h-204l-51 151h-7q-41 -58 -85.5 -96t-101.5 -56.5t-136 -18.5q-96 0 -164 44t-103.5 123.5t-35.5 184.5q0 177 111 264t325 95l167 6v47q0 90 -37.5 133.5t-110.5 43.5q-65 0 -132.5 -21t-140.5 -59l-87 203q82 46 183 71.5
t210 25.5zM676 519l-97 -4q-116 -4 -165.5 -50t-49.5 -128q0 -72 33 -105.5t91 -33.5q80 0 134 59.5t54 164.5v97zM916 1569v-20q-25 -28 -65 -68t-86.5 -84t-93 -85t-83.5 -71h-197v27q35 46 71.5 98t71 104.5t59.5 98.5h323z" />
    <glyph glyph-name="acircumflex" unicode="&#xe2;" horiz-adv-x="1094" 
d="M561 1141q194 0 297 -99t103 -299v-743h-204l-51 151h-7q-41 -58 -85.5 -96t-101.5 -56.5t-136 -18.5q-96 0 -164 44t-103.5 123.5t-35.5 184.5q0 177 111 264t325 95l167 6v47q0 90 -37.5 133.5t-110.5 43.5q-65 0 -132.5 -21t-140.5 -59l-87 203q82 46 183 71.5
t210 25.5zM676 519l-97 -4q-116 -4 -165.5 -50t-49.5 -128q0 -72 33 -105.5t91 -33.5q80 0 134 59.5t54 164.5v97zM706 1569q26 -45 64.5 -98.5t81 -106t79.5 -96.5v-27h-181q-45 32 -96 75t-99 96q-49 -53 -99 -97t-92 -74h-183v27q35 39 78.5 93t83.5 110t63 98h300z" />
    <glyph glyph-name="atilde" unicode="&#xe3;" horiz-adv-x="1094" 
d="M561 1141q194 0 297 -99t103 -299v-743h-204l-51 151h-7q-41 -58 -85.5 -96t-101.5 -56.5t-136 -18.5q-96 0 -164 44t-103.5 123.5t-35.5 184.5q0 177 111 264t325 95l167 6v47q0 90 -37.5 133.5t-110.5 43.5q-65 0 -132.5 -21t-140.5 -59l-87 203q82 46 183 71.5
t210 25.5zM676 519l-97 -4q-116 -4 -165.5 -50t-49.5 -128q0 -72 33 -105.5t91 -33.5q80 0 134 59.5t54 164.5v97zM180 1239q4 64 19.5 120t43.5 98t68.5 65.5t93.5 23.5q41 0 79.5 -15.5t75 -36.5t72 -36.5t69.5 -15.5q29 0 50 27.5t31 78.5h148q-8 -153 -72.5 -230
t-153.5 -77q-40 0 -79.5 16t-77 36.5t-72 36.5t-64.5 16q-27 0 -50.5 -26t-33.5 -81h-147z" />
    <glyph glyph-name="adieresis" unicode="&#xe4;" horiz-adv-x="1094" 
d="M561 1141q194 0 297 -99t103 -299v-743h-204l-51 151h-7q-41 -58 -85.5 -96t-101.5 -56.5t-136 -18.5q-96 0 -164 44t-103.5 123.5t-35.5 184.5q0 177 111 264t325 95l167 6v47q0 90 -37.5 133.5t-110.5 43.5q-65 0 -132.5 -21t-140.5 -59l-87 203q82 46 183 71.5
t210 25.5zM676 519l-97 -4q-116 -4 -165.5 -50t-49.5 -128q0 -72 33 -105.5t91 -33.5q80 0 134 59.5t54 164.5v97zM228 1400q0 70 37 103t94 33t95 -34t38 -102q0 -65 -38 -99.5t-95 -34.5t-94 34t-37 100zM615 1400q0 70 37 103t96 33q57 0 95 -34t38 -102q0 -65 -38 -99.5
t-95 -34.5q-59 0 -96 34.5t-37 99.5z" />
    <glyph glyph-name="aring" unicode="&#xe5;" horiz-adv-x="1094" 
d="M561 1141q194 0 297 -99t103 -299v-743h-204l-51 151h-7q-41 -58 -85.5 -96t-101.5 -56.5t-136 -18.5q-96 0 -164 44t-103.5 123.5t-35.5 184.5q0 177 111 264t325 95l167 6v47q0 90 -37.5 133.5t-110.5 43.5q-65 0 -132.5 -21t-140.5 -59l-87 203q82 46 183 71.5
t210 25.5zM676 519l-97 -4q-116 -4 -165.5 -50t-49.5 -128q0 -72 33 -105.5t91 -33.5q80 0 134 59.5t54 164.5v97zM556 1240q-109 0 -176 64.5t-67 171.5t67 171.5t176 64.5q106 0 176.5 -64.5t70.5 -169.5q0 -107 -69.5 -172.5t-177.5 -65.5zM557 1382q41 0 68 26t27 69
q0 42 -27 68t-68 26t-68.5 -26t-27.5 -68q0 -43 24.5 -69t71.5 -26z" />
    <glyph glyph-name="ae" unicode="&#xe6;" horiz-adv-x="1651" 
d="M1142 1139q134 0 230.5 -60.5t148.5 -174t52 -272.5v-149h-628q4 -138 66 -210t179 -72q86 0 165 21t161 65v-229q-75 -40 -157 -59t-192 -19q-83 0 -157 22t-134 66.5t-101 111.5q-50 -69 -104 -113t-121 -65.5t-158 -21.5q-97 0 -169 44t-111 123.5t-39 184.5
q0 118 48.5 195.5t144 118t235.5 45.5l165 6v65q0 80 -37.5 119.5t-106.5 39.5q-64 0 -130 -20t-138 -58l-86 201q79 45 175.5 71t199.5 26q100 0 172.5 -31t120.5 -94q55 62 129.5 92.5t176.5 30.5zM666 519l-94 -4q-112 -4 -160 -49.5t-48 -128.5q0 -72 32 -105.5
t88 -33.5q52 0 93.5 27t65 77.5t23.5 119.5v97zM1138 925q-82 0 -133 -58t-57 -186h358q-1 74 -20 129t-56 85t-92 30z" />
    <glyph glyph-name="ccedilla" unicode="&#xe7;" horiz-adv-x="935" 
d="M554 -20q-153 0 -258 61.5t-159 189t-54 323.5q0 188 57.5 319t166 199t263.5 68q99 0 174.5 -20.5t136.5 -54.5l-82 -224q-59 28 -112.5 44t-106.5 16q-68 0 -114 -39t-69 -115.5t-23 -191.5q0 -113 24 -188t70.5 -112t113.5 -37q76 0 142 23.5t128 66.5v-245
q-62 -43 -133.5 -63t-164.5 -20zM764 -258q0 -110 -66.5 -172t-215.5 -62q-45 0 -82 5.5t-67 13.5v162q29 -7 63 -12.5t60 -5.5q38 0 61 16.5t23 51.5q0 39 -37.5 65.5t-117.5 34.5l74 161h164l-31 -71q50 -12 88.5 -37t61 -62.5t22.5 -87.5z" />
    <glyph glyph-name="egrave" unicode="&#xe8;" horiz-adv-x="1073" 
d="M550 1139q141 0 240.5 -60.5t152.5 -174t53 -272.5v-149h-627q3 -138 65.5 -209.5t180.5 -71.5q89 0 165 20.5t159 64.5v-229q-75 -40 -158 -59t-192 -19q-161 0 -274 66t-172.5 193.5t-59.5 312.5q0 193 56 323.5t160.5 197t250.5 66.5zM554 926q-77 0 -126 -58
t-55 -187h357q-1 74 -20.5 129t-58.5 85.5t-97 30.5zM519 1569q24 -44 61 -101.5t75 -111t65 -88.5v-27h-196q-33 26 -78.5 66t-94 85.5t-90 87t-66.5 69.5v20h324z" />
    <glyph glyph-name="eacute" unicode="&#xe9;" horiz-adv-x="1073" 
d="M550 1139q141 0 240.5 -60.5t152.5 -174t53 -272.5v-149h-627q3 -138 65.5 -209.5t180.5 -71.5q89 0 165 20.5t159 64.5v-229q-75 -40 -158 -59t-192 -19q-161 0 -274 66t-172.5 193.5t-59.5 312.5q0 193 56 323.5t160.5 197t250.5 66.5zM554 926q-77 0 -126 -58
t-55 -187h357q-1 74 -20.5 129t-58.5 85.5t-97 30.5zM903 1569v-20q-25 -28 -65 -68t-86.5 -84t-93 -85t-83.5 -71h-197v27q35 46 71.5 98t71 104.5t59.5 98.5h323z" />
    <glyph glyph-name="ecircumflex" unicode="&#xea;" horiz-adv-x="1073" 
d="M550 1139q141 0 240.5 -60.5t152.5 -174t53 -272.5v-149h-627q3 -138 65.5 -209.5t180.5 -71.5q89 0 165 20.5t159 64.5v-229q-75 -40 -158 -59t-192 -19q-161 0 -274 66t-172.5 193.5t-59.5 312.5q0 193 56 323.5t160.5 197t250.5 66.5zM554 926q-77 0 -126 -58
t-55 -187h357q-1 74 -20.5 129t-58.5 85.5t-97 30.5zM693 1569q26 -45 64.5 -98.5t81 -106t79.5 -96.5v-27h-181q-45 32 -96 75t-99 96q-49 -53 -99 -97t-92 -74h-183v27q35 39 78.5 93t83.5 110t63 98h300z" />
    <glyph glyph-name="edieresis" unicode="&#xeb;" horiz-adv-x="1073" 
d="M550 1139q141 0 240.5 -60.5t152.5 -174t53 -272.5v-149h-627q3 -138 65.5 -209.5t180.5 -71.5q89 0 165 20.5t159 64.5v-229q-75 -40 -158 -59t-192 -19q-161 0 -274 66t-172.5 193.5t-59.5 312.5q0 193 56 323.5t160.5 197t250.5 66.5zM554 926q-77 0 -126 -58
t-55 -187h357q-1 74 -20.5 129t-58.5 85.5t-97 30.5zM215 1400q0 70 37 103t94 33t95 -34t38 -102q0 -65 -38 -99.5t-95 -34.5t-94 34t-37 100zM602 1400q0 70 37 103t96 33q57 0 95 -34t38 -102q0 -65 -38 -99.5t-95 -34.5q-59 0 -96 34.5t-37 99.5z" />
    <glyph glyph-name="igrave" unicode="&#xec;" horiz-adv-x="563" 
d="M424 0h-285v1119h285v-1119zM258 1569q24 -44 61 -101.5t75 -111t65 -88.5v-27h-196q-33 26 -78.5 66t-94 85.5t-90 87t-66.5 69.5v20h324z" />
    <glyph glyph-name="iacute" unicode="&#xed;" horiz-adv-x="563" 
d="M424 0h-285v1119h285v-1119zM642 1569v-20q-25 -28 -65 -68t-86.5 -84t-93 -85t-83.5 -71h-197v27q35 46 71.5 98t71 104.5t59.5 98.5h323z" />
    <glyph glyph-name="icircumflex" unicode="&#xee;" horiz-adv-x="563" 
d="M424 0h-285v1119h285v-1119zM432 1569q26 -45 64.5 -98.5t81 -106t79.5 -96.5v-27h-181q-45 32 -96 75t-99 96q-49 -53 -99 -97t-92 -74h-183v27q35 39 78.5 93t83.5 110t63 98h300z" />
    <glyph glyph-name="idieresis" unicode="&#xef;" horiz-adv-x="563" 
d="M424 0h-285v1119h285v-1119zM-46 1400q0 70 37 103t94 33t95 -34t38 -102q0 -65 -38 -99.5t-95 -34.5t-94 34t-37 100zM341 1400q0 70 37 103t96 33q57 0 95 -34t38 -102q0 -65 -38 -99.5t-95 -34.5q-59 0 -96 34.5t-37 99.5z" />
    <glyph glyph-name="eth" unicode="&#xf0;" horiz-adv-x="1135" 
d="M423 1568q55 -27 107.5 -58t102.5 -68l185 125l102 -141l-150 -101q91 -92 153.5 -203t95.5 -248.5t33 -310.5q0 -185 -58 -315.5t-167.5 -199t-261.5 -68.5q-145 0 -253 62.5t-168.5 177t-60.5 271.5q0 161 56.5 274t154.5 172t221 59q50 0 89.5 -8t70 -24t51.5 -41l7 4
q-24 73 -63 137.5t-94 123.5l-182 -121l-100 142l154 103q-32 24 -65 47.5t-69 45.5zM569 770q-68 0 -111.5 -31t-63.5 -94t-20 -159q0 -84 20 -147.5t63 -98.5t112 -35q103 0 147.5 77t44.5 231q0 56 -11.5 102.5t-35 81.5t-59.5 54t-86 19z" />
    <glyph glyph-name="ntilde" unicode="&#xf1;" horiz-adv-x="1186" 
d="M707 1140q160 0 253 -100t93 -305v-735h-286v659q0 119 -33.5 179.5t-113.5 60.5q-112 0 -154.5 -88.5t-42.5 -277.5v-533h-285v1119h222l34 -143h17q31 56 75.5 92t101 54t119.5 18zM228 1239q4 64 19.5 120t43.5 98t68.5 65.5t93.5 23.5q41 0 79.5 -15.5t75 -36.5
t72 -36.5t69.5 -15.5q29 0 50 27.5t31 78.5h148q-8 -153 -72.5 -230t-153.5 -77q-40 0 -79.5 16t-77 36.5t-72 36.5t-64.5 16q-27 0 -50.5 -26t-33.5 -81h-147z" />
    <glyph glyph-name="ograve" unicode="&#xf2;" horiz-adv-x="1134" 
d="M1051 562q0 -128 -30.5 -234.5t-91.5 -184.5t-152 -120.5t-212 -42.5q-114 0 -203 42t-151.5 119.5t-95 184.5t-32.5 236q0 178 55.5 307.5t163.5 200t268 70.5q143 0 251.5 -67t169 -195.5t60.5 -315.5zM374 560q0 -113 20 -190t63 -116t111 -39t110 39t61.5 116.5
t19.5 191.5q0 115 -19.5 190.5t-62 113.5t-110.5 38q-102 0 -147.5 -85t-45.5 -259zM545 1569q24 -44 61 -101.5t75 -111t65 -88.5v-27h-196q-33 26 -78.5 66t-94 85.5t-90 87t-66.5 69.5v20h324z" />
    <glyph glyph-name="oacute" unicode="&#xf3;" horiz-adv-x="1134" 
d="M1051 562q0 -128 -30.5 -234.5t-91.5 -184.5t-152 -120.5t-212 -42.5q-114 0 -203 42t-151.5 119.5t-95 184.5t-32.5 236q0 178 55.5 307.5t163.5 200t268 70.5q143 0 251.5 -67t169 -195.5t60.5 -315.5zM374 560q0 -113 20 -190t63 -116t111 -39t110 39t61.5 116.5
t19.5 191.5q0 115 -19.5 190.5t-62 113.5t-110.5 38q-102 0 -147.5 -85t-45.5 -259zM929 1569v-20q-25 -28 -65 -68t-86.5 -84t-93 -85t-83.5 -71h-197v27q35 46 71.5 98t71 104.5t59.5 98.5h323z" />
    <glyph glyph-name="ocircumflex" unicode="&#xf4;" horiz-adv-x="1134" 
d="M1051 562q0 -128 -30.5 -234.5t-91.5 -184.5t-152 -120.5t-212 -42.5q-114 0 -203 42t-151.5 119.5t-95 184.5t-32.5 236q0 178 55.5 307.5t163.5 200t268 70.5q143 0 251.5 -67t169 -195.5t60.5 -315.5zM374 560q0 -113 20 -190t63 -116t111 -39t110 39t61.5 116.5
t19.5 191.5q0 115 -19.5 190.5t-62 113.5t-110.5 38q-102 0 -147.5 -85t-45.5 -259zM719 1569q26 -45 64.5 -98.5t81 -106t79.5 -96.5v-27h-181q-45 32 -96 75t-99 96q-49 -53 -99 -97t-92 -74h-183v27q35 39 78.5 93t83.5 110t63 98h300z" />
    <glyph glyph-name="otilde" unicode="&#xf5;" horiz-adv-x="1134" 
d="M1051 562q0 -128 -30.5 -234.5t-91.5 -184.5t-152 -120.5t-212 -42.5q-114 0 -203 42t-151.5 119.5t-95 184.5t-32.5 236q0 178 55.5 307.5t163.5 200t268 70.5q143 0 251.5 -67t169 -195.5t60.5 -315.5zM374 560q0 -113 20 -190t63 -116t111 -39t110 39t61.5 116.5
t19.5 191.5q0 115 -19.5 190.5t-62 113.5t-110.5 38q-102 0 -147.5 -85t-45.5 -259zM192 1239q4 64 19.5 120t43.5 98t68.5 65.5t93.5 23.5q41 0 79.5 -15.5t75 -36.5t72 -36.5t69.5 -15.5q29 0 50 27.5t31 78.5h148q-8 -153 -72.5 -230t-153.5 -77q-40 0 -79.5 16t-77 36.5
t-72 36.5t-64.5 16q-27 0 -50.5 -26t-33.5 -81h-147z" />
    <glyph glyph-name="odieresis" unicode="&#xf6;" horiz-adv-x="1134" 
d="M1051 562q0 -128 -30.5 -234.5t-91.5 -184.5t-152 -120.5t-212 -42.5q-114 0 -203 42t-151.5 119.5t-95 184.5t-32.5 236q0 178 55.5 307.5t163.5 200t268 70.5q143 0 251.5 -67t169 -195.5t60.5 -315.5zM374 560q0 -113 20 -190t63 -116t111 -39t110 39t61.5 116.5
t19.5 191.5q0 115 -19.5 190.5t-62 113.5t-110.5 38q-102 0 -147.5 -85t-45.5 -259zM240 1400q0 70 37 103t94 33t95 -34t38 -102q0 -65 -38 -99.5t-95 -34.5t-94 34t-37 100zM627 1400q0 70 37 103t96 33q57 0 95 -34t38 -102q0 -65 -38 -99.5t-95 -34.5q-59 0 -96 34.5
t-37 99.5z" />
    <glyph glyph-name="divide" unicode="&#xf7;" horiz-adv-x="1070" 
d="M78 613v218h913v-218h-913zM535 199q-62 0 -101.5 38t-39.5 117t39 116t102 37q60 0 98.5 -37t38.5 -116t-39 -117t-98 -38zM535 937q-62 0 -101.5 38.5t-39.5 115.5q0 81 39 118t102 37q60 0 98.5 -37t38.5 -118q0 -77 -39 -115.5t-98 -38.5z" />
    <glyph glyph-name="oslash" unicode="&#xf8;" horiz-adv-x="1134" 
d="M1051 562q0 -184 -58 -314.5t-167 -199t-261 -68.5q-58 0 -109.5 11.5t-98.5 33.5l-69 -125l-144 84l79 140q-70 83 -105 191.5t-35 246.5q0 278 129 428t358 150q60 0 113.5 -13t101.5 -38l59 103l143 -86l-67 -121q63 -74 97 -181t34 -242zM368 560q0 -50 4 -92.5
t12 -76.5l284 488q-20 16 -45.5 24t-55.5 8q-105 0 -152 -87.5t-47 -263.5zM766 562q0 44 -3 82t-8 69l-278 -479q18 -13 41 -19.5t49 -6.5q71 0 115 40t64 119t20 195z" />
    <glyph glyph-name="ugrave" unicode="&#xf9;" horiz-adv-x="1186" 
d="M1049 1119v-1119h-222l-35 143h-16q-30 -55 -75 -91t-101 -54t-119 -18q-110 0 -187.5 46t-118.5 136.5t-41 226.5v730h285v-652q0 -123 34 -185t109 -62q80 0 123.5 41t60.5 119.5t17 191.5v547h286zM571 1569q24 -44 61 -101.5t75 -111t65 -88.5v-27h-196
q-33 26 -78.5 66t-94 85.5t-90 87t-66.5 69.5v20h324z" />
    <glyph glyph-name="uacute" unicode="&#xfa;" horiz-adv-x="1186" 
d="M1049 1119v-1119h-222l-35 143h-16q-30 -55 -75 -91t-101 -54t-119 -18q-110 0 -187.5 46t-118.5 136.5t-41 226.5v730h285v-652q0 -123 34 -185t109 -62q80 0 123.5 41t60.5 119.5t17 191.5v547h286zM956 1569v-20q-25 -28 -65 -68t-86.5 -84t-93 -85t-83.5 -71h-197v27
q35 46 71.5 98t71 104.5t59.5 98.5h323z" />
    <glyph glyph-name="ucircumflex" unicode="&#xfb;" horiz-adv-x="1186" 
d="M1049 1119v-1119h-222l-35 143h-16q-30 -55 -75 -91t-101 -54t-119 -18q-110 0 -187.5 46t-118.5 136.5t-41 226.5v730h285v-652q0 -123 34 -185t109 -62q80 0 123.5 41t60.5 119.5t17 191.5v547h286zM746 1569q26 -45 64.5 -98.5t81 -106t79.5 -96.5v-27h-181
q-45 32 -96 75t-99 96q-49 -53 -99 -97t-92 -74h-183v27q35 39 78.5 93t83.5 110t63 98h300z" />
    <glyph glyph-name="udieresis" unicode="&#xfc;" horiz-adv-x="1186" 
d="M1049 1119v-1119h-222l-35 143h-16q-30 -55 -75 -91t-101 -54t-119 -18q-110 0 -187.5 46t-118.5 136.5t-41 226.5v730h285v-652q0 -123 34 -185t109 -62q80 0 123.5 41t60.5 119.5t17 191.5v547h286zM267 1400q0 70 37 103t94 33t95 -34t38 -102q0 -65 -38 -99.5
t-95 -34.5t-94 34t-37 100zM654 1400q0 70 37 103t96 33q57 0 95 -34t38 -102q0 -65 -38 -99.5t-95 -34.5q-59 0 -96 34.5t-37 99.5z" />
    <glyph glyph-name="yacute" unicode="&#xfd;" horiz-adv-x="1037" 
d="M3 1119h307l171 -585q9 -34 16.5 -68t13 -68t8.5 -68h7q5 48 15.5 97t26.5 105l165 587h301l-403 -1245q-40 -127 -100 -207.5t-138.5 -119.5t-178.5 -39q-43 0 -77.5 5.5t-63.5 11.5v239q21 -6 47 -10t53 -4q53 0 88.5 21.5t61 66t46.5 111.5l17 61zM880 1569v-20
q-25 -28 -65 -68t-86.5 -84t-93 -85t-83.5 -71h-197v27q35 46 71.5 98t71 104.5t59.5 98.5h323z" />
    <glyph glyph-name="thorn" unicode="&#xfe;" horiz-adv-x="1160" 
d="M1077 559q0 -185 -45.5 -314t-129 -197t-196.5 -68q-66 0 -119.5 18.5t-93.5 52.5t-70 81h-11q4 -31 6.5 -63t4 -60t1.5 -50v-451h-286v2048h285v-384q0 -51 -3 -104.5t-8 -94.5h11q32 56 72 93t91 55.5t116 18.5q173 0 274 -150t101 -431zM787 560q0 175 -43.5 260
t-132.5 85q-101 0 -143.5 -75.5t-44.5 -237.5v-44q0 -165 43 -247t147 -82q61 0 99.5 41t56.5 117.5t18 182.5z" />
    <glyph glyph-name="ydieresis" unicode="&#xff;" horiz-adv-x="1037" 
d="M3 1119h307l171 -585q9 -34 16.5 -68t13 -68t8.5 -68h7q5 48 15.5 97t26.5 105l165 587h301l-403 -1245q-40 -127 -100 -207.5t-138.5 -119.5t-178.5 -39q-43 0 -77.5 5.5t-63.5 11.5v239q21 -6 47 -10t53 -4q53 0 88.5 21.5t61 66t46.5 111.5l17 61zM192 1400
q0 70 37 103t94 33t95 -34t38 -102q0 -65 -38 -99.5t-95 -34.5t-94 34t-37 100zM579 1400q0 70 37 103t96 33q57 0 95 -34t38 -102q0 -65 -38 -99.5t-95 -34.5q-59 0 -96 34.5t-37 99.5z" />
    <glyph glyph-name="Amacron" unicode="&#x100;" horiz-adv-x="1245" 
d="M929 0l-91 350h-429l-91 -350h-318l435 1465h371l439 -1465h-316zM779 602l-92 364q-9 41 -21 90.5t-23.5 98.5t-19.5 88q-6 -38 -18 -89t-24 -101t-20 -85l-92 -366h310zM935 1799v-202h-622v202h622z" />
    <glyph glyph-name="amacron" unicode="&#x101;" horiz-adv-x="1094" 
d="M561 1141q194 0 297 -99t103 -299v-743h-204l-51 151h-7q-41 -58 -85.5 -96t-101.5 -56.5t-136 -18.5q-96 0 -164 44t-103.5 123.5t-35.5 184.5q0 177 111 264t325 95l167 6v47q0 90 -37.5 133.5t-110.5 43.5q-65 0 -132.5 -21t-140.5 -59l-87 203q82 46 183 71.5
t210 25.5zM676 519l-97 -4q-116 -4 -165.5 -50t-49.5 -128q0 -72 33 -105.5t91 -33.5q80 0 134 59.5t54 164.5v97zM867 1456v-202h-622v202h622z" />
    <glyph glyph-name="Abreve" unicode="&#x102;" horiz-adv-x="1245" 
d="M929 0l-91 350h-429l-91 -350h-318l435 1465h371l439 -1465h-316zM779 602l-92 364q-9 41 -21 90.5t-23.5 98.5t-19.5 88q-6 -38 -18 -89t-24 -101t-20 -85l-92 -366h310zM970 1920q-3 -100 -48.5 -175.5t-122.5 -117.5t-177 -42q-153 0 -244.5 88t-96.5 247h166
q4 -53 27 -82t61.5 -40.5t88.5 -11.5q45 0 84 12t65 41t30 81h167z" />
    <glyph glyph-name="abreve" unicode="&#x103;" horiz-adv-x="1094" 
d="M561 1141q194 0 297 -99t103 -299v-743h-204l-51 151h-7q-41 -58 -85.5 -96t-101.5 -56.5t-136 -18.5q-96 0 -164 44t-103.5 123.5t-35.5 184.5q0 177 111 264t325 95l167 6v47q0 90 -37.5 133.5t-110.5 43.5q-65 0 -132.5 -21t-140.5 -59l-87 203q82 46 183 71.5
t210 25.5zM676 519l-97 -4q-116 -4 -165.5 -50t-49.5 -128q0 -72 33 -105.5t91 -33.5q80 0 134 59.5t54 164.5v97zM903 1577q-3 -100 -48.5 -175.5t-122.5 -117.5t-177 -42q-153 0 -244.5 88t-96.5 247h166q4 -53 27 -82t61.5 -40.5t88.5 -11.5q45 0 84 12t65 41t30 81h167z
" />
    <glyph glyph-name="Aogonek" unicode="&#x104;" horiz-adv-x="1245" 
d="M929 0l-91 350h-429l-91 -350h-318l435 1465h371l439 -1465h-316zM779 602l-92 364q-9 41 -21 90.5t-23.5 98.5t-19.5 88q-6 -38 -18 -89t-24 -101t-20 -85l-92 -366h310zM1014 -218q0 -41 22.5 -63.5t60.5 -22.5q29 0 53.5 6t40.5 12v-175q-27 -9 -62 -16.5t-81 -7.5
q-117 0 -180 60.5t-63 160.5q0 54 24 107t69 101.5t108 88.5l137 -33q-68 -67 -98.5 -117t-30.5 -101z" />
    <glyph glyph-name="aogonek" unicode="&#x105;" horiz-adv-x="1094" 
d="M561 1141q194 0 297 -99t103 -299v-743h-204l-51 151h-7q-41 -58 -85.5 -96t-101.5 -56.5t-136 -18.5q-96 0 -164 44t-103.5 123.5t-35.5 184.5q0 177 111 264t325 95l167 6v47q0 90 -37.5 133.5t-110.5 43.5q-65 0 -132.5 -21t-140.5 -59l-87 203q82 46 183 71.5
t210 25.5zM676 519l-97 -4q-116 -4 -165.5 -50t-49.5 -128q0 -72 33 -105.5t91 -33.5q80 0 134 59.5t54 164.5v97zM806 -218q0 -41 22.5 -63.5t60.5 -22.5q29 0 53.5 6t40.5 12v-175q-27 -9 -62 -16.5t-81 -7.5q-117 0 -180 60.5t-63 160.5q0 54 24 107t69 101.5t108 88.5
l137 -33q-68 -67 -98.5 -117t-30.5 -101z" />
    <glyph glyph-name="Cacute" unicode="&#x106;" horiz-adv-x="1147" 
d="M719 1233q-76 0 -134.5 -36t-97.5 -103.5t-58.5 -160.5t-19.5 -206q0 -159 34.5 -270t105 -168.5t177.5 -57.5q79 0 154 21.5t158 55.5v-255q-80 -37 -163.5 -55t-183.5 -18q-195 0 -325.5 90.5t-196 258.5t-65.5 400q0 165 39.5 303t116.5 239t190 156.5t259 55.5
q98 0 194 -24.5t184 -71.5l-90 -242q-68 38 -137 63t-141 25zM1041 1912v-20q-25 -28 -65 -68t-86.5 -84t-93 -85t-83.5 -71h-197v27q35 46 71.5 98t71 104.5t59.5 98.5h323z" />
    <glyph glyph-name="cacute" unicode="&#x107;" horiz-adv-x="935" 
d="M554 -20q-153 0 -258 61.5t-159 189t-54 323.5q0 188 57.5 319t166 199t263.5 68q99 0 174.5 -20.5t136.5 -54.5l-82 -224q-59 28 -112.5 44t-106.5 16q-68 0 -114 -39t-69 -115.5t-23 -191.5q0 -113 24 -188t70.5 -112t113.5 -37q76 0 142 23.5t128 66.5v-245
q-62 -43 -133.5 -63t-164.5 -20zM893 1569v-20q-25 -28 -65 -68t-86.5 -84t-93 -85t-83.5 -71h-197v27q35 46 71.5 98t71 104.5t59.5 98.5h323z" />
    <glyph glyph-name="Ccircumflex" unicode="&#x108;" horiz-adv-x="1147" 
d="M719 1233q-76 0 -134.5 -36t-97.5 -103.5t-58.5 -160.5t-19.5 -206q0 -159 34.5 -270t105 -168.5t177.5 -57.5q79 0 154 21.5t158 55.5v-255q-80 -37 -163.5 -55t-183.5 -18q-195 0 -325.5 90.5t-196 258.5t-65.5 400q0 165 39.5 303t116.5 239t190 156.5t259 55.5
q98 0 194 -24.5t184 -71.5l-90 -242q-68 38 -137 63t-141 25zM831 1912q26 -45 64.5 -98.5t81 -106t79.5 -96.5v-27h-181q-45 32 -96 75t-99 96q-49 -53 -99 -97t-92 -74h-183v27q35 39 78.5 93t83.5 110t63 98h300z" />
    <glyph glyph-name="ccircumflex" unicode="&#x109;" horiz-adv-x="935" 
d="M554 -20q-153 0 -258 61.5t-159 189t-54 323.5q0 188 57.5 319t166 199t263.5 68q99 0 174.5 -20.5t136.5 -54.5l-82 -224q-59 28 -112.5 44t-106.5 16q-68 0 -114 -39t-69 -115.5t-23 -191.5q0 -113 24 -188t70.5 -112t113.5 -37q76 0 142 23.5t128 66.5v-245
q-62 -43 -133.5 -63t-164.5 -20zM683 1569q26 -45 64.5 -98.5t81 -106t79.5 -96.5v-27h-181q-45 32 -96 75t-99 96q-49 -53 -99 -97t-92 -74h-183v27q35 39 78.5 93t83.5 110t63 98h300z" />
    <glyph glyph-name="Cdot" unicode="&#x10a;" horiz-adv-x="1147" 
d="M719 1233q-76 0 -134.5 -36t-97.5 -103.5t-58.5 -160.5t-19.5 -206q0 -159 34.5 -270t105 -168.5t177.5 -57.5q79 0 154 21.5t158 55.5v-255q-80 -37 -163.5 -55t-183.5 -18q-195 0 -325.5 90.5t-196 258.5t-65.5 400q0 165 39.5 303t116.5 239t190 156.5t259 55.5
q98 0 194 -24.5t184 -71.5l-90 -242q-68 38 -137 63t-141 25zM700 1902q72 0 114 -35.5t42 -116.5q0 -79 -43 -114.5t-113 -35.5t-113 35.5t-43 114.5q0 82 42 117t114 35z" />
    <glyph glyph-name="cdot" unicode="&#x10b;" horiz-adv-x="935" 
d="M554 -20q-153 0 -258 61.5t-159 189t-54 323.5q0 188 57.5 319t166 199t263.5 68q99 0 174.5 -20.5t136.5 -54.5l-82 -224q-59 28 -112.5 44t-106.5 16q-68 0 -114 -39t-69 -115.5t-23 -191.5q0 -113 24 -188t70.5 -112t113.5 -37q76 0 142 23.5t128 66.5v-245
q-62 -43 -133.5 -63t-164.5 -20zM552 1559q72 0 114 -35.5t42 -116.5q0 -79 -43 -114.5t-113 -35.5t-113 35.5t-43 114.5q0 82 42 117t114 35z" />
    <glyph glyph-name="Ccaron" unicode="&#x10c;" horiz-adv-x="1147" 
d="M719 1233q-76 0 -134.5 -36t-97.5 -103.5t-58.5 -160.5t-19.5 -206q0 -159 34.5 -270t105 -168.5t177.5 -57.5q79 0 154 21.5t158 55.5v-255q-80 -37 -163.5 -55t-183.5 -18q-195 0 -325.5 90.5t-196 258.5t-65.5 400q0 165 39.5 303t116.5 239t190 156.5t259 55.5
q98 0 194 -24.5t184 -71.5l-90 -242q-68 38 -137 63t-141 25zM532 1584q-23 43 -63.5 98.5t-84 110t-77.5 92.5v27h183q43 -32 93 -75t98 -96q50 56 99.5 97t95.5 74h181v-27q-33 -38 -76 -91.5t-83 -109t-66 -100.5h-300z" />
    <glyph glyph-name="ccaron" unicode="&#x10d;" horiz-adv-x="935" 
d="M554 -20q-153 0 -258 61.5t-159 189t-54 323.5q0 188 57.5 319t166 199t263.5 68q99 0 174.5 -20.5t136.5 -54.5l-82 -224q-59 28 -112.5 44t-106.5 16q-68 0 -114 -39t-69 -115.5t-23 -191.5q0 -113 24 -188t70.5 -112t113.5 -37q76 0 142 23.5t128 66.5v-245
q-62 -43 -133.5 -63t-164.5 -20zM384 1241q-23 43 -63.5 98.5t-84 110t-77.5 92.5v27h183q43 -32 93 -75t98 -96q50 56 99.5 97t95.5 74h181v-27q-33 -38 -76 -91.5t-83 -109t-66 -100.5h-300z" />
    <glyph glyph-name="Dcaron" unicode="&#x10e;" horiz-adv-x="1331" 
d="M1227 752q0 -246 -81 -413.5t-235 -253t-374 -85.5h-379v1462h412q205 0 352 -81t226 -239.5t79 -389.5zM922 741q0 163 -39.5 268t-116.5 155t-190 50h-123v-963h97q190 0 281 122t91 368zM514 1584q-23 43 -63.5 98.5t-84 110t-77.5 92.5v27h183q43 -32 93 -75t98 -96
q50 56 99.5 97t95.5 74h181v-27q-33 -38 -76 -91.5t-83 -109t-66 -100.5h-300z" />
    <glyph glyph-name="dcaron" unicode="&#x10f;" horiz-adv-x="1160" 
d="M460 -20q-174 0 -275.5 150.5t-101.5 428.5q0 281 102 431t275 150q66 0 118.5 -20t93.5 -56.5t71 -87.5h10q-5 49 -10.5 103.5t-5.5 103.5v373h286v-1556h-223l-48 134h-15q-30 -48 -69 -82.5t-89.5 -53t-118.5 -18.5zM553 213q103 0 148 76.5t47 234.5v49
q0 164 -44 245.5t-153 81.5q-87 0 -132.5 -87t-45.5 -255q0 -172 46.5 -258.5t133.5 -86.5zM1417 1556v-21q-17 -47 -40 -99.5t-50 -105.5t-58 -101h-175v26q7 27 15 65t15 81.5t13 84t9 70.5h271z" />
    <glyph glyph-name="Dcroat" unicode="&#x110;" horiz-adv-x="1331" 
d="M570 1462q205 0 352 -81t226 -239.5t79 -389.5q0 -246 -81 -413.5t-235 -253t-374 -85.5h-379v623h-126v232h126v607h412zM575 1214h-122v-359h199v-232h-199v-372h96q188 0 280.5 122t92.5 368q0 163 -40 268t-117.5 155t-189.5 50z" />
    <glyph glyph-name="dcroat" unicode="&#x111;" horiz-adv-x="1177" 
d="M460 -20q-174 0 -275.5 145t-101.5 412q0 268 102 411.5t275 143.5q66 0 118.5 -20t93.5 -56.5t71 -87.5h10q-5 53 -10.5 111.5t-5.5 99.5v61h-251v195h251v161h286v-161h139v-195h-139v-1200h-223l-49 134h-14q-31 -48 -70 -82.5t-89 -53t-118 -18.5zM553 213
q103 0 148 71.5t47 221.5v41q0 153 -44 229t-153 76q-87 0 -132.5 -80.5t-45.5 -236.5q0 -160 46.5 -241t133.5 -81z" />
    <glyph glyph-name="Emacron" unicode="&#x112;" horiz-adv-x="1011" 
d="M907 0h-749v1462h749v-246h-454v-333h423v-247h-423v-386h454v-250zM850 1799v-202h-622v202h622z" />
    <glyph glyph-name="emacron" unicode="&#x113;" horiz-adv-x="1073" 
d="M550 1139q141 0 240.5 -60.5t152.5 -174t53 -272.5v-149h-627q3 -138 65.5 -209.5t180.5 -71.5q89 0 165 20.5t159 64.5v-229q-75 -40 -158 -59t-192 -19q-161 0 -274 66t-172.5 193.5t-59.5 312.5q0 193 56 323.5t160.5 197t250.5 66.5zM554 926q-77 0 -126 -58
t-55 -187h357q-1 74 -20.5 129t-58.5 85.5t-97 30.5zM854 1456v-202h-622v202h622z" />
    <glyph glyph-name="Ebreve" unicode="&#x114;" horiz-adv-x="1011" 
d="M907 0h-749v1462h749v-246h-454v-333h423v-247h-423v-386h454v-250zM885 1920q-3 -100 -48.5 -175.5t-122.5 -117.5t-177 -42q-153 0 -244.5 88t-96.5 247h166q4 -53 27 -82t61.5 -40.5t88.5 -11.5q45 0 84 12t65 41t30 81h167z" />
    <glyph glyph-name="ebreve" unicode="&#x115;" horiz-adv-x="1073" 
d="M550 1139q141 0 240.5 -60.5t152.5 -174t53 -272.5v-149h-627q3 -138 65.5 -209.5t180.5 -71.5q89 0 165 20.5t159 64.5v-229q-75 -40 -158 -59t-192 -19q-161 0 -274 66t-172.5 193.5t-59.5 312.5q0 193 56 323.5t160.5 197t250.5 66.5zM554 926q-77 0 -126 -58
t-55 -187h357q-1 74 -20.5 129t-58.5 85.5t-97 30.5zM889 1577q-3 -100 -48.5 -175.5t-122.5 -117.5t-177 -42q-153 0 -244.5 88t-96.5 247h166q4 -53 27 -82t61.5 -40.5t88.5 -11.5q45 0 84 12t65 41t30 81h167z" />
    <glyph glyph-name="Edotaccent" unicode="&#x116;" horiz-adv-x="1011" 
d="M907 0h-749v1462h749v-246h-454v-333h423v-247h-423v-386h454v-250zM558 1902q72 0 114 -35.5t42 -116.5q0 -79 -43 -114.5t-113 -35.5t-113 35.5t-43 114.5q0 82 42 117t114 35z" />
    <glyph glyph-name="edotaccent" unicode="&#x117;" horiz-adv-x="1073" 
d="M550 1139q141 0 240.5 -60.5t152.5 -174t53 -272.5v-149h-627q3 -138 65.5 -209.5t180.5 -71.5q89 0 165 20.5t159 64.5v-229q-75 -40 -158 -59t-192 -19q-161 0 -274 66t-172.5 193.5t-59.5 312.5q0 193 56 323.5t160.5 197t250.5 66.5zM554 926q-77 0 -126 -58
t-55 -187h357q-1 74 -20.5 129t-58.5 85.5t-97 30.5zM562 1559q72 0 114 -35.5t42 -116.5q0 -79 -43 -114.5t-113 -35.5t-113 35.5t-43 114.5q0 82 42 117t114 35z" />
    <glyph glyph-name="Eogonek" unicode="&#x118;" horiz-adv-x="1011" 
d="M907 0h-749v1462h749v-246h-454v-333h423v-247h-423v-386h454v-250zM732 -218q0 -41 22.5 -63.5t60.5 -22.5q29 0 53.5 6t40.5 12v-175q-27 -9 -62 -16.5t-81 -7.5q-117 0 -180 60.5t-63 160.5q0 54 24 107t69 101.5t108 88.5l137 -33q-68 -67 -98.5 -117t-30.5 -101z
" />
    <glyph glyph-name="eogonek" unicode="&#x119;" horiz-adv-x="1073" 
d="M753 -221q0 -40 22 -60t57 -20q26 0 55.5 6t45.5 13v-180q-32 -10 -70.5 -16t-80.5 -6q-116 0 -177 61t-61 161q0 54 23.5 104t66.5 94.5t100 82.5l205 39q-71 -66 -111.5 -116.5t-57.5 -89.5t-17 -73zM550 1139q141 0 240.5 -60.5t152.5 -174t53 -272.5v-149h-627
q3 -138 65.5 -209.5t180.5 -71.5q89 0 165 20.5t159 64.5v-229q-75 -40 -158 -59t-192 -19q-161 0 -274 66t-172.5 193.5t-59.5 312.5q0 193 56 323.5t160.5 197t250.5 66.5zM554 926q-77 0 -126 -58t-55 -187h357q-1 74 -20.5 129t-58.5 85.5t-97 30.5z" />
    <glyph glyph-name="Ecaron" unicode="&#x11a;" horiz-adv-x="1011" 
d="M907 0h-749v1462h749v-246h-454v-333h423v-247h-423v-386h454v-250zM390 1584q-23 43 -63.5 98.5t-84 110t-77.5 92.5v27h183q43 -32 93 -75t98 -96q50 56 99.5 97t95.5 74h181v-27q-33 -38 -76 -91.5t-83 -109t-66 -100.5h-300z" />
    <glyph glyph-name="ecaron" unicode="&#x11b;" horiz-adv-x="1073" 
d="M550 1139q141 0 240.5 -60.5t152.5 -174t53 -272.5v-149h-627q3 -138 65.5 -209.5t180.5 -71.5q89 0 165 20.5t159 64.5v-229q-75 -40 -158 -59t-192 -19q-161 0 -274 66t-172.5 193.5t-59.5 312.5q0 193 56 323.5t160.5 197t250.5 66.5zM554 926q-77 0 -126 -58
t-55 -187h357q-1 74 -20.5 129t-58.5 85.5t-97 30.5zM394 1241q-23 43 -63.5 98.5t-84 110t-77.5 92.5v27h183q43 -32 93 -75t98 -96q50 56 99.5 97t95.5 74h181v-27q-33 -38 -76 -91.5t-83 -109t-66 -100.5h-300z" />
    <glyph glyph-name="Gcircumflex" unicode="&#x11c;" horiz-adv-x="1330" 
d="M677 822h518v-760q-109 -39 -226 -60.5t-252 -21.5q-199 0 -336 89.5t-207 258t-70 406.5q0 230 79 397.5t231 259.5t372 92q111 0 213.5 -25t184.5 -66l-92 -240q-65 37 -142 59t-160 22q-120 0 -205.5 -60.5t-130.5 -173.5t-45 -272q0 -148 34 -260t106.5 -174
t186.5 -62q53 0 94 6t77 15v323h-230v247zM890 1912q26 -45 64.5 -98.5t81 -106t79.5 -96.5v-27h-181q-45 32 -96 75t-99 96q-49 -53 -99 -97t-92 -74h-183v27q35 39 78.5 93t83.5 110t63 98h300z" />
    <glyph glyph-name="gcircumflex" unicode="&#x11d;" horiz-adv-x="1048" 
d="M445 -492q-210 0 -323 82t-113 230q0 100 60 169t167 96q-47 20 -80 64t-33 98q0 64 33 106t92 85q-75 39 -120 124.5t-45 194.5q0 121 48.5 206.5t141.5 130t227 44.5q34 0 68 -3.5t61.5 -9t41.5 -9.5h357v-158l-154 -37q22 -37 32 -78.5t10 -89.5q0 -180 -111.5 -279.5
t-311.5 -99.5q-54 1 -91 8q-19 -16 -32.5 -36.5t-13.5 -47.5q0 -23 15.5 -38.5t47.5 -23.5t79 -8h188q159 0 243.5 -77t84.5 -230q0 -198 -146 -305.5t-423 -107.5zM461 -293q95 0 160 20.5t98.5 58.5t33.5 91q0 43 -18.5 66.5t-59 33t-106.5 9.5h-152q-44 0 -78 -17
t-53.5 -48.5t-19.5 -77.5q0 -65 51.5 -100.5t143.5 -35.5zM501 559q68 0 101.5 51t33.5 144q0 101 -34 150.5t-102 49.5t-102.5 -50t-34.5 -149q0 -93 34 -144.5t104 -51.5zM660 1569q26 -45 64.5 -98.5t81 -106t79.5 -96.5v-27h-181q-45 32 -96 75t-99 96q-49 -53 -99 -97
t-92 -74h-183v27q35 39 78.5 93t83.5 110t63 98h300z" />
    <glyph glyph-name="Gbreve" unicode="&#x11e;" horiz-adv-x="1330" 
d="M677 822h518v-760q-109 -39 -226 -60.5t-252 -21.5q-199 0 -336 89.5t-207 258t-70 406.5q0 230 79 397.5t231 259.5t372 92q111 0 213.5 -25t184.5 -66l-92 -240q-65 37 -142 59t-160 22q-120 0 -205.5 -60.5t-130.5 -173.5t-45 -272q0 -148 34 -260t106.5 -174
t186.5 -62q53 0 94 6t77 15v323h-230v247zM1086 1920q-3 -100 -48.5 -175.5t-122.5 -117.5t-177 -42q-153 0 -244.5 88t-96.5 247h166q4 -53 27 -82t61.5 -40.5t88.5 -11.5q45 0 84 12t65 41t30 81h167z" />
    <glyph glyph-name="gbreve" unicode="&#x11f;" horiz-adv-x="1048" 
d="M445 -492q-210 0 -323 82t-113 230q0 100 60 169t167 96q-47 20 -80 64t-33 98q0 64 33 106t92 85q-75 39 -120 124.5t-45 194.5q0 121 48.5 206.5t141.5 130t227 44.5q34 0 68 -3.5t61.5 -9t41.5 -9.5h357v-158l-154 -37q22 -37 32 -78.5t10 -89.5q0 -180 -111.5 -279.5
t-311.5 -99.5q-54 1 -91 8q-19 -16 -32.5 -36.5t-13.5 -47.5q0 -23 15.5 -38.5t47.5 -23.5t79 -8h188q159 0 243.5 -77t84.5 -230q0 -198 -146 -305.5t-423 -107.5zM461 -293q95 0 160 20.5t98.5 58.5t33.5 91q0 43 -18.5 66.5t-59 33t-106.5 9.5h-152q-44 0 -78 -17
t-53.5 -48.5t-19.5 -77.5q0 -65 51.5 -100.5t143.5 -35.5zM501 559q68 0 101.5 51t33.5 144q0 101 -34 150.5t-102 49.5t-102.5 -50t-34.5 -149q0 -93 34 -144.5t104 -51.5zM853 1577q-3 -100 -48.5 -175.5t-122.5 -117.5t-177 -42q-153 0 -244.5 88t-96.5 247h166
q4 -53 27 -82t61.5 -40.5t88.5 -11.5q45 0 84 12t65 41t30 81h167z" />
    <glyph glyph-name="Gdot" unicode="&#x120;" horiz-adv-x="1330" 
d="M677 822h518v-760q-109 -39 -226 -60.5t-252 -21.5q-199 0 -336 89.5t-207 258t-70 406.5q0 230 79 397.5t231 259.5t372 92q111 0 213.5 -25t184.5 -66l-92 -240q-65 37 -142 59t-160 22q-120 0 -205.5 -60.5t-130.5 -173.5t-45 -272q0 -148 34 -260t106.5 -174
t186.5 -62q53 0 94 6t77 15v323h-230v247zM758 1902q72 0 114 -35.5t42 -116.5q0 -79 -43 -114.5t-113 -35.5t-113 35.5t-43 114.5q0 82 42 117t114 35z" />
    <glyph glyph-name="gdot" unicode="&#x121;" horiz-adv-x="1048" 
d="M445 -492q-210 0 -323 82t-113 230q0 100 60 169t167 96q-47 20 -80 64t-33 98q0 64 33 106t92 85q-75 39 -120 124.5t-45 194.5q0 121 48.5 206.5t141.5 130t227 44.5q34 0 68 -3.5t61.5 -9t41.5 -9.5h357v-158l-154 -37q22 -37 32 -78.5t10 -89.5q0 -180 -111.5 -279.5
t-311.5 -99.5q-54 1 -91 8q-19 -16 -32.5 -36.5t-13.5 -47.5q0 -23 15.5 -38.5t47.5 -23.5t79 -8h188q159 0 243.5 -77t84.5 -230q0 -198 -146 -305.5t-423 -107.5zM461 -293q95 0 160 20.5t98.5 58.5t33.5 91q0 43 -18.5 66.5t-59 33t-106.5 9.5h-152q-44 0 -78 -17
t-53.5 -48.5t-19.5 -77.5q0 -65 51.5 -100.5t143.5 -35.5zM501 559q68 0 101.5 51t33.5 144q0 101 -34 150.5t-102 49.5t-102.5 -50t-34.5 -149q0 -93 34 -144.5t104 -51.5zM521 1559q72 0 114 -35.5t42 -116.5q0 -79 -43 -114.5t-113 -35.5t-113 35.5t-43 114.5
q0 82 42 117t114 35z" />
    <glyph glyph-name="uni0122" unicode="&#x122;" horiz-adv-x="1330" 
d="M677 822h518v-760q-109 -39 -226 -60.5t-252 -21.5q-199 0 -336 89.5t-207 258t-70 406.5q0 230 79 397.5t231 259.5t372 92q111 0 213.5 -25t184.5 -66l-92 -240q-65 37 -142 59t-160 22q-120 0 -205.5 -60.5t-130.5 -173.5t-45 -272q0 -148 34 -260t106.5 -174
t186.5 -62q53 0 94 6t77 15v323h-230v247zM885 -125v-21q-18 -48 -41 -100.5t-50.5 -104.5t-59.5 -102h-175v27q11 38 22 92.5t20 110.5t13 98h271z" />
    <glyph glyph-name="uni0123" unicode="&#x123;" horiz-adv-x="1048" 
d="M697 1569v-27q-12 -46 -24 -100t-21 -106.5t-13 -94.5h-270v22q17 47 40 99t51 104.5t61 102.5h176zM445 -492q-210 0 -323 82t-113 230q0 100 60 169t167 96q-47 20 -80 64t-33 98q0 64 33 106t92 85q-75 39 -120 124.5t-45 194.5q0 121 48.5 206.5t141.5 130t227 44.5
q34 0 68 -3.5t61.5 -9t41.5 -9.5h357v-158l-154 -37q22 -37 32 -78.5t10 -89.5q0 -180 -111.5 -279.5t-311.5 -99.5q-54 1 -91 8q-19 -16 -32.5 -36.5t-13.5 -47.5q0 -23 15.5 -38.5t47.5 -23.5t79 -8h188q159 0 243.5 -77t84.5 -230q0 -198 -146 -305.5t-423 -107.5z
M461 -293q95 0 160 20.5t98.5 58.5t33.5 91q0 43 -18.5 66.5t-59 33t-106.5 9.5h-152q-44 0 -78 -17t-53.5 -48.5t-19.5 -77.5q0 -65 51.5 -100.5t143.5 -35.5zM501 559q68 0 101.5 51t33.5 144q0 101 -34 150.5t-102 49.5t-102.5 -50t-34.5 -149q0 -93 34 -144.5t104 -51.5
z" />
    <glyph glyph-name="Hcircumflex" unicode="&#x124;" horiz-adv-x="1377" 
d="M1219 0h-295v635h-471v-635h-295v1462h295v-576h471v576h295v-1462zM841 1912q26 -45 64.5 -98.5t81 -106t79.5 -96.5v-27h-181q-45 32 -96 75t-99 96q-49 -53 -99 -97t-92 -74h-183v27q35 39 78.5 93t83.5 110t63 98h300z" />
    <glyph glyph-name="hcircumflex" unicode="&#x125;" horiz-adv-x="1186" 
d="M423 1556v-331q0 -72 -5 -138.5t-12 -110.5h16q29 56 71.5 92t95.5 54t116 18q109 0 186.5 -44.5t119.5 -134.5t42 -227v-734h-286v659q0 121 -35 180t-109 59q-76 0 -119.5 -40.5t-62 -121.5t-18.5 -203v-533h-285v1556h285zM434 2006q26 -45 64.5 -98.5t81 -106
t79.5 -96.5v-27h-181q-45 32 -96 75t-99 96q-49 -53 -99 -97t-92 -74h-183v27q35 39 78.5 93t83.5 110t63 98h300z" />
    <glyph glyph-name="Hbar" unicode="&#x126;" horiz-adv-x="1377" 
d="M159 0v1072h-162v196h162v194h294v-194h472v194h295v-194h161v-196h-161v-1072h-295v635h-472v-635h-294zM453 886h472v186h-472v-186z" />
    <glyph glyph-name="hbar" unicode="&#x127;" horiz-adv-x="1186" 
d="M423 1556v-162h259v-195h-259v-45q0 -60 -5 -121t-12 -104h16q30 56 72 92t95 53.5t116 17.5q109 0 187 -44.5t119.5 -134.5t41.5 -225v-688h-287v611q0 121 -35 180.5t-109 59.5t-118 -38.5t-62.5 -119.5t-18.5 -208v-485h-286v1199h-137v195h137v162h286z" />
    <glyph glyph-name="Itilde" unicode="&#x128;" horiz-adv-x="611" 
d="M158 0v1462h295v-1462h-295zM-69 1582q4 64 19.5 120t43.5 98t68.5 65.5t93.5 23.5q41 0 79.5 -15.5t75 -36.5t72 -36.5t69.5 -15.5q29 0 50 27.5t31 78.5h148q-8 -153 -72.5 -230t-153.5 -77q-40 0 -79.5 16t-77 36.5t-72 36.5t-64.5 16q-27 0 -50.5 -26t-33.5 -81h-147
z" />
    <glyph glyph-name="itilde" unicode="&#x129;" horiz-adv-x="563" 
d="M424 0h-285v1119h285v-1119zM-95 1239q4 64 19.5 120t43.5 98t68.5 65.5t93.5 23.5q41 0 79.5 -15.5t75 -36.5t72 -36.5t69.5 -15.5q29 0 50 27.5t31 78.5h148q-8 -153 -72.5 -230t-153.5 -77q-40 0 -79.5 16t-77 36.5t-72 36.5t-64.5 16q-27 0 -50.5 -26t-33.5 -81h-147
z" />
    <glyph glyph-name="Imacron" unicode="&#x12a;" horiz-adv-x="611" 
d="M158 0v1462h295v-1462h-295zM616 1799v-202h-622v202h622z" />
    <glyph glyph-name="imacron" unicode="&#x12b;" horiz-adv-x="563" 
d="M424 0h-285v1119h285v-1119zM593 1456v-202h-622v202h622z" />
    <glyph glyph-name="Ibreve" unicode="&#x12c;" horiz-adv-x="611" 
d="M158 0v1462h295v-1462h-295zM649 1920q-3 -100 -48.5 -175.5t-122.5 -117.5t-177 -42q-153 0 -244.5 88t-96.5 247h166q4 -53 27 -82t61.5 -40.5t88.5 -11.5q45 0 84 12t65 41t30 81h167z" />
    <glyph glyph-name="ibreve" unicode="&#x12d;" horiz-adv-x="563" 
d="M424 0h-285v1119h285v-1119zM628 1577q-3 -100 -48.5 -175.5t-122.5 -117.5t-177 -42q-153 0 -244.5 88t-96.5 247h166q4 -53 27 -82t61.5 -40.5t88.5 -11.5q45 0 84 12t65 41t30 81h167z" />
    <glyph glyph-name="Iogonek" unicode="&#x12e;" horiz-adv-x="611" 
d="M158 0v1462h295v-1462h-295zM321 -218q0 -41 22.5 -63.5t60.5 -22.5q29 0 53.5 6t40.5 12v-175q-27 -9 -62 -16.5t-81 -7.5q-117 0 -180 60.5t-63 160.5q0 54 24 107t69 101.5t108 88.5l137 -33q-68 -67 -98.5 -117t-30.5 -101z" />
    <glyph glyph-name="iogonek" unicode="&#x12f;" horiz-adv-x="563" 
d="M424 1119v-1119h-285v1119h285zM282 1559q71 0 113 -35.5t42 -116.5q0 -79 -42.5 -114.5t-112.5 -35.5t-113 35.5t-43 114.5q0 82 42 117t114 35zM262 -218q0 -41 22.5 -63.5t60.5 -22.5q29 0 53.5 6t40.5 12v-175q-27 -9 -62 -16.5t-81 -7.5q-117 0 -180 60.5t-63 160.5
q0 54 24 107t69 101.5t108 88.5l137 -33q-68 -67 -98.5 -117t-30.5 -101z" />
    <glyph glyph-name="Idotaccent" unicode="&#x130;" horiz-adv-x="611" 
d="M158 0v1462h295v-1462h-295zM307 1902q72 0 114 -35.5t42 -116.5q0 -79 -43 -114.5t-113 -35.5t-113 35.5t-43 114.5q0 82 42 117t114 35z" />
    <glyph glyph-name="dotlessi" unicode="&#x131;" horiz-adv-x="563" 
d="M424 0h-285v1119h285v-1119z" />
    <glyph glyph-name="IJ" unicode="&#x132;" horiz-adv-x="1220" 
d="M158 0v1462h295v-1462h-295zM647 -432q-50 0 -93 6t-76 16v249q28 -8 60.5 -14t68.5 -6q52 0 88.5 22t55.5 78.5t19 158.5v1384h294v-1381q0 -189 -50.5 -301.5t-144.5 -162t-222 -49.5z" />
    <glyph glyph-name="ij" unicode="&#x133;" horiz-adv-x="1124" 
d="M424 1119v-1119h-285v1119h285zM282 1559q71 0 113 -35.5t42 -116.5q0 -79 -42.5 -114.5t-112.5 -35.5t-113 35.5t-43 114.5q0 82 42 117t114 35zM641 -492q-44 0 -90 6.5t-82 17.5v235q29 -10 56 -14.5t58 -4.5q54 0 86.5 36t32.5 125v1210h285v-1240q0 -114 -37 -197
t-113.5 -128t-195.5 -46zM689 1407q0 82 42 117t114 35q71 0 113 -35.5t42 -116.5q0 -79 -42.5 -114.5t-112.5 -35.5t-113 35.5t-43 114.5z" />
    <glyph glyph-name="Jcircumflex" unicode="&#x134;" horiz-adv-x="610" 
d="M36 -432q-50 0 -93 6t-76 16v249q28 -8 60.5 -14t68.5 -6q52 0 88.5 22t55.5 78.5t19 158.5v1384h294v-1381q0 -189 -50.5 -301.5t-144.5 -162t-222 -49.5zM458 1912q26 -45 64.5 -98.5t81 -106t79.5 -96.5v-27h-181q-45 32 -96 75t-99 96q-49 -53 -99 -97t-92 -74h-183
v27q35 39 78.5 93t83.5 110t63 98h300z" />
    <glyph glyph-name="jcircumflex" unicode="&#x135;" horiz-adv-x="563" 
d="M78 -492q-42 0 -92 7.5t-80 16.5v235q29 -10 56 -14.5t58 -4.5q54 0 86.5 35t32.5 122v1214h285v-1240q0 -109 -36.5 -193t-113 -131t-196.5 -47zM433 1569q26 -45 64.5 -98.5t81 -106t79.5 -96.5v-27h-181q-45 32 -96 75t-99 96q-49 -53 -99 -97t-92 -74h-183v27
q35 39 78.5 93t83.5 110t63 98h300z" />
    <glyph glyph-name="uni0136" unicode="&#x136;" horiz-adv-x="1204" 
d="M1211 0h-332l-315 606l-111 -88v-518h-295v1462h295v-671q20 41 47 86.5t58 97.5l326 487h323l-434 -649zM802 -125v-21q-18 -48 -41 -100.5t-50.5 -104.5t-59.5 -102h-175v27q11 38 22 92.5t20 110.5t13 98h271z" />
    <glyph glyph-name="uni0137" unicode="&#x137;" horiz-adv-x="1120" 
d="M423 1556v-686q0 -67 -3.5 -132.5t-10.5 -130.5h6q25 44 52 85t54 76l265 351h315l-367 -471l388 -648h-322l-259 458l-118 -104v-354h-285v1556h285zM734 -125v-21q-18 -48 -41 -100.5t-50.5 -104.5t-59.5 -102h-175v27q11 38 22 92.5t20 110.5t13 98h271z" />
    <glyph glyph-name="kgreenlandic" unicode="&#x138;" horiz-adv-x="1120" 
d="M1101 1119l-365 -485l386 -634h-320l-255 445l-124 -97v-348h-285v1119h285v-267q0 -67 -1.5 -131t-7.5 -127h6q27 42 54 81.5t54 74.5l267 369h306z" />
    <glyph glyph-name="Lacute" unicode="&#x139;" horiz-adv-x="994" 
d="M158 0v1462h295v-1212h491v-250h-786zM667 1912v-20q-25 -28 -65 -68t-86.5 -84t-93 -85t-83.5 -71h-197v27q35 46 71.5 98t71 104.5t59.5 98.5h323z" />
    <glyph glyph-name="lacute" unicode="&#x13a;" horiz-adv-x="561" 
d="M423 0h-285v1556h285v-1556zM643 2005v-20q-25 -28 -65 -68t-86.5 -84t-93 -85t-83.5 -71h-197v27q35 46 71.5 98t71 104.5t59.5 98.5h323z" />
    <glyph glyph-name="uni013B" unicode="&#x13b;" horiz-adv-x="994" 
d="M158 0v1462h295v-1212h491v-250h-786zM709 -125v-21q-18 -48 -41 -100.5t-50.5 -104.5t-59.5 -102h-175v27q11 38 22 92.5t20 110.5t13 98h271z" />
    <glyph glyph-name="uni013C" unicode="&#x13c;" horiz-adv-x="561" 
d="M423 0h-285v1556h285v-1556zM441 -125v-21q-18 -48 -41 -100.5t-50.5 -104.5t-59.5 -102h-175v27q11 38 22 92.5t20 110.5t13 98h271z" />
    <glyph glyph-name="Lcaron" unicode="&#x13d;" horiz-adv-x="994" 
d="M158 0v1462h295v-1212h491v-250h-786zM1016 1461v-21q-17 -47 -40 -99.5t-50 -105.5t-58 -101h-175v26q7 27 15 65t15 81.5t13 84t9 70.5h271z" />
    <glyph glyph-name="lcaron" unicode="&#x13e;" horiz-adv-x="561" 
d="M423 0h-285v1556h285v-1556zM808 1556v-21q-17 -47 -40 -99.5t-50 -105.5t-58 -101h-175v26q7 27 15 65t15 81.5t13 84t9 70.5h271z" />
    <glyph glyph-name="Ldot" unicode="&#x13f;" horiz-adv-x="994" 
d="M158 0v1462h295v-1212h491v-250h-786zM804 953q72 0 114 -35.5t42 -116.5q0 -79 -43 -114.5t-113 -35.5t-113 35.5t-43 114.5q0 82 42 117t114 35z" />
    <glyph glyph-name="ldot" unicode="&#x140;" horiz-adv-x="718" 
d="M423 0h-285v1556h285v-1556zM641 937q72 0 114 -35.5t42 -116.5q0 -79 -43 -114.5t-113 -35.5t-113 35.5t-43 114.5q0 82 42 117t114 35z" />
    <glyph glyph-name="Lslash" unicode="&#x141;" horiz-adv-x="1013" 
d="M176 0v492l-72 -46l-122 180l194 134v702h294v-506l156 104l123 -182l-279 -190v-438h492v-250h-786z" />
    <glyph glyph-name="lslash" unicode="&#x142;" horiz-adv-x="605" 
d="M160 0v506l-76 -53l-122 182l198 139v782h286v-589l75 52l123 -181l-198 -140v-698h-286z" />
    <glyph glyph-name="Nacute" unicode="&#x143;" horiz-adv-x="1469" 
d="M1312 0h-362l-532 1063h-8q5 -70 8 -136t5.5 -127t3.5 -117v-683h-269v1462h359l531 -1046h7q-3 69 -6 132t-5 122t-3 114v678h271v-1462zM1097 1912v-20q-25 -28 -65 -68t-86.5 -84t-93 -85t-83.5 -71h-197v27q35 46 71.5 98t71 104.5t59.5 98.5h323z" />
    <glyph glyph-name="nacute" unicode="&#x144;" horiz-adv-x="1186" 
d="M707 1140q160 0 253 -100t93 -305v-735h-286v659q0 119 -33.5 179.5t-113.5 60.5q-112 0 -154.5 -88.5t-42.5 -277.5v-533h-285v1119h222l34 -143h17q31 56 75.5 92t101 54t119.5 18zM965 1569v-20q-25 -28 -65 -68t-86.5 -84t-93 -85t-83.5 -71h-197v27q35 46 71.5 98
t71 104.5t59.5 98.5h323z" />
    <glyph glyph-name="uni0145" unicode="&#x145;" horiz-adv-x="1469" 
d="M1312 0h-362l-532 1063h-8q5 -70 8 -136t5.5 -127t3.5 -117v-683h-269v1462h359l531 -1046h7q-3 69 -6 132t-5 122t-3 114v678h271v-1462zM894 -125v-21q-18 -48 -41 -100.5t-50.5 -104.5t-59.5 -102h-175v27q11 38 22 92.5t20 110.5t13 98h271z" />
    <glyph glyph-name="uni0146" unicode="&#x146;" horiz-adv-x="1186" 
d="M707 1140q160 0 253 -100t93 -305v-735h-286v659q0 119 -33.5 179.5t-113.5 60.5q-112 0 -154.5 -88.5t-42.5 -277.5v-533h-285v1119h222l34 -143h17q31 56 75.5 92t101 54t119.5 18zM753 -125v-21q-18 -48 -41 -100.5t-50.5 -104.5t-59.5 -102h-175v27q11 38 22 92.5
t20 110.5t13 98h271z" />
    <glyph glyph-name="Ncaron" unicode="&#x147;" horiz-adv-x="1469" 
d="M1312 0h-362l-532 1063h-8q5 -70 8 -136t5.5 -127t3.5 -117v-683h-269v1462h359l531 -1046h7q-3 69 -6 132t-5 122t-3 114v678h271v-1462zM588 1584q-23 43 -63.5 98.5t-84 110t-77.5 92.5v27h183q43 -32 93 -75t98 -96q50 56 99.5 97t95.5 74h181v-27q-33 -38 -76 -91.5
t-83 -109t-66 -100.5h-300z" />
    <glyph glyph-name="ncaron" unicode="&#x148;" horiz-adv-x="1186" 
d="M707 1140q160 0 253 -100t93 -305v-735h-286v659q0 119 -33.5 179.5t-113.5 60.5q-112 0 -154.5 -88.5t-42.5 -277.5v-533h-285v1119h222l34 -143h17q31 56 75.5 92t101 54t119.5 18zM456 1241q-23 43 -63.5 98.5t-84 110t-77.5 92.5v27h183q43 -32 93 -75t98 -96
q50 56 99.5 97t95.5 74h181v-27q-33 -38 -76 -91.5t-83 -109t-66 -100.5h-300z" />
    <glyph glyph-name="napostrophe" unicode="&#x149;" horiz-adv-x="1422" 
d="M943 1140q160 0 253 -100t93 -305v-735h-286v659q0 119 -33.5 179.5t-113.5 60.5q-112 0 -154.5 -88.5t-42.5 -277.5v-533h-285v1119h222l34 -143h17q31 56 75.5 92t101 54t119.5 18zM369 1462l13 -22q-17 -87 -42 -174.5t-54.5 -171t-61.5 -159.5h-218q13 59 26.5 128.5
t26 141.5t22 138.5t15.5 118.5h273z" />
    <glyph glyph-name="Eng" unicode="&#x14a;" horiz-adv-x="1470" 
d="M901 -432q-52 0 -96 6t-80 16v241q31 -8 66 -14t74 -6q62 0 101 20.5t58 64t21 110.5l-628 1075h-7q5 -64 8.5 -133.5t5.5 -133.5t2 -112v-702h-268v1462h359l531 -902h6q-3 63 -6 130t-5 129.5t-2 108.5v534h271v-1436q0 -156 -48 -257.5t-140 -151t-223 -49.5z" />
    <glyph glyph-name="eng" unicode="&#x14b;" horiz-adv-x="1186" 
d="M723 -492q-41 0 -85 6.5t-79 17.5v235q27 -10 51 -14.5t51 -4.5q48 0 77 36t29 125v761q0 113 -35.5 170.5t-109.5 57.5q-72 0 -116 -36.5t-63.5 -117t-19.5 -211.5v-533h-285v1119h222l34 -143h17q31 56 76 92t101 54t119 18q110 0 187 -46t118 -137.5t41 -227.5v-850
q0 -102 -33.5 -186.5t-106 -134.5t-190.5 -50z" />
    <glyph glyph-name="Omacron" unicode="&#x14c;" horiz-adv-x="1422" 
d="M1319 733q0 -171 -37 -310t-112 -238t-189 -152t-269 -53q-156 0 -270.5 53t-189 152.5t-111.5 238.5t-37 311q0 237 66.5 404.5t202 256.5t340.5 89q207 0 341 -92t199.5 -260.5t65.5 -399.5zM412 733q0 -160 32 -271.5t98.5 -169.5t169.5 -58q104 0 170 57t97.5 168.5
t31.5 273.5q0 244 -71.5 372.5t-226.5 128.5q-103 0 -170 -58t-99 -170t-32 -273zM1024 1799v-202h-622v202h622z" />
    <glyph glyph-name="omacron" unicode="&#x14d;" horiz-adv-x="1134" 
d="M1051 562q0 -128 -30.5 -234.5t-91.5 -184.5t-152 -120.5t-212 -42.5q-114 0 -203 42t-151.5 119.5t-95 184.5t-32.5 236q0 178 55.5 307.5t163.5 200t268 70.5q143 0 251.5 -67t169 -195.5t60.5 -315.5zM374 560q0 -113 20 -190t63 -116t111 -39t110 39t61.5 116.5
t19.5 191.5q0 115 -19.5 190.5t-62 113.5t-110.5 38q-102 0 -147.5 -85t-45.5 -259zM879 1456v-202h-622v202h622z" />
    <glyph glyph-name="Obreve" unicode="&#x14e;" horiz-adv-x="1422" 
d="M1319 733q0 -171 -37 -310t-112 -238t-189 -152t-269 -53q-156 0 -270.5 53t-189 152.5t-111.5 238.5t-37 311q0 237 66.5 404.5t202 256.5t340.5 89q207 0 341 -92t199.5 -260.5t65.5 -399.5zM412 733q0 -160 32 -271.5t98.5 -169.5t169.5 -58q104 0 170 57t97.5 168.5
t31.5 273.5q0 244 -71.5 372.5t-226.5 128.5q-103 0 -170 -58t-99 -170t-32 -273zM1059 1920q-3 -100 -48.5 -175.5t-122.5 -117.5t-177 -42q-153 0 -244.5 88t-96.5 247h166q4 -53 27 -82t61.5 -40.5t88.5 -11.5q45 0 84 12t65 41t30 81h167z" />
    <glyph glyph-name="obreve" unicode="&#x14f;" horiz-adv-x="1134" 
d="M1051 562q0 -128 -30.5 -234.5t-91.5 -184.5t-152 -120.5t-212 -42.5q-114 0 -203 42t-151.5 119.5t-95 184.5t-32.5 236q0 178 55.5 307.5t163.5 200t268 70.5q143 0 251.5 -67t169 -195.5t60.5 -315.5zM374 560q0 -113 20 -190t63 -116t111 -39t110 39t61.5 116.5
t19.5 191.5q0 115 -19.5 190.5t-62 113.5t-110.5 38q-102 0 -147.5 -85t-45.5 -259zM915 1577q-3 -100 -48.5 -175.5t-122.5 -117.5t-177 -42q-153 0 -244.5 88t-96.5 247h166q4 -53 27 -82t61.5 -40.5t88.5 -11.5q45 0 84 12t65 41t30 81h167z" />
    <glyph glyph-name="Ohungarumlaut" unicode="&#x150;" horiz-adv-x="1422" 
d="M1319 733q0 -171 -37 -310t-112 -238t-189 -152t-269 -53q-156 0 -270.5 53t-189 152.5t-111.5 238.5t-37 311q0 237 66.5 404.5t202 256.5t340.5 89q207 0 341 -92t199.5 -260.5t65.5 -399.5zM412 733q0 -160 32 -271.5t98.5 -169.5t169.5 -58q104 0 170 57t97.5 168.5
t31.5 273.5q0 244 -71.5 372.5t-226.5 128.5q-103 0 -170 -58t-99 -170t-32 -273zM1241 1912v-20q-15 -29 -49.5 -69.5t-79 -84.5t-89 -84.5t-80.5 -69.5h-149v27q31 51 64.5 106.5t62.5 106.5t46 88h274zM875 1912v-20q-16 -30 -50 -69.5t-78 -83t-90 -84t-85 -71.5h-145
v27q32 52 65 107.5t61.5 106t46.5 87.5h275z" />
    <glyph glyph-name="ohungarumlaut" unicode="&#x151;" horiz-adv-x="1134" 
d="M1051 562q0 -128 -30.5 -234.5t-91.5 -184.5t-152 -120.5t-212 -42.5q-114 0 -203 42t-151.5 119.5t-95 184.5t-32.5 236q0 178 55.5 307.5t163.5 200t268 70.5q143 0 251.5 -67t169 -195.5t60.5 -315.5zM374 560q0 -113 20 -190t63 -116t111 -39t110 39t61.5 116.5
t19.5 191.5q0 115 -19.5 190.5t-62 113.5t-110.5 38q-102 0 -147.5 -85t-45.5 -259zM1097 1569v-20q-15 -29 -49.5 -69.5t-79 -84.5t-89 -84.5t-80.5 -69.5h-149v27q31 51 64.5 106.5t62.5 106.5t46 88h274zM731 1569v-20q-16 -30 -50 -69.5t-78 -83t-90 -84t-85 -71.5h-145
v27q32 52 65 107.5t61.5 106t46.5 87.5h275z" />
    <glyph glyph-name="OE" unicode="&#x152;" horiz-adv-x="1723" 
d="M691 1483q48 0 97.5 -5.5t86.5 -15.5h744v-246h-470v-333h438v-247h-438v-386h470v-250h-747q-35 -8 -84 -13t-97 -5q-202 0 -332 94.5t-192.5 264t-62.5 394.5q0 227 63 395t193.5 260.5t330.5 92.5zM701 1232q-77 0 -132 -34t-90.5 -98t-52 -156.5t-16.5 -210.5
q0 -156 30 -267.5t94.5 -170.5t166.5 -59q44 0 87 6.5t70 18.5v941q-27 14 -70 22t-87 8z" />
    <glyph glyph-name="oe" unicode="&#x153;" horiz-adv-x="1757" 
d="M1229 1139q143 0 243.5 -60.5t154 -174t53.5 -272.5v-149h-640q4 -139 67.5 -210.5t182.5 -71.5q93 0 170 21t162 65v-229q-76 -40 -159 -59t-194 -19q-116 0 -207.5 38.5t-156.5 115.5q-58 -77 -144 -115.5t-194 -38.5q-149 0 -257.5 71t-167.5 201.5t-59 309.5
q0 180 55.5 309.5t163.5 199t266 69.5q102 0 187 -38t144 -115q40 51 90 84.5t110 50.5t130 17zM567 904q-102 0 -147.5 -85t-45.5 -259q0 -113 20 -190t63 -116t111 -39t110 39t61.5 116t19.5 192t-20 190.5t-62 113.5t-110 38zM1231 925q-79 0 -129.5 -58t-56.5 -186h367
q0 74 -20.5 129t-60.5 85t-100 30z" />
    <glyph glyph-name="Racute" unicode="&#x154;" horiz-adv-x="1201" 
d="M541 1462q180 0 298.5 -47.5t176 -143t57.5 -240.5q0 -95 -30 -169t-84 -129t-126 -93l365 -640h-326l-294 567h-125v-567h-295v1462h383zM529 1217h-76v-413h82q124 0 181.5 54.5t57.5 161.5q0 104 -60 150.5t-185 46.5zM976 1912v-20q-25 -28 -65 -68t-86.5 -84
t-93 -85t-83.5 -71h-197v27q35 46 71.5 98t71 104.5t59.5 98.5h323z" />
    <glyph glyph-name="racute" unicode="&#x155;" horiz-adv-x="821" 
d="M693 1140q23 0 48.5 -3t49.5 -9l-24 -285q-17 7 -42.5 9.5t-49.5 2.5q-53 0 -98.5 -17.5t-80 -53t-53.5 -89t-19 -125.5v-570h-285v1119h218l41 -186h14q28 55 69 102.5t95 76t117 28.5zM820 1569v-20q-25 -28 -65 -68t-86.5 -84t-93 -85t-83.5 -71h-197v27
q35 46 71.5 98t71 104.5t59.5 98.5h323z" />
    <glyph glyph-name="uni0156" unicode="&#x156;" horiz-adv-x="1201" 
d="M541 1462q180 0 298.5 -47.5t176 -143t57.5 -240.5q0 -95 -30 -169t-84 -129t-126 -93l365 -640h-326l-294 567h-125v-567h-295v1462h383zM529 1217h-76v-413h82q124 0 181.5 54.5t57.5 161.5q0 104 -60 150.5t-185 46.5zM799 -125v-21q-18 -48 -41 -100.5t-50.5 -104.5
t-59.5 -102h-175v27q11 38 22 92.5t20 110.5t13 98h271z" />
    <glyph glyph-name="uni0157" unicode="&#x157;" horiz-adv-x="821" 
d="M693 1140q23 0 48.5 -3t49.5 -9l-24 -285q-17 7 -42.5 9.5t-49.5 2.5q-53 0 -98.5 -17.5t-80 -53t-53.5 -89t-19 -125.5v-570h-285v1119h218l41 -186h14q28 55 69 102.5t95 76t117 28.5zM450 -125v-21q-18 -48 -41 -100.5t-50.5 -104.5t-59.5 -102h-175v27q11 38 22 92.5
t20 110.5t13 98h271z" />
    <glyph glyph-name="Rcaron" unicode="&#x158;" horiz-adv-x="1201" 
d="M541 1462q180 0 298.5 -47.5t176 -143t57.5 -240.5q0 -95 -30 -169t-84 -129t-126 -93l365 -640h-326l-294 567h-125v-567h-295v1462h383zM529 1217h-76v-413h82q124 0 181.5 54.5t57.5 161.5q0 104 -60 150.5t-185 46.5zM467 1584q-23 43 -63.5 98.5t-84 110t-77.5 92.5
v27h183q43 -32 93 -75t98 -96q50 56 99.5 97t95.5 74h181v-27q-33 -38 -76 -91.5t-83 -109t-66 -100.5h-300z" />
    <glyph glyph-name="rcaron" unicode="&#x159;" horiz-adv-x="821" 
d="M693 1140q23 0 48.5 -3t49.5 -9l-24 -285q-17 7 -42.5 9.5t-49.5 2.5q-53 0 -98.5 -17.5t-80 -53t-53.5 -89t-19 -125.5v-570h-285v1119h218l41 -186h14q28 55 69 102.5t95 76t117 28.5zM311 1241q-23 43 -63.5 98.5t-84 110t-77.5 92.5v27h183q43 -32 93 -75t98 -96
q50 56 99.5 97t95.5 74h181v-27q-33 -38 -76 -91.5t-83 -109t-66 -100.5h-300z" />
    <glyph glyph-name="Sacute" unicode="&#x15a;" horiz-adv-x="1013" 
d="M942 417q0 -131 -58 -229.5t-166.5 -153t-260.5 -54.5q-68 0 -133 9t-125.5 27.5t-118.5 47.5v287q92 -49 191 -81t191 -32q65 0 106 20.5t60 56t19 80.5q0 52 -26 89.5t-79.5 73t-134.5 78.5q-58 31 -113.5 68.5t-101 86.5t-72 117t-26.5 161q-1 128 54 221t157.5 143.5
t243.5 49.5q102 0 196.5 -25t190.5 -72l-89 -245q-86 42 -157.5 63.5t-140.5 21.5q-53 0 -89.5 -18.5t-55.5 -51t-19 -75.5q0 -52 23.5 -87.5t76.5 -69.5t141 -80q101 -53 171.5 -111.5t107.5 -134t37 -181.5zM890 1912v-20q-25 -28 -65 -68t-86.5 -84t-93 -85t-83.5 -71
h-197v27q35 46 71.5 98t71 104.5t59.5 98.5h323z" />
    <glyph glyph-name="sacute" unicode="&#x15b;" horiz-adv-x="892" 
d="M826 330q0 -114 -48 -192t-141.5 -118t-228.5 -40q-99 0 -177.5 15.5t-153.5 48.5v255q72 -39 160 -65.5t164 -26.5q72 0 106.5 26.5t34.5 72.5q0 28 -14 51.5t-57.5 51.5t-133.5 69q-87 41 -145.5 88t-87.5 109.5t-29 149.5q0 152 106 233.5t287 81.5q93 0 176.5 -21.5
t168.5 -66.5l-82 -212q-66 34 -129 56.5t-129 22.5q-58 0 -88 -21t-30 -60q0 -28 15 -49t58 -46.5t126 -66.5q82 -39 143 -84t95 -107t34 -155zM815 1569v-20q-25 -28 -65 -68t-86.5 -84t-93 -85t-83.5 -71h-197v27q35 46 71.5 98t71 104.5t59.5 98.5h323z" />
    <glyph glyph-name="Scircumflex" unicode="&#x15c;" horiz-adv-x="1013" 
d="M942 417q0 -131 -58 -229.5t-166.5 -153t-260.5 -54.5q-68 0 -133 9t-125.5 27.5t-118.5 47.5v287q92 -49 191 -81t191 -32q65 0 106 20.5t60 56t19 80.5q0 52 -26 89.5t-79.5 73t-134.5 78.5q-58 31 -113.5 68.5t-101 86.5t-72 117t-26.5 161q-1 128 54 221t157.5 143.5
t243.5 49.5q102 0 196.5 -25t190.5 -72l-89 -245q-86 42 -157.5 63.5t-140.5 21.5q-53 0 -89.5 -18.5t-55.5 -51t-19 -75.5q0 -52 23.5 -87.5t76.5 -69.5t141 -80q101 -53 171.5 -111.5t107.5 -134t37 -181.5zM680 1912q26 -45 64.5 -98.5t81 -106t79.5 -96.5v-27h-181
q-45 32 -96 75t-99 96q-49 -53 -99 -97t-92 -74h-183v27q35 39 78.5 93t83.5 110t63 98h300z" />
    <glyph glyph-name="scircumflex" unicode="&#x15d;" horiz-adv-x="892" 
d="M826 330q0 -114 -48 -192t-141.5 -118t-228.5 -40q-99 0 -177.5 15.5t-153.5 48.5v255q72 -39 160 -65.5t164 -26.5q72 0 106.5 26.5t34.5 72.5q0 28 -14 51.5t-57.5 51.5t-133.5 69q-87 41 -145.5 88t-87.5 109.5t-29 149.5q0 152 106 233.5t287 81.5q93 0 176.5 -21.5
t168.5 -66.5l-82 -212q-66 34 -129 56.5t-129 22.5q-58 0 -88 -21t-30 -60q0 -28 15 -49t58 -46.5t126 -66.5q82 -39 143 -84t95 -107t34 -155zM605 1569q26 -45 64.5 -98.5t81 -106t79.5 -96.5v-27h-181q-45 32 -96 75t-99 96q-49 -53 -99 -97t-92 -74h-183v27
q35 39 78.5 93t83.5 110t63 98h300z" />
    <glyph glyph-name="Scedilla" unicode="&#x15e;" horiz-adv-x="1013" 
d="M942 417q0 -131 -58 -229.5t-166.5 -153t-260.5 -54.5q-68 0 -133 9t-125.5 27.5t-118.5 47.5v287q92 -49 191 -81t191 -32q65 0 106 20.5t60 56t19 80.5q0 52 -26 89.5t-79.5 73t-134.5 78.5q-58 31 -113.5 68.5t-101 86.5t-72 117t-26.5 161q-1 128 54 221t157.5 143.5
t243.5 49.5q102 0 196.5 -25t190.5 -72l-89 -245q-86 42 -157.5 63.5t-140.5 21.5q-53 0 -89.5 -18.5t-55.5 -51t-19 -75.5q0 -52 23.5 -87.5t76.5 -69.5t141 -80q101 -53 171.5 -111.5t107.5 -134t37 -181.5zM706 -258q0 -110 -66.5 -172t-215.5 -62q-45 0 -82 5.5
t-67 13.5v162q29 -7 63 -12.5t60 -5.5q38 0 61 16.5t23 51.5q0 39 -37.5 65.5t-117.5 34.5l74 161h164l-31 -71q50 -12 88.5 -37t61 -62.5t22.5 -87.5z" />
    <glyph glyph-name="scedilla" unicode="&#x15f;" horiz-adv-x="892" 
d="M826 330q0 -114 -48 -192t-141.5 -118t-228.5 -40q-99 0 -177.5 15.5t-153.5 48.5v255q72 -39 160 -65.5t164 -26.5q72 0 106.5 26.5t34.5 72.5q0 28 -14 51.5t-57.5 51.5t-133.5 69q-87 41 -145.5 88t-87.5 109.5t-29 149.5q0 152 106 233.5t287 81.5q93 0 176.5 -21.5
t168.5 -66.5l-82 -212q-66 34 -129 56.5t-129 22.5q-58 0 -88 -21t-30 -60q0 -28 15 -49t58 -46.5t126 -66.5q82 -39 143 -84t95 -107t34 -155zM654 -258q0 -110 -66.5 -172t-215.5 -62q-45 0 -82 5.5t-67 13.5v162q29 -7 63 -12.5t60 -5.5q38 0 61 16.5t23 51.5
q0 39 -37.5 65.5t-117.5 34.5l74 161h164l-31 -71q50 -12 88.5 -37t61 -62.5t22.5 -87.5z" />
    <glyph glyph-name="Scaron" unicode="&#x160;" horiz-adv-x="1013" 
d="M942 417q0 -131 -58 -229.5t-166.5 -153t-260.5 -54.5q-68 0 -133 9t-125.5 27.5t-118.5 47.5v287q92 -49 191 -81t191 -32q65 0 106 20.5t60 56t19 80.5q0 52 -26 89.5t-79.5 73t-134.5 78.5q-58 31 -113.5 68.5t-101 86.5t-72 117t-26.5 161q-1 128 54 221t157.5 143.5
t243.5 49.5q102 0 196.5 -25t190.5 -72l-89 -245q-86 42 -157.5 63.5t-140.5 21.5q-53 0 -89.5 -18.5t-55.5 -51t-19 -75.5q0 -52 23.5 -87.5t76.5 -69.5t141 -80q101 -53 171.5 -111.5t107.5 -134t37 -181.5zM381 1584q-23 43 -63.5 98.5t-84 110t-77.5 92.5v27h183
q43 -32 93 -75t98 -96q50 56 99.5 97t95.5 74h181v-27q-33 -38 -76 -91.5t-83 -109t-66 -100.5h-300z" />
    <glyph glyph-name="scaron" unicode="&#x161;" horiz-adv-x="892" 
d="M826 330q0 -114 -48 -192t-141.5 -118t-228.5 -40q-99 0 -177.5 15.5t-153.5 48.5v255q72 -39 160 -65.5t164 -26.5q72 0 106.5 26.5t34.5 72.5q0 28 -14 51.5t-57.5 51.5t-133.5 69q-87 41 -145.5 88t-87.5 109.5t-29 149.5q0 152 106 233.5t287 81.5q93 0 176.5 -21.5
t168.5 -66.5l-82 -212q-66 34 -129 56.5t-129 22.5q-58 0 -88 -21t-30 -60q0 -28 15 -49t58 -46.5t126 -66.5q82 -39 143 -84t95 -107t34 -155zM306 1241q-23 43 -63.5 98.5t-84 110t-77.5 92.5v27h183q43 -32 93 -75t98 -96q50 56 99.5 97t95.5 74h181v-27
q-33 -38 -76 -91.5t-83 -109t-66 -100.5h-300z" />
    <glyph glyph-name="uni0162" unicode="&#x162;" horiz-adv-x="1033" 
d="M663 0h-293v1212h-335v250h962v-250h-334v-1212zM736 -258q0 -110 -66.5 -172t-215.5 -62q-45 0 -82 5.5t-67 13.5v162q29 -7 63 -12.5t60 -5.5q38 0 61 16.5t23 51.5q0 39 -37.5 65.5t-117.5 34.5l74 161h164l-31 -71q50 -12 88.5 -37t61 -62.5t22.5 -87.5z" />
    <glyph glyph-name="uni0163" unicode="&#x163;" horiz-adv-x="769" 
d="M560 218q39 0 78.5 9t80.5 24v-220q-47 -23 -109.5 -37t-134.5 -14q-98 0 -168 35.5t-107 115t-37 211.5v552h-128v136l150 86l75 240h189v-237h257v-225h-257v-547q0 -65 28.5 -97t82.5 -32zM659 -258q0 -110 -66.5 -172t-215.5 -62q-45 0 -82 5.5t-67 13.5v162
q29 -7 63 -12.5t60 -5.5q38 0 61 16.5t23 51.5q0 39 -37.5 65.5t-117.5 34.5l74 161h164l-31 -71q50 -12 88.5 -37t61 -62.5t22.5 -87.5z" />
    <glyph glyph-name="Tcaron" unicode="&#x164;" horiz-adv-x="1033" 
d="M663 0h-293v1212h-335v250h962v-250h-334v-1212zM370 1584q-23 43 -63.5 98.5t-84 110t-77.5 92.5v27h183q43 -32 93 -75t98 -96q50 56 99.5 97t95.5 74h181v-27q-33 -38 -76 -91.5t-83 -109t-66 -100.5h-300z" />
    <glyph glyph-name="tcaron" unicode="&#x165;" horiz-adv-x="769" 
d="M560 218q39 0 78.5 9t80.5 24v-220q-47 -23 -109.5 -37t-134.5 -14q-98 0 -168 35.5t-107 115t-37 211.5v552h-128v136l150 86l75 240h189v-237h257v-225h-257v-547q0 -65 28.5 -97t82.5 -32zM1045 1556v-21q-17 -47 -40 -99.5t-50 -105.5t-58 -101h-175v26q7 27 15 65
t15 81.5t13 84t9 70.5h271z" />
    <glyph glyph-name="Tbar" unicode="&#x166;" horiz-adv-x="1033" 
d="M370 0v605h-215v233h215v373h-335v251h962v-251h-334v-373h215v-233h-215v-605h-293z" />
    <glyph glyph-name="tbar" unicode="&#x167;" horiz-adv-x="769" 
d="M49 496v194h632v-194h-632zM560 218q39 0 78.5 9t80.5 24v-220q-47 -23 -109.5 -37t-134.5 -14q-98 0 -168 35.5t-107 115t-37 211.5v552h-128v136l150 86l75 240h189v-237h257v-225h-257v-547q0 -65 28.5 -97t82.5 -32z" />
    <glyph glyph-name="Utilde" unicode="&#x168;" horiz-adv-x="1350" 
d="M1201 1462v-963q0 -160 -59 -276t-177 -179.5t-294 -63.5q-254 0 -388 135.5t-134 382.5v964h294v-936q0 -160 59 -226t174 -66q80 0 131 30t76 95t25 169v934h293zM299 1582q4 64 19.5 120t43.5 98t68.5 65.5t93.5 23.5q41 0 79.5 -15.5t75 -36.5t72 -36.5t69.5 -15.5
q29 0 50 27.5t31 78.5h148q-8 -153 -72.5 -230t-153.5 -77q-40 0 -79.5 16t-77 36.5t-72 36.5t-64.5 16q-27 0 -50.5 -26t-33.5 -81h-147z" />
    <glyph glyph-name="utilde" unicode="&#x169;" horiz-adv-x="1186" 
d="M1049 1119v-1119h-222l-35 143h-16q-30 -55 -75 -91t-101 -54t-119 -18q-110 0 -187.5 46t-118.5 136.5t-41 226.5v730h285v-652q0 -123 34 -185t109 -62q80 0 123.5 41t60.5 119.5t17 191.5v547h286zM218 1239q4 64 19.5 120t43.5 98t68.5 65.5t93.5 23.5
q41 0 79.5 -15.5t75 -36.5t72 -36.5t69.5 -15.5q29 0 50 27.5t31 78.5h148q-8 -153 -72.5 -230t-153.5 -77q-40 0 -79.5 16t-77 36.5t-72 36.5t-64.5 16q-27 0 -50.5 -26t-33.5 -81h-147z" />
    <glyph glyph-name="Umacron" unicode="&#x16a;" horiz-adv-x="1350" 
d="M1201 1462v-963q0 -160 -59 -276t-177 -179.5t-294 -63.5q-254 0 -388 135.5t-134 382.5v964h294v-936q0 -160 59 -226t174 -66q80 0 131 30t76 95t25 169v934h293zM987 1799v-202h-622v202h622z" />
    <glyph glyph-name="umacron" unicode="&#x16b;" horiz-adv-x="1186" 
d="M1049 1119v-1119h-222l-35 143h-16q-30 -55 -75 -91t-101 -54t-119 -18q-110 0 -187.5 46t-118.5 136.5t-41 226.5v730h285v-652q0 -123 34 -185t109 -62q80 0 123.5 41t60.5 119.5t17 191.5v547h286zM906 1456v-202h-622v202h622z" />
    <glyph glyph-name="Ubreve" unicode="&#x16c;" horiz-adv-x="1350" 
d="M1201 1462v-963q0 -160 -59 -276t-177 -179.5t-294 -63.5q-254 0 -388 135.5t-134 382.5v964h294v-936q0 -160 59 -226t174 -66q80 0 131 30t76 95t25 169v934h293zM1022 1920q-3 -100 -48.5 -175.5t-122.5 -117.5t-177 -42q-153 0 -244.5 88t-96.5 247h166q4 -53 27 -82
t61.5 -40.5t88.5 -11.5q45 0 84 12t65 41t30 81h167z" />
    <glyph glyph-name="ubreve" unicode="&#x16d;" horiz-adv-x="1186" 
d="M1049 1119v-1119h-222l-35 143h-16q-30 -55 -75 -91t-101 -54t-119 -18q-110 0 -187.5 46t-118.5 136.5t-41 226.5v730h285v-652q0 -123 34 -185t109 -62q80 0 123.5 41t60.5 119.5t17 191.5v547h286zM941 1577q-3 -100 -48.5 -175.5t-122.5 -117.5t-177 -42
q-153 0 -244.5 88t-96.5 247h166q4 -53 27 -82t61.5 -40.5t88.5 -11.5q45 0 84 12t65 41t30 81h167z" />
    <glyph glyph-name="Uring" unicode="&#x16e;" horiz-adv-x="1350" 
d="M1201 1462v-963q0 -160 -59 -276t-177 -179.5t-294 -63.5q-254 0 -388 135.5t-134 382.5v964h294v-936q0 -160 59 -226t174 -66q80 0 131 30t76 95t25 169v934h293zM675 1583q-109 0 -176 64.5t-67 171.5t67 171.5t176 64.5q106 0 176.5 -64.5t70.5 -169.5
q0 -107 -69.5 -172.5t-177.5 -65.5zM676 1725q41 0 68 26t27 69q0 42 -27 68t-68 26t-68.5 -26t-27.5 -68q0 -43 24.5 -69t71.5 -26z" />
    <glyph glyph-name="uring" unicode="&#x16f;" horiz-adv-x="1186" 
d="M1049 1119v-1119h-222l-35 143h-16q-30 -55 -75 -91t-101 -54t-119 -18q-110 0 -187.5 46t-118.5 136.5t-41 226.5v730h285v-652q0 -123 34 -185t109 -62q80 0 123.5 41t60.5 119.5t17 191.5v547h286zM595 1240q-109 0 -176 64.5t-67 171.5t67 171.5t176 64.5
q106 0 176.5 -64.5t70.5 -169.5q0 -107 -69.5 -172.5t-177.5 -65.5zM596 1382q41 0 68 26t27 69q0 42 -27 68t-68 26t-68.5 -26t-27.5 -68q0 -43 24.5 -69t71.5 -26z" />
    <glyph glyph-name="Uhungarumlaut" unicode="&#x170;" horiz-adv-x="1350" 
d="M1201 1462v-963q0 -160 -59 -276t-177 -179.5t-294 -63.5q-254 0 -388 135.5t-134 382.5v964h294v-936q0 -160 59 -226t174 -66q80 0 131 30t76 95t25 169v934h293zM1204 1912v-20q-15 -29 -49.5 -69.5t-79 -84.5t-89 -84.5t-80.5 -69.5h-149v27q31 51 64.5 106.5
t62.5 106.5t46 88h274zM838 1912v-20q-16 -30 -50 -69.5t-78 -83t-90 -84t-85 -71.5h-145v27q32 52 65 107.5t61.5 106t46.5 87.5h275z" />
    <glyph glyph-name="uhungarumlaut" unicode="&#x171;" horiz-adv-x="1186" 
d="M1049 1119v-1119h-222l-35 143h-16q-30 -55 -75 -91t-101 -54t-119 -18q-110 0 -187.5 46t-118.5 136.5t-41 226.5v730h285v-652q0 -123 34 -185t109 -62q80 0 123.5 41t60.5 119.5t17 191.5v547h286zM1124 1569v-20q-15 -29 -49.5 -69.5t-79 -84.5t-89 -84.5
t-80.5 -69.5h-149v27q31 51 64.5 106.5t62.5 106.5t46 88h274zM758 1569v-20q-16 -30 -50 -69.5t-78 -83t-90 -84t-85 -71.5h-145v27q32 52 65 107.5t61.5 106t46.5 87.5h275z" />
    <glyph glyph-name="Uogonek" unicode="&#x172;" horiz-adv-x="1350" 
d="M846 -210q0 -46 23 -69t58 -23q26 0 54.5 6t44.5 13v-180q-31 -9 -70 -15.5t-81 -6.5q-116 0 -177 62t-61 168q0 59 24 113t67 101t100 85l220 60q-74 -70 -118.5 -126t-64 -101.5t-19.5 -86.5zM1201 1462v-963q0 -160 -59 -276t-177 -179.5t-294 -63.5
q-254 0 -388 135.5t-134 382.5v964h294v-936q0 -160 59 -226t174 -66q80 0 131 30t76 95t25 169v934h293z" />
    <glyph glyph-name="uogonek" unicode="&#x173;" horiz-adv-x="1186" 
d="M1049 1119v-1119h-222l-35 143h-16q-30 -55 -75 -91t-101 -54t-119 -18q-110 0 -187.5 46t-118.5 136.5t-41 226.5v730h285v-652q0 -123 34 -185t109 -62q80 0 123.5 41t60.5 119.5t17 191.5v547h286zM867 -218q0 -41 22.5 -63.5t60.5 -22.5q29 0 53.5 6t40.5 12v-175
q-27 -9 -62 -16.5t-81 -7.5q-117 0 -180 60.5t-63 160.5q0 54 24 107t69 101.5t108 88.5l137 -33q-68 -67 -98.5 -117t-30.5 -101z" />
    <glyph glyph-name="Wcircumflex" unicode="&#x174;" horiz-adv-x="1784" 
d="M1782 1462l-330 -1462h-337l-166 732q-6 29 -14.5 72t-17 92.5t-15.5 97.5t-11 88q-3 -34 -10 -79.5t-15 -95.5t-16.5 -96t-15.5 -79l-166 -732h-336l-331 1462h290l160 -768q8 -40 17 -90.5t18 -104t16.5 -104.5t11.5 -91q6 44 13.5 96.5t16.5 104.5t18 98t17 78
l181 781h264l177 -780q7 -33 16 -79.5t18 -99t17 -104t13 -95.5q6 55 16.5 124.5t23 140t23.5 125.5l161 768h293zM1043 1912q26 -45 64.5 -98.5t81 -106t79.5 -96.5v-27h-181q-45 32 -96 75t-99 96q-49 -53 -99 -97t-92 -74h-183v27q35 39 78.5 93t83.5 110t63 98h300z" />
    <glyph glyph-name="wcircumflex" unicode="&#x175;" horiz-adv-x="1578" 
d="M961 0l-94 477q-6 35 -16.5 88t-22.5 111.5t-22 110.5t-15 84h-8q-6 -34 -16 -87t-21.5 -111.5t-22 -111t-17.5 -85.5l-97 -476h-316l-277 1119h286l104 -462q12 -54 22 -121.5t18.5 -133.5t13.5 -117h7q3 34 8.5 78.5t13 92.5t15 93t14.5 79l112 491h321l107 -494
q8 -44 18.5 -106t19 -125t11.5 -109h8q4 42 11.5 102.5t18 126.5t22.5 120l113 485h281l-281 -1119h-319zM940 1569q26 -45 64.5 -98.5t81 -106t79.5 -96.5v-27h-181q-45 32 -96 75t-99 96q-49 -53 -99 -97t-92 -74h-183v27q35 39 78.5 93t83.5 110t63 98h300z" />
    <glyph glyph-name="Ycircumflex" unicode="&#x176;" horiz-adv-x="1125" 
d="M563 864l250 598h312l-416 -896v-566h-293v557l-416 905h314zM714 1912q26 -45 64.5 -98.5t81 -106t79.5 -96.5v-27h-181q-45 32 -96 75t-99 96q-49 -53 -99 -97t-92 -74h-183v27q35 39 78.5 93t83.5 110t63 98h300z" />
    <glyph glyph-name="ycircumflex" unicode="&#x177;" horiz-adv-x="1037" 
d="M3 1119h307l171 -585q9 -34 16.5 -68t13 -68t8.5 -68h7q5 48 15.5 97t26.5 105l165 587h301l-403 -1245q-40 -127 -100 -207.5t-138.5 -119.5t-178.5 -39q-43 0 -77.5 5.5t-63.5 11.5v239q21 -6 47 -10t53 -4q53 0 88.5 21.5t61 66t46.5 111.5l17 61zM671 1569
q26 -45 64.5 -98.5t81 -106t79.5 -96.5v-27h-181q-45 32 -96 75t-99 96q-49 -53 -99 -97t-92 -74h-183v27q35 39 78.5 93t83.5 110t63 98h300z" />
    <glyph glyph-name="Ydieresis" unicode="&#x178;" horiz-adv-x="1125" 
d="M563 864l250 598h312l-416 -896v-566h-293v557l-416 905h314zM235 1743q0 70 37 103t94 33t95 -34t38 -102q0 -65 -38 -99.5t-95 -34.5t-94 34t-37 100zM622 1743q0 70 37 103t96 33q57 0 95 -34t38 -102q0 -65 -38 -99.5t-95 -34.5q-59 0 -96 34.5t-37 99.5z" />
    <glyph glyph-name="Zacute" unicode="&#x179;" horiz-adv-x="1032" 
d="M986 0h-938v201l587 1013h-573v248h908v-200l-587 -1012h603v-250zM884 1912v-20q-25 -28 -65 -68t-86.5 -84t-93 -85t-83.5 -71h-197v27q35 46 71.5 98t71 104.5t59.5 98.5h323z" />
    <glyph glyph-name="zacute" unicode="&#x17a;" horiz-adv-x="869" 
d="M819 0h-771v173l433 717h-407v229h728v-189l-419 -702h436v-228zM802 1569v-20q-25 -28 -65 -68t-86.5 -84t-93 -85t-83.5 -71h-197v27q35 46 71.5 98t71 104.5t59.5 98.5h323z" />
    <glyph glyph-name="Zdotaccent" unicode="&#x17b;" horiz-adv-x="1032" 
d="M986 0h-938v201l587 1013h-573v248h908v-200l-587 -1012h603v-250zM542 1902q72 0 114 -35.5t42 -116.5q0 -79 -43 -114.5t-113 -35.5t-113 35.5t-43 114.5q0 82 42 117t114 35z" />
    <glyph glyph-name="zdotaccent" unicode="&#x17c;" horiz-adv-x="869" 
d="M819 0h-771v173l433 717h-407v229h728v-189l-419 -702h436v-228zM460 1559q72 0 114 -35.5t42 -116.5q0 -79 -43 -114.5t-113 -35.5t-113 35.5t-43 114.5q0 82 42 117t114 35z" />
    <glyph glyph-name="Zcaron" unicode="&#x17d;" horiz-adv-x="1032" 
d="M986 0h-938v201l587 1013h-573v248h908v-200l-587 -1012h603v-250zM375 1584q-23 43 -63.5 98.5t-84 110t-77.5 92.5v27h183q43 -32 93 -75t98 -96q50 56 99.5 97t95.5 74h181v-27q-33 -38 -76 -91.5t-83 -109t-66 -100.5h-300z" />
    <glyph glyph-name="zcaron" unicode="&#x17e;" horiz-adv-x="869" 
d="M819 0h-771v173l433 717h-407v229h728v-189l-419 -702h436v-228zM293 1241q-23 43 -63.5 98.5t-84 110t-77.5 92.5v27h183q43 -32 93 -75t98 -96q50 56 99.5 97t95.5 74h181v-27q-33 -38 -76 -91.5t-83 -109t-66 -100.5h-300z" />
    <glyph glyph-name="longs" unicode="&#x17f;" horiz-adv-x="680" 
d="M539 1333q-57 0 -79.5 -38.5t-23.5 -113.5v-1181h-287v1178q0 142 39 227.5t115.5 123.5t188.5 38q77 0 135 -12.5t111 -33.5l-63 -212q-30 10 -63.5 17t-72.5 7z" />
    <glyph glyph-name="florin" unicode="&#x192;" horiz-adv-x="1013" 
d="M689 1483q76 0 133 -13t111 -35l-65 -212q-30 11 -60 18.5t-67 7.5q-53 0 -74.5 -38t-21.5 -111v-77h207v-225h-207v-899q0 -122 -33 -209.5t-105 -134.5t-190 -47q-52 0 -97.5 8t-79.5 17v231q30 -10 57.5 -15t57.5 -5q49 0 77 36t28 126v892h-152v145l152 80v75
q0 143 38 227t111.5 121t179.5 37z" />
    <glyph glyph-name="Ohorn" unicode="&#x1a0;" horiz-adv-x="1470" 
d="M1319 733q0 -171 -37 -310t-112 -238t-189 -152t-269 -53q-156 0 -270.5 53t-189 152.5t-111.5 238.5t-37 311q0 237 67 404.5t202.5 256.5t340.5 89q151 0 264.5 -50.5t188.5 -146.5q30 29 47.5 69t26 90t8.5 109h274l13 -23q-25 -175 -89 -276t-182 -153
q27 -78 40.5 -170.5t13.5 -200.5zM412 733q0 -160 32 -271.5t98.5 -169.5t169.5 -58q104 0 170 57t97.5 168.5t31.5 273.5q0 244 -71.5 372.5t-226.5 128.5q-103 0 -170 -58t-99 -170t-32 -273z" />
    <glyph glyph-name="ohorn" unicode="&#x1a1;" horiz-adv-x="1247" 
d="M1051 562q0 -184 -58 -314.5t-167 -199t-261 -68.5q-144 0 -252.5 69t-169 199.5t-60.5 313.5q0 278 129 428t358 150q103 0 192 -36.5t152 -107.5q47 16 75 57.5t40 102t12 129.5h274l13 -22q-16 -121 -52.5 -208.5t-101 -143t-165.5 -82.5q21 -58 31.5 -124.5
t10.5 -142.5zM374 560q0 -113 20 -190t63 -116t111 -39t110 39t61.5 116.5t19.5 191.5q0 115 -19.5 190.5t-62 113.5t-110.5 38q-102 0 -147.5 -85t-45.5 -259z" />
    <glyph glyph-name="Uhorn" unicode="&#x1af;" horiz-adv-x="1582" 
d="M1201 1462v-196q54 11 84.5 52.5t43.5 104t13 133.5h273l13 -23q-14 -103 -43 -182.5t-78 -136t-124 -89t-182 -42.5v-555q0 -168 -59 -291t-177 -190t-294 -67q-254 0 -388 143.5t-134 402.5v936h294v-920q0 -163 59 -235.5t174 -72.5q80 0 131 33t76 102t25 175v918
h293z" />
    <glyph glyph-name="uhorn" unicode="&#x1b0;" horiz-adv-x="1391" 
d="M1460 1284l13 -22q-14 -104 -42.5 -184t-78 -135.5t-124 -88.5t-179.5 -45v-809h-222l-35 143h-17q-30 -55 -75 -91t-100.5 -54t-118.5 -18q-110 0 -187.5 46t-118.5 136.5t-41 226.5v730h285v-652q0 -123 34 -185t109 -62q113 0 157 88t44 278v533h286v-126
q50 14 80.5 55t44 102.5t13.5 133.5h273z" />
    <glyph glyph-name="uni01EA" unicode="&#x1ea;" horiz-adv-x="1422" 
d="M1319 733q0 -171 -37 -310t-112 -238t-189 -152t-269 -53q-156 0 -270.5 53t-189 152.5t-111.5 238.5t-37 311q0 237 66.5 404.5t202 256.5t340.5 89q207 0 341 -92t199.5 -260.5t65.5 -399.5zM412 733q0 -160 32 -271.5t98.5 -169.5t169.5 -58q104 0 170 57t97.5 168.5
t31.5 273.5q0 244 -71.5 372.5t-226.5 128.5q-103 0 -170 -58t-99 -170t-32 -273zM729 -218q0 -41 22.5 -63.5t60.5 -22.5q29 0 53.5 6t40.5 12v-175q-27 -9 -62 -16.5t-81 -7.5q-117 0 -180 60.5t-63 160.5q0 54 24 107t69 101.5t108 88.5l137 -33q-68 -67 -98.5 -117
t-30.5 -101z" />
    <glyph glyph-name="uni01EB" unicode="&#x1eb;" horiz-adv-x="1134" 
d="M1051 562q0 -128 -30.5 -234.5t-91.5 -184.5t-152 -120.5t-212 -42.5q-114 0 -203 42t-151.5 119.5t-95 184.5t-32.5 236q0 178 55.5 307.5t163.5 200t268 70.5q143 0 251.5 -67t169 -195.5t60.5 -315.5zM374 560q0 -113 20 -190t63 -116t111 -39t110 39t61.5 116.5
t19.5 191.5q0 115 -19.5 190.5t-62 113.5t-110.5 38q-102 0 -147.5 -85t-45.5 -259zM574 -218q0 -41 22.5 -63.5t60.5 -22.5q29 0 53.5 6t40.5 12v-175q-27 -9 -62 -16.5t-81 -7.5q-117 0 -180 60.5t-63 160.5q0 54 24 107t69 101.5t108 88.5l137 -33q-68 -67 -98.5 -117
t-30.5 -101z" />
    <glyph glyph-name="uni01EC" unicode="&#x1ec;" horiz-adv-x="1422" 
d="M1319 733q0 -171 -37 -310t-112 -238t-189 -152t-269 -53q-156 0 -270.5 53t-189 152.5t-111.5 238.5t-37 311q0 237 66.5 404.5t202 256.5t340.5 89q207 0 341 -92t199.5 -260.5t65.5 -399.5zM412 733q0 -160 32 -271.5t98.5 -169.5t169.5 -58q104 0 170 57t97.5 168.5
t31.5 273.5q0 244 -71.5 372.5t-226.5 128.5q-103 0 -170 -58t-99 -170t-32 -273zM1024 1799v-202h-622v202h622zM729 -218q0 -41 22.5 -63.5t60.5 -22.5q29 0 53.5 6t40.5 12v-175q-27 -9 -62 -16.5t-81 -7.5q-117 0 -180 60.5t-63 160.5q0 54 24 107t69 101.5t108 88.5
l137 -33q-68 -67 -98.5 -117t-30.5 -101z" />
    <glyph glyph-name="uni01ED" unicode="&#x1ed;" horiz-adv-x="1134" 
d="M1051 562q0 -128 -30.5 -234.5t-91.5 -184.5t-152 -120.5t-212 -42.5q-114 0 -203 42t-151.5 119.5t-95 184.5t-32.5 236q0 178 55.5 307.5t163.5 200t268 70.5q143 0 251.5 -67t169 -195.5t60.5 -315.5zM374 560q0 -113 20 -190t63 -116t111 -39t110 39t61.5 116.5
t19.5 191.5q0 115 -19.5 190.5t-62 113.5t-110.5 38q-102 0 -147.5 -85t-45.5 -259zM879 1456v-202h-622v202h622zM574 -218q0 -41 22.5 -63.5t60.5 -22.5q29 0 53.5 6t40.5 12v-175q-27 -9 -62 -16.5t-81 -7.5q-117 0 -180 60.5t-63 160.5q0 54 24 107t69 101.5t108 88.5
l137 -33q-68 -67 -98.5 -117t-30.5 -101z" />
    <glyph glyph-name="uni01F0" unicode="&#x1f0;" horiz-adv-x="563" 
d="M78 -492q-42 0 -92 7.5t-80 16.5v235q29 -10 56 -14.5t58 -4.5q54 0 86.5 35t32.5 122v1214h285v-1240q0 -109 -36.5 -193t-113 -131t-196.5 -47zM135 1241q-23 43 -63.5 98.5t-84 110t-77.5 92.5v27h183q43 -32 93 -75t98 -96q50 56 99.5 97t95.5 74h181v-27
q-33 -38 -76 -91.5t-83 -109t-66 -100.5h-300z" />
    <glyph glyph-name="Aringacute" unicode="&#x1fa;" horiz-adv-x="1245" 
d="M0 0l423 1326q-22 26 -34 59t-12 73q0 107 67 172t177 65q105 0 175.5 -65t70.5 -170q0 -42 -13 -75t-36 -59l427 -1326h-316l-88 327h-434l-89 -327h-318zM462 579h322l-90 328q-10 39 -25.5 93.5t-28.5 106.5t-18 82q-4 -22 -13 -58.5t-19.5 -77t-19.5 -77t-15 -58.5z
M621 1365q44 0 69.5 25.5t25.5 68.5t-27 68.5t-68 25.5q-42 0 -69 -25.5t-27 -68.5q0 -42 25 -68t71 -26zM490 1754v18q43 46 72.5 80t51 61.5t38.5 52.5h331v-13q-17 -18 -52 -44.5t-78 -55.5t-84 -55t-71 -44h-208z" />
    <glyph glyph-name="aringacute" unicode="&#x1fb;" horiz-adv-x="1094" 
d="M561 1141q194 0 297 -99t103 -299v-743h-204l-51 151h-7q-41 -58 -85.5 -96t-101.5 -56.5t-136 -18.5q-96 0 -164 44t-103.5 123.5t-35.5 184.5q0 177 111 264t325 95l167 6v47q0 90 -37.5 133.5t-110.5 43.5q-65 0 -132.5 -21t-140.5 -59l-87 203q82 46 183 71.5
t210 25.5zM676 519l-97 -4q-116 -4 -165.5 -50t-49.5 -128q0 -72 33 -105.5t91 -33.5q80 0 134 59.5t54 164.5v97zM556 1533q-41 0 -68 -25.5t-27 -68.5t24 -69t71 -26q41 0 68.5 26t27.5 69t-27 68.5t-69 25.5zM555 1674q71 0 127.5 -29t89.5 -81t33 -123
q0 -106 -70.5 -172t-179.5 -66t-175.5 64.5t-66.5 171.5t66.5 171t175.5 64zM907 1965v-12q-23 -27 -77 -69t-112 -82t-95 -62h-210v17q41 48 70.5 84t52 66t40.5 58h331z" />
    <glyph glyph-name="AEacute" unicode="&#x1fc;" horiz-adv-x="1684" 
d="M1580 0h-763v350h-386l-124 -350h-310l551 1462h1032v-247h-470v-332h439v-247h-439v-386h470v-250zM521 602h296v608h-86zM1257 1912v-20q-25 -28 -65 -68t-86.5 -84t-93 -85t-83.5 -71h-197v27q35 46 71.5 98t71 104.5t59.5 98.5h323z" />
    <glyph glyph-name="aeacute" unicode="&#x1fd;" horiz-adv-x="1651" 
d="M1142 1139q134 0 230.5 -60.5t148.5 -174t52 -272.5v-149h-628q4 -138 66 -210t179 -72q86 0 165 21t161 65v-229q-75 -40 -157 -59t-192 -19q-83 0 -157 22t-134 66.5t-101 111.5q-50 -69 -104 -113t-121 -65.5t-158 -21.5q-97 0 -169 44t-111 123.5t-39 184.5
q0 118 48.5 195.5t144 118t235.5 45.5l165 6v65q0 80 -37.5 119.5t-106.5 39.5q-64 0 -130 -20t-138 -58l-86 201q79 45 175.5 71t199.5 26q100 0 172.5 -31t120.5 -94q55 62 129.5 92.5t176.5 30.5zM666 519l-94 -4q-112 -4 -160 -49.5t-48 -128.5q0 -72 32 -105.5
t88 -33.5q52 0 93.5 27t65 77.5t23.5 119.5v97zM1138 925q-82 0 -133 -58t-57 -186h358q-1 74 -20 129t-56 85t-92 30zM1201 1569v-20q-25 -28 -65 -68t-86.5 -84t-93 -85t-83.5 -71h-197v27q35 46 71.5 98t71 104.5t59.5 98.5h323z" />
    <glyph glyph-name="Oslashacute" unicode="&#x1fe;" horiz-adv-x="1422" 
d="M1319 733q0 -176 -38 -315.5t-113.5 -237t-189 -149t-266.5 -51.5q-85 0 -158 16.5t-134 49.5l-81 -143l-152 87l93 162q-93 107 -134.5 253t-41.5 330q0 237 66.5 404.5t202 256.5t340.5 89q87 0 162.5 -18.5t137.5 -54.5l76 131l149 -84l-88 -155q85 -96 127 -240.5
t42 -330.5zM1015 733q0 82 -9 151.5t-28 124.5l-425 -729q32 -25 71.5 -38t87.5 -13q105 0 172 58.5t99 171t32 274.5zM409 733q0 -88 10 -161.5t31 -130.5l431 735q-34 31 -75.5 46t-91.5 15q-105 0 -173 -58.5t-100 -171t-32 -274.5zM1077 1912v-20q-25 -28 -65 -68
t-86.5 -84t-93 -85t-83.5 -71h-197v27q35 46 71.5 98t71 104.5t59.5 98.5h323z" />
    <glyph glyph-name="oslashacute" unicode="&#x1ff;" horiz-adv-x="1134" 
d="M1051 562q0 -184 -58 -314.5t-167 -199t-261 -68.5q-58 0 -109.5 11.5t-98.5 33.5l-69 -125l-144 84l79 140q-70 83 -105 191.5t-35 246.5q0 278 129 428t358 150q60 0 113.5 -13t101.5 -38l59 103l143 -86l-67 -121q63 -74 97 -181t34 -242zM368 560q0 -50 4 -92.5
t12 -76.5l284 488q-20 16 -45.5 24t-55.5 8q-105 0 -152 -87.5t-47 -263.5zM766 562q0 44 -3 82t-8 69l-278 -479q18 -13 41 -19.5t49 -6.5q71 0 115 40t64 119t20 195zM932 1569v-20q-25 -28 -65 -68t-86.5 -84t-93 -85t-83.5 -71h-197v27q35 46 71.5 98t71 104.5
t59.5 98.5h323z" />
    <glyph glyph-name="uni0218" unicode="&#x218;" horiz-adv-x="1013" 
d="M942 417q0 -131 -58 -229.5t-166.5 -153t-260.5 -54.5q-68 0 -133 9t-125.5 27.5t-118.5 47.5v287q92 -49 191 -81t191 -32q65 0 106 20.5t60 56t19 80.5q0 52 -26 89.5t-79.5 73t-134.5 78.5q-58 31 -113.5 68.5t-101 86.5t-72 117t-26.5 161q-1 128 54 221t157.5 143.5
t243.5 49.5q102 0 196.5 -25t190.5 -72l-89 -245q-86 42 -157.5 63.5t-140.5 21.5q-53 0 -89.5 -18.5t-55.5 -51t-19 -75.5q0 -52 23.5 -87.5t76.5 -69.5t141 -80q101 -53 171.5 -111.5t107.5 -134t37 -181.5zM645 -125v-21q-18 -48 -41 -100.5t-50.5 -104.5t-59.5 -102
h-175v27q11 38 22 92.5t20 110.5t13 98h271z" />
    <glyph glyph-name="uni0219" unicode="&#x219;" horiz-adv-x="892" 
d="M826 330q0 -114 -48 -192t-141.5 -118t-228.5 -40q-99 0 -177.5 15.5t-153.5 48.5v255q72 -39 160 -65.5t164 -26.5q72 0 106.5 26.5t34.5 72.5q0 28 -14 51.5t-57.5 51.5t-133.5 69q-87 41 -145.5 88t-87.5 109.5t-29 149.5q0 152 106 233.5t287 81.5q93 0 176.5 -21.5
t168.5 -66.5l-82 -212q-66 34 -129 56.5t-129 22.5q-58 0 -88 -21t-30 -60q0 -28 15 -49t58 -46.5t126 -66.5q82 -39 143 -84t95 -107t34 -155zM593 -125v-21q-18 -48 -41 -100.5t-50.5 -104.5t-59.5 -102h-175v27q11 38 22 92.5t20 110.5t13 98h271z" />
    <glyph glyph-name="uni021A" unicode="&#x21a;" horiz-adv-x="1033" 
d="M663 0h-293v1212h-335v250h962v-250h-334v-1212zM676 -125v-21q-18 -48 -41 -100.5t-50.5 -104.5t-59.5 -102h-175v27q11 38 22 92.5t20 110.5t13 98h271z" />
    <glyph glyph-name="uni021B" unicode="&#x21b;" horiz-adv-x="769" 
d="M560 218q39 0 78.5 9t80.5 24v-220q-47 -23 -109.5 -37t-134.5 -14q-98 0 -168 35.5t-107 115t-37 211.5v552h-128v136l150 86l75 240h189v-237h257v-225h-257v-547q0 -65 28.5 -97t82.5 -32zM599 -125v-21q-18 -48 -41 -100.5t-50.5 -104.5t-59.5 -102h-175v27
q11 38 22 92.5t20 110.5t13 98h271z" />
    <glyph glyph-name="uni0237" unicode="&#x237;" horiz-adv-x="563" 
d="M78 -492q-42 0 -92 7.5t-80 16.5v235q29 -10 56 -14.5t58 -4.5q54 0 86.5 35t32.5 122v1214h285v-1240q0 -109 -36.5 -193t-113 -131t-196.5 -47z" />
    <glyph glyph-name="uni0259" unicode="&#x259;" horiz-adv-x="1073" 
d="M486 1139q161 0 274 -66t172 -193.5t59 -314.5q0 -191 -56 -321.5t-160.5 -197t-249.5 -66.5q-140 0 -240 60.5t-153.5 174t-53.5 270.5v150h627q-2 138 -64.5 210t-180.5 72q-89 0 -165.5 -20.5t-158.5 -64.5v228q75 41 158 60t192 19zM702 437h-357q1 -72 20.5 -127.5
t58.5 -86t97 -30.5q77 0 126 58t55 186z" />
    <glyph glyph-name="uni02BC" unicode="&#x2bc;" horiz-adv-x="468" 
d="M405 1462l13 -22q-17 -87 -42 -174.5t-54.5 -171t-61.5 -159.5h-218q13 59 26.5 128.5t26 141.5t22 138.5t15.5 118.5h273z" />
    <glyph glyph-name="circumflex" unicode="&#x2c6;" horiz-adv-x="914" 
d="M607 1569q26 -45 64.5 -98.5t81 -106t79.5 -96.5v-27h-181q-45 32 -96 75t-99 96q-49 -53 -99 -97t-92 -74h-183v27q35 39 78.5 93t83.5 110t63 98h300z" />
    <glyph glyph-name="caron" unicode="&#x2c7;" horiz-adv-x="914" 
d="M307 1241q-23 43 -63.5 98.5t-84 110t-77.5 92.5v27h183q43 -32 93 -75t98 -96q50 56 99.5 97t95.5 74h181v-27q-33 -38 -76 -91.5t-83 -109t-66 -100.5h-300z" />
    <glyph glyph-name="macron" unicode="&#x2c9;" horiz-adv-x="786" 
d="M704 1456v-202h-622v202h622z" />
    <glyph glyph-name="breve" unicode="&#x2d8;" horiz-adv-x="853" 
d="M771 1577q-3 -100 -48.5 -175.5t-122.5 -117.5t-177 -42q-153 0 -244.5 88t-96.5 247h166q4 -53 27 -82t61.5 -40.5t88.5 -11.5q45 0 84 12t65 41t30 81h167z" />
    <glyph glyph-name="dotaccent" unicode="&#x2d9;" horiz-adv-x="476" 
d="M238 1559q72 0 114 -35.5t42 -116.5q0 -79 -43 -114.5t-113 -35.5t-113 35.5t-43 114.5q0 82 42 117t114 35z" />
    <glyph glyph-name="ring" unicode="&#x2da;" horiz-adv-x="654" 
d="M325 1240q-109 0 -176 64.5t-67 171.5t67 171.5t176 64.5q106 0 176.5 -64.5t70.5 -169.5q0 -107 -69.5 -172.5t-177.5 -65.5zM326 1382q41 0 68 26t27 69q0 42 -27 68t-68 26t-68.5 -26t-27.5 -68q0 -43 24.5 -69t71.5 -26z" />
    <glyph glyph-name="ogonek" unicode="&#x2db;" horiz-adv-x="550" 
d="M291 -218q0 -41 22.5 -63.5t60.5 -22.5q29 0 53.5 6t40.5 12v-175q-27 -9 -62 -16.5t-81 -7.5q-117 0 -180 60.5t-63 160.5q0 54 24 107t69 101.5t108 88.5l137 -33q-68 -67 -98.5 -117t-30.5 -101z" />
    <glyph glyph-name="tilde" unicode="&#x2dc;" horiz-adv-x="914" 
d="M82 1239q4 64 19.5 120t43.5 98t68.5 65.5t93.5 23.5q41 0 79.5 -15.5t75 -36.5t72 -36.5t69.5 -15.5q29 0 50 27.5t31 78.5h148q-8 -153 -72.5 -230t-153.5 -77q-40 0 -79.5 16t-77 36.5t-72 36.5t-64.5 16q-27 0 -50.5 -26t-33.5 -81h-147z" />
    <glyph glyph-name="hungarumlaut" unicode="&#x2dd;" horiz-adv-x="978" 
d="M896 1569v-20q-15 -29 -49.5 -69.5t-79 -84.5t-89 -84.5t-80.5 -69.5h-149v27q31 51 64.5 106.5t62.5 106.5t46 88h274zM530 1569v-20q-16 -30 -50 -69.5t-78 -83t-90 -84t-85 -71.5h-145v27q32 52 65 107.5t61.5 106t46.5 87.5h275z" />
    <glyph glyph-name="uni02F3" unicode="&#x2f3;" horiz-adv-x="746" 
d="M370 -587q-110 0 -176.5 64t-66.5 171t66.5 172t176.5 65q107 0 177 -65.5t70 -169.5q0 -106 -69.5 -171.5t-177.5 -65.5zM370 -446q41 0 68 25.5t27 68.5t-27 68.5t-68 25.5t-68 -25.5t-27 -68.5t24 -68.5t71 -25.5z" />
    <glyph glyph-name="gravecomb" unicode="&#x300;" 
d="M-632 1569q24 -44 61 -101.5t75 -111t65 -88.5v-27h-196q-33 26 -78.5 66t-94 85.5t-90 87t-66.5 69.5v20h324z" />
    <glyph glyph-name="acutecomb" unicode="&#x301;" 
d="M-103 1569v-20q-25 -28 -65 -68t-86.5 -84t-93 -85t-83.5 -71h-197v27q35 46 71.5 98t71 104.5t59.5 98.5h323z" />
    <glyph glyph-name="uni0302" unicode="&#x302;" 
d="M152 1569q26 -45 64.5 -98.5t81 -106t79.5 -96.5v-27h-181q-45 32 -96 75t-99 96q-49 -53 -99 -97t-92 -74h-183v27q35 39 78.5 93t83.5 110t63 98h300z" />
    <glyph glyph-name="tildecomb" unicode="&#x303;" 
d="M-972 1239q4 64 19.5 120t43.5 98t68.5 65.5t93.5 23.5q41 0 79.5 -15.5t75 -36.5t72 -36.5t69.5 -15.5q29 0 50 27.5t31 78.5h148q-8 -153 -72.5 -230t-153.5 -77q-40 0 -79.5 16t-77 36.5t-72 36.5t-64.5 16q-27 0 -50.5 -26t-33.5 -81h-147z" />
    <glyph glyph-name="uni0304" unicode="&#x304;" 
d="M312 1456v-202h-622v202h622z" />
    <glyph glyph-name="uni0306" unicode="&#x306;" 
d="M348 1577q-3 -100 -48.5 -175.5t-122.5 -117.5t-177 -42q-153 0 -244.5 88t-96.5 247h166q4 -53 27 -82t61.5 -40.5t88.5 -11.5q45 0 84 12t65 41t30 81h167z" />
    <glyph glyph-name="uni0307" unicode="&#x307;" 
d="M12 1559q72 0 114 -35.5t42 -116.5q0 -79 -43 -114.5t-113 -35.5t-113 35.5t-43 114.5q0 82 42 117t114 35z" />
    <glyph glyph-name="uni0308" unicode="&#x308;" 
d="M-325 1400q0 70 37 103t94 33t95 -34t38 -102q0 -65 -38 -99.5t-95 -34.5t-94 34t-37 100zM62 1400q0 70 37 103t96 33q57 0 95 -34t38 -102q0 -65 -38 -99.5t-95 -34.5q-59 0 -96 34.5t-37 99.5z" />
    <glyph glyph-name="hookabovecomb" unicode="&#x309;" 
d="M-343 1488q0 -77 -39 -127.5t-117 -71.5l-12 -69h-152l-20 144q65 10 90.5 34.5t25.5 63.5q0 34 -20 52t-59 18q-31 0 -59 -5.5t-57 -15.5v165q31 12 74 18.5t89 6.5q126 0 191 -56t65 -157z" />
    <glyph glyph-name="uni030A" unicode="&#x30a;" 
d="M1 1240q-109 0 -176 64.5t-67 171.5t67 171.5t176 64.5q106 0 176.5 -64.5t70.5 -169.5q0 -107 -69.5 -172.5t-177.5 -65.5zM2 1382q41 0 68 26t27 69q0 42 -27 68t-68 26t-68.5 -26t-27.5 -68q0 -43 24.5 -69t71.5 -26z" />
    <glyph glyph-name="uni030B" unicode="&#x30b;" 
d="M534 1569v-20q-15 -29 -49.5 -69.5t-79 -84.5t-89 -84.5t-80.5 -69.5h-149v27q31 51 64.5 106.5t62.5 106.5t46 88h274zM168 1569v-20q-16 -30 -50 -69.5t-78 -83t-90 -84t-85 -71.5h-145v27q32 52 65 107.5t61.5 106t46.5 87.5h275z" />
    <glyph glyph-name="uni030C" unicode="&#x30c;" 
d="M-147 1241q-23 43 -63.5 98.5t-84 110t-77.5 92.5v27h183q43 -32 93 -75t98 -96q50 56 99.5 97t95.5 74h181v-27q-33 -38 -76 -91.5t-83 -109t-66 -100.5h-300z" />
    <glyph glyph-name="uni030F" unicode="&#x30f;" 
d="M-462 1569q18 -38 44 -89t57 -106t62 -106v-27h-144q-37 30 -81.5 71t-87 85t-76 84t-48.5 68v20h274zM-828 1569q19 -41 45 -91.5t56 -104.5t61 -105v-27h-149q-32 29 -75.5 69.5t-86.5 85.5t-77 85t-50 68v20h276z" />
    <glyph glyph-name="uni0312" unicode="&#x312;" 
d="M-159 935l-13 23q17 88 42 175.5t55 171t62 157.5h218q-19 -83 -37 -177.5t-32 -185.5t-22 -164h-273z" />
    <glyph glyph-name="dotbelowcomb" unicode="&#x323;" 
d="M-608 -433q-71 0 -113.5 35.5t-42.5 114.5q0 81 42 116t114 35t114 -35t42 -116q0 -79 -43 -114.5t-113 -35.5z" />
    <glyph glyph-name="uni0326" unicode="&#x326;" 
d="M159 -125v-21q-18 -48 -41 -100.5t-50.5 -104.5t-59.5 -102h-175v27q11 38 22 92.5t20 110.5t13 98h271z" />
    <glyph glyph-name="uni0327" unicode="&#x327;" 
d="M216 -258q0 -110 -66.5 -172t-215.5 -62q-45 0 -82 5.5t-67 13.5v162q29 -7 63 -12.5t60 -5.5q38 0 61 16.5t23 51.5q0 39 -37.5 65.5t-117.5 34.5l74 161h164l-31 -71q50 -12 88.5 -37t61 -62.5t22.5 -87.5z" />
    <glyph glyph-name="uni0328" unicode="&#x328;" 
d="M5 -218q0 -41 22.5 -63.5t60.5 -22.5q29 0 53.5 6t40.5 12v-175q-27 -9 -62 -16.5t-81 -7.5q-117 0 -180 60.5t-63 160.5q0 54 24 107t69 101.5t108 88.5l137 -33q-68 -67 -98.5 -117t-30.5 -101z" />
    <glyph glyph-name="tonos" unicode="&#x384;" horiz-adv-x="1061" 
d="M421 1241v30q9 29 20 73t22.5 93t20 93.5t12.5 74.5h263v-25q-21 -51 -47.5 -107.5t-56.5 -115t-64 -116.5h-170z" />
    <glyph glyph-name="dieresistonos" unicode="&#x385;" horiz-adv-x="1066" 
d="M735 1697v-20q-16 -41 -40 -89t-53.5 -99t-62.5 -103h-132v26q11 47 21 98.5t17.5 100t10.5 86.5h239zM283 1528q55 0 90 -34t35 -102q0 -65 -35 -100t-90 -35t-89 34.5t-34 100.5q0 68 34 102t89 34zM798 1530q55 0 90 -34.5t35 -103.5q0 -64 -35 -98.5t-90 -34.5
q-56 0 -90 34.5t-34 99.5q0 69 34 103t90 34z" />
    <glyph glyph-name="Alphatonos" unicode="&#x386;" horiz-adv-x="1284" 
d="M968 0l-91 350h-429l-91 -350h-318l435 1465h371l439 -1465h-316zM818 602l-92 364q-9 41 -21 90.5t-23.5 98.5t-19.5 88q-6 -38 -18 -89t-24 -101t-20 -85l-92 -366h310zM5 1178v30q9 29 20 73t22.5 93t20 93.5t12.5 74.5h263v-25q-21 -51 -47.5 -107.5t-56.5 -115
t-64 -116.5h-170z" />
    <glyph glyph-name="anoteleia" unicode="&#x387;" horiz-adv-x="553" 
d="M111 966q0 88 46 128.5t122 40.5q72 0 118.5 -40t46.5 -129q0 -85 -47 -127t-118 -42q-73 0 -120.5 42t-47.5 127z" />
    <glyph glyph-name="Epsilontonos" unicode="&#x388;" horiz-adv-x="1240" 
d="M1137 0h-749v1462h749v-246h-454v-333h423v-247h-423v-386h454v-250zM-7 1166v30q9 29 20 73t22.5 93t20 93.5t12.5 74.5h263v-25q-21 -51 -47.5 -107.5t-56.5 -115t-64 -116.5h-170z" />
    <glyph glyph-name="Etatonos" unicode="&#x389;" horiz-adv-x="1609" 
d="M1452 0h-295v635h-471v-635h-295v1462h295v-576h471v576h295v-1462zM-8 1166v30q9 29 20 73t22.5 93t20 93.5t12.5 74.5h263v-25q-21 -51 -47.5 -107.5t-56.5 -115t-64 -116.5h-170z" />
    <glyph glyph-name="Iotatonos" unicode="&#x38a;" horiz-adv-x="852" 
d="M400 0v1462h295v-1462h-295zM-7 1166v30q9 29 20 73t22.5 93t20 93.5t12.5 74.5h263v-25q-21 -51 -47.5 -107.5t-56.5 -115t-64 -116.5h-170z" />
    <glyph glyph-name="Omicrontonos" unicode="&#x38c;" horiz-adv-x="1539" 
d="M1436 733q0 -171 -37 -310t-112 -238t-189 -152t-269 -53q-156 0 -270.5 53t-189 152.5t-111.5 238.5t-37 311q0 237 66.5 404.5t202 256.5t340.5 89q207 0 341 -92t199.5 -260.5t65.5 -399.5zM529 733q0 -160 32 -271.5t98.5 -169.5t169.5 -58q104 0 170 57t97.5 168.5
t31.5 273.5q0 244 -71.5 372.5t-226.5 128.5q-103 0 -170 -58t-99 -170t-32 -273zM-7 1166v30q9 29 20 73t22.5 93t20 93.5t12.5 74.5h263v-25q-21 -51 -47.5 -107.5t-56.5 -115t-64 -116.5h-170z" />
    <glyph glyph-name="Upsilontonos" unicode="&#x38e;" horiz-adv-x="1479" 
d="M918 864l250 598h312l-416 -896v-566h-293v557l-416 905h314zM-7 1166v30q9 29 20 73t22.5 93t20 93.5t12.5 74.5h263v-25q-21 -51 -47.5 -107.5t-56.5 -115t-64 -116.5h-170z" />
    <glyph glyph-name="Omegatonos" unicode="&#x38f;" horiz-adv-x="1558" 
d="M852 1234q-99 0 -168 -47.5t-104.5 -142t-35.5 -235.5q0 -124 21 -225t68.5 -179.5t127.5 -133.5v-271h-568v252h324q-84 57 -145.5 146t-95 206t-33.5 257q0 197 73 336.5t209.5 213.5t326.5 74q186 0 322 -73.5t210 -213.5t74 -338q0 -140 -33.5 -256.5t-96 -204.5
t-148.5 -147h328v-252h-571v271q83 55 131 134t69 181t21 225q0 139 -35.5 233t-104 142t-166.5 48zM-7 1166v30q9 29 20 73t22.5 93t20 93.5t12.5 74.5h263v-25q-21 -51 -47.5 -107.5t-56.5 -115t-64 -116.5h-170z" />
    <glyph glyph-name="iotadieresistonos" unicode="&#x390;" horiz-adv-x="726" 
d="M423 1119v-781q0 -61 28.5 -90.5t78.5 -29.5q41 0 80.5 10t78.5 25v-222q-45 -24 -104.5 -37.5t-128.5 -13.5q-98 0 -169.5 33.5t-110 111.5t-38.5 211v783h285zM503 1697v-20q-16 -41 -40 -89t-53.5 -99t-62.5 -103h-132v26q11 47 21 98.5t17.5 100t10.5 86.5h239z
M51 1528q55 0 90 -34t35 -102q0 -65 -35 -100t-90 -35t-89 34.5t-34 100.5q0 68 34 102t89 34zM566 1530q55 0 90 -34.5t35 -103.5q0 -64 -35 -98.5t-90 -34.5q-56 0 -90 34.5t-34 99.5q0 69 34 103t90 34z" />
    <glyph glyph-name="Alpha" unicode="&#x391;" horiz-adv-x="1245" 
d="M929 0l-91 350h-429l-91 -350h-318l435 1465h371l439 -1465h-316zM779 602l-92 364q-9 41 -21 90.5t-23.5 98.5t-19.5 88q-6 -38 -18 -89t-24 -101t-20 -85l-92 -366h310z" />
    <glyph glyph-name="Beta" unicode="&#x392;" horiz-adv-x="1228" 
d="M158 1462h420q259 0 390 -85t131 -280q0 -84 -25 -151.5t-72 -111t-114 -58.5v-10q76 -18 130 -58.5t83.5 -110t29.5 -173.5q0 -131 -58.5 -226t-167 -146.5t-259.5 -51.5h-488v1462zM453 877h142q110 0 157 45.5t47 134.5q0 84 -52.5 124t-161.5 40h-132v-344zM453 642
v-396h165q112 0 160.5 53t48.5 152q0 59 -22.5 102t-70.5 66t-127 23h-154z" />
    <glyph glyph-name="Gamma" unicode="&#x393;" horiz-adv-x="997" 
d="M964 1462v-249h-511v-1213h-295v1462h806z" />
    <glyph glyph-name="uni0394" unicode="&#x394;" horiz-adv-x="1210" 
d="M784 1465l386 -1294v-171h-1129v174l386 1291h357zM854 251l-209 769q-5 22 -14 59.5t-16.5 75t-9.5 58.5q-3 -23 -10.5 -60.5t-16.5 -74.5t-14 -60l-209 -767h499z" />
    <glyph glyph-name="Epsilon" unicode="&#x395;" horiz-adv-x="1011" 
d="M907 0h-749v1462h749v-246h-454v-333h423v-247h-423v-386h454v-250z" />
    <glyph glyph-name="Zeta" unicode="&#x396;" horiz-adv-x="1032" 
d="M986 0h-938v201l587 1013h-573v248h908v-200l-587 -1012h603v-250z" />
    <glyph glyph-name="Eta" unicode="&#x397;" horiz-adv-x="1377" 
d="M1219 0h-295v635h-471v-635h-295v1462h295v-576h471v576h295v-1462z" />
    <glyph glyph-name="Theta" unicode="&#x398;" horiz-adv-x="1422" 
d="M917 863v-239h-411v239h411zM1319 733q0 -171 -37 -310t-112 -238t-189 -152t-269 -53q-156 0 -270.5 53t-189 152.5t-111.5 238.5t-37 311q0 237 66.5 404.5t202 256.5t340.5 89q207 0 341 -92t199.5 -260.5t65.5 -399.5zM412 733q0 -160 32 -271.5t98.5 -169.5
t169.5 -58q104 0 170 57t97.5 168.5t31.5 273.5q0 244 -71.5 372.5t-226.5 128.5q-103 0 -170 -58t-99 -170t-32 -273z" />
    <glyph glyph-name="Iota" unicode="&#x399;" horiz-adv-x="611" 
d="M158 0v1462h295v-1462h-295z" />
    <glyph glyph-name="Kappa" unicode="&#x39a;" horiz-adv-x="1204" 
d="M1211 0h-332l-315 606l-111 -88v-518h-295v1462h295v-671q20 41 47 86.5t58 97.5l326 487h323l-434 -649z" />
    <glyph glyph-name="Lambda" unicode="&#x39b;" horiz-adv-x="1193" 
d="M761 1462l432 -1462h-304l-231 862q-11 48 -23.5 106.5t-23.5 113t-15 89.5q-6 -45 -16.5 -102t-22 -112t-21.5 -94l-232 -863h-304l431 1462h330z" />
    <glyph glyph-name="Mu" unicode="&#x39c;" horiz-adv-x="1756" 
d="M740 0l-321 1113h-8q3 -54 7 -124.5t6.5 -142t2.5 -129.5v-717h-269v1462h404l308 -1059h7l318 1059h404v-1462h-279v724q0 57 2 127t5.5 139t6.5 121h-9l-334 -1111h-251z" />
    <glyph glyph-name="Nu" unicode="&#x39d;" horiz-adv-x="1469" 
d="M1312 0h-362l-532 1063h-8q5 -70 8 -136t5.5 -127t3.5 -117v-683h-269v1462h359l531 -1046h7q-3 69 -6 132t-5 122t-3 114v678h271v-1462z" />
    <glyph glyph-name="Xi" unicode="&#x39e;" horiz-adv-x="1030" 
d="M76 0v250h879v-250h-879zM180 639v248h672v-248h-672zM110 1216v246h811v-246h-811z" />
    <glyph glyph-name="Omicron" unicode="&#x39f;" horiz-adv-x="1422" 
d="M1319 733q0 -171 -37 -310t-112 -238t-189 -152t-269 -53q-156 0 -270.5 53t-189 152.5t-111.5 238.5t-37 311q0 237 66.5 404.5t202 256.5t340.5 89q207 0 341 -92t199.5 -260.5t65.5 -399.5zM412 733q0 -160 32 -271.5t98.5 -169.5t169.5 -58q104 0 170 57t97.5 168.5
t31.5 273.5q0 244 -71.5 372.5t-226.5 128.5q-103 0 -170 -58t-99 -170t-32 -273z" />
    <glyph glyph-name="Pi" unicode="&#x3a0;" horiz-adv-x="1346" 
d="M158 0v1462h1030v-1462h-295v1212h-440v-1212h-295z" />
    <glyph glyph-name="Rho" unicode="&#x3a1;" horiz-adv-x="1145" 
d="M577 1462q253 0 372 -118.5t119 -335.5q0 -103 -28 -192t-89 -155.5t-158 -104t-235 -37.5h-105v-519h-295v1462h419zM558 1216h-105v-450h76q77 0 131.5 24t83.5 76t29 136q0 110 -53 162t-162 52z" />
    <glyph glyph-name="Sigma" unicode="&#x3a3;" horiz-adv-x="1069" 
d="M69 0v237l396 529l-381 467v229h869v-246h-350q-37 0 -70.5 0.5t-64.5 3t-60 5.5l374 -457l-400 -529q59 5 116.5 8t112.5 3h392v-250h-934z" />
    <glyph glyph-name="Tau" unicode="&#x3a4;" horiz-adv-x="1033" 
d="M663 0h-293v1212h-335v250h962v-250h-334v-1212z" />
    <glyph glyph-name="Upsilon" unicode="&#x3a5;" horiz-adv-x="1125" 
d="M563 864l250 598h312l-416 -896v-566h-293v557l-416 905h314z" />
    <glyph glyph-name="Phi" unicode="&#x3a6;" horiz-adv-x="1602" 
d="M939 1483v-180q203 -3 330 -77t187.5 -196t60.5 -272q0 -108 -32.5 -207t-101.5 -176t-179 -122.5t-265 -47.5v-225h-275v225q-158 2 -268 47t-178.5 122.5t-100 177t-31.5 207.5q0 110 32 207t101 172.5t179 119t266 45.5v180h275zM664 1065q-106 -3 -171 -40
t-94.5 -104t-29.5 -160q0 -103 31.5 -173.5t97 -107t166.5 -39.5v624zM938 1065v-624q102 3 167 41t96.5 108.5t31.5 170.5q0 92 -30 159t-95 104.5t-170 40.5z" />
    <glyph glyph-name="Chi" unicode="&#x3a7;" horiz-adv-x="1168" 
d="M1167 0h-328l-260 521l-265 -521h-313l405 749l-376 713h316l238 -493l233 493h315l-376 -721z" />
    <glyph glyph-name="Psi" unicode="&#x3a8;" horiz-adv-x="1635" 
d="M1526 1462v-483q0 -139 -30.5 -243t-98 -173.5t-176.5 -104t-266 -34.5v-424h-274v424q-159 0 -268.5 34.5t-176 102.5t-96 170t-29.5 237v494h285v-496q0 -109 28.5 -173.5t91 -93t165.5 -28.5v791h274v-791q93 0 156.5 26.5t96 90t32.5 174.5v500h286z" />
    <glyph glyph-name="uni03A9" unicode="&#x3a9;" horiz-adv-x="1417" 
d="M710 1234q-99 0 -168 -47.5t-104.5 -142t-35.5 -235.5q0 -124 21 -225t68.5 -179.5t127.5 -133.5v-271h-568v252h324q-84 57 -145.5 146t-95 206t-33.5 257q0 197 73 336.5t209.5 213.5t326.5 74q186 0 322 -73.5t210 -213.5t74 -338q0 -140 -33.5 -256.5t-96 -204.5
t-148.5 -147h328v-252h-571v271q83 55 131 134t69 181t21 225q0 139 -35.5 233t-104 142t-166.5 48z" />
    <glyph glyph-name="Iotadieresis" unicode="&#x3aa;" horiz-adv-x="611" 
d="M158 0v1462h295v-1462h-295zM-22 1743q0 70 37 103t94 33t95 -34t38 -102q0 -65 -38 -99.5t-95 -34.5t-94 34t-37 100zM365 1743q0 70 37 103t96 33q57 0 95 -34t38 -102q0 -65 -38 -99.5t-95 -34.5q-59 0 -96 34.5t-37 99.5z" />
    <glyph glyph-name="Upsilondieresis" unicode="&#x3ab;" horiz-adv-x="1125" 
d="M563 864l250 598h312l-416 -896v-566h-293v557l-416 905h314zM236 1738q0 70 37 103t94 33t95 -34t38 -102q0 -65 -38 -99.5t-95 -34.5t-94 34t-37 100zM623 1738q0 70 37 103t96 33q57 0 95 -34t38 -102q0 -65 -38 -99.5t-95 -34.5q-59 0 -96 34.5t-37 99.5z" />
    <glyph glyph-name="alphatonos" unicode="&#x3ac;" horiz-adv-x="1200" 
d="M560 214q68 0 110.5 35.5t62 108.5t20.5 186v13q0 173 -44.5 258.5t-153.5 85.5q-92 0 -136.5 -89.5t-44.5 -258.5q0 -170 45.5 -254.5t140.5 -84.5zM469 -20q-177 0 -281.5 148.5t-104.5 426.5q0 284 109 434t297 150q105 0 173 -43t112 -129h13q10 42 26.5 83t37.5 69
h242q-16 -51 -31 -123t-24 -154.5t-9 -166.5v-328q0 -66 21.5 -95t55.5 -29q16 0 32.5 3t25.5 7v-228q-9 -6 -32 -11.5t-49 -9.5t-45 -4q-106 0 -166.5 38t-93.5 131h-19q-29 -51 -70.5 -89t-96 -59t-123.5 -21zM498 1241v30q9 29 20 73t22.5 93t20 93.5t12.5 74.5h263v-25
q-21 -51 -47.5 -107.5t-56.5 -115t-64 -116.5h-170z" />
    <glyph glyph-name="epsilontonos" unicode="&#x3ad;" horiz-adv-x="984" 
d="M728 684v-206h-128q-87 0 -140 -16t-77 -47.5t-24 -76.5q0 -40 22.5 -68.5t70.5 -44t122 -15.5q95 0 184.5 24t156.5 60v-239q-75 -38 -167 -56.5t-209 -18.5q-246 0 -356 91t-110 240q0 114 65.5 181.5t177.5 88.5v10q-94 26 -142 92t-48 162q0 98 55 163.5t150.5 98.5
t215.5 33q97 0 193.5 -21t180.5 -63l-92 -212q-62 31 -126 52t-137 21q-87 0 -130.5 -26.5t-43.5 -78.5q0 -69 54 -98.5t170 -29.5h112zM453 1241v30q9 29 20 73t22.5 93t20 93.5t12.5 74.5h263v-25q-21 -51 -47.5 -107.5t-56.5 -115t-64 -116.5h-170z" />
    <glyph glyph-name="etatonos" unicode="&#x3ae;" horiz-adv-x="1186" 
d="M707 1140q107 0 184.5 -44t119.5 -134t42 -227v-1227h-286v1151q0 119 -34 179t-110 60q-75 0 -119 -38.5t-62.5 -119.5t-18.5 -207v-533h-285v1119h222l34 -143h17q31 56 75.5 92t101 54t119.5 18zM511 1241v30q9 29 20 73t22.5 93t20 93.5t12.5 74.5h263v-25
q-21 -51 -47.5 -107.5t-56.5 -115t-64 -116.5h-170z" />
    <glyph glyph-name="iotatonos" unicode="&#x3af;" horiz-adv-x="726" 
d="M423 1119v-781q0 -61 28.5 -90.5t78.5 -29.5q41 0 80.5 10t78.5 25v-222q-45 -24 -104.5 -37.5t-128.5 -13.5q-98 0 -169.5 33.5t-110 111.5t-38.5 211v783h285zM193 1241v30q9 29 20 73t22.5 93t20 93.5t12.5 74.5h263v-25q-21 -51 -47.5 -107.5t-56.5 -115t-64 -116.5
h-170z" />
    <glyph glyph-name="upsilondieresistonos" unicode="&#x3b0;" horiz-adv-x="1172" 
d="M582 -18q-170 1 -269 62.5t-141.5 178.5t-43.5 282v614h286v-633q0 -137 40.5 -201t135.5 -64q101 0 149.5 87.5t48.5 291.5q0 131 -17 255t-49 264h286q23 -99 37.5 -182t21 -164t6.5 -176q0 -312 -125.5 -463.5t-365.5 -151.5zM777 1697v-20q-16 -41 -40 -89t-53.5 -99
t-62.5 -103h-132v26q11 47 21 98.5t17.5 100t10.5 86.5h239zM325 1528q55 0 90 -34t35 -102q0 -65 -35 -100t-90 -35t-89 34.5t-34 100.5q0 68 34 102t89 34zM840 1530q55 0 90 -34.5t35 -103.5q0 -64 -35 -98.5t-90 -34.5q-56 0 -90 34.5t-34 99.5q0 69 34 103t90 34z" />
    <glyph glyph-name="alpha" unicode="&#x3b1;" horiz-adv-x="1200" 
d="M560 214q68 0 110.5 35.5t62 108.5t20.5 186v13q0 173 -44.5 258.5t-153.5 85.5q-92 0 -136.5 -89.5t-44.5 -258.5q0 -170 45.5 -254.5t140.5 -84.5zM469 -20q-177 0 -281.5 148.5t-104.5 426.5q0 284 109 434t297 150q105 0 173 -43t112 -129h13q10 42 26.5 83t37.5 69
h242q-16 -51 -31 -123t-24 -154.5t-9 -166.5v-328q0 -66 21.5 -95t55.5 -29q16 0 32.5 3t25.5 7v-228q-9 -6 -32 -11.5t-49 -9.5t-45 -4q-106 0 -166.5 38t-93.5 131h-19q-29 -51 -70.5 -89t-96 -59t-123.5 -21z" />
    <glyph glyph-name="beta" unicode="&#x3b2;" horiz-adv-x="1201" 
d="M611 1567q135 0 235.5 -45.5t156 -133t55.5 -212.5q0 -151 -65 -237.5t-188 -109.5v-7q159 -21 242 -115.5t83 -274.5q0 -141 -52.5 -242.5t-148 -155.5t-226.5 -54q-87 0 -157 16.5t-123 46.5v-535h-285v1598q0 155 59.5 257t166.5 153t247 51zM603 1335
q-53 0 -93.5 -25t-63.5 -80.5t-23 -147.5v-798q39 -29 97.5 -47.5t105.5 -18.5q106 0 158.5 61.5t52.5 178.5q0 80 -28 131t-77 75t-114 24h-58v235h41q88 0 129 57t41 157q0 99 -45.5 148.5t-122.5 49.5z" />
    <glyph glyph-name="gamma" unicode="&#x3b3;" horiz-adv-x="1038" 
d="M1034 1119l-355 -1093q-26 -81 -45.5 -173t-30 -181.5t-10.5 -163.5h-304q0 59 12 147t31.5 182t41.5 169l-370 1113h301l129 -441q18 -59 35.5 -129t32 -136t20.5 -115h6q4 43 16.5 102.5t29.5 128t36 137.5l129 453h295z" />
    <glyph glyph-name="delta" unicode="&#x3b4;" horiz-adv-x="1130" 
d="M627 1568q119 0 217 -28t191 -78l-106 -216q-82 46 -157 71t-146 25q-70 0 -102 -26.5t-32 -69.5q0 -34 23 -66.5t74 -71t133 -90.5q111 -69 183.5 -148t107.5 -173.5t35 -212.5q0 -162 -59 -274.5t-168.5 -171t-261.5 -58.5q-147 0 -254 55t-165 158t-58 246
q0 128 43.5 221.5t121.5 156.5t181 98q-61 45 -110 96t-77 111t-28 130q0 153 112.5 234.5t301.5 81.5zM586 790q-53 -18 -101.5 -62.5t-79.5 -113t-31 -161.5q0 -70 22 -123.5t64 -84t102 -30.5q61 0 104.5 30t66.5 88.5t23 143.5q0 104 -44.5 180.5t-125.5 132.5z" />
    <glyph glyph-name="epsilon" unicode="&#x3b5;" horiz-adv-x="984" 
d="M728 684v-206h-128q-87 0 -140 -16t-77 -47.5t-24 -76.5q0 -40 22.5 -68.5t70.5 -44t122 -15.5q95 0 184.5 24t156.5 60v-239q-75 -38 -167 -56.5t-209 -18.5q-246 0 -356 91t-110 240q0 114 65.5 181.5t177.5 88.5v10q-94 26 -142 92t-48 162q0 98 55 163.5t150.5 98.5
t215.5 33q97 0 193.5 -21t180.5 -63l-92 -212q-62 31 -126 52t-137 21q-87 0 -130.5 -26.5t-43.5 -78.5q0 -69 54 -98.5t170 -29.5h112z" />
    <glyph glyph-name="zeta" unicode="&#x3b6;" horiz-adv-x="917" 
d="M891 -46q0 -82 -36.5 -169.5t-86.5 -164.5h-289q36 49 66 102.5t48.5 100.5t18.5 76q0 23 -12 42t-50 37.5t-116 39.5q-115 29 -193.5 82.5t-118 142.5t-39.5 224q0 124 35.5 238t101 222t156 213t200.5 210q-24 -6 -57.5 -10t-68 -6t-62.5 -2h-256v224h752v-181
q-152 -140 -251 -263.5t-155.5 -232.5t-79.5 -207.5t-23 -189.5q0 -82 25 -128t78.5 -72.5t138.5 -50.5q95 -23 155.5 -60.5t89.5 -90.5t29 -126z" />
    <glyph glyph-name="eta" unicode="&#x3b7;" horiz-adv-x="1186" 
d="M707 1140q107 0 184.5 -44t119.5 -134t42 -227v-1227h-286v1151q0 119 -34 179t-110 60q-75 0 -119 -38.5t-62.5 -119.5t-18.5 -207v-533h-285v1119h222l34 -143h17q31 56 75.5 92t101 54t119.5 18z" />
    <glyph glyph-name="theta" unicode="&#x3b8;" horiz-adv-x="1144" 
d="M1061 777q0 -259 -51.5 -436.5t-159.5 -269t-280 -91.5q-247 0 -367 203.5t-120 593.5q0 259 51 436.5t159 268.5t278 91q246 0 368 -202t122 -594zM570 199q99 0 147 117.5t51 354.5h-394q4 -235 50 -353.5t146 -118.5zM573 1354q-99 0 -144 -114.5t-52 -346.5h393
q-7 232 -54 346.5t-143 114.5z" />
    <glyph glyph-name="iota" unicode="&#x3b9;" horiz-adv-x="726" 
d="M423 1119v-781q0 -61 28.5 -90.5t78.5 -29.5q41 0 80.5 10t78.5 25v-222q-45 -24 -104.5 -37.5t-128.5 -13.5q-98 0 -169.5 33.5t-110 111.5t-38.5 211v783h285z" />
    <glyph glyph-name="kappa" unicode="&#x3ba;" horiz-adv-x="1120" 
d="M1101 1119l-365 -485l386 -634h-320l-255 445l-124 -97v-348h-285v1119h285v-267q0 -67 -1.5 -131t-7.5 -127h6q27 42 54 81.5t54 74.5l267 369h306z" />
    <glyph glyph-name="lambda" unicode="&#x3bb;" horiz-adv-x="1122" 
d="M8 0l402 1064l-34 114q-28 81 -65.5 117t-109.5 36q-25 0 -48 -4t-42 -9v236q19 6 43 9t51 5t50 2q110 0 184.5 -38t125 -118.5t88.5 -206.5l254 -820q21 -65 41.5 -99.5t44 -47.5t51.5 -13q17 0 34.5 3t33.5 8v-235q-16 -6 -41.5 -11.5t-53 -8.5t-51.5 -3
q-84 0 -140 29.5t-93 90t-65 153.5l-78 258q-8 26 -15.5 52t-14 51t-11.5 48.5t-9 45.5h-7q-8 -45 -21 -91.5t-27 -84.5l-179 -532h-298z" />
    <glyph glyph-name="uni03BC" unicode="&#x3bc;" horiz-adv-x="1189" 
d="M1052 1119v-1119h-220l-37 147h-14q-22 -54 -52.5 -91t-69 -56.5t-85.5 -19.5q-52 0 -90.5 23t-64.5 67h-6q3 -27 5 -67t3 -83.5t1 -81.5v-330h-285v1611h285v-655q0 -120 34.5 -182t109.5 -62q79 0 122.5 44.5t60.5 127t17 194.5v533h286z" />
    <glyph glyph-name="nu" unicode="&#x3bd;" horiz-adv-x="1084" 
d="M9 1119h296l175 -636q8 -33 17.5 -70t18 -72.5t13.5 -62.5h8q69 113 111 240t60.5 276t18.5 325h288q0 -220 -37.5 -410t-124.5 -363.5t-237 -345.5h-262z" />
    <glyph glyph-name="xi" unicode="&#x3be;" horiz-adv-x="917" 
d="M83 430q0 93 30 167t87.5 128t141.5 85v9q-66 17 -111.5 50.5t-68.5 85t-23 122.5q0 68 28 121t81.5 89.5t130.5 56.5q-38 -4 -78.5 -6.5t-74.5 -4t-55 -1.5h-49v224h721v-216h-82q-72 0 -133.5 -16t-108 -46.5t-72 -75.5t-25.5 -105q0 -90 52.5 -134t184.5 -44h133v-218
h-136q-96 0 -158 -26t-92.5 -79.5t-30.5 -135.5q0 -76 25.5 -119t78.5 -67t135 -46q98 -23 158.5 -62t87.5 -92t27 -123q0 -82 -37 -169t-87 -162h-289q36 49 66.5 102.5t48.5 100.5t18 76q0 25 -12.5 45t-47.5 37t-104 33q-118 29 -198 83t-121 137.5t-41 195.5z" />
    <glyph glyph-name="omicron" unicode="&#x3bf;" horiz-adv-x="1134" 
d="M1051 562q0 -128 -30.5 -234.5t-91.5 -184.5t-152 -120.5t-212 -42.5q-114 0 -203 42t-151.5 119.5t-95 184.5t-32.5 236q0 178 55.5 307.5t163.5 200t268 70.5q143 0 251.5 -67t169 -195.5t60.5 -315.5zM374 560q0 -113 20 -190t63 -116t111 -39t110 39t61.5 116.5
t19.5 191.5q0 115 -19.5 190.5t-62 113.5t-110.5 38q-102 0 -147.5 -85t-45.5 -259z" />
    <glyph glyph-name="pi" unicode="&#x3c0;" horiz-adv-x="1332" 
d="M1153 217q30 0 60 8.5t56 22.5v-213q-36 -24 -92 -39t-114 -15q-132 0 -203.5 80.5t-71.5 251.5v577h-283v-890h-286v890h-200v126l154 103h1103v-229h-202v-567q0 -54 22 -80t57 -26z" />
    <glyph glyph-name="rho" unicode="&#x3c1;" horiz-adv-x="1141" 
d="M1059 559q0 -175 -46 -305.5t-138 -202t-229 -71.5q-72 0 -133.5 22t-108.5 56h-15q5 -61 9 -135t4 -135v-280h-287v1053q0 179 52 308.5t157.5 200t266.5 70.5q143 0 248 -66.5t162.5 -195.5t57.5 -319zM586 904q-93 0 -138.5 -72t-45.5 -235v-308q34 -36 81 -55t97 -19
q98 0 142 79.5t44 264.5q0 187 -42.5 266t-137.5 79z" />
    <glyph glyph-name="uni03C2" unicode="&#x3c2;" horiz-adv-x="921" 
d="M581 1140q80 0 159.5 -19.5t153.5 -57.5l-80 -223q-61 29 -117.5 45t-114.5 16q-107 0 -157.5 -94t-50.5 -285q0 -94 25.5 -146t78.5 -80.5t136 -53.5q98 -26 159.5 -65.5t89.5 -94t28 -124.5q0 -83 -37 -172t-88 -166h-288q36 51 66 105.5t48 103t18 78.5q0 25 -11 46
t-46.5 40t-109.5 38q-89 23 -156.5 60t-112.5 94t-68 137t-23 189q0 225 59.5 363.5t171 202t267.5 63.5z" />
    <glyph glyph-name="sigma" unicode="&#x3c3;" horiz-adv-x="1198" 
d="M1067 480q0 -148 -58 -260.5t-168.5 -176t-267.5 -63.5q-153 0 -262.5 64.5t-168.5 188.5t-59 302q0 204 68 333t198.5 190.5t319.5 61.5h487v-224h-244q69 -77 112 -179.5t43 -236.5zM375 536q0 -104 22 -175.5t66.5 -108.5t112.5 -37q102 0 150.5 81.5t48.5 228.5
q0 74 -11.5 138t-35 121.5t-58.5 111.5h-40q-133 0 -194 -83t-61 -277z" />
    <glyph glyph-name="tau" unicode="&#x3c4;" horiz-adv-x="934" 
d="M876 1119v-227h-325v-539q0 -68 29.5 -102t84.5 -34q39 0 79 9t80 23v-220q-43 -22 -104 -36t-131 -14q-101 0 -173.5 35.5t-111.5 116.5t-39 216v545h-240v124l153 103h698z" />
    <glyph glyph-name="upsilon" unicode="&#x3c5;" horiz-adv-x="1172" 
d="M582 -18q-170 1 -269 62.5t-141.5 178.5t-43.5 282v614h286v-633q0 -137 40.5 -201t135.5 -64q101 0 149.5 87.5t48.5 291.5q0 131 -17 255t-49 264h286q23 -99 37.5 -182t21 -164t6.5 -176q0 -312 -125.5 -463.5t-365.5 -151.5z" />
    <glyph glyph-name="phi" unicode="&#x3c6;" horiz-adv-x="1476" 
d="M295 1140l212 -132q-69 -102 -107 -216t-38 -243q0 -102 28.5 -170.5t79.5 -107.5t118 -55v509q0 205 98 308t272 103q136 0 233.5 -66.5t149.5 -188.5t52 -286q0 -181 -69 -311.5t-189.5 -205t-275.5 -90.5v-480h-271v480q-152 16 -265.5 82.5t-176.5 186.5t-63 297
q0 169 56 313t156 273zM960 912q-51 0 -75.5 -41.5t-24.5 -138.5v-516q77 8 133.5 56.5t87 130t30.5 190.5q0 95 -16 167t-49.5 112.5t-85.5 39.5z" />
    <glyph glyph-name="chi" unicode="&#x3c7;" horiz-adv-x="1076" 
d="M204 1135q89 0 146.5 -29t96 -92.5t68.5 -166.5l57 -190l215 462h289l-389 -769l151 -436q23 -68 43.5 -104t46 -48.5t62.5 -12.5q21 0 42 3t47 9v-230q-36 -10 -74.5 -16.5t-95.5 -6.5q-85 0 -145 31.5t-102 99t-75 177.5l-77 259l-244 -567h-304l433 872l-125 376
q-25 81 -57.5 110t-76.5 29q-19 0 -44 -3.5t-50 -11.5v231q34 10 74.5 17t87.5 7z" />
    <glyph glyph-name="psi" unicode="&#x3c8;" horiz-adv-x="1541" 
d="M912 1554v-1337q90 11 146 48.5t82.5 113.5t26.5 202q0 132 -20 264.5t-54 273.5h271q41 -152 59 -281t18 -261q0 -197 -66 -326t-185 -194.5t-278 -74.5v-474h-272v474q-158 6 -273.5 63t-178 176.5t-62.5 313.5v584h279v-581q0 -109 22.5 -177t74 -102.5t138.5 -42.5
v1338h272z" />
    <glyph glyph-name="omega" unicode="&#x3c9;" horiz-adv-x="1580" 
d="M1377 1119q37 -100 59.5 -191.5t33 -184.5t10.5 -200q0 -171 -46.5 -297.5t-135.5 -196t-219 -69.5q-113 0 -182.5 53.5t-101.5 153.5h-9q-34 -100 -102 -153.5t-185 -53.5q-129 0 -218 70t-134.5 196.5t-45.5 296.5q0 108 10.5 200.5t33 183t58.5 192.5h281
q-55 -131 -82.5 -271t-27.5 -294q0 -159 35.5 -246t117.5 -87q49 0 77 27.5t39 85.5t11 147v283h271v-283q0 -91 12 -148t40 -84t77 -28q53 0 86.5 39t49.5 113t16 177q0 148 -26.5 292t-83.5 277h281z" />
    <glyph glyph-name="iotadieresis" unicode="&#x3ca;" horiz-adv-x="726" 
d="M423 1119v-781q0 -61 28.5 -90.5t78.5 -29.5q41 0 80.5 10t78.5 25v-222q-45 -24 -104.5 -37.5t-128.5 -13.5q-98 0 -169.5 33.5t-110 111.5t-38.5 211v783h285zM-25 1400q0 70 37 103t94 33t95 -34t38 -102q0 -65 -38 -99.5t-95 -34.5t-94 34t-37 100zM362 1400
q0 70 37 103t96 33q57 0 95 -34t38 -102q0 -65 -38 -99.5t-95 -34.5q-59 0 -96 34.5t-37 99.5z" />
    <glyph glyph-name="upsilondieresis" unicode="&#x3cb;" horiz-adv-x="1172" 
d="M582 -18q-170 1 -269 62.5t-141.5 178.5t-43.5 282v614h286v-633q0 -137 40.5 -201t135.5 -64q101 0 149.5 87.5t48.5 291.5q0 131 -17 255t-49 264h286q23 -99 37.5 -182t21 -164t6.5 -176q0 -312 -125.5 -463.5t-365.5 -151.5zM251 1400q0 70 37 103t94 33t95 -34
t38 -102q0 -65 -38 -99.5t-95 -34.5t-94 34t-37 100zM638 1400q0 70 37 103t96 33q57 0 95 -34t38 -102q0 -65 -38 -99.5t-95 -34.5q-59 0 -96 34.5t-37 99.5z" />
    <glyph glyph-name="omicrontonos" unicode="&#x3cc;" horiz-adv-x="1134" 
d="M1051 562q0 -128 -30.5 -234.5t-91.5 -184.5t-152 -120.5t-212 -42.5q-114 0 -203 42t-151.5 119.5t-95 184.5t-32.5 236q0 178 55.5 307.5t163.5 200t268 70.5q143 0 251.5 -67t169 -195.5t60.5 -315.5zM374 560q0 -113 20 -190t63 -116t111 -39t110 39t61.5 116.5
t19.5 191.5q0 115 -19.5 190.5t-62 113.5t-110.5 38q-102 0 -147.5 -85t-45.5 -259zM458 1241v30q9 29 20 73t22.5 93t20 93.5t12.5 74.5h263v-25q-21 -51 -47.5 -107.5t-56.5 -115t-64 -116.5h-170z" />
    <glyph glyph-name="upsilontonos" unicode="&#x3cd;" horiz-adv-x="1172" 
d="M582 -18q-170 1 -269 62.5t-141.5 178.5t-43.5 282v614h286v-633q0 -137 40.5 -201t135.5 -64q101 0 149.5 87.5t48.5 291.5q0 131 -17 255t-49 264h286q23 -99 37.5 -182t21 -164t6.5 -176q0 -312 -125.5 -463.5t-365.5 -151.5zM467 1241v30q9 29 20 73t22.5 93t20 93.5
t12.5 74.5h263v-25q-21 -51 -47.5 -107.5t-56.5 -115t-64 -116.5h-170z" />
    <glyph glyph-name="omegatonos" unicode="&#x3ce;" horiz-adv-x="1580" 
d="M1377 1119q37 -100 59.5 -191.5t33 -184.5t10.5 -200q0 -171 -46.5 -297.5t-135.5 -196t-219 -69.5q-113 0 -182.5 53.5t-101.5 153.5h-9q-34 -100 -102 -153.5t-185 -53.5q-129 0 -218 70t-134.5 196.5t-45.5 296.5q0 108 10.5 200.5t33 183t58.5 192.5h281
q-55 -131 -82.5 -271t-27.5 -294q0 -159 35.5 -246t117.5 -87q49 0 77 27.5t39 85.5t11 147v283h271v-283q0 -91 12 -148t40 -84t77 -28q53 0 86.5 39t49.5 113t16 177q0 148 -26.5 292t-83.5 277h281zM685 1241v30q9 29 20 73t22.5 93t20 93.5t12.5 74.5h263v-25
q-21 -51 -47.5 -107.5t-56.5 -115t-64 -116.5h-170z" />
    <glyph glyph-name="uni03D1" unicode="&#x3d1;" horiz-adv-x="1321" 
d="M643 1573q116 0 204 -40.5t150.5 -117t100 -185.5t51.5 -246h130v-227h-119q1 -12 1 -32v-33q-3 -158 -33 -288.5t-94 -225.5t-168.5 -146.5t-256.5 -51.5q-115 0 -194 25t-127 69.5t-69.5 104t-21.5 129.5q0 32 3.5 67t6.5 68t3 57q0 41 -14.5 57t-43.5 16q-17 0 -36 -6
t-35 -14l-54 199q42 23 102 40t134 17q97 0 156 -55t59 -159q0 -39 -3.5 -79t-7 -79.5t-3.5 -79.5q0 -68 36 -109t118 -41t137.5 50t84.5 159t31 285q0 10 -0.5 26.5t-1.5 27.5q-206 3 -344.5 63t-208.5 164t-70 237q0 100 42 180t130 127t225 47zM642 1350
q-54 0 -84.5 -31.5t-30.5 -96.5q0 -66 35 -119.5t109.5 -85.5t192.5 -33q-8 85 -26.5 152.5t-47 115t-65.5 73t-83 25.5z" />
    <glyph glyph-name="uni03D2" unicode="&#x3d2;" horiz-adv-x="1135" 
d="M561 869q23 59 45 115t44 108.5t44 101t44 92.5q29 63 61.5 105t78.5 63t113 21q39 0 75 -7t67 -21v-228q-12 5 -28.5 8.5t-32.5 3.5q-33 0 -62 -28.5t-70 -107.5q-20 -38 -48.5 -96t-60.5 -129.5t-63 -150.5t-58 -159v-560h-293v557l-417 905h318z" />
    <glyph glyph-name="uni03D6" unicode="&#x3d6;" horiz-adv-x="1767" 
d="M1728 1119v-227h-214q18 -64 30.5 -129t19.5 -130.5t7 -133.5q0 -164 -46 -280t-135 -177.5t-218 -61.5q-114 0 -182 52t-100 152h-10q-33 -100 -100 -152t-183 -52q-194 0 -296.5 137t-102.5 382q0 70 7 135t20.5 129.5t30.5 128.5h-219v124l153 103h1538zM1240 892
h-712q-18 -62 -31 -124t-19.5 -124t-6.5 -128q0 -151 36 -223.5t116 -72.5q74 0 100.5 63.5t26.5 202.5v149h270v-149q0 -94 11 -153t38.5 -86t76.5 -27q78 0 115 72.5t37 219.5q0 64 -7 126.5t-19.5 126.5t-31.5 127z" />
    <glyph glyph-name="uni0400" unicode="&#x400;" horiz-adv-x="1011" 
d="M907 0h-749v1462h749v-246h-454v-333h423v-247h-423v-386h454v-250zM505 1907q24 -44 61 -101.5t75 -111t65 -88.5v-27h-196q-33 26 -78.5 66t-94 85.5t-90 87t-66.5 69.5v20h324z" />
    <glyph glyph-name="uni0401" unicode="&#x401;" horiz-adv-x="1011" 
d="M907 0h-749v1462h749v-246h-454v-333h423v-247h-423v-386h454v-250zM210 1738q0 70 37 103t94 33t95 -34t38 -102q0 -65 -38 -99.5t-95 -34.5t-94 34t-37 100zM597 1738q0 70 37 103t96 33q57 0 95 -34t38 -102q0 -65 -38 -99.5t-95 -34.5q-59 0 -96 34.5t-37 99.5z" />
    <glyph glyph-name="uni0402" unicode="&#x402;" horiz-adv-x="1418" 
d="M958 -19q-43 0 -84.5 7.5t-78.5 21.5v247q30 -13 61 -22t58 -9q32 0 56 11.5t38 43.5t14 92v157q0 82 -36.5 117t-116.5 35h-231v-682h-293v1212h-310v250h953v-250h-350v-279h255q207 0 315 -102.5t108 -289.5v-146q0 -202 -91 -308t-267 -106z" />
    <glyph glyph-name="uni0403" unicode="&#x403;" horiz-adv-x="997" 
d="M964 1462v-249h-511v-1213h-295v1462h806zM945 1907v-20q-25 -28 -65 -68t-86.5 -84t-93 -85t-83.5 -71h-197v27q35 46 71.5 98t71 104.5t59.5 98.5h323z" />
    <glyph glyph-name="uni0404" unicode="&#x404;" horiz-adv-x="1204" 
d="M744 1233q-75 0 -133 -26.5t-99 -75t-65.5 -115.5t-31.5 -148h521v-247h-523q4 -91 28 -163t66.5 -123t103.5 -77.5t141 -26.5q87 0 169.5 22t172.5 57v-255q-84 -39 -173.5 -57t-196.5 -18q-206 0 -343.5 91t-206.5 259t-69 399q0 165 42 303t123.5 239t200.5 156.5
t273 55.5q111 0 209 -25.5t192 -72.5l-95 -242q-76 39 -147.5 64.5t-158.5 25.5z" />
    <glyph glyph-name="uni0405" unicode="&#x405;" horiz-adv-x="1013" 
d="M942 417q0 -131 -58 -229.5t-166.5 -153t-260.5 -54.5q-68 0 -133 9t-125.5 27.5t-118.5 47.5v287q92 -49 191 -81t191 -32q65 0 106 20.5t60 56t19 80.5q0 52 -26 89.5t-79.5 73t-134.5 78.5q-58 31 -113.5 68.5t-101 86.5t-72 117t-26.5 161q-1 128 54 221t157.5 143.5
t243.5 49.5q102 0 196.5 -25t190.5 -72l-89 -245q-86 42 -157.5 63.5t-140.5 21.5q-53 0 -89.5 -18.5t-55.5 -51t-19 -75.5q0 -52 23.5 -87.5t76.5 -69.5t141 -80q101 -53 171.5 -111.5t107.5 -134t37 -181.5z" />
    <glyph glyph-name="uni0406" unicode="&#x406;" horiz-adv-x="611" 
d="M158 0v1462h295v-1462h-295z" />
    <glyph glyph-name="uni0407" unicode="&#x407;" horiz-adv-x="611" 
d="M158 0v1462h295v-1462h-295zM-22 1743q0 70 37 103t94 33t95 -34t38 -102q0 -65 -38 -99.5t-95 -34.5t-94 34t-37 100zM365 1743q0 70 37 103t96 33q57 0 95 -34t38 -102q0 -65 -38 -99.5t-95 -34.5q-59 0 -96 34.5t-37 99.5z" />
    <glyph glyph-name="uni0408" unicode="&#x408;" horiz-adv-x="610" 
d="M36 -432q-50 0 -93 6t-76 16v249q28 -8 60.5 -14t68.5 -6q52 0 88.5 22t55.5 78.5t19 158.5v1384h294v-1381q0 -189 -50.5 -301.5t-144.5 -162t-222 -49.5z" />
    <glyph glyph-name="uni0409" unicode="&#x409;" horiz-adv-x="1808" 
d="M153 -19q-42 0 -77 6t-63 15v246q23 -9 44.5 -14t46.5 -5q36 0 59.5 23t41 76.5t33.5 143.5q9 51 22 146.5t30 227t35 288t35 328.5h770v-558h77q176 0 292.5 -53t174.5 -152t58 -238q0 -220 -131.5 -340.5t-395.5 -120.5h-366v1203h-228q-10 -106 -21 -212t-22.5 -205
t-23.5 -187t-23.5 -158.5t-22.5 -118.5q-26 -113 -66.5 -188.5t-107 -113.5t-171.5 -39zM1129 247h67q113 0 175.5 50t62.5 160q0 75 -28.5 119t-84 63t-137.5 19h-55v-411z" />
    <glyph glyph-name="uni040A" unicode="&#x40a;" horiz-adv-x="1809" 
d="M158 0v1462h295v-570h386v570h291v-564h76q177 0 293.5 -52.5t174.5 -150.5t58 -234q0 -220 -132 -340.5t-396 -120.5h-365v643h-386v-643h-295zM1130 247h66q114 0 176 50t62 160q0 73 -29 115.5t-84 60.5t-136 18h-55v-404z" />
    <glyph glyph-name="uni040B" unicode="&#x40b;" horiz-adv-x="1423" 
d="M988 1462v-250h-350v-279h274q194 0 299.5 -102.5t105.5 -289.5v-541h-295v530q0 82 -33 117t-106 35h-245v-682h-293v1212h-310v250h953z" />
    <glyph glyph-name="uni040C" unicode="&#x40c;" horiz-adv-x="1209" 
d="M1217 0h-332l-432 749v-749h-295v1462h295v-700l431 700h316l-451 -700zM1028 1907v-20q-25 -28 -65 -68t-86.5 -84t-93 -85t-83.5 -71h-197v27q35 46 71.5 98t71 104.5t59.5 98.5h323z" />
    <glyph glyph-name="uni040D" unicode="&#x40d;" horiz-adv-x="1489" 
d="M158 1462h275v-683q0 -42 -1 -91.5t-3 -100t-4.5 -97t-5.5 -80.5h7l551 1052h355v-1462h-274v687q0 44 1.5 95.5t4 104t6 99t5.5 80.5h-8l-554 -1066h-355v1462zM730 1907q24 -44 61 -101.5t75 -111t65 -88.5v-27h-196q-33 26 -78.5 66t-94 85.5t-90 87t-66.5 69.5v20
h324z" />
    <glyph glyph-name="uni040E" unicode="&#x40e;" horiz-adv-x="1173" 
d="M1172 1462l-387 -1034q-54 -144 -116 -244t-156 -152t-244 -52q-50 0 -102 7.5t-98 21.5v255q41 -18 86.5 -26t87.5 -8q58 0 94.5 20.5t60 62t42.5 103.5l-429 1046h312l207 -557q11 -30 23.5 -67.5t24.5 -77t20 -76.5h12q7 36 17.5 73t22.5 74.5t24 74.5l191 556h307z
M1012 1930q-10 -110 -55.5 -189t-134.5 -121t-230 -42q-146 0 -233.5 41t-128.5 120t-49 191h242q6 -107 45 -149t127 -42q76 0 120 44t52 147h245z" />
    <glyph glyph-name="uni040F" unicode="&#x40f;" horiz-adv-x="1346" 
d="M1188 0h-373v-429h-285v429h-372v1462h295v-1211h440v1211h295v-1462z" />
    <glyph glyph-name="uni0410" unicode="&#x410;" horiz-adv-x="1245" 
d="M929 0l-91 350h-429l-91 -350h-318l435 1465h371l439 -1465h-316zM779 602l-92 364q-9 41 -21 90.5t-23.5 98.5t-19.5 88q-6 -38 -18 -89t-24 -101t-20 -85l-92 -366h310z" />
    <glyph glyph-name="uni0411" unicode="&#x411;" horiz-adv-x="1157" 
d="M158 0v1462h822v-249h-527v-309h85q182 0 302 -53t179.5 -152t59.5 -238q0 -220 -133.5 -340.5t-402.5 -120.5h-385zM453 247h78q120 0 186.5 50t66.5 160q0 75 -31 119t-90.5 63t-145.5 19h-64v-411z" />
    <glyph glyph-name="uni0412" unicode="&#x412;" horiz-adv-x="1228" 
d="M158 1462h420q259 0 390 -85t131 -280q0 -84 -25 -151.5t-72 -111t-114 -58.5v-10q76 -18 130 -58.5t83.5 -110t29.5 -173.5q0 -131 -58.5 -226t-167 -146.5t-259.5 -51.5h-488v1462zM453 877h142q110 0 157 45.5t47 134.5q0 84 -52.5 124t-161.5 40h-132v-344zM453 642
v-396h165q112 0 160.5 53t48.5 152q0 59 -22.5 102t-70.5 66t-127 23h-154z" />
    <glyph glyph-name="uni0413" unicode="&#x413;" horiz-adv-x="997" 
d="M964 1462v-249h-511v-1213h-295v1462h806z" />
    <glyph glyph-name="uni0414" unicode="&#x414;" horiz-adv-x="1396" 
d="M1189 1462v-1211h169v-680h-284v429h-779v-429h-285v680h102q55 126 102 261.5t84 283.5t64 313.5t43 352.5h784zM894 1215h-240q-11 -119 -32 -243t-50 -247.5t-66.5 -242.5t-81.5 -231h470v964z" />
    <glyph glyph-name="uni0415" unicode="&#x415;" horiz-adv-x="1011" 
d="M907 0h-749v1462h749v-246h-454v-333h423v-247h-423v-386h454v-250z" />
    <glyph glyph-name="uni0416" unicode="&#x416;" horiz-adv-x="1718" 
d="M429 761l-421 701h309l402 -704v704h280v-704l403 704h309l-424 -701l438 -761h-318l-408 746v-746h-280v746l-409 -746h-318z" />
    <glyph glyph-name="uni0417" unicode="&#x417;" horiz-adv-x="1159" 
d="M1027 1121q0 -144 -85.5 -234.5t-229.5 -116.5v-7q173 -18 264.5 -109t91.5 -241q0 -126 -60 -223.5t-182.5 -153.5t-309.5 -56q-135 0 -243.5 18.5t-191.5 54.5v263q52 -28 118.5 -49t136 -32.5t129.5 -11.5q162 0 234 53t72 159t-97 155.5t-271 49.5h-129v241h117
q131 0 206.5 20.5t107 63t31.5 108.5q0 79 -56 121.5t-165 42.5q-92 0 -171 -29t-145 -79l-123 206q68 49 140.5 82t158 49.5t193.5 16.5q143 0 245.5 -46t158 -127t55.5 -189z" />
    <glyph glyph-name="uni0418" unicode="&#x418;" horiz-adv-x="1489" 
d="M158 1462h275v-683q0 -42 -1 -91.5t-3 -100t-4.5 -97t-5.5 -80.5h7l551 1052h355v-1462h-274v687q0 44 1.5 95.5t4 104t6 99t5.5 80.5h-8l-554 -1066h-355v1462z" />
    <glyph glyph-name="uni0419" unicode="&#x419;" horiz-adv-x="1489" 
d="M158 1462h275v-683q0 -42 -1 -91.5t-3 -100t-4.5 -97t-5.5 -80.5h7l551 1052h355v-1462h-274v687q0 44 1.5 95.5t4 104t6 99t5.5 80.5h-8l-554 -1066h-355v1462zM1178 1930q-10 -110 -55.5 -189t-134.5 -121t-230 -42q-146 0 -233.5 41t-128.5 120t-49 191h242
q6 -107 45 -149t127 -42q76 0 120 44t52 147h245z" />
    <glyph glyph-name="uni041A" unicode="&#x41a;" horiz-adv-x="1209" 
d="M1217 0h-332l-432 749v-749h-295v1462h295v-700l431 700h316l-451 -700z" />
    <glyph glyph-name="uni041B" unicode="&#x41b;" horiz-adv-x="1344" 
d="M1186 0h-294v1203h-281q-11 -105 -24 -226.5t-27 -241t-29 -221t-29 -168.5q-26 -122 -66.5 -203t-107.5 -121.5t-175 -40.5q-42 0 -77 6t-63 15v246q23 -9 44.5 -14t46.5 -5q36 0 60 24t42.5 82.5t34.5 161.5q9 53 22.5 152.5t30 230.5t33.5 280t33 302h826v-1462z" />
    <glyph glyph-name="uni041C" unicode="&#x41c;" horiz-adv-x="1756" 
d="M740 0l-321 1113h-8q3 -54 7 -124.5t6.5 -142t2.5 -129.5v-717h-269v1462h404l308 -1059h7l318 1059h404v-1462h-279v724q0 57 2 127t5.5 139t6.5 121h-9l-334 -1111h-251z" />
    <glyph glyph-name="uni041D" unicode="&#x41d;" horiz-adv-x="1377" 
d="M1219 0h-295v635h-471v-635h-295v1462h295v-576h471v576h295v-1462z" />
    <glyph glyph-name="uni041E" unicode="&#x41e;" horiz-adv-x="1422" 
d="M1319 733q0 -171 -37 -310t-112 -238t-189 -152t-269 -53q-156 0 -270.5 53t-189 152.5t-111.5 238.5t-37 311q0 237 66.5 404.5t202 256.5t340.5 89q207 0 341 -92t199.5 -260.5t65.5 -399.5zM412 733q0 -160 32 -271.5t98.5 -169.5t169.5 -58q104 0 170 57t97.5 168.5
t31.5 273.5q0 244 -71.5 372.5t-226.5 128.5q-103 0 -170 -58t-99 -170t-32 -273z" />
    <glyph glyph-name="uni041F" unicode="&#x41f;" horiz-adv-x="1346" 
d="M158 0v1462h1030v-1462h-295v1212h-440v-1212h-295z" />
    <glyph glyph-name="uni0420" unicode="&#x420;" horiz-adv-x="1145" 
d="M577 1462q253 0 372 -118.5t119 -335.5q0 -103 -28 -192t-89 -155.5t-158 -104t-235 -37.5h-105v-519h-295v1462h419zM558 1216h-105v-450h76q77 0 131.5 24t83.5 76t29 136q0 110 -53 162t-162 52z" />
    <glyph glyph-name="uni0421" unicode="&#x421;" horiz-adv-x="1147" 
d="M719 1233q-76 0 -134.5 -36t-97.5 -103.5t-58.5 -160.5t-19.5 -206q0 -159 34.5 -270t105 -168.5t177.5 -57.5q79 0 154 21.5t158 55.5v-255q-80 -37 -163.5 -55t-183.5 -18q-195 0 -325.5 90.5t-196 258.5t-65.5 400q0 165 39.5 303t116.5 239t190 156.5t259 55.5
q98 0 194 -24.5t184 -71.5l-90 -242q-68 38 -137 63t-141 25z" />
    <glyph glyph-name="uni0422" unicode="&#x422;" horiz-adv-x="1033" 
d="M663 0h-293v1212h-335v250h962v-250h-334v-1212z" />
    <glyph glyph-name="uni0423" unicode="&#x423;" horiz-adv-x="1173" 
d="M1172 1462l-387 -1034q-54 -144 -116 -244t-156 -152t-244 -52q-50 0 -102 7.5t-98 21.5v255q41 -18 86.5 -26t87.5 -8q58 0 94.5 20.5t60 62t42.5 103.5l-429 1046h312l207 -557q11 -30 23.5 -67.5t24.5 -77t20 -76.5h12q7 36 17.5 73t22.5 74.5t24 74.5l191 556h307z
" />
    <glyph glyph-name="uni0424" unicode="&#x424;" horiz-adv-x="1602" 
d="M939 1483v-180q203 -3 330 -77t187.5 -196t60.5 -272q0 -108 -32.5 -207t-101.5 -176t-179 -122.5t-265 -47.5v-225h-275v225q-158 2 -268 47t-178.5 122.5t-100 177t-31.5 207.5q0 110 32 207t101 172.5t179 119t266 45.5v180h275zM664 1065q-106 -3 -171 -40
t-94.5 -104t-29.5 -160q0 -103 31.5 -173.5t97 -107t166.5 -39.5v624zM938 1065v-624q102 3 167 41t96.5 108.5t31.5 170.5q0 92 -30 159t-95 104.5t-170 40.5z" />
    <glyph glyph-name="uni0425" unicode="&#x425;" horiz-adv-x="1168" 
d="M1167 0h-328l-260 521l-265 -521h-313l405 749l-376 713h316l238 -493l233 493h315l-376 -721z" />
    <glyph glyph-name="uni0426" unicode="&#x426;" horiz-adv-x="1431" 
d="M1391 245v-674h-285v429h-948v1462h295v-1211h450v1211h295v-1217h193z" />
    <glyph glyph-name="uni0427" unicode="&#x427;" horiz-adv-x="1305" 
d="M1147 0h-294v561q-107 -42 -200 -64t-182 -22q-173 0 -269 100t-96 284v603h295v-521q0 -110 39 -162.5t130 -52.5q66 0 133.5 17t149.5 53v666h294v-1462z" />
    <glyph glyph-name="uni0428" unicode="&#x428;" horiz-adv-x="1958" 
d="M1799 0h-1641v1462h295v-1211h378v1211h295v-1211h379v1211h294v-1462z" />
    <glyph glyph-name="uni0429" unicode="&#x429;" horiz-adv-x="2031" 
d="M1993 245v-674h-285v429h-1550v1462h295v-1211h378v1211h295v-1211h379v1211h294v-1217h194z" />
    <glyph glyph-name="uni042A" unicode="&#x42a;" horiz-adv-x="1335" 
d="M336 0v1211h-319v251h612v-558h87q182 0 302 -53t180 -152t60 -238q0 -220 -134.5 -340.5t-403.5 -120.5h-384zM629 247h78q121 0 187.5 50t66.5 160q0 75 -31.5 119t-91 63t-144.5 19h-65v-411z" />
    <glyph glyph-name="uni042B" unicode="&#x42b;" horiz-adv-x="1684" 
d="M158 0v1462h295v-558h74q180 0 299.5 -53t178.5 -152t59 -238q0 -220 -133.5 -340.5t-401.5 -120.5h-371zM453 247h66q119 0 184 50t65 160q0 75 -29 119t-86 63t-142 19h-58v-411zM1233 0v1462h295v-1462h-295z" />
    <glyph glyph-name="uni042C" unicode="&#x42c;" horiz-adv-x="1158" 
d="M158 0v1462h295v-558h85q182 0 302 -53t179.5 -152t59.5 -238q0 -220 -134 -340.5t-403 -120.5h-384zM453 247h78q120 0 186.5 50t66.5 160q0 75 -31 119t-90.5 63t-145.5 19h-64v-411z" />
    <glyph glyph-name="uni042D" unicode="&#x42d;" horiz-adv-x="1190" 
d="M464 1233q-83 0 -161 -24.5t-153 -62.5l-89 241q93 47 195.5 71.5t223.5 24.5q140 1 252 -48.5t191.5 -145.5t121.5 -236.5t42 -324.5q0 -227 -68 -395t-206 -260.5t-349 -92.5q-106 0 -197 17.5t-175 54.5v256q91 -34 176 -55.5t169 -21.5q80 0 141.5 25.5t104.5 75.5
t67 122.5t28 166.5h-523v247h520q-5 78 -26.5 144t-60.5 116t-95 77.5t-129 27.5z" />
    <glyph glyph-name="uni042E" unicode="&#x42e;" horiz-adv-x="1920" 
d="M1816 733q0 -171 -34.5 -310t-105 -238t-178.5 -152t-254 -53q-174 0 -296.5 78t-190 224.5t-81.5 352.5h-223v-635h-295v1462h295v-577h228q19 191 87.5 325t188.5 204.5t289 70.5q192 0 318.5 -89t189 -257.5t62.5 -405.5zM975 733q0 -160 29.5 -271.5t89 -169.5
t148.5 -58q94 0 153.5 57.5t88 168.5t28.5 273q0 163 -28.5 274.5t-87.5 169t-151 57.5q-91 0 -151.5 -58t-89.5 -170t-29 -273z" />
    <glyph glyph-name="uni042F" unicode="&#x42f;" horiz-adv-x="1207" 
d="M615 567l-291 -567h-327l359 642q-65 32 -118 85.5t-84 131t-31 180.5q0 209 131.5 316t380.5 107h414v-1462h-295v567h-139zM754 1218h-109q-72 0 -121.5 -21t-74.5 -63.5t-25 -111.5q0 -107 54.5 -163t167.5 -56h108v415z" />
    <glyph glyph-name="uni0430" unicode="&#x430;" horiz-adv-x="1094" 
d="M561 1141q194 0 297 -99t103 -299v-743h-204l-51 151h-7q-41 -58 -85.5 -96t-101.5 -56.5t-136 -18.5q-96 0 -164 44t-103.5 123.5t-35.5 184.5q0 177 111 264t325 95l167 6v47q0 90 -37.5 133.5t-110.5 43.5q-65 0 -132.5 -21t-140.5 -59l-87 203q82 46 183 71.5
t210 25.5zM676 519l-97 -4q-116 -4 -165.5 -50t-49.5 -128q0 -72 33 -105.5t91 -33.5q80 0 134 59.5t54 164.5v97z" />
    <glyph glyph-name="uni0431" unicode="&#x431;" horiz-adv-x="1139" 
d="M85 678q0 228 48.5 394.5t160 273t298.5 152.5q85 23 192 39.5t239 31.5l30 -253q-44 -5 -104 -12.5t-123 -16.5t-118.5 -19t-92.5 -21q-80 -23 -131.5 -65t-78 -115.5t-32.5 -190.5h14q22 43 62 81t96 61.5t125 23.5q120 0 206.5 -56t133 -165t46.5 -270
q0 -184 -60 -311.5t-169.5 -193.5t-258.5 -66q-111 0 -200 42t-152.5 128t-97 217.5t-33.5 310.5zM579 216q58 0 99.5 31.5t64 99.5t22.5 175q0 143 -40 221t-131 78q-50 0 -95 -28t-77 -67t-46 -72q0 -94 11 -173.5t35 -139t62.5 -92.5t94.5 -33z" />
    <glyph glyph-name="uni0432" unicode="&#x432;" horiz-adv-x="1137" 
d="M1020 831q0 -94 -51 -158t-149 -83v-8q105 -14 168 -81.5t63 -171.5q0 -100 -46.5 -174t-143 -114.5t-247.5 -40.5h-476v1119h473q125 0 217 -29.5t142 -93t50 -165.5zM758 351q0 69 -42.5 99t-126.5 30h-166v-273h168q77 0 122 34.5t45 109.5zM732 800q0 56 -35.5 83.5
t-106.5 27.5h-167v-231h153q78 0 117 30t39 90z" />
    <glyph glyph-name="uni0433" unicode="&#x433;" horiz-adv-x="860" 
d="M825 1119v-227h-402v-892h-285v1119h687z" />
    <glyph glyph-name="uni0434" unicode="&#x434;" horiz-adv-x="1225" 
d="M1050 1119v-895h144v-626h-267v402h-635v-402h-267v626h94q61 116 104.5 261t70.5 306.5t37 327.5h719zM764 892h-191q-12 -118 -31 -229t-49.5 -219.5t-75.5 -219.5h347v668z" />
    <glyph glyph-name="uni0435" unicode="&#x435;" horiz-adv-x="1073" 
d="M550 1139q141 0 240.5 -60.5t152.5 -174t53 -272.5v-149h-627q3 -138 65.5 -209.5t180.5 -71.5q89 0 165 20.5t159 64.5v-229q-75 -40 -158 -59t-192 -19q-161 0 -274 66t-172.5 193.5t-59.5 312.5q0 193 56 323.5t160.5 197t250.5 66.5zM554 926q-77 0 -126 -58
t-55 -187h357q-1 74 -20.5 129t-58.5 85.5t-97 30.5z" />
    <glyph glyph-name="uni0436" unicode="&#x436;" horiz-adv-x="1616" 
d="M1583 1119l-356 -535l388 -584h-310l-361 570v-570h-273v570l-359 -570h-311l389 584l-357 535h301l337 -540v540h273v-540l338 540h301z" />
    <glyph glyph-name="uni0437" unicode="&#x437;" horiz-adv-x="984" 
d="M469 1140q114 0 205.5 -34t145.5 -100t54 -163q0 -95 -53 -158t-141 -89v-10q69 -15 121 -48t81.5 -86.5t29.5 -129.5q0 -96 -52.5 -173.5t-156.5 -123t-261 -45.5q-77 0 -143.5 8t-124 24t-106.5 41v243q66 -36 151.5 -61t179.5 -25q67 0 119 13.5t81 43t29 75.5
q0 44 -26.5 74.5t-82.5 46t-144 15.5h-104v206h94q119 0 181 28.5t62 97.5q0 54 -42 81t-133 27q-62 0 -133.5 -18t-138.5 -51l-90 207q91 42 185.5 63t212.5 21z" />
    <glyph glyph-name="uni0438" unicode="&#x438;" horiz-adv-x="1286" 
d="M413 1119v-443q0 -36 -1.5 -79.5t-4.5 -88t-6.5 -85.5t-6.5 -72l427 768h327v-1119h-274v449q0 52 3 110t7 112.5t7 95.5l-426 -767h-327v1119h275z" />
    <glyph glyph-name="uni0439" unicode="&#x439;" horiz-adv-x="1286" 
d="M413 1119v-443q0 -36 -1.5 -79.5t-4.5 -88t-6.5 -85.5t-6.5 -72l427 768h327v-1119h-274v449q0 52 3 110t7 112.5t7 95.5l-426 -767h-327v1119h275zM1065 1589q-10 -110 -55.5 -189t-134.5 -121t-230 -42q-146 0 -233.5 41t-128.5 120t-49 191h242q6 -107 45 -149
t127 -42q76 0 120 44t52 147h245z" />
    <glyph glyph-name="uni043A" unicode="&#x43a;" horiz-adv-x="1124" 
d="M780 1119h311l-375 -535l407 -584h-321l-379 570v-570h-285v1119h285v-540z" />
    <glyph glyph-name="uni043B" unicode="&#x43b;" horiz-adv-x="1173" 
d="M1035 0h-285v887h-225q-18 -246 -43.5 -418.5t-66 -280.5t-103 -157.5t-155.5 -49.5q-45 0 -82 7.5t-69 20.5v235q17 -8 37 -13t41 -5q29 0 53 28.5t44 91.5t36.5 167t30 254t24.5 352h763v-1119z" />
    <glyph glyph-name="uni043C" unicode="&#x43c;" horiz-adv-x="1527" 
d="M1391 1119v-1119h-270v533q0 72 4 149.5t11 150.5h-7l-258 -833h-213l-261 834h-8q7 -73 10.5 -149t3.5 -156v-529h-265v1119h403l225 -728l230 728h395z" />
    <glyph glyph-name="uni043D" unicode="&#x43d;" horiz-adv-x="1194" 
d="M423 1119v-430h347v430h286v-1119h-286v462h-347v-462h-285v1119h285z" />
    <glyph glyph-name="uni043E" unicode="&#x43e;" horiz-adv-x="1134" 
d="M1051 562q0 -128 -30.5 -234.5t-91.5 -184.5t-152 -120.5t-212 -42.5q-114 0 -203 42t-151.5 119.5t-95 184.5t-32.5 236q0 178 55.5 307.5t163.5 200t268 70.5q143 0 251.5 -67t169 -195.5t60.5 -315.5zM374 560q0 -113 20 -190t63 -116t111 -39t110 39t61.5 116.5
t19.5 191.5q0 115 -19.5 190.5t-62 113.5t-110.5 38q-102 0 -147.5 -85t-45.5 -259z" />
    <glyph glyph-name="uni043F" unicode="&#x43f;" horiz-adv-x="1184" 
d="M1046 1119v-1119h-286v892h-337v-892h-285v1119h908z" />
    <glyph glyph-name="uni0440" unicode="&#x440;" horiz-adv-x="1160" 
d="M702 1140q173 0 274 -149.5t101 -431.5q0 -185 -46.5 -314t-131 -197t-197.5 -68q-66 0 -118 19.5t-91 54t-69 81.5h-13q7 -52 9.5 -96.5t2.5 -80.5v-450h-285v1611h231l41 -146h14q32 56 71.5 93t90.5 55.5t116 18.5zM611 905q-67 0 -108 -33.5t-60 -102.5t-20 -177v-44
q0 -110 18.5 -183t60.5 -109.5t111 -36.5q59 0 97.5 38.5t57.5 114.5t19 188q0 173 -43 259t-133 86z" />
    <glyph glyph-name="uni0441" unicode="&#x441;" horiz-adv-x="935" 
d="M554 -20q-153 0 -258 61.5t-159 189t-54 323.5q0 188 57.5 319t166 199t263.5 68q99 0 174.5 -20.5t136.5 -54.5l-82 -224q-59 28 -112.5 44t-106.5 16q-68 0 -114 -39t-69 -115.5t-23 -191.5q0 -113 24 -188t70.5 -112t113.5 -37q76 0 142 23.5t128 66.5v-245
q-62 -43 -133.5 -63t-164.5 -20z" />
    <glyph glyph-name="uni0442" unicode="&#x442;" horiz-adv-x="973" 
d="M936 892h-306v-892h-286v892h-307v227h899v-227z" />
    <glyph glyph-name="uni0443" unicode="&#x443;" horiz-adv-x="1037" 
d="M3 1119h307l171 -585q9 -34 16.5 -68t13 -68t8.5 -68h7q5 48 15.5 97t26.5 105l165 587h301l-403 -1245q-40 -127 -100 -207.5t-138.5 -119.5t-178.5 -39q-43 0 -77.5 5.5t-63.5 11.5v239q21 -6 47 -10t53 -4q53 0 88.5 21.5t61 66t46.5 111.5l17 61z" />
    <glyph glyph-name="uni0444" unicode="&#x444;" horiz-adv-x="1500" 
d="M888 1556v-432q173 -14 290.5 -89t178.5 -197t61 -279q0 -159 -59.5 -281t-177 -195.5t-293.5 -89.5v-485h-270v485q-170 15 -289.5 89.5t-182.5 196.5t-63 280q0 163 58 285.5t176 194.5t299 85v432h272zM616 898q-73 -8 -127 -53t-84 -118.5t-30 -167.5
q0 -92 28 -165.5t82 -119t131 -53.5v677zM888 896v-675q77 8 130 54t81 119.5t28 164.5q0 142 -65 233t-174 104z" />
    <glyph glyph-name="uni0445" unicode="&#x445;" horiz-adv-x="1038" 
d="M333 572l-305 547h317l174 -346l174 346h317l-306 -549l320 -570h-317l-191 372l-188 -372h-315z" />
    <glyph glyph-name="uni0446" unicode="&#x446;" horiz-adv-x="1252" 
d="M1223 -402h-267v402h-818v1119h285v-892h366v892h285v-895h149v-626z" />
    <glyph glyph-name="uni0447" unicode="&#x447;" horiz-adv-x="1182" 
d="M390 1119v-414q0 -71 30 -106t84 -35q66 0 128.5 20t126.5 53v482h286v-1119h-286v439q-71 -42 -150 -70t-169 -28q-161 0 -248 89t-87 270v419h285z" />
    <glyph glyph-name="uni0448" unicode="&#x448;" horiz-adv-x="1748" 
d="M1611 1119v-1119h-1473v1119h285v-892h309v892h285v-892h307v892h287z" />
    <glyph glyph-name="uni0449" unicode="&#x449;" horiz-adv-x="1789" 
d="M1611 1119v-895h149v-626h-268v402h-1354v1119h285v-892h309v892h285v-892h307v892h287z" />
    <glyph glyph-name="uni044A" unicode="&#x44a;" horiz-adv-x="1263" 
d="M595 1119v-429h143q155 0 257 -35.5t152.5 -110t50.5 -188.5t-48 -193.5t-145.5 -121t-247.5 -41.5h-448v887h-295v232h581zM737 484h-142v-277h145q79 0 126 34.5t47 106.5q0 69 -43 102.5t-133 33.5z" />
    <glyph glyph-name="uni044B" unicode="&#x44b;" horiz-adv-x="1558" 
d="M138 0v1119h285v-429h109q154 0 256.5 -35.5t152.5 -110t50 -188.5t-48 -193.5t-146 -121t-248 -41.5h-411zM423 207h110q78 0 125 34.5t47 106.5q0 69 -43 102.5t-132 33.5h-107v-277zM1134 0v1119h285v-1119h-285z" />
    <glyph glyph-name="uni044C" unicode="&#x44c;" horiz-adv-x="1091" 
d="M423 690h143q155 0 257.5 -35.5t153 -110t50.5 -188.5t-48 -193.5t-146.5 -121t-248.5 -41.5h-446v1119h285v-429zM741 348q0 69 -43 102.5t-132 33.5h-143v-277h146q78 0 125 34.5t47 106.5z" />
    <glyph glyph-name="uni044D" unicode="&#x44d;" horiz-adv-x="949" 
d="M377 -20q-91 0 -166.5 18.5t-137.5 57.5v230q67 -37 137.5 -59t145.5 -22q62 0 107 27.5t72.5 84.5t34.5 146h-356v203h355q-10 126 -59 189t-137 63q-61 0 -119 -17.5t-107 -44.5l-80 207q64 33 144 55t170 22q145 0 254 -59.5t169.5 -186.5t60.5 -330q0 -193 -56 -323
t-165 -195.5t-267 -65.5z" />
    <glyph glyph-name="uni044E" unicode="&#x44e;" horiz-adv-x="1605" 
d="M1522 562q0 -185 -56 -315.5t-160.5 -198.5t-251.5 -68q-127 0 -223.5 50.5t-156.5 157t-78 274.5h-173v-462h-285v1119h285v-430h175q19 146 79.5 246.5t158 152.5t224.5 52q137 0 241 -68t162.5 -197t58.5 -313zM881 560q0 -113 18 -190t57 -116t101 -39t100 39
t56 116.5t18 191.5q0 115 -18 190.5t-56.5 113.5t-101.5 38q-61 0 -99.5 -37.5t-56.5 -114t-18 -192.5z" />
    <glyph glyph-name="uni044F" unicode="&#x44f;" horiz-adv-x="1077" 
d="M311 0h-308l273 448q-58 23 -103 66.5t-70.5 108.5t-25.5 150q0 167 112 256.5t299 89.5h452v-1119h-285v416h-121zM361 767q0 -68 46.5 -107.5t125.5 -39.5h122v291h-142q-76 0 -114 -40.5t-38 -103.5z" />
    <glyph glyph-name="uni0450" unicode="&#x450;" horiz-adv-x="1073" 
d="M550 1139q141 0 240.5 -60.5t152.5 -174t53 -272.5v-149h-627q3 -138 65.5 -209.5t180.5 -71.5q89 0 165 20.5t159 64.5v-229q-75 -40 -158 -59t-192 -19q-161 0 -274 66t-172.5 193.5t-59.5 312.5q0 193 56 323.5t160.5 197t250.5 66.5zM554 926q-77 0 -126 -58
t-55 -187h357q-1 74 -20.5 129t-58.5 85.5t-97 30.5zM513 1569q24 -44 61 -101.5t75 -111t65 -88.5v-27h-196q-33 26 -78.5 66t-94 85.5t-90 87t-66.5 69.5v20h324z" />
    <glyph glyph-name="uni0451" unicode="&#x451;" horiz-adv-x="1073" 
d="M550 1139q141 0 240.5 -60.5t152.5 -174t53 -272.5v-149h-627q3 -138 65.5 -209.5t180.5 -71.5q89 0 165 20.5t159 64.5v-229q-75 -40 -158 -59t-192 -19q-161 0 -274 66t-172.5 193.5t-59.5 312.5q0 193 56 323.5t160.5 197t250.5 66.5zM554 926q-77 0 -126 -58
t-55 -187h357q-1 74 -20.5 129t-58.5 85.5t-97 30.5zM216 1400q0 70 37 103t94 33t95 -34t38 -102q0 -65 -38 -99.5t-95 -34.5t-94 34t-37 100zM603 1400q0 70 37 103t96 33q57 0 95 -34t38 -102q0 -65 -38 -99.5t-95 -34.5q-59 0 -96 34.5t-37 99.5z" />
    <glyph glyph-name="uni0452" unicode="&#x452;" horiz-adv-x="1186" 
d="M723 -492q-39 0 -87 7.5t-77 16.5v235q27 -10 51 -14.5t51 -4.5q47 0 76 36t29 125v713q0 116 -36.5 172.5t-107.5 56.5q-73 0 -116.5 -38.5t-63 -119.5t-19.5 -208v-485h-286v1199h-137v195h137v162h286v-162h259v-195h-259v-45q0 -60 -5 -121t-12 -104h16q30 56 72 92
t95 53.5t116 17.5q109 0 187 -44.5t119.5 -134.5t41.5 -225v-809q0 -109 -35.5 -193t-108 -131t-186.5 -47z" />
    <glyph glyph-name="uni0453" unicode="&#x453;" horiz-adv-x="860" 
d="M825 1119v-227h-402v-892h-285v1119h687zM860 1569v-20q-25 -28 -65 -68t-86.5 -84t-93 -85t-83.5 -71h-197v27q35 46 71.5 98t71 104.5t59.5 98.5h323z" />
    <glyph glyph-name="uni0454" unicode="&#x454;" horiz-adv-x="961" 
d="M581 -20q-158 0 -269.5 63t-170 190.5t-58.5 320.5q0 201 59.5 331t173 192.5t273.5 62.5q81 0 161 -19t152 -55l-80 -211q-60 29 -119.5 46t-117.5 17q-59 0 -101.5 -28t-68.5 -84t-36 -140h355v-203h-355q9 -87 34 -144t68 -85.5t104 -28.5q80 0 149.5 22t139.5 59
v-228q-62 -39 -136 -58.5t-157 -19.5z" />
    <glyph glyph-name="uni0455" unicode="&#x455;" horiz-adv-x="892" 
d="M826 330q0 -114 -48 -192t-141.5 -118t-228.5 -40q-99 0 -177.5 15.5t-153.5 48.5v255q72 -39 160 -65.5t164 -26.5q72 0 106.5 26.5t34.5 72.5q0 28 -14 51.5t-57.5 51.5t-133.5 69q-87 41 -145.5 88t-87.5 109.5t-29 149.5q0 152 106 233.5t287 81.5q93 0 176.5 -21.5
t168.5 -66.5l-82 -212q-66 34 -129 56.5t-129 22.5q-58 0 -88 -21t-30 -60q0 -28 15 -49t58 -46.5t126 -66.5q82 -39 143 -84t95 -107t34 -155z" />
    <glyph glyph-name="uni0456" unicode="&#x456;" horiz-adv-x="563" 
d="M424 1119v-1119h-285v1119h285zM282 1559q71 0 113 -35.5t42 -116.5q0 -79 -42.5 -114.5t-112.5 -35.5t-113 35.5t-43 114.5q0 82 42 117t114 35z" />
    <glyph glyph-name="uni0457" unicode="&#x457;" horiz-adv-x="563" 
d="M424 0h-285v1119h285v-1119zM-45 1400q0 70 37 103t94 33t95 -34t38 -102q0 -65 -38 -99.5t-95 -34.5t-94 34t-37 100zM342 1400q0 70 37 103t96 33q57 0 95 -34t38 -102q0 -65 -38 -99.5t-95 -34.5q-59 0 -96 34.5t-37 99.5z" />
    <glyph glyph-name="uni0458" unicode="&#x458;" horiz-adv-x="563" 
d="M78 -492q-44 0 -90 6.5t-82 17.5v235q29 -10 56 -14.5t58 -4.5q54 0 86.5 36t32.5 125v1210h285v-1240q0 -114 -37 -197t-113.5 -128t-195.5 -46zM126 1407q0 82 42 117t114 35q71 0 113 -35.5t42 -116.5q0 -79 -42.5 -114.5t-112.5 -35.5t-113 35.5t-43 114.5z" />
    <glyph glyph-name="uni0459" unicode="&#x459;" horiz-adv-x="1623" 
d="M1003 1119v-429h105q152 0 252 -35.5t150 -110t50 -188.5t-47.5 -193.5t-144 -121t-244.5 -41.5h-404v887h-195q-18 -246 -43 -418.5t-65.5 -280.5t-103.5 -157.5t-156 -49.5q-45 0 -82 7.5t-69 20.5v235q17 -8 37 -13t41 -5q29 0 53 28t44 90.5t36.5 166t30 254
t24.5 354.5h731zM1105 484h-102v-277h104q76 0 121 34.5t45 106.5q0 69 -41 102.5t-127 33.5z" />
    <glyph glyph-name="uni045A" unicode="&#x45a;" horiz-adv-x="1632" 
d="M1012 1119v-429h105q152 0 252 -35.5t150 -110t50 -188.5t-47.5 -193.5t-144 -121t-244.5 -41.5h-405v465h-305v-465h-285v1119h285v-428h305v428h284zM1113 484h-101v-277h104q76 0 121 34.5t45 106.5q0 69 -41.5 102.5t-127.5 33.5z" />
    <glyph glyph-name="uni045B" unicode="&#x45b;" horiz-adv-x="1186" 
d="M423 1556v-162h259v-195h-259v-45q0 -60 -5 -121t-12 -104h16q30 56 72 92t95 53.5t116 17.5q109 0 187 -44.5t119.5 -134.5t41.5 -225v-688h-287v611q0 121 -35 180.5t-109 59.5t-118 -38.5t-62.5 -119.5t-18.5 -208v-485h-286v1199h-137v195h137v162h286z" />
    <glyph glyph-name="uni045C" unicode="&#x45c;" horiz-adv-x="1124" 
d="M780 1119h311l-375 -535l407 -584h-321l-379 570v-570h-285v1119h285v-540zM967 1569v-20q-25 -28 -65 -68t-86.5 -84t-93 -85t-83.5 -71h-197v27q35 46 71.5 98t71 104.5t59.5 98.5h323z" />
    <glyph glyph-name="uni045D" unicode="&#x45d;" horiz-adv-x="1286" 
d="M413 1119v-443q0 -36 -1.5 -79.5t-4.5 -88t-6.5 -85.5t-6.5 -72l427 768h327v-1119h-274v449q0 52 3 110t7 112.5t7 95.5l-426 -767h-327v1119h275zM585 1569q24 -44 61 -101.5t75 -111t65 -88.5v-27h-196q-33 26 -78.5 66t-94 85.5t-90 87t-66.5 69.5v20h324z" />
    <glyph glyph-name="uni045E" unicode="&#x45e;" horiz-adv-x="1037" 
d="M3 1119h307l171 -585q9 -34 16.5 -68t13 -68t8.5 -68h7q5 48 15.5 97t26.5 105l165 587h301l-403 -1245q-40 -127 -100 -207.5t-138.5 -119.5t-178.5 -39q-43 0 -77.5 5.5t-63.5 11.5v239q21 -6 47 -10t53 -4q53 0 88.5 21.5t61 66t46.5 111.5l17 61zM941 1589
q-10 -110 -55.5 -189t-134.5 -121t-230 -42q-146 0 -233.5 41t-128.5 120t-49 191h242q6 -107 45 -149t127 -42q76 0 120 44t52 147h245z" />
    <glyph glyph-name="uni045F" unicode="&#x45f;" horiz-adv-x="1204" 
d="M469 0h-331v1119h285v-892h357v892h286v-1119h-331v-402h-266v402z" />
    <glyph glyph-name="uni0460" unicode="&#x460;" horiz-adv-x="1799" 
d="M414 0q-82 158 -150.5 336t-119.5 366.5t-79.5 380.5t-31.5 378h307q4 -155 22.5 -310t48 -301t66.5 -277t78 -240h9q11 75 34 159.5t46 157.5l113 366q-12 76 -21 148t-14.5 145t-6.5 153h303q4 -145 20 -293.5t45 -295t70 -285t93 -263.5h10q66 158 111 338t69 380
t26 418h304q-8 -257 -51.5 -507.5t-126 -490t-209.5 -463.5h-263q-37 69 -72 144t-67.5 152t-60 152t-49.5 144l-168 -592h-285z" />
    <glyph glyph-name="uni0461" unicode="&#x461;" horiz-adv-x="1632" 
d="M1565 1119q-8 -194 -48 -383.5t-110 -373.5t-168 -362h-255q-32 66 -67.5 144.5t-67 158.5t-51.5 149l-186 -452h-256q-66 122 -122.5 257.5t-99 280.5t-67.5 292t-29 289h283q6 -155 31.5 -310t63 -293t79.5 -243h7q9 32 25 70t33.5 76.5t31.5 70.5l110 256
q-19 89 -29.5 188.5t-12.5 184.5h279q7 -151 30 -297.5t57.5 -285.5t77.5 -266h7q49 108 85 243t58 288.5t28 317.5h283z" />
    <glyph glyph-name="uni0462" unicode="&#x462;" horiz-adv-x="1202" 
d="M202 0v1089h-201v218h201v202h295v-202h321v-218h-321v-192h85q182 0 302.5 -52t180 -150.5t59.5 -237.5q0 -215 -134.5 -336t-403.5 -121h-384zM497 247h78q120 0 186.5 49.5t66.5 157.5q0 74 -30.5 117t-89.5 61.5t-147 18.5h-64v-404z" />
    <glyph glyph-name="uni0463" unicode="&#x463;" horiz-adv-x="1180" 
d="M513 1331v-212h287v-210h-287v-219h144q232 0 345.5 -81t113.5 -253q0 -114 -47.5 -193.5t-145.5 -121t-248 -41.5h-447v909h-219v210h219v212h285zM656 484h-143v-277h145q79 0 125.5 34.5t46.5 106.5q0 69 -42.5 102.5t-131.5 33.5z" />
    <glyph glyph-name="uni0464" unicode="&#x464;" horiz-adv-x="1715" 
d="M1238 -20q-190 0 -320 80.5t-200 227t-85 343.5h-180v-631h-295v1462h295v-581h187q18 139 67 250t127.5 190t185.5 120.5t242 41.5q104 0 203 -25.5t189 -72.5l-89 -242q-75 39 -151 64.5t-153 25.5q-69 0 -124.5 -24.5t-96.5 -71t-67 -111.5t-36 -145h508v-250h-511
q6 -87 29.5 -160.5t65 -127.5t101.5 -83t137 -29q84 0 165.5 21.5t171.5 58.5v-256q-85 -39 -173 -57t-193 -18z" />
    <glyph glyph-name="uni0465" unicode="&#x465;" horiz-adv-x="1461" 
d="M1085 -20q-147 0 -248.5 54t-158.5 161t-73 267h-182v-462h-285v1119h285v-442h183q17 156 78 259t162 153.5t237 50.5q89 0 170 -22t144 -55l-80 -207q-49 27 -107.5 44.5t-119.5 17.5q-59 0 -100.5 -27.5t-65.5 -81t-31 -132.5h354v-215h-354q7 -89 33.5 -146t72 -84
t106.5 -27q75 0 146.5 22t137.5 59v-230q-63 -40 -139.5 -58t-164.5 -18z" />
    <glyph glyph-name="uni0466" unicode="&#x466;" horiz-adv-x="1394" 
d="M885 1465l513 -1465h-300l-192 616h-74v-616h-268v616h-76l-190 -616h-301l511 1465h377zM697 1267q-4 -20 -13.5 -49t-21 -62.5t-23 -63.5t-18.5 -50l-63 -195h274l-62 197q-7 21 -17.5 51t-21.5 62t-20.5 61t-13.5 49z" />
    <glyph glyph-name="uni0467" unicode="&#x467;" horiz-adv-x="1195" 
d="M774 1119l422 -1119h-279l-135 418h-59v-418h-249v418h-59l-135 -418h-280l423 1119h351zM601 943h-8q-7 -27 -18.5 -62t-22.5 -64.5t-16 -45.5l-48 -144h223l-47 142q-6 17 -18.5 47.5t-24.5 65.5t-20 61z" />
    <glyph glyph-name="uni0468" unicode="&#x468;" horiz-adv-x="1921" 
d="M1412 1465l512 -1465h-299l-191 616h-76v-616h-266v616h-78l-190 -616h-299l221 635h-293v-635h-295v1462h295v-577h382l201 580h376zM1224 1267q-3 -20 -12.5 -49t-21.5 -62.5t-23 -63.5t-19 -50l-62 -195h273l-61 197q-8 21 -18.5 51t-21.5 62t-20 61t-14 49z" />
    <glyph glyph-name="uni0469" unicode="&#x469;" horiz-adv-x="1686" 
d="M1265 1119l422 -1119h-280l-141 437h-52v-437h-249v437h-53l-143 -437h-275l175 465h-266v-465h-265v1119h265v-428h351l162 428h349zM1093 943h-8q-8 -29 -20.5 -67t-24 -71.5t-18.5 -51.5l-35 -107h207l-36 108q-6 17 -19 51.5t-26.5 73t-19.5 64.5z" />
    <glyph glyph-name="uni046A" unicode="&#x46a;" horiz-adv-x="1491" 
d="M1335 1462v-144l-327 -466q83 -21 141.5 -67.5t101.5 -127t79 -203.5l138 -454h-306l-104 382q-23 87 -45.5 138.5t-51 77.5t-72.5 35v-633h-284v633q-45 -8 -74 -32.5t-50.5 -76t-46.5 -142.5l-105 -382h-305l138 454q28 92 57.5 160t65.5 115t84 77t112 46l-319 466
v144h1173zM963 1221h-436l217 -337z" />
    <glyph glyph-name="uni046B" unicode="&#x46b;" horiz-adv-x="1214" 
d="M1103 1119v-117l-261 -358q66 -18 112.5 -56.5t80.5 -98.5t59 -143l103 -346h-260l-86 326q-13 46 -29 74t-37 42t-51 17v-459h-249v459q-34 -3 -55.5 -16.5t-36.5 -42t-28 -74.5l-88 -326h-261l102 346q25 84 59.5 145t82.5 100t112 55l-259 356v117h990zM773 920h-333
l165 -240z" />
    <glyph glyph-name="uni046C" unicode="&#x46c;" horiz-adv-x="2013" 
d="M1856 1462v-144l-327 -470q84 -20 142.5 -67.5t101.5 -128.5t80 -202l137 -450h-305l-106 379q-22 87 -45 138.5t-52 77.5t-72 35v-630h-284v630q-43 -8 -72 -32t-51 -75t-47 -144l-106 -379h-301l131 427q18 59 41 113t54 95h-322v-635h-295v1462h295v-577h524l-294 433
v144h1173zM1486 1221h-436l216 -340z" />
    <glyph glyph-name="uni046D" unicode="&#x46d;" horiz-adv-x="1707" 
d="M1597 1119v-117l-262 -360q66 -18 113 -56.5t80.5 -98t58.5 -143.5l105 -344h-261l-87 324q-13 46 -29 74t-37 41.5t-51 16.5v-456h-249v456q-33 -3 -54.5 -16.5t-36.5 -41.5t-29 -73l-88 -325h-257l105 351q10 34 23 64t30 50h-268v-465h-265v1119h265v-428h429
l-225 311v117h990zM1267 920h-334l166 -241z" />
    <glyph glyph-name="uni046E" unicode="&#x46e;" horiz-adv-x="1137" 
d="M831 1776q36 0 63.5 -4.5t43.5 -11.5v-155q-10 6 -29.5 9t-41.5 3q-43 0 -83.5 -41t-78.5 -110q145 -34 225 -125t80 -220q0 -144 -81 -234.5t-220 -116.5v-7q166 -18 254.5 -109t88.5 -239q0 -99 -37 -178.5t-105.5 -136t-165 -86.5t-216.5 -31q-79 0 -123.5 -10.5
t-62 -32.5t-17.5 -56q0 -45 32 -68t102 -23q60 0 108 3t89 5.5t79 2.5q59 0 95.5 -10t50.5 -27v-227q-18 17 -58 26t-86 9t-99 -2t-112.5 -4.5t-126.5 -2.5q-122 0 -202.5 41.5t-120.5 114.5t-40 166q0 108 42.5 182.5t135.5 113.5t243 42q152 4 225 51.5t73 158.5
q0 106 -97 155t-273 49h-128v241h117q131 1 206 21.5t107 62.5t32 108q0 79 -55.5 121.5t-164.5 42.5q-92 0 -171 -29t-145 -79l-124 206q73 53 150 87.5t173 49.5q-26 38 -61.5 84.5t-72 92.5t-66.5 79v25h190q39 -31 84 -79.5t92 -101.5q34 52 74.5 98.5t91.5 76t117 29.5
z" />
    <glyph glyph-name="uni046F" unicode="&#x46f;" horiz-adv-x="991" 
d="M754 1373q36 0 63 -4t45 -10v-153q-12 7 -31.5 10t-40.5 3q-37 0 -72.5 -27.5t-65.5 -78.5q103 -31 165.5 -99.5t62.5 -171.5q0 -95 -50.5 -157.5t-137.5 -88.5v-10q68 -16 118.5 -49t79 -86t28.5 -128q0 -97 -47 -173t-150 -121t-271 -46q-68 0 -105 -11.5t-51 -32
t-14 -50.5q0 -50 32.5 -70t101.5 -20q55 0 93 3t72 5.5t74 2.5q56 0 89.5 -10t50.5 -28v-229q-17 18 -56 28t-78 10q-37 0 -85 -2t-101.5 -4.5t-109.5 -2.5q-116 0 -191.5 37.5t-112 107t-36.5 166.5q0 102 40.5 175.5t128 113.5t226.5 41q74 1 122 16t71 44t23 71
q0 44 -26.5 74t-82.5 45t-143 15h-105v206h94q118 0 180.5 28.5t62.5 97.5q0 54 -42.5 81t-136.5 27q-64 0 -136.5 -18t-139.5 -51l-90 208q48 21 98 38t105 25q-24 36 -51.5 72t-55.5 70.5t-53 63.5v26h183q38 -31 82.5 -78t93.5 -103q34 51 74.5 97.5t91.5 75.5t117 29z
" />
    <glyph glyph-name="uni0470" unicode="&#x470;" horiz-adv-x="1635" 
d="M1526 1462v-483q0 -139 -30.5 -243t-98 -173.5t-176.5 -104t-266 -34.5v-424h-274v424q-159 0 -268.5 34.5t-176 102.5t-96 170t-29.5 237v494h285v-496q0 -109 28.5 -173.5t91 -93t165.5 -28.5v791h274v-791q93 0 156.5 26.5t96 90t32.5 174.5v500h286z" />
    <glyph glyph-name="uni0471" unicode="&#x471;" horiz-adv-x="1541" 
d="M912 1554v-1337q90 11 146 48.5t82.5 113.5t26.5 202q0 132 -20 264.5t-54 273.5h271q41 -152 59 -281t18 -261q0 -197 -66 -326t-185 -194.5t-278 -74.5v-474h-272v474q-158 6 -273.5 63t-178 176.5t-62.5 313.5v584h279v-581q0 -109 22.5 -177t74 -102.5t138.5 -42.5
v1338h272z" />
    <glyph glyph-name="uni0472" unicode="&#x472;" horiz-adv-x="1438" 
d="M1333 733q0 -171 -37 -310t-113 -238t-191.5 -152t-272.5 -53t-272.5 53t-191.5 152.5t-113.5 238.5t-37.5 311q0 237 67.5 404.5t205 256.5t343.5 89q210 0 345.5 -92t201.5 -260.5t66 -399.5zM719 232q95 0 160 45.5t102 133t46 215.5h-618q10 -127 47.5 -215
t103 -133.5t159.5 -45.5zM721 1235q-91 0 -155.5 -42t-102.5 -123.5t-51 -201.5h613q-18 179 -93 273t-211 94z" />
    <glyph glyph-name="uni0473" unicode="&#x473;" horiz-adv-x="1153" 
d="M1071 562q0 -185 -59.5 -315t-171 -198.5t-266.5 -68.5q-147 0 -257 69t-172 199.5t-62 313.5q0 278 132 428t365 150q148 0 258.5 -70.5t171.5 -200t61 -307.5zM577 215q60 0 101.5 28t65.5 83.5t32 137.5h-401q8 -74 31.5 -130t65.5 -87.5t105 -31.5zM576 904
q-89 0 -138 -60.5t-63 -180.5h402q-7 72 -30 126t-65 84.5t-106 30.5z" />
    <glyph glyph-name="uni0474" unicode="&#x474;" horiz-adv-x="1295" 
d="M1207 1225q-33 0 -56.5 -19.5t-41.5 -60.5t-38 -105l-311 -1040h-331l-429 1462h303l233 -857q14 -56 25.5 -112t20 -110.5t14.5 -106.5q5 37 12 79.5t15.5 86t17.5 83t18 70.5l138 506q35 126 76.5 209.5t100.5 124t149 40.5q54 0 95 -10t68 -24v-234q-17 7 -38 12.5
t-41 5.5z" />
    <glyph glyph-name="uni0475" unicode="&#x475;" horiz-adv-x="1100" 
d="M953 1133q38 0 76 -7.5t67 -20.5v-223q-20 8 -37 12t-32 4q-26 0 -44 -13.5t-30.5 -39.5t-23.5 -64l-260 -781h-300l-366 1119h298l166 -609q17 -61 30 -122.5t19 -118.5h6q4 51 16 111.5t32 126.5l92 309q33 118 69 187.5t88 99.5t134 30z" />
    <glyph glyph-name="uni0476" unicode="&#x476;" horiz-adv-x="1295" 
d="M1207 1225q-33 0 -56.5 -19.5t-41.5 -60.5t-38 -105l-311 -1040h-331l-429 1462h303l233 -857q14 -56 25.5 -112t20 -110.5t14.5 -106.5q5 37 12 79.5t15.5 86t17.5 83t18 70.5l138 506q35 126 76.5 209.5t100.5 124t149 40.5q54 0 95 -10t68 -24v-234q-17 7 -38 12.5
t-41 5.5zM746 1910q18 -38 44 -89t57 -106t62 -106v-27h-144q-37 30 -81.5 71t-87 85t-76 84t-48.5 68v20h274zM380 1910q19 -41 45 -91.5t56 -104.5t61 -105v-27h-149q-32 29 -75.5 69.5t-86.5 85.5t-77 85t-50 68v20h276z" />
    <glyph glyph-name="uni0477" unicode="&#x477;" horiz-adv-x="1100" 
d="M953 1133q38 0 76 -7.5t67 -20.5v-223q-20 8 -37 12t-32 4q-26 0 -44 -13.5t-30.5 -39.5t-23.5 -64l-260 -781h-300l-366 1119h298l166 -609q17 -61 30 -122.5t19 -118.5h6q4 51 16 111.5t32 126.5l92 309q33 118 69 187.5t88 99.5t134 30zM674 1569q18 -38 44 -89
t57 -106t62 -106v-27h-144q-37 30 -81.5 71t-87 85t-76 84t-48.5 68v20h274zM308 1569q19 -41 45 -91.5t56 -104.5t61 -105v-27h-149q-32 29 -75.5 69.5t-86.5 85.5t-77 85t-50 68v20h276z" />
    <glyph glyph-name="uni0478" unicode="&#x478;" horiz-adv-x="2413" 
d="M1278 733q0 -171 -34 -310t-105.5 -238t-182.5 -152t-265 -53t-265.5 53t-182.5 152.5t-105 238.5t-34 311q0 237 62 404.5t192.5 256.5t333.5 89q206 0 335 -92t190 -260.5t61 -399.5zM409 733q0 -160 28.5 -271.5t90.5 -169.5t163 -58q103 0 165 57t89.5 168.5
t27.5 273.5q0 163 -27.5 274.5t-89 169t-164.5 57.5q-101 0 -163.5 -58t-91 -170t-28.5 -273zM1379 1119h306l171 -585q9 -34 16.5 -68t13 -68t8.5 -68h7q5 48 15.5 97t26.5 105l165 587h302l-404 -1245q-41 -127 -100.5 -207.5t-138 -119.5t-178.5 -39q-43 0 -77.5 5.5
t-63.5 11.5v239q21 -6 47.5 -10t52.5 -4q53 0 88.5 21.5t61.5 66t46 111.5l17 61z" />
    <glyph glyph-name="uni0479" unicode="&#x479;" horiz-adv-x="2151" 
d="M1051 562q0 -128 -30.5 -234.5t-91.5 -184.5t-152 -120.5t-212 -42.5q-114 0 -203 42t-151.5 119.5t-95 184.5t-32.5 236q0 178 55.5 307.5t163.5 200t268 70.5q143 0 251.5 -67t169 -195.5t60.5 -315.5zM374 560q0 -113 20 -190t63 -116t111 -39t110 39t61.5 116.5
t19.5 191.5q0 115 -19.5 190.5t-62 113.5t-110.5 38q-102 0 -147.5 -85t-45.5 -259zM1116 1119h307l171 -585q9 -34 16.5 -68t13 -68t8.5 -68h7q5 48 15.5 97t26.5 105l165 587h301l-403 -1245q-40 -127 -100 -207.5t-138.5 -119.5t-178.5 -39q-43 0 -77.5 5.5t-63.5 11.5
v239q21 -6 47 -10t53 -4q53 0 88.5 21.5t61 66t46.5 111.5l17 61z" />
    <glyph glyph-name="uni047A" unicode="&#x47a;" horiz-adv-x="1493" 
d="M749 -129q-53 0 -90.5 29t-52.5 93q-126 20 -220.5 80t-157 155.5t-93.5 223t-31 283.5q0 208 55 363.5t166.5 251t281.5 122.5q15 68 51.5 93t90.5 25q49 0 85.5 -25t52.5 -93q168 -27 279.5 -122.5t167 -251.5t55.5 -365q0 -155 -31 -282t-93.5 -222t-156.5 -155
t-220 -82q-15 -63 -51.5 -92t-87.5 -29zM616 260q21 51 55 70.5t78 19.5q41 0 76 -20.5t55 -71.5q71 29 117 93.5t68.5 161t22.5 220.5q0 186 -50.5 308t-155.5 165q-17 -49 -53 -71t-80 -22q-45 0 -82 21.5t-54 69.5q-70 -29 -116 -94t-68.5 -160t-22.5 -217t22.5 -218
t69.5 -161t118 -94z" />
    <glyph glyph-name="uni047B" unicode="&#x47b;" horiz-adv-x="1232" 
d="M1150 562q0 -159 -48.5 -277.5t-140 -191t-221.5 -96.5q-11 -56 -43 -85t-79 -29q-50 0 -84 29t-44 86q-124 24 -215.5 97t-141.5 191.5t-50 275.5q0 240 107.5 385t303.5 178q11 54 44.5 75t79.5 21q41 0 74 -21.5t45 -75.5q127 -22 219 -96t143 -191.5t51 -274.5z
M864 562q0 82 -13 144.5t-40 105.5t-69 66q-15 -49 -45 -76t-79 -27q-52 0 -82.5 26t-45.5 76q-63 -37 -92.5 -118t-29.5 -199q-1 -118 30.5 -202t95.5 -117q15 44 45.5 66t78.5 22q45 0 74 -23t45 -67q66 35 96.5 117.5t30.5 205.5z" />
    </font>
</defs>
</svg>
