<?xml version="1.0" standalone="no"?>
<!DOCTYPE svg PUBLIC "-//W3C//DTD SVG 1.1//EN" "http://www.w3.org/Graphics/SVG/1.1/DTD/svg11.dtd" >
<svg xmlns="http://www.w3.org/2000/svg" xmlns:xlink="http://www.w3.org/1999/xlink" version="1.1">
<metadata>
Created by FontForge 20170731 at Wed Feb 10 17:54:37 2021
 By Aleksey,,,
Copyright 2020 The Open Sans Project Authors (https://github.com/googlefonts/opensans)
</metadata>
<defs>
<font id="OpenSansSemiCondensed-BoldItalic" horiz-adv-x="0" >
  <font-face 
    font-family="Open Sans SemiCondensed"
    font-weight="700"
    font-style="italic"
    font-stretch="semi-condensed"
    units-per-em="2048"
    panose-1="0 0 0 0 0 0 0 0 0 0"
    ascent="1638"
    descent="-410"
    x-height="1117"
    cap-height="1462"
    bbox="-932 -627 2343 2162"
    underline-thickness="50"
    underline-position="-175"
    slope="-12"
    unicode-range="U+000D-FFFD"
  />
<missing-glyph horiz-adv-x="1229" 
 />
    <glyph glyph-name="f_f" unicode="ff" horiz-adv-x="1271" 
d="M-77 -492q-41 0 -80.5 5.5t-71.5 16.5v229q25 -9 53 -14t53 -5q65 0 99.5 46t52.5 131l209 982h-139l28 138l156 78l20 89q19 85 48 152t72 114.5t104 72t144 24.5q60 0 114.5 -11.5t103.5 -35.5l-83 -206q-24 12 -51.5 20t-56.5 8q-53 0 -82 -40.5t-42 -107.5l-16 -77
h338l19 87q18 85 47 152t72.5 114.5t104.5 72t144 24.5q60 0 114.5 -11.5t102.5 -35.5l-81 -206q-26 12 -53.5 20t-56.5 8q-52 0 -81 -40.5t-42 -107.5l-16 -77h188l-46 -218h-188l-217 -1015q-23 -108 -65 -193t-115.5 -134t-191.5 -49q-41 0 -80.5 5.5t-71.5 16.5v229
q25 -9 52.5 -14t53.5 -5q65 0 100 46t52 131l208 982h-338l-217 -1015q-22 -108 -64 -193t-115.5 -134t-191.5 -49z" />
    <glyph glyph-name="fi" unicode="fi" horiz-adv-x="1188" 
d="M-77 -492q-41 0 -80.5 5.5t-71.5 16.5v229q25 -9 53 -14t53 -5q65 0 99.5 46t52.5 131l209 982h-139l28 138l156 78l20 89q19 85 48 152t72 114.5t104 72t144 24.5q60 0 114.5 -11.5t103.5 -35.5l-83 -206q-24 12 -51.5 20t-56.5 8q-53 0 -82 -40.5t-42 -107.5l-16 -77
h188l-45 -218h-190l-217 -1015q-22 -108 -64 -193t-115.5 -134t-191.5 -49zM669 0l237 1117h272l-236 -1117h-273zM1085 1260q-61 0 -97.5 27t-36.5 86q0 51 19.5 91.5t58.5 64.5t95 24q58 0 95.5 -25t37.5 -86q0 -78 -44.5 -130t-127.5 -52z" />
    <glyph glyph-name="fl" unicode="fl" horiz-adv-x="1186" 
d="M-77 -492q-41 0 -80.5 5.5t-71.5 16.5v229q25 -9 53 -14t53 -5q65 0 99.5 46t52.5 131l209 982h-139l28 138l156 78l20 89q19 85 48 152t72 114.5t104 72t144 24.5q60 0 114.5 -11.5t103.5 -35.5l-83 -206q-24 12 -51.5 20t-56.5 8q-53 0 -82 -40.5t-42 -107.5l-16 -77
h188l-45 -218h-190l-217 -1015q-22 -108 -64 -193t-115.5 -134t-191.5 -49zM668 0l330 1556h274l-331 -1556h-273z" />
    <glyph glyph-name="f_f_i" unicode="ffi" horiz-adv-x="1789" 
d="M-77 -492q-41 0 -80.5 5.5t-71.5 16.5v229q25 -9 53 -14t53 -5q65 0 99.5 46t52.5 131l209 982h-139l28 138l156 78l20 89q19 85 48 152t72 114.5t104 72t144 24.5q60 0 114.5 -11.5t103.5 -35.5l-83 -206q-24 12 -51.5 20t-56.5 8q-53 0 -82 -40.5t-42 -107.5l-16 -77
h338l19 87q18 85 47 152t72.5 114.5t104.5 72t144 24.5q60 0 114.5 -11.5t102.5 -35.5l-81 -206q-26 12 -53.5 20t-56.5 8q-52 0 -81 -40.5t-42 -107.5l-16 -77h188l-46 -218h-188l-217 -1015q-23 -108 -65 -193t-115.5 -134t-191.5 -49q-41 0 -80.5 5.5t-71.5 16.5v229
q25 -9 52.5 -14t53.5 -5q65 0 100 46t52 131l208 982h-338l-217 -1015q-22 -108 -64 -193t-115.5 -134t-191.5 -49zM1269 0l237 1117h273l-236 -1117h-274zM1686 1260q-61 0 -98 27t-37 86q0 51 20 91.5t58.5 64.5t95.5 24t95 -25t38 -86q0 -78 -44.5 -130t-127.5 -52z" />
    <glyph glyph-name="f_f_l" unicode="ffl" horiz-adv-x="1788" 
d="M-77 -492q-41 0 -80.5 5.5t-71.5 16.5v229q25 -9 53 -14t53 -5q65 0 99.5 46t52.5 131l209 982h-139l28 138l156 78l20 89q19 85 48 152t72 114.5t104 72t144 24.5q60 0 114.5 -11.5t103.5 -35.5l-83 -206q-24 12 -51.5 20t-56.5 8q-53 0 -82 -40.5t-42 -107.5l-16 -77
h338l19 87q18 85 47 152t72.5 114.5t104.5 72t144 24.5q60 0 114.5 -11.5t102.5 -35.5l-81 -206q-26 12 -53.5 20t-56.5 8q-52 0 -81 -40.5t-42 -107.5l-16 -77h188l-46 -218h-188l-217 -1015q-23 -108 -65 -193t-115.5 -134t-191.5 -49q-41 0 -80.5 5.5t-71.5 16.5v229
q25 -9 52.5 -14t53.5 -5q65 0 100 46t52 131l208 982h-338l-217 -1015q-22 -108 -64 -193t-115.5 -134t-191.5 -49zM1269 0l331 1556h273l-329 -1556h-275z" />
    <glyph glyph-name=".notdef" horiz-adv-x="1229" 
 />
    <glyph glyph-name=".null" 
 />
    <glyph glyph-name="nonmarkingreturn" horiz-adv-x="682" 
 />
    <glyph glyph-name="NULL" 
 />
    <glyph glyph-name="NULL" 
 />
    <glyph glyph-name="CR" unicode="&#xd;" horiz-adv-x="441" 
 />
    <glyph glyph-name="space" unicode=" " horiz-adv-x="441" 
 />
    <glyph glyph-name="exclam" unicode="!" horiz-adv-x="546" 
d="M131 474l171 988h312l-249 -988h-234zM154 -23q-73 0 -106.5 36t-33.5 92q0 77 47 139t148 62q61 0 96.5 -34t35.5 -96q0 -88 -53 -143.5t-134 -55.5z" />
    <glyph glyph-name="quotedbl" unicode="&#x22;" horiz-adv-x="869" 
d="M585 934l77 528h271l-148 -528h-200zM198 934l75 528h271l-148 -528h-198z" />
    <glyph glyph-name="numbersign" unicode="#" horiz-adv-x="1151" 
d="M97 0l122 413h-196l25 194h227l80 256h-208l25 196h238l122 403h202l-122 -403h176l120 403h201l-121 -403h197l-25 -196h-229l-79 -256h212l-26 -194h-242l-125 -413h-202l124 413h-175l-122 -413h-199zM476 607h176l78 256h-175z" />
    <glyph glyph-name="dollar" unicode="$" horiz-adv-x="1009" 
d="M306 -120l44 203q-102 5 -179 27t-138 58l23 258q66 -44 154 -79t187 -41l73 342q-71 35 -134 81t-101.5 111t-38.5 158q0 130 58 217.5t156 134t218 54.5l34 151h115l-31 -151q88 -8 153 -30.5t125 -57.5l-108 -221q-52 31 -107.5 53t-111.5 27l-69 -321
q74 -37 137 -81.5t101.5 -109t38.5 -161.5q0 -122 -52 -212.5t-150.5 -143.5t-239.5 -64l-41 -201zM513 313q42 7 72.5 27t46 51t15.5 72q0 30 -8.5 52.5t-25 41.5t-40.5 34zM525 910l55 264q-39 -6 -68 -24t-45 -49t-16 -74q0 -23 7.5 -43.5t24 -38.5t42.5 -35z" />
    <glyph glyph-name="percent" unicode="%" horiz-adv-x="1598" 
d="M241 0l940 1462h215l-938 -1462h-217zM356 565q-119 0 -182 75.5t-63 220.5q0 70 13.5 153.5t43 166t76 151t112.5 110t153 41.5q116 0 182 -73.5t66 -221.5q0 -67 -13.5 -149.5t-43 -165.5t-76.5 -152.5t-113 -112.5t-155 -43zM377 756q29 0 54.5 31t45.5 81.5t34 110
t21.5 117t7.5 100.5q0 49 -12.5 72t-38.5 23q-29 0 -53.5 -30.5t-45 -79.5t-35 -108t-22 -117t-7.5 -105q0 -48 13 -71.5t38 -23.5zM1137 -18q-123 0 -186 73t-63 213q0 84 15.5 172.5t46.5 170.5t78 147t111.5 103t146.5 38q116 0 181.5 -72t65.5 -218q0 -70 -13.5 -154
t-43 -167t-76 -152.5t-112 -111.5t-151.5 -42zM1154 173q30 0 55 31t45 81t34.5 109t21.5 116.5t7 102.5q0 48 -13 71t-39 23q-30 0 -55 -31.5t-44.5 -82t-33.5 -110t-21.5 -116.5t-7.5 -99q0 -48 13 -71.5t38 -23.5z" />
    <glyph glyph-name="ampersand" unicode="&#x26;" horiz-adv-x="1254" 
d="M396 -20q-172 0 -268 89t-96 253q0 105 38.5 191.5t113 158.5t183.5 133q-31 62 -47.5 126t-16.5 133q0 127 51 221t141 146t209 52q98 0 167.5 -34.5t106.5 -96t37 -143.5q0 -96 -39 -176.5t-111.5 -148t-171.5 -123.5l144 -256q41 60 70.5 125.5t56.5 141.5h276
q-34 -88 -76 -174t-91.5 -165t-105.5 -146l166 -287h-326l-54 101q-77 -54 -160.5 -87.5t-196.5 -33.5zM449 219q38 0 72 10.5t64 28t56 38.5l-175 332q-46 -33 -79 -73t-50.5 -88t-17.5 -109q0 -41 15 -72.5t44.5 -49t70.5 -17.5zM594 928q35 24 64.5 50.5t52 57.5t35 66
t12.5 73q0 46 -21 72.5t-59 26.5q-40 0 -66 -27t-38.5 -68t-12.5 -84q0 -48 9 -91t24 -76z" />
    <glyph glyph-name="quotesingle" unicode="'" horiz-adv-x="480" 
d="M200 934l76 528h270l-148 -528h-198z" />
    <glyph glyph-name="parenleft" unicode="(" horiz-adv-x="624" 
d="M169 -324q-39 75 -65 166.5t-38.5 190.5t-12.5 195q0 172 32.5 342t95.5 331t153 306.5t205 268.5h236q-103 -123 -189.5 -267t-151 -304t-100 -331t-35.5 -349q0 -97 10 -191.5t30.5 -184.5t51.5 -173h-222z" />
    <glyph glyph-name="parenright" unicode=")" horiz-adv-x="624" 
d="M-152 -324q102 124 188.5 268t150.5 303.5t99.5 330.5t35.5 348q0 95 -10.5 191.5t-30 187.5t-50.5 171h222q40 -81 65.5 -170.5t37.5 -185.5t12 -196q0 -176 -33 -347.5t-96 -331.5t-152.5 -303.5t-203.5 -265.5h-235z" />
    <glyph glyph-name="asterisk" unicode="*" horiz-adv-x="971" 
d="M667 661l-92 299l-177 -254l-186 163l243 221l-285 81l81 225l282 -151l19 327l243 -40l-89 -313l318 47l1 -240l-296 19l159 -289z" />
    <glyph glyph-name="plus" unicode="+" horiz-adv-x="1070" 
d="M666 831h346v-218h-346v-383h-220v383h-347v218h347v388h220v-388z" />
    <glyph glyph-name="comma" unicode="," horiz-adv-x="530" 
d="M-104 -270q34 80 69 172t67 183t55 167h265l7 -22q-34 -84 -74.5 -171.5t-85.5 -170.5t-90 -158h-213z" />
    <glyph glyph-name="hyphen" unicode="-" horiz-adv-x="622" 
d="M33 428l51 243h502l-52 -243h-501z" />
    <glyph glyph-name="period" unicode="." horiz-adv-x="529" 
d="M156 -23q-73 0 -106.5 36t-33.5 92q0 77 47 139t147 62q62 0 97.5 -34t35.5 -96q0 -88 -53.5 -143.5t-133.5 -55.5z" />
    <glyph glyph-name="slash" unicode="/" horiz-adv-x="807" 
d="M-99 -6l806 1475h262l-807 -1475h-261z" />
    <glyph glyph-name="zero" unicode="0" horiz-adv-x="1009" 
d="M402 -20q-175 0 -258 109.5t-83 325.5q0 107 15.5 227t48 240t81.5 228.5t115.5 192.5t151 132.5t187.5 48.5q83 0 146 -25t106.5 -77.5t65.5 -134t22 -193.5t-15.5 -234.5t-47 -243t-79.5 -227.5t-115 -190t-152 -131t-189 -48zM428 218q45 0 84 43t72.5 115.5t60 163
t45.5 186t28.5 184.5t9.5 157q0 91 -22 134.5t-72 43.5q-45 0 -85 -45.5t-74 -121t-60.5 -167.5t-45 -186.5t-28.5 -177.5t-10 -139q0 -95 22 -142.5t75 -47.5z" />
    <glyph glyph-name="one" unicode="1" horiz-adv-x="1009" 
d="M337 0l184 862q10 40 20 81t21.5 84.5t24.5 89.5q-18 -16 -46 -40.5t-54 -43.5l-173 -130l-124 188l498 371h238l-310 -1462h-279z" />
    <glyph glyph-name="two" unicode="2" horiz-adv-x="1009" 
d="M-55 0l40 198l417 420q72 72 128.5 136.5t95.5 123t59.5 114.5t20.5 110q0 67 -32.5 103t-91.5 36q-45 0 -88.5 -19t-88 -52t-93.5 -75l-116 191q94 91 201 144t239 53q117 0 196 -44t119.5 -118t40.5 -166q0 -124 -50.5 -231.5t-137 -208t-196.5 -204.5l-269 -260v-8
h498l-51 -243h-841z" />
    <glyph glyph-name="three" unicode="3" horiz-adv-x="1009" 
d="M329 -20q-101 0 -181 17.5t-151 55.5v256q72 -49 160.5 -72.5t164.5 -23.5q66 0 119 17t91 49.5t58 79.5t20 106q0 55 -22 94t-72.5 60t-134.5 21h-106l46 219h73q65 0 123.5 16t103.5 48t70.5 79.5t25.5 111.5q0 60 -33.5 97t-106.5 37q-71 0 -136.5 -28.5t-124.5 -69.5
l-92 200q92 65 189 99t226 34q113 0 194 -37t125 -106t44 -166q0 -101 -41 -185t-116.5 -142.5t-181.5 -85.5v-7q100 -23 164.5 -94.5t64.5 -199.5q0 -95 -35.5 -181.5t-106.5 -153.5t-176.5 -106t-244.5 -39z" />
    <glyph glyph-name="four" unicode="4" horiz-adv-x="1009" 
d="M425 0l64 302h-515l46 218l705 945h281l-199 -936h152l-48 -227h-152l-63 -302h-271zM261 529h276l77 349q8 37 19.5 81t23 84t18.5 63h-8q-27 -48 -52 -87t-51 -72z" />
    <glyph glyph-name="five" unicode="5" horiz-adv-x="1009" 
d="M341 -20q-68 0 -128 9t-109 24.5t-85 34.5v265q62 -43 141.5 -70t166.5 -27q77 0 132 25.5t90 67.5t52 95t17 107q0 84 -43.5 136t-147.5 52q-50 0 -97.5 -11t-85.5 -24l-89 75l199 723h668l-52 -244h-426l-88 -307q28 7 57 11t61 4q97 0 172 -41.5t118 -124.5t43 -206
q0 -109 -32 -211.5t-100 -184.5t-175.5 -130t-258.5 -48z" />
    <glyph glyph-name="six" unicode="6" horiz-adv-x="1009" 
d="M445 -20q-126 0 -209 53.5t-123 154.5t-40 241q0 115 20 234t59 233t95.5 214t128.5 175q58 60 127.5 105t153 69.5t182.5 24.5q64 0 117.5 -6.5t94.5 -17.5l-50 -233q-38 11 -82.5 18t-87.5 7q-113 0 -198.5 -52t-146 -152.5t-101.5 -249.5h8q31 45 71.5 79.5t91 53.5
t110.5 19q135 0 205.5 -93.5t70.5 -254.5q0 -93 -26 -201t-84 -203.5t-153.5 -156.5t-233.5 -61zM459 215q53 0 92 36t64 92.5t37 119t12 116.5q0 68 -27.5 106t-80.5 38q-43 0 -79.5 -22t-61.5 -56.5t-36 -71.5q-11 -23 -18.5 -53t-11.5 -63t-4 -63q0 -41 7.5 -74.5
t22.5 -56.5t36 -35.5t48 -12.5z" />
    <glyph glyph-name="seven" unicode="7" horiz-adv-x="1009" 
d="M69 0l682 1218h-557l51 243h858l-39 -184l-691 -1277h-304z" />
    <glyph glyph-name="eight" unicode="8" horiz-adv-x="1009" 
d="M437 -20q-132 0 -223 43.5t-137.5 121.5t-46.5 182t38.5 185.5t112.5 145.5t179 114q-39 38 -71 84.5t-50.5 100t-18.5 114.5q0 116 51.5 209.5t151 148.5t242.5 55q115 0 194 -40t120.5 -110t41.5 -161q0 -98 -39 -175t-106.5 -134.5t-152.5 -97.5q55 -43 96.5 -95
t65.5 -115.5t24 -142.5q0 -111 -54.5 -210t-160 -161t-257.5 -62zM451 197q65 0 107 29.5t63 77t21 101.5q0 50 -16 91.5t-45 77.5t-68 67q-66 -32 -113.5 -73.5t-73.5 -94.5t-26 -120q0 -69 40.5 -112.5t110.5 -43.5zM579 894q57 29 95.5 65.5t58.5 80.5t20 96
q0 64 -32.5 98t-85.5 34q-48 0 -82 -23.5t-52.5 -64t-18.5 -93.5q0 -63 27 -110.5t70 -82.5z" />
    <glyph glyph-name="nine" unicode="9" horiz-adv-x="1009" 
d="M269 -20q-65 0 -121.5 8.5t-98.5 19.5v239q38 -13 93.5 -24t114.5 -11q90 0 157.5 34t117 94.5t84.5 142.5t60 179h-7q-31 -45 -71 -78.5t-88 -52t-106 -18.5q-99 0 -161.5 46.5t-92 126t-29.5 179.5q0 72 16.5 156t52.5 166t95.5 149t145 107.5t200.5 40.5
q112 0 192.5 -48.5t124 -147.5t43.5 -249q0 -88 -13 -185.5t-39 -195.5t-64.5 -189t-90.5 -167q-40 -67 -91 -125t-114 -102.5t-140 -69.5t-170 -25zM511 741q43 0 76.5 21.5t56.5 54.5t34 69q19 38 28.5 87.5t9.5 99.5q0 55 -12.5 94.5t-37.5 60.5t-63 21q-51 0 -89.5 -35
t-63.5 -90t-37.5 -115.5t-12.5 -111.5q0 -76 29 -116t82 -40z" />
    <glyph glyph-name="colon" unicode=":" horiz-adv-x="534" 
d="M333 805q-73 0 -106.5 36t-33.5 91q0 51 20.5 97t63.5 75.5t110 29.5q61 0 96.5 -35t35.5 -95q0 -88 -52.5 -143.5t-133.5 -55.5zM153 -23q-73 0 -106.5 36t-33.5 92q0 77 47 139t147 62q62 0 97.5 -34t35.5 -96q0 -88 -53.5 -143.5t-133.5 -55.5z" />
    <glyph glyph-name="semicolon" unicode=";" horiz-adv-x="534" 
d="M-106 -270q36 85 70 174.5t65 178t56 169.5h265l7 -22q-34 -84 -74.5 -171t-85.5 -170.5t-91 -158.5h-212zM336 805q-73 0 -106.5 36t-33.5 91q0 51 20.5 97t63.5 75.5t111 29.5q60 0 95.5 -35t35.5 -95q0 -88 -52.5 -143.5t-133.5 -55.5z" />
    <glyph glyph-name="less" unicode="&#x3c;" horiz-adv-x="1070" 
d="M1012 225l-917 428v143l917 456v-242l-607 -281l607 -264v-240z" />
    <glyph glyph-name="equal" unicode="=" horiz-adv-x="1070" 
d="M99 823v217h913v-217h-913zM99 403v219h913v-219h-913z" />
    <glyph glyph-name="greater" unicode="&#x3e;" horiz-adv-x="1070" 
d="M98 465l607 264l-607 281v242l917 -456v-143l-917 -428v240z" />
    <glyph glyph-name="question" unicode="?" horiz-adv-x="812" 
d="M209 474q20 98 45 165.5t66.5 121.5t107.5 109q60 52 103 91t66.5 80t23.5 97q0 54 -28 82.5t-89 28.5q-66 0 -131 -28t-134 -68l-65 207q86 56 183 89.5t202 33.5q158 0 245 -79t87 -218q0 -99 -36.5 -175t-98.5 -139t-138 -124q-60 -50 -93 -87t-50.5 -78.5
t-32.5 -108.5h-233zM243 -23q-73 0 -106.5 36t-33.5 92q0 77 47 139t148 62q61 0 96.5 -34t35.5 -96q0 -88 -53 -143.5t-134 -55.5z" />
    <glyph glyph-name="at" unicode="@" horiz-adv-x="1540" 
d="M669 -175q-147 0 -259 44t-188 124t-114 189t-38 238q0 179 44 337.5t125 289.5t192.5 225.5t246 146.5t285.5 52q174 0 300 -67.5t194.5 -193t68.5 -299.5q0 -96 -19.5 -194t-57.5 -187t-92.5 -159t-124 -111t-152.5 -41q-84 0 -131 37t-62 108h-7q-41 -67 -95.5 -106
t-126.5 -39q-106 0 -168.5 65.5t-62.5 205.5q0 76 20 158.5t59 160t96.5 139.5t132.5 99t166 37q92 0 161 -15.5t123 -38.5l-115 -464q-9 -36 -14.5 -63.5t-5.5 -50.5q0 -34 12.5 -50t33.5 -16q43 0 79.5 34.5t65 91t48.5 125t30.5 137.5t10.5 127q0 127 -43 216t-129 135.5
t-215 46.5q-119 0 -223 -45t-187 -125.5t-142.5 -188.5t-91.5 -235.5t-32 -265.5q0 -124 42.5 -224t133.5 -158.5t237 -58.5q106 0 200 21t193 62v-169q-89 -38 -192 -62.5t-212 -24.5zM706 387q62 0 106 71t77 198l64 251q-15 5 -31 7t-38 2q-62 0 -108.5 -42t-78.5 -106.5
t-48.5 -134.5t-16.5 -127q0 -65 21 -92t53 -27z" />
    <glyph glyph-name="A" unicode="A" horiz-adv-x="1125" 
d="M-125 0l695 1465h349l81 -1465h-284l-9 361h-372l-159 -361h-301zM441 603h265l-7 411q-1 55 -2 108t2 109h-6q-13 -50 -32 -99.5t-43 -105.5z" />
    <glyph glyph-name="B" unicode="B" horiz-adv-x="1122" 
d="M24 0l309 1462h381q117 0 209 -31.5t145.5 -100t53.5 -181.5q0 -93 -33 -171t-98.5 -133t-162.5 -80v-8q86 -26 136 -97t50 -174q0 -148 -65.5 -257.5t-185 -169t-281.5 -59.5h-458zM355 238h136q76 0 128.5 32t80 89.5t27.5 131.5q0 76 -40 115.5t-117 39.5h-128z
M490 874h116q69 0 119 28t77.5 78t27.5 116q0 65 -37.5 98.5t-113.5 33.5h-114z" />
    <glyph glyph-name="C" unicode="C" horiz-adv-x="1067" 
d="M542 -20q-146 0 -245 63t-149 180t-50 279q0 132 28 269.5t85 265t142.5 228.5t200.5 160t260 59q110 0 197 -23t167 -73l-122 -228q-56 38 -113.5 60t-125.5 22q-89 0 -159 -49.5t-120.5 -131t-84 -178.5t-49.5 -193t-16 -173q0 -151 53 -222t166 -71q69 0 140.5 19.5
t142.5 50.5v-245q-64 -28 -154.5 -48.5t-193.5 -20.5z" />
    <glyph glyph-name="D" unicode="D" horiz-adv-x="1210" 
d="M25 0l309 1462h342q239 0 368 -129t129 -371q0 -151 -30.5 -292.5t-91 -263t-152.5 -213t-215 -142.5t-278 -51h-381zM356 243h75q95 0 168 42t126.5 114.5t88 163t51 188.5t16.5 190q0 145 -60.5 213t-171.5 68h-86z" />
    <glyph glyph-name="E" unicode="E" horiz-adv-x="959" 
d="M25 0l309 1462h709l-51 -238h-428l-72 -345h398l-51 -239h-398l-86 -399h429l-51 -241h-708z" />
    <glyph glyph-name="F" unicode="F" horiz-adv-x="930" 
d="M25 0l309 1462h706l-50 -238h-426l-84 -400h396l-53 -238h-395l-123 -586h-280z" />
    <glyph glyph-name="G" unicode="G" horiz-adv-x="1239" 
d="M580 -20q-235 0 -358 133.5t-123 386.5q0 152 32.5 296t96.5 268.5t159 219t219.5 147.5t278.5 53q107 0 199.5 -24.5t171.5 -70.5l-115 -234q-65 40 -132 62.5t-143 22.5q-116 0 -205 -64.5t-150 -170.5t-92.5 -232t-31.5 -250q0 -99 25 -166t77.5 -100t134.5 -33
q41 0 75 5.5t71 15.5l72 335h-213l50 238h489l-161 -760q-100 -36 -203 -57t-224 -21z" />
    <glyph glyph-name="H" unicode="H" horiz-adv-x="1255" 
d="M25 0l309 1462h281l-123 -579h397l123 579h281l-311 -1462h-281l136 640h-396l-136 -640h-280z" />
    <glyph glyph-name="I" unicode="I" horiz-adv-x="576" 
d="M23 0l311 1462h280l-311 -1462h-280z" />
    <glyph glyph-name="J" unicode="J" horiz-adv-x="585" 
d="M-141 -428q-59 0 -100 7t-76 19l25 238q31 -10 63.5 -16t69.5 -6q59 0 99.5 32t67.5 88.5t42 131.5l296 1396h281l-305 -1437q-35 -162 -97 -261.5t-153 -145.5t-213 -46z" />
    <glyph glyph-name="K" unicode="K" horiz-adv-x="1100" 
d="M25 0l309 1462h281l-147 -680l124 182l376 498h321l-528 -690l224 -772h-309l-155 595l-106 -73l-110 -522h-280z" />
    <glyph glyph-name="L" unicode="L" horiz-adv-x="910" 
d="M25 0l309 1462h281l-260 -1221h432l-50 -241h-712z" />
    <glyph glyph-name="M" unicode="M" horiz-adv-x="1614" 
d="M25 0l309 1462h372l48 -1053h7l498 1053h393l-310 -1462h-265l159 757q11 48 24 101.5t27 106.5t25 97h-6l-508 -1062h-252l-45 1059h-7q-6 -43 -15 -99.5t-20 -117.5t-24 -120l-152 -722h-258z" />
    <glyph glyph-name="N" unicode="N" horiz-adv-x="1348" 
d="M25 0l309 1462h323l256 -1035h7q9 53 19.5 117.5t22 127.5t20.5 111l146 679h257l-309 -1462h-315l-264 1061h-8q-4 -31 -11.5 -80t-16.5 -105t-18.5 -109.5t-17.5 -93.5l-143 -673h-257z" />
    <glyph glyph-name="O" unicode="O" horiz-adv-x="1297" 
d="M556 -20q-152 0 -253.5 59.5t-153 173.5t-51.5 278q0 113 19.5 230t58 228.5t97.5 208.5t137.5 170.5t177.5 115t218 41.5q229 0 340.5 -132t111.5 -370q0 -108 -17.5 -223.5t-54 -228t-93.5 -211.5t-134.5 -175.5t-178 -120.5t-224.5 -44zM578 225q59 0 110.5 31.5
t95 87t78 129t58.5 158.5t37 174.5t13 176.5q0 125 -47 192.5t-140 67.5q-61 0 -115 -33.5t-97.5 -92t-78 -133.5t-58 -159.5t-35.5 -170t-12 -163.5q0 -93 22 -151.5t65 -86t104 -27.5z" />
    <glyph glyph-name="P" unicode="P" horiz-adv-x="1079" 
d="M25 0l309 1462h349q152 0 246.5 -47.5t138 -133t43.5 -200.5q0 -121 -39.5 -223t-114.5 -177t-181 -116t-240 -41h-121l-110 -524h-280zM466 763h83q85 0 146.5 36.5t95 103.5t33.5 158q0 85 -42 124t-126 39h-92z" />
    <glyph glyph-name="Q" unicode="Q" horiz-adv-x="1297" 
d="M685 -348l-134 330q-8 0 -15 0.5t-14 0.5q-141 6 -235 67t-141.5 172.5t-47.5 268.5q0 113 19.5 230t58 228.5t97.5 208.5t137.5 170.5t177.5 115t218 41.5q229 0 340.5 -132t111.5 -370q0 -104 -16.5 -216t-50 -221.5t-85.5 -207t-123.5 -174.5t-162.5 -123l192 -389
h-327zM578 225q59 0 110.5 31.5t95 87t78 129t58.5 158.5t37 174.5t13 176.5q0 125 -47 192.5t-140 67.5q-61 0 -115 -33.5t-97.5 -92t-78 -133.5t-58 -159.5t-35.5 -170t-12 -163.5q0 -93 22 -151.5t65 -86t104 -27.5z" />
    <glyph glyph-name="R" unicode="R" horiz-adv-x="1098" 
d="M25 0l309 1462h318q207 0 319 -90t112 -276q0 -120 -38.5 -214.5t-107 -159.5t-159.5 -97l202 -625h-307l-155 570h-93l-120 -570h-280zM474 800h69q61 0 107.5 20.5t78 57.5t47.5 86t16 106q0 78 -42 117t-128 39h-58z" />
    <glyph glyph-name="S" unicode="S" horiz-adv-x="960" 
d="M336 -20q-105 0 -190 21.5t-147 64.5l26 269q72 -46 152 -76t161 -30q45 0 84.5 10.5t69 32.5t46 55.5t16.5 80.5q0 49 -16.5 86t-50.5 72.5t-87 79.5q-60 50 -109 105t-77 124t-28 161q0 98 32.5 179.5t94.5 141.5t151 93t202 33q96 0 186 -24t167 -72l-113 -233
q-66 39 -127.5 60t-119.5 21q-39 0 -72 -11.5t-58 -34t-39 -54.5t-14 -74q0 -47 18 -83.5t54.5 -71.5t93.5 -79q69 -52 114 -109.5t67 -125.5t22 -151q0 -105 -36.5 -190t-103.5 -145.5t-160.5 -93t-208.5 -32.5z" />
    <glyph glyph-name="T" unicode="T" horiz-adv-x="941" 
d="M205 0l258 1220h-298l52 242h877l-52 -242h-298l-259 -1220h-280z" />
    <glyph glyph-name="U" unicode="U" horiz-adv-x="1229" 
d="M506 -20q-128 0 -217.5 45t-136 128.5t-46.5 197.5q0 35 4.5 78t12.5 83l203 950h280l-201 -951q-8 -35 -12.5 -67.5t-4.5 -58.5q0 -79 38 -119.5t113 -40.5q72 0 120.5 31.5t80 96t52.5 164.5l201 945h281l-208 -976q-32 -153 -99.5 -267t-179.5 -176.5t-281 -62.5z" />
    <glyph glyph-name="V" unicode="V" horiz-adv-x="1079" 
d="M257 0l-73 1462h279l19 -856q1 -43 0.5 -90t-3 -95.5t-7.5 -96.5h7q12 42 27 86.5t33.5 91.5t39.5 94l387 866h295l-689 -1462h-315z" />
    <glyph glyph-name="W" unicode="W" horiz-adv-x="1633" 
d="M184 0v1462h268l-12 -779q-2 -80 -6 -160.5t-11 -145.5h6q26 73 55.5 152t57.5 144l335 789h244l-4 -783q-1 -69 -3.5 -148t-8.5 -153h6q17 51 35.5 104t39 106t39.5 101l308 773h284l-608 -1462h-320l3 690q-1 59 -0.5 105t2 88t3.5 86h-6q-20 -65 -42 -125.5
t-47 -118.5l-303 -725h-315z" />
    <glyph glyph-name="X" unicode="X" horiz-adv-x="1069" 
d="M-118 0l516 757l-180 705h293l105 -483l299 483h309l-482 -721l203 -741h-304l-114 513l-337 -513h-308z" />
    <glyph glyph-name="Y" unicode="Y" horiz-adv-x="1013" 
d="M243 0l118 558l-177 904h290l87 -580l330 580h308l-557 -900l-120 -562h-279z" />
    <glyph glyph-name="Z" unicode="Z" horiz-adv-x="948" 
d="M-71 0l38 193l708 1030h-474l50 239h816l-40 -194l-711 -1027h512l-50 -241h-849z" />
    <glyph glyph-name="bracketleft" unicode="[" horiz-adv-x="631" 
d="M-59 -331l385 1807h450l-43 -203h-210l-298 -1401h210l-44 -203h-450z" />
    <glyph glyph-name="backslash" unicode="\" horiz-adv-x="810" 
d="M416 -7l-204 1477h239l208 -1477h-243z" />
    <glyph glyph-name="bracketright" unicode="]" horiz-adv-x="631" 
d="M-143 -331l43 203h209l299 1401h-211l43 203h452l-385 -1807h-450z" />
    <glyph glyph-name="asciicircum" unicode="^" horiz-adv-x="1009" 
d="M12 552l582 914h146l244 -914h-223l-150 579l-361 -579h-238z" />
    <glyph glyph-name="underscore" unicode="_" horiz-adv-x="764" 
d="M-187 -331l33 164h768l-35 -164h-766z" />
    <glyph glyph-name="grave" unicode="`" horiz-adv-x="628" 
d="M510 1241q-33 38 -75 93.5t-79.5 113t-58.5 101.5v20h294q11 -45 26 -94.5t34 -102t42 -106.5l-2 -25h-181z" />
    <glyph glyph-name="a" unicode="a" horiz-adv-x="1075" 
d="M335 -20q-75 0 -136.5 39.5t-97.5 120t-36 204.5q0 100 20 209.5t59.5 213.5t97.5 187.5t134.5 133.5t169.5 50q58 0 103 -18.5t78.5 -54t54.5 -88.5h7l53 140h222l-237 -1117h-212l8 145h-7q-38 -49 -79.5 -86t-90.5 -58t-111 -21zM446 206q58 0 104.5 50t79.5 127.5
t50 157.5q15 68 21 119t6 99q0 68 -30 109t-83 41q-44 0 -82 -35t-68.5 -93.5t-53 -129.5t-34.5 -145t-12 -138q0 -80 26.5 -121t75.5 -41z" />
    <glyph glyph-name="b" unicode="b" horiz-adv-x="1074" 
d="M525 -20q-59 0 -104 19t-77.5 54t-53.5 82h-7l-57 -135h-214l329 1556h274l-74 -348q-7 -29 -17 -68.5t-21.5 -81t-24.5 -76.5h6q35 48 73 83t84 54t104 19q74 0 134.5 -39t96.5 -119.5t36 -205.5q0 -101 -21 -211t-61 -213.5t-99 -187t-135.5 -133t-170.5 -49.5z
M483 206q42 0 79.5 35t68.5 93.5t53.5 130t34.5 145t12 138.5q0 82 -25.5 121.5t-77.5 39.5q-44 0 -81 -27.5t-65.5 -74.5t-50 -105t-35.5 -119t-20.5 -117.5t-6.5 -100.5q0 -75 29.5 -117t84.5 -42z" />
    <glyph glyph-name="c" unicode="c" horiz-adv-x="862" 
d="M423 -20q-105 0 -185.5 41.5t-125 126t-44.5 213.5q0 110 21.5 221t65 211t109.5 177.5t155.5 122.5t202.5 45q84 0 153 -18t130 -53l-97 -213q-41 23 -85 39t-94 16q-71 0 -124 -50t-88 -129.5t-52.5 -169.5t-17.5 -169q0 -60 16 -101t47 -61.5t75 -20.5
q59 0 116.5 21.5t119.5 59.5v-230q-58 -34 -133.5 -56.5t-164.5 -22.5z" />
    <glyph glyph-name="d" unicode="d" horiz-adv-x="1075" 
d="M334 -20q-75 0 -136 39.5t-97 120.5t-36 205q0 98 20 207t59.5 213t97 188.5t132.5 134.5t166 50q57 0 100.5 -18.5t76 -52.5t53.5 -81h7q3 22 7 58t9.5 76t12.5 72l78 364h273l-330 -1556h-214l10 139h-7q-40 -49 -81 -84.5t-89.5 -55t-111.5 -19.5zM450 206
q44 0 80.5 28.5t65 76.5t49.5 107t35 120.5t20.5 117.5t6.5 97q0 74 -29.5 115t-83.5 41q-45 0 -83.5 -36.5t-69 -96.5t-52.5 -132t-33.5 -144.5t-11.5 -132.5q0 -80 27 -120.5t79 -40.5z" />
    <glyph glyph-name="e" unicode="e" horiz-adv-x="1003" 
d="M453 -20q-117 0 -203.5 45t-134.5 133.5t-48 216.5q0 144 37 280.5t109.5 245t180 172.5t248.5 64q156 0 240.5 -77t84.5 -206q0 -92 -38 -165.5t-113 -124t-184.5 -77t-251.5 -26.5h-34q-3 -20 -5 -39t-2 -38q0 -94 44.5 -142t128.5 -48q77 0 140 18t148 62v-209
q-80 -45 -163.5 -65t-183.5 -20zM380 651h26q110 0 176.5 25.5t96.5 68.5t30 95q0 44 -24 67.5t-69 23.5q-49 0 -95.5 -34.5t-83 -97t-57.5 -148.5z" />
    <glyph glyph-name="f" unicode="f" horiz-adv-x="660" 
d="M-77 -492q-41 0 -80.5 5.5t-71.5 16.5v229q25 -9 53 -14t53 -5q65 0 99.5 46t52.5 131l209 982h-139l28 138l156 78l20 89q19 85 48 152t72 114.5t104 72t144 24.5q60 0 114.5 -11.5t103.5 -35.5l-83 -206q-24 12 -51.5 20t-56.5 8q-53 0 -82 -40.5t-42 -107.5l-16 -77
h188l-45 -218h-190l-217 -1015q-22 -108 -64 -193t-115.5 -134t-191.5 -49z" />
    <glyph glyph-name="g" unicode="g" horiz-adv-x="1010" 
d="M274 -492q-195 0 -298.5 71.5t-102.5 201.5q0 108 70 186.5t204 123.5q-34 19 -54.5 53.5t-20.5 80.5q0 66 42.5 117.5t129.5 100.5q-52 38 -79 99t-27 144q0 107 41.5 201.5t119.5 154.5q53 45 125.5 70t157.5 25q48 0 88 -8t72 -18h353l-33 -156l-155 -39
q8 -23 12 -49.5t4 -56.5q0 -89 -32 -173.5t-87 -142.5q-57 -59 -137.5 -90.5t-181.5 -31.5q-33 0 -54 0.5t-35 1.5q-43 -16 -65 -41.5t-22 -52.5q0 -25 20 -36q13 -9 34.5 -13.5t52.5 -7.5l157 -9q94 -7 154 -37t89 -83t29 -129q0 -122 -51 -214t-144 -149
q-71 -46 -166.5 -69.5t-209.5 -24.5zM287 -297q69 0 124.5 14t93.5 41q38 26 59 62.5t21 82.5q0 16 -4.5 29t-16.5 23q-16 14 -44 21.5t-70 10.5l-139 8q-55 -5 -98 -33t-67.5 -68.5t-24.5 -83.5q0 -57 42 -82t124 -25zM486 554q48 0 85 35t60 95.5t28 138.5q3 41 -2 68.5
t-19 42.5q-10 10 -24 15.5t-33 5.5q-39 0 -70 -22.5t-54 -60.5t-36.5 -85.5t-16.5 -98.5q-2 -27 -1 -48.5t7 -37.5q20 -48 76 -48z" />
    <glyph glyph-name="h" unicode="h" horiz-adv-x="1082" 
d="M13 0l329 1556h274l-66 -307q-8 -40 -21 -88t-27 -95t-27 -86h6q36 49 77 84.5t90.5 54.5t107.5 19q82 0 138 -34t84.5 -97t28.5 -151q0 -37 -7 -85.5t-17 -97.5l-141 -673h-273l137 651q9 41 14.5 79t5.5 71q0 50 -22.5 76.5t-68.5 26.5q-53 0 -97 -43t-78 -124
t-59 -195l-115 -542h-273z" />
    <glyph glyph-name="i" unicode="i" horiz-adv-x="533" 
d="M13 0l237 1117h272l-236 -1117h-273zM429 1260q-61 0 -97.5 27t-36.5 86q0 51 19.5 91.5t58.5 64.5t95 24q58 0 95.5 -25t37.5 -86q0 -78 -44.5 -130t-127.5 -52z" />
    <glyph glyph-name="j" unicode="j" horiz-adv-x="534" 
d="M-110 -492q-41 0 -80.5 5.5t-71.5 16.5v230q25 -10 52.5 -15t51.5 -5q41 0 71 18.5t51 59t34 105.5l253 1194h273l-261 -1225q-23 -113 -65.5 -199.5t-116 -135.5t-191.5 -49zM431 1260q-61 0 -97.5 27t-36.5 86q0 51 19.5 91.5t58.5 64.5t95 24q58 0 95.5 -25t37.5 -86
q0 -78 -44.5 -130t-127.5 -52z" />
    <glyph glyph-name="k" unicode="k" horiz-adv-x="1017" 
d="M12 0l330 1556h274l-147 -683q-7 -34 -17.5 -73.5t-21.5 -78t-20 -71.5h6l397 467h306l-428 -486l214 -631h-301l-136 435l-111 -88l-72 -347h-273z" />
    <glyph glyph-name="l" unicode="l" horiz-adv-x="531" 
d="M12 0l330 1556h274l-331 -1556h-273z" />
    <glyph glyph-name="m" unicode="m" horiz-adv-x="1614" 
d="M12 0l237 1117h214l-17 -171h8q37 58 82 101t99 67t118 24q99 0 156 -47.5t77 -137.5h7q37 56 83.5 97.5t102 64.5t118.5 23q119 0 181 -73t62 -203q0 -35 -5.5 -79.5t-15.5 -92.5l-146 -690h-273l141 667q8 37 13 71t5 60q0 55 -20.5 80.5t-62.5 25.5q-44 0 -79.5 -28
t-64 -77t-49.5 -110.5t-34 -129.5l-118 -559h-273l142 671q8 37 12.5 70t4.5 58q0 54 -20.5 79.5t-61.5 25.5q-45 0 -82.5 -30.5t-66.5 -83.5t-51 -120t-37 -139l-112 -531h-274z" />
    <glyph glyph-name="n" unicode="n" horiz-adv-x="1082" 
d="M12 0l237 1117h213l-15 -173h7q37 59 82 102.5t98.5 67.5t116.5 24q77 0 135 -31t89.5 -93t31.5 -156q0 -37 -6.5 -83.5t-17.5 -99.5l-142 -675h-273l138 654q8 41 14 79t6 68q0 52 -21.5 77.5t-67.5 25.5q-58 0 -103.5 -49.5t-79.5 -135t-58 -193.5l-110 -526h-274z" />
    <glyph glyph-name="o" unicode="o" horiz-adv-x="1054" 
d="M436 -20q-112 0 -195 47.5t-128.5 136.5t-45.5 212q0 103 20.5 210t62.5 206t108 177t156.5 123.5t207.5 45.5q113 0 195 -48t126 -138.5t44 -217.5q0 -106 -20.5 -213t-63 -204.5t-107.5 -173t-155 -119.5t-205 -44zM463 207q47 0 86 32.5t69 88.5t51 125t32 142t11 140
q0 53 -11.5 92.5t-37.5 61.5t-69 22q-50 0 -90.5 -36.5t-71 -96t-50.5 -130.5t-30 -142.5t-10 -130.5q0 -81 30 -124.5t91 -43.5z" />
    <glyph glyph-name="p" unicode="p" horiz-adv-x="1074" 
d="M-91 -487l340 1604h215l-14 -160h8q37 54 79.5 95t93.5 63.5t111 22.5q75 0 136 -37.5t97 -118.5t36 -211q0 -102 -21 -212t-61 -213t-98.5 -186t-134.5 -131.5t-168 -48.5q-57 0 -99 19.5t-71.5 54.5t-51.5 81h-7q-6 -68 -15.5 -127t-21.5 -115l-81 -380h-272zM481 209
q44 0 82 34.5t69 92.5t53.5 129t34 145t11.5 140q0 82 -25.5 122t-75.5 40q-44 0 -80.5 -28.5t-65.5 -75.5t-50.5 -105.5t-36 -120.5t-21.5 -118t-7 -98q0 -74 29.5 -115.5t82.5 -41.5z" />
    <glyph glyph-name="q" unicode="q" horiz-adv-x="1076" 
d="M449 -490l84 389q6 27 16.5 67.5t23.5 85t24 83.5h-7q-35 -48 -74.5 -83t-86.5 -53.5t-105 -18.5q-70 0 -129.5 38t-95 117.5t-35.5 203.5q0 100 20.5 209.5t60 214t98.5 189.5t135.5 135.5t170.5 50.5q61 0 104.5 -18.5t75 -54.5t55.5 -89h6l51 141h223l-342 -1607h-273
zM452 209q44 0 79.5 28t63.5 75t49.5 105t35 120t20.5 120t7 102q0 70 -30 110t-84 40q-43 0 -81 -35t-68.5 -92.5t-53 -128.5t-34.5 -145t-12 -139q0 -80 27.5 -120t80.5 -40z" />
    <glyph glyph-name="r" unicode="r" horiz-adv-x="754" 
d="M12 0l237 1117h211l-18 -189h10q40 69 84.5 115.5t98 70.5t117.5 24q22 0 45.5 -3t44.5 -10l-70 -278q-18 7 -42 11.5t-52 4.5q-52 0 -96.5 -24t-80 -67.5t-61.5 -103.5t-42 -132l-113 -536h-273z" />
    <glyph glyph-name="s" unicode="s" horiz-adv-x="846" 
d="M305 -20q-99 0 -170 15.5t-129 46.5v242q62 -40 134.5 -62.5t141.5 -22.5q44 0 80.5 14t58 41.5t21.5 68.5q0 28 -10.5 52t-40.5 53t-87 69q-61 43 -100.5 86.5t-58.5 93t-19 110.5q0 106 45.5 185t131.5 122.5t209 43.5q92 0 175.5 -23t153.5 -67l-99 -202
q-51 36 -110 57t-111 21q-49 0 -82.5 -26t-33.5 -75q0 -26 10.5 -48.5t38 -47.5t78.5 -59q59 -41 102.5 -83.5t67 -96.5t23.5 -130q0 -116 -50.5 -200.5t-144.5 -131t-225 -46.5z" />
    <glyph glyph-name="t" unicode="t" horiz-adv-x="719" 
d="M338 -20q-121 0 -183 59.5t-62 182.5q0 29 4 63t12 76l115 538h-127l28 139l167 77l117 240h184l-50 -238h229l-47 -218h-228l-118 -554q-4 -19 -6.5 -36.5t-2.5 -29.5q0 -37 19 -53t55 -16q28 0 62 7.5t73 22.5v-212q-47 -23 -111.5 -35.5t-129.5 -12.5z" />
    <glyph glyph-name="u" unicode="u" horiz-adv-x="1082" 
d="M331 -20q-84 0 -140 34t-84.5 97t-28.5 149q0 37 6.5 89.5t16.5 104.5l141 663h272l-138 -658q-9 -40 -14 -76.5t-5 -65.5q0 -52 21.5 -78.5t66.5 -26.5q58 0 103.5 50t80 136t56.5 195l113 524h272l-236 -1117h-213l14 171h-8q-38 -57 -82.5 -100t-97.5 -67t-116 -24z
" />
    <glyph glyph-name="v" unicode="v" horiz-adv-x="933" 
d="M198 0l-85 1117h270l21 -555q1 -29 1 -70t-0.5 -83.5t-2.5 -77.5h9q10 30 22 64.5t25.5 67.5t24.5 57l273 597h291l-555 -1117h-294z" />
    <glyph glyph-name="w" unicode="w" horiz-adv-x="1435" 
d="M141 0l-13 1117h261l-8 -490q-2 -72 -5.5 -142.5t-9.5 -145.5h7q12 42 29 92t33.5 94.5t26.5 70.5l213 521h303l-11 -517q-2 -64 -5 -131t-8 -137h7q15 45 32.5 99t36.5 107.5t35 94.5l199 484h276l-489 -1117h-307l12 556q1 37 3 83.5t4.5 94.5t4.5 88h-8
q-13 -38 -28 -81.5t-30 -84.5t-28 -74l-234 -582h-299z" />
    <glyph glyph-name="x" unicode="x" horiz-adv-x="958" 
d="M-100 0l422 574l-172 543h293l82 -332l215 332h314l-409 -555l185 -562h-295l-91 349l-235 -349h-309z" />
    <glyph glyph-name="y" unicode="y" horiz-adv-x="943" 
d="M-8 -492q-48 0 -81.5 5.5t-58.5 13.5l20 231q25 -7 49.5 -11.5t51.5 -4.5q73 0 119 45t84 119l47 101l-106 1110h271l29 -522q3 -40 4 -84.5t0.5 -88t-1.5 -81.5h7q13 36 26.5 76.5t29.5 82.5t34 81l242 536h293l-632 -1281q-52 -104 -114 -177.5t-138.5 -112
t-175.5 -38.5z" />
    <glyph glyph-name="z" unicode="z" horiz-adv-x="813" 
d="M-63 0l34 166l529 730h-350l48 221h666l-39 -183l-519 -713h384l-47 -221h-706z" />
    <glyph glyph-name="braceleft" unicode="{" horiz-adv-x="708" 
d="M469 -324q-185 0 -265 69.5t-80 187.5q0 30 4 60.5t10 59.5l42 201q4 19 8.5 39.5t4.5 39.5q0 66 -43 98.5t-140 32.5l45 220q110 1 172.5 43.5t83.5 139.5l61 288q26 117 77.5 184t138 95t217.5 28h45l-48 -217q-82 -1 -126 -30.5t-61 -118.5l-63 -290
q-22 -104 -89.5 -163.5t-183.5 -75.5l-1 -7q85 -25 125.5 -78t40.5 -126q0 -25 -3.5 -53t-10.5 -59l-39 -191q-4 -17 -5.5 -31.5t-1.5 -26.5q0 -54 29 -77t92 -24l-1 -218h-35z" />
    <glyph glyph-name="bar" unicode="|" horiz-adv-x="952" 
d="M366 -471v2032h218v-2032h-218z" />
    <glyph glyph-name="braceright" unicode="}" horiz-adv-x="708" 
d="M-110 -324v218q56 0 97 13t67 46t38 90l63 290q22 104 90 164t183 74l1 8q-85 25 -126 78t-41 127q0 25 4 52.5t11 58.5l40 191q3 17 4.5 31.5t1.5 26.5q0 54 -34 77.5t-105 23.5l43 217h23q122 0 194.5 -29.5t105 -85t32.5 -134.5q0 -30 -3.5 -64t-9.5 -64l-42 -200
q-4 -20 -8.5 -39.5t-4.5 -39.5q0 -66 43 -98.5t140 -32.5l-45 -220q-72 0 -124.5 -20t-85 -60t-45.5 -104l-62 -287q-25 -114 -74 -181.5t-132.5 -97t-214.5 -29.5h-24z" />
    <glyph glyph-name="asciitilde" unicode="~" horiz-adv-x="1070" 
d="M522 616q-64 30 -115 43t-96 13q-52 0 -109 -33t-108 -88v232q47 54 106.5 81t132.5 27q61 0 118.5 -14.5t135.5 -49.5q66 -29 117 -42t95 -13q53 0 111 34t106 87v-232q-48 -53 -107 -80t-131 -27q-62 0 -119 14t-137 48z" />
    <glyph glyph-name="uni00A0" unicode="&#xa0;" horiz-adv-x="441" 
 />
    <glyph glyph-name="exclamdown" unicode="&#xa1;" horiz-adv-x="546" 
d="M-78 -372l255 1000h227l-170 -1000h-312zM329 797q-60 0 -96 33.5t-36 95.5q0 88 53 144t133 56q73 0 107 -36.5t34 -91.5q0 -51 -20.5 -97t-63.5 -75t-111 -29z" />
    <glyph glyph-name="cent" unicode="&#xa2;" horiz-adv-x="1009" 
d="M337 -20l47 204q-114 28 -176 118.5t-62 258.5q0 98 19 200t57 195.5t95.5 171t133.5 129t172 65.5l34 161h168l-34 -161q55 -6 103 -23.5t88 -39.5l-97 -215q-40 23 -84 39t-90 16q-68 0 -121 -48t-90 -125.5t-56 -168.5t-19 -177q0 -92 35 -136.5t102 -44.5
q58 0 111.5 19.5t109.5 50.5l32 -210q-57 -38 -127 -58.5t-140 -26.5l-42 -194h-169z" />
    <glyph glyph-name="sterling" unicode="&#xa3;" horiz-adv-x="1009" 
d="M-24 0l48 229q53 21 94.5 54.5t71 85.5t45.5 126l28 136h-159l43 206h158l53 259q27 121 81.5 208t140.5 133.5t207 46.5q92 0 174 -23.5t143 -61.5l-109 -218q-47 29 -97.5 46.5t-97.5 17.5q-69 0 -109.5 -42t-59.5 -133l-49 -233h266l-43 -206h-265l-27 -126
q-20 -95 -70 -159.5t-120 -102.5h565l-51 -243h-861z" />
    <glyph glyph-name="currency" unicode="&#xa4;" horiz-adv-x="1067" 
d="M895 260l-130 127q-45 -26 -97 -41t-106 -15q-58 0 -110.5 14.5t-95.5 42.5l-127 -126l-129 130l128 127q-29 46 -44 97.5t-15 106.5t15 106t44 98l-130 129l131 131l129 -129q45 30 98 44.5t106 14.5q54 0 105 -15t98 -45l130 130l132 -128l-130 -130q28 -45 43.5 -97
t15.5 -109t-15 -109t-44 -98l127 -126zM562 516q59 0 106.5 28t76 75.5t28.5 103.5q0 58 -28.5 105.5t-76.5 76t-106 28.5q-57 0 -104.5 -28.5t-76 -76t-28.5 -105.5q0 -57 28.5 -104.5t76 -75t104.5 -27.5z" />
    <glyph glyph-name="yen" unicode="&#xa5;" horiz-adv-x="1007" 
d="M242 0l49 231h-233l35 172h234l30 142h-234l38 171h186l-137 746h278l69 -570l314 570h287l-452 -746h192l-37 -171h-234l-31 -142h236l-36 -172h-236l-48 -231h-270z" />
    <glyph glyph-name="brokenbar" unicode="&#xa6;" horiz-adv-x="952" 
d="M366 763v798h218v-798h-218zM366 -471v798h218v-798h-218z" />
    <glyph glyph-name="section" unicode="&#xa7;" horiz-adv-x="902" 
d="M324 -5q-95 0 -170.5 19.5t-128.5 53.5v212q67 -47 144 -73.5t151 -26.5q83 0 126.5 38.5t43.5 100.5q0 31 -16.5 55.5t-48 47.5t-77.5 49q-64 37 -111 78.5t-72.5 93t-25.5 114.5q0 69 24.5 122.5t69.5 96t106 77.5q-41 38 -65 87t-24 111q0 89 47.5 158.5t133.5 111
t202 42.5q93 0 171.5 -22.5t148.5 -61.5l-87 -180q-49 34 -109.5 56t-129.5 22q-39 0 -69 -13.5t-47.5 -38.5t-17.5 -63q0 -42 35 -74.5t104 -70.5q74 -41 121.5 -84t70 -91t22.5 -105q0 -72 -25 -127t-67.5 -97.5t-97.5 -78.5q34 -34 57 -83t23 -111q0 -103 -52 -180.5
t-144.5 -121t-215.5 -43.5zM524 624q36 26 63 69t27 99q0 34 -15.5 62.5t-47.5 55t-83 53.5q-32 -16 -55 -41t-35 -55.5t-12 -64.5t16 -63.5t50.5 -57t91.5 -57.5z" />
    <glyph glyph-name="dieresis" unicode="&#xa8;" horiz-adv-x="1027" 
d="M843 1273q-52 0 -83 24.5t-31 78.5q0 71 39.5 116.5t111.5 45.5q47 0 78 -23.5t31 -76.5q0 -74 -39 -119.5t-107 -45.5zM478 1273q-52 0 -83 24.5t-31 78.5q0 71 39 116.5t111 45.5q32 0 56.5 -10t38.5 -32t14 -58q0 -74 -39 -119.5t-106 -45.5z" />
    <glyph glyph-name="copyright" unicode="&#xa9;" horiz-adv-x="1698" 
d="M845 -20q-166 0 -304 56.5t-238.5 157.5t-155 238t-54.5 298q0 162 57.5 299.5t161 239t241 158t297.5 56.5q161 0 298.5 -56t240 -158t159.5 -239.5t57 -300.5t-56.5 -300.5t-159 -238t-241 -155.5t-303.5 -55zM881 264q-206 0 -314 125.5t-108 340.5q0 142 49.5 246.5
t145 162.5t230.5 58q70 0 140 -17t135 -49l-69 -147q-51 26 -101 39.5t-95 13.5q-115 0 -178 -79.5t-63 -230.5t57.5 -227t183.5 -76q52 0 112 14.5t115 39.5v-159q-55 -25 -112 -40t-128 -15zM852 113q129 0 239 45t192 127.5t127 195.5t45 248q0 134 -45.5 247.5
t-128 197.5t-193 130.5t-240.5 46.5q-133 0 -244.5 -46.5t-193 -130.5t-126 -198t-44.5 -248q0 -137 46 -250t128.5 -194.5t194 -126t243.5 -44.5z" />
    <glyph glyph-name="ordfeminine" unicode="&#xaa;" horiz-adv-x="694" 
d="M347 752q-49 0 -96 24.5t-77 82t-30 154.5q0 74 20 154.5t61 151t104.5 114t150.5 43.5q61 0 98.5 -27t59.5 -75h7l37 89h139l-153 -699h-140l10 92h-8q-32 -46 -76 -75t-107 -29zM406 901q33 0 59 21.5t46 56.5t33 76.5t19 81.5t6 72q0 56 -18 87t-57 31
q-37 0 -66.5 -27.5t-50.5 -73.5t-32 -101t-11 -110q0 -57 18 -85.5t54 -28.5z" />
    <glyph glyph-name="guillemotleft" unicode="&#xab;" horiz-adv-x="1067" 
d="M263 91l-205 456l1 21l376 455l183 -132l-277 -345l145 -360zM718 91l-207 456l2 21l377 455l182 -132l-276 -345l143 -360z" />
    <glyph glyph-name="logicalnot" unicode="&#xac;" horiz-adv-x="1070" 
d="M1006 831v-586h-220v368h-687v218h907z" />
    <glyph glyph-name="uni00AD" unicode="&#xad;" horiz-adv-x="622" 
d="M33 428l51 243h502l-52 -243h-501z" />
    <glyph glyph-name="registered" unicode="&#xae;" horiz-adv-x="1698" 
d="M549 295v891h276q169 0 252 -68.5t83 -201.5q0 -92 -41.5 -150t-109.5 -88l217 -383h-208l-174 338h-106v-338h-189zM738 776h78q74 0 113.5 34.5t39.5 98.5q0 66 -35 95t-118 29h-78v-257zM845 -20q-166 0 -304 56.5t-238.5 157.5t-155 238t-54.5 298q0 162 57.5 299.5
t161 239t241 158t297.5 56.5q161 0 298.5 -56t240 -158t159.5 -239.5t57 -300.5t-56.5 -300.5t-159 -238t-241 -155.5t-303.5 -55zM852 113q129 0 239 45t192 127.5t127 195.5t45 248q0 134 -45.5 247.5t-128 197.5t-193 130.5t-240.5 46.5q-133 0 -244.5 -46.5t-193 -130.5
t-126 -198t-44.5 -248q0 -137 46 -250t128.5 -194.5t194 -126t243.5 -44.5z" />
    <glyph glyph-name="overscore" unicode="&#xaf;" horiz-adv-x="951" 
d="M189 1556l43 195h961l-42 -195h-962z" />
    <glyph glyph-name="degree" unicode="&#xb0;" horiz-adv-x="809" 
d="M404 838q-96 0 -171.5 41t-118.5 114t-43 168q0 94 43 167t118.5 114t171.5 41q97 0 172 -41t118 -114t43 -167q0 -96 -43.5 -169t-118.5 -113.5t-171 -40.5zM404 1013q65 0 106 39.5t41 108.5q0 68 -41 108t-106 40t-106 -40.5t-41 -107.5q0 -69 41.5 -108.5
t105.5 -39.5z" />
    <glyph glyph-name="plusminus" unicode="&#xb1;" horiz-adv-x="1070" 
d="M99 0v218h913v-218h-913zM666 907h346v-218h-346v-383h-220v383h-347v218h347v388h220v-388z" />
    <glyph glyph-name="uni00B2" unicode="&#xb2;" horiz-adv-x="699" 
d="M110 851l33 162l248 230q59 55 100 97t63 79.5t22 77.5q0 37 -21 57t-55 20q-40 0 -83 -24t-85 -60l-81 142q63 57 139.5 87t166.5 30q113 0 176.5 -58.5t63.5 -151.5q0 -78 -32.5 -140t-89 -117.5t-129.5 -114.5l-148 -132h319l-38 -184h-569z" />
    <glyph glyph-name="uni00B3" unicode="&#xb3;" horiz-adv-x="699" 
d="M371 835q-71 0 -131 15.5t-103 41.5v185q48 -34 106 -53t124 -19q68 0 111.5 33t43.5 93q0 41 -26 66t-81 25h-104l32 151h80q52 0 88.5 16t56 44.5t19.5 67.5q0 40 -23 59.5t-62 19.5q-41 0 -82.5 -17t-85.5 -48l-75 138q65 48 136.5 71t148.5 23q91 0 146.5 -28
t81 -74.5t25.5 -102.5q0 -92 -54 -149t-145 -85l-1 -8q65 -19 98 -63t33 -113q0 -96 -48.5 -160t-129.5 -96.5t-179 -32.5z" />
    <glyph glyph-name="acute" unicode="&#xb4;" horiz-adv-x="628" 
d="M229 1241l2 23q38 45 77 97.5t75.5 106t67.5 101.5h307l-1 -17q-22 -27 -64.5 -69.5t-93 -89t-98 -87t-79.5 -65.5h-193z" />
    <glyph glyph-name="uni00B5" unicode="&#xb5;" horiz-adv-x="1089" 
d="M-94 -492l342 1609h272l-137 -654q-8 -40 -13 -75t-5 -62q0 -55 23.5 -84t65.5 -29q56 0 100 43.5t78 126t58 198.5l114 536h272l-236 -1117h-209l10 149h-7q-32 -57 -67.5 -94.5t-74.5 -56t-83 -18.5q-42 0 -73.5 18t-49.5 46h-7q-3 -28 -6.5 -61t-8 -67t-11.5 -66
l-72 -342h-275z" />
    <glyph glyph-name="paragraph" unicode="&#xb6;" horiz-adv-x="1182" 
d="M613 -260l-1 839q-22 -8 -48.5 -11.5t-59.5 -3.5q-90 0 -155.5 35t-108.5 101t-64 157.5t-21 204.5q0 120 24.5 212t73.5 155t120.5 95t165.5 32h527v-1816h-155v1650h-144v-1650h-154z" />
    <glyph glyph-name="periodcentered" unicode="&#xb7;" horiz-adv-x="532" 
d="M267 559q-73 0 -106.5 36t-33.5 92q0 77 47 139t147 62q62 0 97.5 -34t35.5 -96q0 -88 -53.5 -143.5t-133.5 -55.5z" />
    <glyph glyph-name="cedilla" unicode="&#xb8;" horiz-adv-x="378" 
d="M-59 -492q-43 0 -82 6.5t-69 14.5v156q22 -7 54 -13t66 -6q35 0 58.5 10.5t35.5 30t12 46.5q0 36 -30.5 58.5t-101.5 28.5l100 160h157l-47 -79q61 -15 101.5 -56.5t40.5 -113.5q0 -77 -35 -131.5t-100.5 -83t-159.5 -28.5z" />
    <glyph glyph-name="uni00B9" unicode="&#xb9;" horiz-adv-x="699" 
d="M339 851l100 469q11 48 22.5 87.5t20.5 69.5q-16 -14 -33.5 -28.5t-28.5 -21.5l-123 -83l-90 140l354 244h182l-187 -877h-217z" />
    <glyph glyph-name="ordmasculine" unicode="&#xba;" horiz-adv-x="684" 
d="M399 751q-121 0 -182.5 73t-61.5 199q0 87 22.5 168t68 145.5t112.5 102.5t156 38q118 0 180 -71t62 -199q0 -75 -20.5 -155t-63 -148t-110.5 -110.5t-163 -42.5zM421 909q36 0 62.5 27t44.5 71t26.5 96.5t8.5 102.5q0 57 -17 85t-53 28t-63 -27t-45.5 -71.5t-28 -96.5
t-9.5 -102q0 -59 19 -86t55 -27z" />
    <glyph glyph-name="guillemotright" unicode="&#xbb;" horiz-adv-x="1068" 
d="M629 91l-182 132l276 346l-144 359l222 95l207 -456l-2 -21zM174 91l-182 132l277 346l-144 359l221 95l206 -456l-1 -21z" />
    <glyph glyph-name="onequarter" unicode="&#xbc;" horiz-adv-x="1603" 
d="M195 0l1050 1462h216l-1050 -1462h-216zM295 585l100 469q11 48 22.5 87.5t20.5 69.5q-16 -14 -33.5 -28.5t-28.5 -21.5l-123 -83l-90 140l354 244h182l-187 -877h-217zM1134 1l35 159h-335l29 155l441 569h230l-121 -566h108l-34 -158h-106l-35 -159h-212zM1046 318h156
l44 192q9 36 16 62t18 66q-17 -28 -36.5 -56.5t-37.5 -51.5z" />
    <glyph glyph-name="onehalf" unicode="&#xbd;" horiz-adv-x="1682" 
d="M185 0l1050 1462h216l-1050 -1462h-216zM295 585l100 469q11 48 22.5 87.5t20.5 69.5q-16 -14 -33.5 -28.5t-28.5 -21.5l-123 -83l-90 140l354 244h182l-187 -877h-217zM915 -1l33 162l248 230q59 55 100 97t63 79.5t22 77.5q0 37 -21 57t-55 20q-40 0 -83 -24t-85 -60
l-81 142q63 57 139.5 87t166.5 30q113 0 176.5 -58.5t63.5 -151.5q0 -78 -32.5 -140t-89 -117.5t-129.5 -114.5l-148 -132h319l-38 -184h-569z" />
    <glyph glyph-name="threequarters" unicode="&#xbe;" horiz-adv-x="1636" 
d="M322 570q-71 0 -131 15.5t-103 41.5v185q48 -34 106 -53t124 -19q68 0 111.5 33t43.5 93q0 41 -26 66t-81 25h-104l32 151h80q52 0 88.5 16t56 44.5t19.5 67.5q0 40 -23 59.5t-62 19.5q-41 0 -82.5 -17t-85.5 -48l-75 138q65 48 136.5 71t148.5 23q91 0 146.5 -28
t81 -74.5t25.5 -102.5q0 -92 -54 -149t-145 -85l-1 -8q65 -19 98 -63t33 -113q0 -96 -48.5 -160t-129.5 -96.5t-179 -32.5zM237 0l1050 1462h216l-1050 -1462h-216zM1168 0l35 159h-335l29 155l441 569h230l-121 -566h108l-34 -158h-106l-35 -159h-212zM1080 317h156l44 192
q9 36 16 62t18 66q-17 -28 -36.5 -56.5t-37.5 -51.5z" />
    <glyph glyph-name="questiondown" unicode="&#xbf;" horiz-adv-x="811" 
d="M605 627q-18 -97 -43.5 -165t-67 -121.5t-108.5 -108.5q-59 -52 -102.5 -91.5t-66.5 -80t-23 -96.5q0 -54 28.5 -82.5t87.5 -28.5q67 0 131.5 28t134.5 67l64 -207q-85 -55 -182.5 -89t-201.5 -34q-159 0 -246 79.5t-87 217.5q0 100 37 176t99 139.5t138 123.5
q60 50 92.5 86.5t50.5 79t33 107.5h232zM572 1125q73 0 106.5 -36.5t33.5 -91.5q0 -77 -47 -139.5t-148 -62.5q-61 0 -97 34.5t-36 95.5q0 88 53.5 144t134.5 56z" />
    <glyph glyph-name="Agrave" unicode="&#xc0;" horiz-adv-x="1125" 
d="M-125 0l695 1465h349l81 -1465h-284l-9 361h-372l-159 -361h-301zM441 603h265l-7 411q-1 55 -2 108t2 109h-6q-13 -50 -32 -99.5t-43 -105.5zM732 1604q-33 38 -75 93.5t-79.5 113t-58.5 101.5v20h294q11 -45 26 -94.5t34 -102t42 -106.5l-2 -25h-181z" />
    <glyph glyph-name="Aacute" unicode="&#xc1;" horiz-adv-x="1125" 
d="M-125 0l695 1465h349l81 -1465h-284l-9 361h-372l-159 -361h-301zM441 603h265l-7 411q-1 55 -2 108t2 109h-6q-13 -50 -32 -99.5t-43 -105.5zM609 1604l2 23q38 45 77 97.5t75.5 106t67.5 101.5h307l-1 -17q-22 -27 -64.5 -69.5t-93 -89t-98 -87t-79.5 -65.5h-193z" />
    <glyph glyph-name="Acircumflex" unicode="&#xc2;" horiz-adv-x="1125" 
d="M-125 0l695 1465h349l81 -1465h-284l-9 361h-372l-159 -361h-301zM441 603h265l-7 411q-1 55 -2 108t2 109h-6q-13 -50 -32 -99.5t-43 -105.5zM417 1604l2 24q44 43 93 95t95.5 106.5t81.5 102.5h279q16 -43 40.5 -98.5t53 -110t51.5 -94.5l-3 -25h-173q-20 22 -43 48.5
t-46 57t-44 60.5q-54 -50 -103.5 -91t-97.5 -75h-186z" />
    <glyph glyph-name="Atilde" unicode="&#xc3;" horiz-adv-x="1125" 
d="M-125 0l695 1465h349l81 -1465h-284l-9 361h-372l-159 -361h-301zM441 603h265l-7 411q-1 55 -2 108t2 109h-6q-13 -50 -32 -99.5t-43 -105.5zM420 1603q20 97 53 165t83 104t119 36q47 0 83.5 -16t65 -37t54 -37t52.5 -16q32 0 53.5 24.5t39.5 83.5h157
q-21 -110 -59 -177.5t-88 -97.5t-109 -30q-47 0 -82.5 16.5t-64 37.5t-54.5 37t-55 16t-52 -27t-36 -82h-160z" />
    <glyph glyph-name="Adieresis" unicode="&#xc4;" horiz-adv-x="1125" 
d="M-125 0l695 1465h349l81 -1465h-284l-9 361h-372l-159 -361h-301zM441 603h265l-7 411q-1 55 -2 108t2 109h-6q-13 -50 -32 -99.5t-43 -105.5zM966 1636q-52 0 -83 24.5t-31 78.5q0 71 39.5 116.5t111.5 45.5q47 0 78 -23.5t31 -76.5q0 -74 -39 -119.5t-107 -45.5z
M601 1636q-52 0 -83 24.5t-31 78.5q0 71 39 116.5t111 45.5q32 0 56.5 -10t38.5 -32t14 -58q0 -74 -39 -119.5t-106 -45.5z" />
    <glyph glyph-name="Aring" unicode="&#xc5;" horiz-adv-x="1125" 
d="M-125 0l695 1465h349l81 -1465h-284l-9 361h-372l-159 -361h-301zM441 603h265l-7 411q-1 55 -2 108t2 109h-6q-13 -50 -32 -99.5t-43 -105.5zM794 1576q-110 0 -175 63t-65 171q0 106 66 168.5t174 62.5q104 0 173 -62t69 -166q0 -107 -67.5 -172t-174.5 -65zM794 1710
q43 0 71 26.5t28 72.5q0 44 -27 71.5t-71 27.5q-46 0 -73 -27.5t-27 -71.5q0 -46 25 -72.5t74 -26.5z" />
    <glyph glyph-name="AE" unicode="&#xc6;" horiz-adv-x="1556" 
d="M-128 0l815 1462h953l-51 -238h-428l-72 -345h398l-51 -239h-399l-84 -399h428l-51 -241h-707l77 361h-330l-196 -361h-302zM504 604h248l131 620h-51z" />
    <glyph glyph-name="Ccedilla" unicode="&#xc7;" horiz-adv-x="1067" 
d="M542 -20q-146 0 -245 63t-149 180t-50 279q0 132 28 269.5t85 265t142.5 228.5t200.5 160t260 59q110 0 197 -23t167 -73l-122 -228q-56 38 -113.5 60t-125.5 22q-89 0 -159 -49.5t-120.5 -131t-84 -178.5t-49.5 -193t-16 -173q0 -151 53 -222t166 -71q69 0 140.5 19.5
t142.5 50.5v-245q-64 -28 -154.5 -48.5t-193.5 -20.5zM420 -492q-43 0 -82 6.5t-69 14.5v156q22 -7 54 -13t66 -6q35 0 58.5 10.5t35.5 30t12 46.5q0 36 -30.5 58.5t-101.5 28.5l100 160h157l-47 -79q61 -15 101.5 -56.5t40.5 -113.5q0 -77 -35 -131.5t-100.5 -83
t-159.5 -28.5z" />
    <glyph glyph-name="Egrave" unicode="&#xc8;" horiz-adv-x="959" 
d="M25 0l309 1462h709l-51 -238h-428l-72 -345h398l-51 -239h-398l-86 -399h429l-51 -241h-708zM661 1582q-33 38 -75 93.5t-79.5 113t-58.5 101.5v20h294q11 -45 26 -94.5t34 -102t42 -106.5l-2 -25h-181z" />
    <glyph glyph-name="Eacute" unicode="&#xc9;" horiz-adv-x="959" 
d="M25 0l309 1462h709l-51 -238h-428l-72 -345h398l-51 -239h-398l-86 -399h429l-51 -241h-708zM542 1582l2 23q38 45 77 97.5t75.5 106t67.5 101.5h307l-1 -17q-22 -27 -64.5 -69.5t-93 -89t-98 -87t-79.5 -65.5h-193z" />
    <glyph glyph-name="Ecircumflex" unicode="&#xca;" horiz-adv-x="959" 
d="M25 0l309 1462h709l-51 -238h-428l-72 -345h398l-51 -239h-398l-86 -399h429l-51 -241h-708zM346 1582l2 24q44 43 93 95t95.5 106.5t81.5 102.5h279q16 -43 40.5 -98.5t53 -110t51.5 -94.5l-3 -25h-173q-20 22 -43 48.5t-46 57t-44 60.5q-54 -50 -103.5 -91t-97.5 -75
h-186z" />
    <glyph glyph-name="Edieresis" unicode="&#xcb;" horiz-adv-x="959" 
d="M25 0l309 1462h709l-51 -238h-428l-72 -345h398l-51 -239h-398l-86 -399h429l-51 -241h-708zM888 1614q-52 0 -83 24.5t-31 78.5q0 71 39.5 116.5t111.5 45.5q47 0 78 -23.5t31 -76.5q0 -74 -39 -119.5t-107 -45.5zM523 1614q-52 0 -83 24.5t-31 78.5q0 71 39 116.5
t111 45.5q32 0 56.5 -10t38.5 -32t14 -58q0 -74 -39 -119.5t-106 -45.5z" />
    <glyph glyph-name="Igrave" unicode="&#xcc;" horiz-adv-x="576" 
d="M23 0l311 1462h280l-311 -1462h-280zM463 1602q-33 38 -75 93.5t-79.5 113t-58.5 101.5v20h294q11 -45 26 -94.5t34 -102t42 -106.5l-2 -25h-181z" />
    <glyph glyph-name="Iacute" unicode="&#xcd;" horiz-adv-x="576" 
d="M23 0l311 1462h280l-311 -1462h-280zM342 1602l2 23q38 45 77 97.5t75.5 106t67.5 101.5h307l-1 -17q-22 -27 -64.5 -69.5t-93 -89t-98 -87t-79.5 -65.5h-193z" />
    <glyph glyph-name="Icircumflex" unicode="&#xce;" horiz-adv-x="576" 
d="M23 0l311 1462h280l-311 -1462h-280zM152 1603l2 24q44 43 93 95t95.5 106.5t81.5 102.5h279q16 -43 40.5 -98.5t53 -110t51.5 -94.5l-3 -25h-173q-20 22 -43 48.5t-46 57t-44 60.5q-54 -50 -103.5 -91t-97.5 -75h-186z" />
    <glyph glyph-name="Idieresis" unicode="&#xcf;" horiz-adv-x="576" 
d="M23 0l311 1462h280l-311 -1462h-280zM702 1636q-52 0 -83 24.5t-31 78.5q0 71 39.5 116.5t111.5 45.5q47 0 78 -23.5t31 -76.5q0 -74 -39 -119.5t-107 -45.5zM337 1636q-52 0 -83 24.5t-31 78.5q0 71 39 116.5t111 45.5q32 0 56.5 -10t38.5 -32t14 -58q0 -74 -39 -119.5
t-106 -45.5z" />
    <glyph glyph-name="Eth" unicode="&#xd0;" horiz-adv-x="1211" 
d="M25 0l132 629h-123l48 225h122l130 608h342q239 0 368 -129t129 -371q0 -152 -31 -294.5t-92 -263.5t-153 -212t-215 -141.5t-276 -50.5h-381zM356 243h75q96 0 170 43.5t127 117t87 165t50 188t16 184.5q0 145 -60.5 213t-171.5 68h-86l-77 -368h193l-48 -225h-195z" />
    <glyph glyph-name="Ntilde" unicode="&#xd1;" horiz-adv-x="1348" 
d="M25 0l309 1462h323l256 -1035h7q9 53 19.5 117.5t22 127.5t20.5 111l146 679h257l-309 -1462h-315l-264 1061h-8q-4 -31 -11.5 -80t-16.5 -105t-18.5 -109.5t-17.5 -93.5l-143 -673h-257zM530 1581q20 97 53 165t83 104t119 36q47 0 83.5 -16t65 -37t54 -37t52.5 -16
q32 0 53.5 24.5t39.5 83.5h157q-21 -110 -59 -177.5t-88 -97.5t-109 -30q-47 0 -82.5 16.5t-64 37.5t-54.5 37t-55 16t-52 -27t-36 -82h-160z" />
    <glyph glyph-name="Ograve" unicode="&#xd2;" horiz-adv-x="1297" 
d="M556 -20q-152 0 -253.5 59.5t-153 173.5t-51.5 278q0 113 19.5 230t58 228.5t97.5 208.5t137.5 170.5t177.5 115t218 41.5q229 0 340.5 -132t111.5 -370q0 -108 -17.5 -223.5t-54 -228t-93.5 -211.5t-134.5 -175.5t-178 -120.5t-224.5 -44zM578 225q59 0 110.5 31.5
t95 87t78 129t58.5 158.5t37 174.5t13 176.5q0 125 -47 192.5t-140 67.5q-61 0 -115 -33.5t-97.5 -92t-78 -133.5t-58 -159.5t-35.5 -170t-12 -163.5q0 -93 22 -151.5t65 -86t104 -27.5zM818 1582q-33 38 -75 93.5t-79.5 113t-58.5 101.5v20h294q11 -45 26 -94.5t34 -102
t42 -106.5l-2 -25h-181z" />
    <glyph glyph-name="Oacute" unicode="&#xd3;" horiz-adv-x="1297" 
d="M556 -20q-152 0 -253.5 59.5t-153 173.5t-51.5 278q0 113 19.5 230t58 228.5t97.5 208.5t137.5 170.5t177.5 115t218 41.5q229 0 340.5 -132t111.5 -370q0 -108 -17.5 -223.5t-54 -228t-93.5 -211.5t-134.5 -175.5t-178 -120.5t-224.5 -44zM578 225q59 0 110.5 31.5
t95 87t78 129t58.5 158.5t37 174.5t13 176.5q0 125 -47 192.5t-140 67.5q-61 0 -115 -33.5t-97.5 -92t-78 -133.5t-58 -159.5t-35.5 -170t-12 -163.5q0 -93 22 -151.5t65 -86t104 -27.5zM701 1582l2 23q38 45 77 97.5t75.5 106t67.5 101.5h307l-1 -17q-22 -27 -64.5 -69.5
t-93 -89t-98 -87t-79.5 -65.5h-193z" />
    <glyph glyph-name="Ocircumflex" unicode="&#xd4;" horiz-adv-x="1297" 
d="M556 -20q-152 0 -253.5 59.5t-153 173.5t-51.5 278q0 113 19.5 230t58 228.5t97.5 208.5t137.5 170.5t177.5 115t218 41.5q229 0 340.5 -132t111.5 -370q0 -108 -17.5 -223.5t-54 -228t-93.5 -211.5t-134.5 -175.5t-178 -120.5t-224.5 -44zM578 225q59 0 110.5 31.5
t95 87t78 129t58.5 158.5t37 174.5t13 176.5q0 125 -47 192.5t-140 67.5q-61 0 -115 -33.5t-97.5 -92t-78 -133.5t-58 -159.5t-35.5 -170t-12 -163.5q0 -93 22 -151.5t65 -86t104 -27.5zM489 1582l2 24q44 43 93 95t95.5 106.5t81.5 102.5h279q16 -43 40.5 -98.5t53 -110
t51.5 -94.5l-3 -25h-173q-20 22 -43 48.5t-46 57t-44 60.5q-54 -50 -103.5 -91t-97.5 -75h-186z" />
    <glyph glyph-name="Otilde" unicode="&#xd5;" horiz-adv-x="1297" 
d="M556 -20q-152 0 -253.5 59.5t-153 173.5t-51.5 278q0 113 19.5 230t58 228.5t97.5 208.5t137.5 170.5t177.5 115t218 41.5q229 0 340.5 -132t111.5 -370q0 -108 -17.5 -223.5t-54 -228t-93.5 -211.5t-134.5 -175.5t-178 -120.5t-224.5 -44zM578 225q59 0 110.5 31.5
t95 87t78 129t58.5 158.5t37 174.5t13 176.5q0 125 -47 192.5t-140 67.5q-61 0 -115 -33.5t-97.5 -92t-78 -133.5t-58 -159.5t-35.5 -170t-12 -163.5q0 -93 22 -151.5t65 -86t104 -27.5zM501 1581q20 97 53 165t83 104t119 36q47 0 83.5 -16t65 -37t54 -37t52.5 -16
q32 0 53.5 24.5t39.5 83.5h157q-21 -110 -59 -177.5t-88 -97.5t-109 -30q-47 0 -82.5 16.5t-64 37.5t-54.5 37t-55 16t-52 -27t-36 -82h-160z" />
    <glyph glyph-name="Odieresis" unicode="&#xd6;" horiz-adv-x="1297" 
d="M556 -20q-152 0 -253.5 59.5t-153 173.5t-51.5 278q0 113 19.5 230t58 228.5t97.5 208.5t137.5 170.5t177.5 115t218 41.5q229 0 340.5 -132t111.5 -370q0 -108 -17.5 -223.5t-54 -228t-93.5 -211.5t-134.5 -175.5t-178 -120.5t-224.5 -44zM578 225q59 0 110.5 31.5
t95 87t78 129t58.5 158.5t37 174.5t13 176.5q0 125 -47 192.5t-140 67.5q-61 0 -115 -33.5t-97.5 -92t-78 -133.5t-58 -159.5t-35.5 -170t-12 -163.5q0 -93 22 -151.5t65 -86t104 -27.5zM1043 1614q-52 0 -83 24.5t-31 78.5q0 71 39.5 116.5t111.5 45.5q47 0 78 -23.5
t31 -76.5q0 -74 -39 -119.5t-107 -45.5zM678 1614q-52 0 -83 24.5t-31 78.5q0 71 39 116.5t111 45.5q32 0 56.5 -10t38.5 -32t14 -58q0 -74 -39 -119.5t-106 -45.5z" />
    <glyph glyph-name="multiply" unicode="&#xd7;" horiz-adv-x="1070" 
d="M837 1158l153 -150l-285 -285l280 -282l-149 -151l-284 280l-282 -279l-148 152l278 280l-279 281l150 153l281 -279z" />
    <glyph glyph-name="Oslash" unicode="&#xd8;" horiz-adv-x="1298" 
d="M189 -97l-137 92l122 172q-38 61 -57 143t-19 181q0 113 19 230t58 228.5t97.5 208.5t137.5 170.5t177.5 115t217.5 41.5q82 0 149 -19t117 -56l98 136l135 -93l-117 -164q36 -60 53.5 -137t17.5 -169q0 -108 -17.5 -223.5t-54 -228t-93.5 -211.5t-135 -175.5
t-178 -120.5t-225 -44q-80 0 -145 17.5t-117 51.5zM579 221q56 0 106.5 27.5t93 76t76.5 114.5t59 144.5t39 164t17 173.5q2 17 1.5 36.5t-0.5 36.5l-519 -722q21 -25 54 -38t73 -13zM388 454l526 731q-23 29 -56 44.5t-77 15.5q-60 0 -112 -29.5t-94.5 -81t-76.5 -120
t-57.5 -146t-37.5 -159t-17 -160.5q0 -24 0.5 -48t1.5 -47z" />
    <glyph glyph-name="Ugrave" unicode="&#xd9;" horiz-adv-x="1229" 
d="M506 -20q-128 0 -217.5 45t-136 128.5t-46.5 197.5q0 35 4.5 78t12.5 83l203 950h280l-201 -951q-8 -35 -12.5 -67.5t-4.5 -58.5q0 -79 38 -119.5t113 -40.5q72 0 120.5 31.5t80 96t52.5 164.5l201 945h281l-208 -976q-32 -153 -99.5 -267t-179.5 -176.5t-281 -62.5z
M781 1582q-33 38 -75 93.5t-79.5 113t-58.5 101.5v20h294q11 -45 26 -94.5t34 -102t42 -106.5l-2 -25h-181z" />
    <glyph glyph-name="Uacute" unicode="&#xda;" horiz-adv-x="1229" 
d="M506 -20q-128 0 -217.5 45t-136 128.5t-46.5 197.5q0 35 4.5 78t12.5 83l203 950h280l-201 -951q-8 -35 -12.5 -67.5t-4.5 -58.5q0 -79 38 -119.5t113 -40.5q72 0 120.5 31.5t80 96t52.5 164.5l201 945h281l-208 -976q-32 -153 -99.5 -267t-179.5 -176.5t-281 -62.5z
M668 1582l2 23q38 45 77 97.5t75.5 106t67.5 101.5h307l-1 -17q-22 -27 -64.5 -69.5t-93 -89t-98 -87t-79.5 -65.5h-193z" />
    <glyph glyph-name="Ucircumflex" unicode="&#xdb;" horiz-adv-x="1229" 
d="M506 -20q-128 0 -217.5 45t-136 128.5t-46.5 197.5q0 35 4.5 78t12.5 83l203 950h280l-201 -951q-8 -35 -12.5 -67.5t-4.5 -58.5q0 -79 38 -119.5t113 -40.5q72 0 120.5 31.5t80 96t52.5 164.5l201 945h281l-208 -976q-32 -153 -99.5 -267t-179.5 -176.5t-281 -62.5z
M465 1582l2 24q44 43 93 95t95.5 106.5t81.5 102.5h279q16 -43 40.5 -98.5t53 -110t51.5 -94.5l-3 -25h-173q-20 22 -43 48.5t-46 57t-44 60.5q-54 -50 -103.5 -91t-97.5 -75h-186z" />
    <glyph glyph-name="Udieresis" unicode="&#xdc;" horiz-adv-x="1229" 
d="M506 -20q-128 0 -217.5 45t-136 128.5t-46.5 197.5q0 35 4.5 78t12.5 83l203 950h280l-201 -951q-8 -35 -12.5 -67.5t-4.5 -58.5q0 -79 38 -119.5t113 -40.5q72 0 120.5 31.5t80 96t52.5 164.5l201 945h281l-208 -976q-32 -153 -99.5 -267t-179.5 -176.5t-281 -62.5z
M1011 1614q-52 0 -83 24.5t-31 78.5q0 71 39.5 116.5t111.5 45.5q47 0 78 -23.5t31 -76.5q0 -74 -39 -119.5t-107 -45.5zM646 1614q-52 0 -83 24.5t-31 78.5q0 71 39 116.5t111 45.5q32 0 56.5 -10t38.5 -32t14 -58q0 -74 -39 -119.5t-106 -45.5z" />
    <glyph glyph-name="Yacute" unicode="&#xdd;" horiz-adv-x="1013" 
d="M243 0l118 558l-177 904h290l87 -580l330 580h308l-557 -900l-120 -562h-279zM555 1582l2 23q38 45 77 97.5t75.5 106t67.5 101.5h307l-1 -17q-22 -27 -64.5 -69.5t-93 -89t-98 -87t-79.5 -65.5h-193z" />
    <glyph glyph-name="Thorn" unicode="&#xde;" horiz-adv-x="1074" 
d="M25 0l309 1462h281l-50 -230h60q152 0 246 -47.5t137.5 -133t43.5 -200.5q0 -121 -40 -223t-115 -176.5t-181 -116t-239 -41.5h-110l-62 -294h-280zM417 533h74q84 0 145.5 36.5t95 103.5t33.5 157q0 85 -41.5 124t-127.5 39h-81z" />
    <glyph glyph-name="germandbls" unicode="&#xdf;" horiz-adv-x="1169" 
d="M-118 -492q-36 0 -74.5 6t-70.5 16v230q25 -9 52.5 -14.5t52.5 -5.5q59 0 95 41.5t56 139.5l258 1219q30 139 92 234t163.5 144t246.5 49q185 0 289.5 -83t104.5 -217q0 -75 -20.5 -131.5t-61.5 -103t-101 -91.5q-55 -42 -91 -78.5t-36 -89.5q0 -18 8.5 -38.5t27 -44
t48.5 -53.5q63 -58 102.5 -122t39.5 -162q0 -109 -50 -193.5t-144 -132t-227 -47.5q-77 0 -142.5 14t-115.5 44l21 236q51 -37 107.5 -56t112.5 -19q80 0 119 36t39 91q0 30 -10.5 54.5t-35 54.5t-67.5 73q-61 61 -92 114.5t-31 122.5q0 60 21.5 107.5t61 88.5t92.5 80
q43 33 74 63t47.5 64t16.5 78q0 53 -31 85t-97 32q-64 0 -105 -29t-66 -81t-40 -122l-258 -1222q-24 -113 -67 -199t-118 -134t-196 -48z" />
    <glyph glyph-name="agrave" unicode="&#xe0;" horiz-adv-x="1075" 
d="M335 -20q-75 0 -136.5 39.5t-97.5 120t-36 204.5q0 100 20 209.5t59.5 213.5t97.5 187.5t134.5 133.5t169.5 50q58 0 103 -18.5t78.5 -54t54.5 -88.5h7l53 140h222l-237 -1117h-212l8 145h-7q-38 -49 -79.5 -86t-90.5 -58t-111 -21zM446 206q58 0 104.5 50t79.5 127.5
t50 157.5q15 68 21 119t6 99q0 68 -30 109t-83 41q-44 0 -82 -35t-68.5 -93.5t-53 -129.5t-34.5 -145t-12 -138q0 -80 26.5 -121t75.5 -41zM644 1245q-33 38 -75 93.5t-79.5 113t-58.5 101.5v20h294q11 -45 26 -94.5t34 -102t42 -106.5l-2 -25h-181z" />
    <glyph glyph-name="aacute" unicode="&#xe1;" horiz-adv-x="1075" 
d="M335 -20q-75 0 -136.5 39.5t-97.5 120t-36 204.5q0 100 20 209.5t59.5 213.5t97.5 187.5t134.5 133.5t169.5 50q58 0 103 -18.5t78.5 -54t54.5 -88.5h7l53 140h222l-237 -1117h-212l8 145h-7q-38 -49 -79.5 -86t-90.5 -58t-111 -21zM446 206q58 0 104.5 50t79.5 127.5
t50 157.5q15 68 21 119t6 99q0 68 -30 109t-83 41q-44 0 -82 -35t-68.5 -93.5t-53 -129.5t-34.5 -145t-12 -138q0 -80 26.5 -121t75.5 -41zM519 1245l2 23q38 45 77 97.5t75.5 106t67.5 101.5h307l-1 -17q-22 -27 -64.5 -69.5t-93 -89t-98 -87t-79.5 -65.5h-193z" />
    <glyph glyph-name="acircumflex" unicode="&#xe2;" horiz-adv-x="1075" 
d="M335 -20q-75 0 -136.5 39.5t-97.5 120t-36 204.5q0 100 20 209.5t59.5 213.5t97.5 187.5t134.5 133.5t169.5 50q58 0 103 -18.5t78.5 -54t54.5 -88.5h7l53 140h222l-237 -1117h-212l8 145h-7q-38 -49 -79.5 -86t-90.5 -58t-111 -21zM446 206q58 0 104.5 50t79.5 127.5
t50 157.5q15 68 21 119t6 99q0 68 -30 109t-83 41q-44 0 -82 -35t-68.5 -93.5t-53 -129.5t-34.5 -145t-12 -138q0 -80 26.5 -121t75.5 -41zM326 1245l2 24q44 43 93 95t95.5 106.5t81.5 102.5h279q16 -43 40.5 -98.5t53 -110t51.5 -94.5l-3 -25h-173q-20 22 -43 48.5t-46 57
t-44 60.5q-54 -50 -103.5 -91t-97.5 -75h-186z" />
    <glyph glyph-name="atilde" unicode="&#xe3;" horiz-adv-x="1075" 
d="M335 -20q-75 0 -136.5 39.5t-97.5 120t-36 204.5q0 100 20 209.5t59.5 213.5t97.5 187.5t134.5 133.5t169.5 50q58 0 103 -18.5t78.5 -54t54.5 -88.5h7l53 140h222l-237 -1117h-212l8 145h-7q-38 -49 -79.5 -86t-90.5 -58t-111 -21zM446 206q58 0 104.5 50t79.5 127.5
t50 157.5q15 68 21 119t6 99q0 68 -30 109t-83 41q-44 0 -82 -35t-68.5 -93.5t-53 -129.5t-34.5 -145t-12 -138q0 -80 26.5 -121t75.5 -41zM331 1244q20 97 53 165t83 104t119 36q47 0 83.5 -16t65 -37t54 -37t52.5 -16q32 0 53.5 24.5t39.5 83.5h157q-21 -110 -59 -177.5
t-88 -97.5t-109 -30q-47 0 -82.5 16.5t-64 37.5t-54.5 37t-55 16t-52 -27t-36 -82h-160z" />
    <glyph glyph-name="adieresis" unicode="&#xe4;" horiz-adv-x="1075" 
d="M335 -20q-75 0 -136.5 39.5t-97.5 120t-36 204.5q0 100 20 209.5t59.5 213.5t97.5 187.5t134.5 133.5t169.5 50q58 0 103 -18.5t78.5 -54t54.5 -88.5h7l53 140h222l-237 -1117h-212l8 145h-7q-38 -49 -79.5 -86t-90.5 -58t-111 -21zM446 206q58 0 104.5 50t79.5 127.5
t50 157.5q15 68 21 119t6 99q0 68 -30 109t-83 41q-44 0 -82 -35t-68.5 -93.5t-53 -129.5t-34.5 -145t-12 -138q0 -80 26.5 -121t75.5 -41zM876 1277q-52 0 -83 24.5t-31 78.5q0 71 39.5 116.5t111.5 45.5q47 0 78 -23.5t31 -76.5q0 -74 -39 -119.5t-107 -45.5zM511 1277
q-52 0 -83 24.5t-31 78.5q0 71 39 116.5t111 45.5q32 0 56.5 -10t38.5 -32t14 -58q0 -74 -39 -119.5t-106 -45.5z" />
    <glyph glyph-name="aring" unicode="&#xe5;" horiz-adv-x="1075" 
d="M335 -20q-75 0 -136.5 39.5t-97.5 120t-36 204.5q0 100 20 209.5t59.5 213.5t97.5 187.5t134.5 133.5t169.5 50q58 0 103 -18.5t78.5 -54t54.5 -88.5h7l53 140h222l-237 -1117h-212l8 145h-7q-38 -49 -79.5 -86t-90.5 -58t-111 -21zM446 206q58 0 104.5 50t79.5 127.5
t50 157.5q15 68 21 119t6 99q0 68 -30 109t-83 41q-44 0 -82 -35t-68.5 -93.5t-53 -129.5t-34.5 -145t-12 -138q0 -80 26.5 -121t75.5 -41zM710 1241q-110 0 -175 63t-65 171q0 106 66 168.5t174 62.5q104 0 173 -62t69 -166q0 -107 -67.5 -172t-174.5 -65zM710 1375
q43 0 71 26.5t28 72.5q0 44 -27 71.5t-71 27.5q-46 0 -73 -27.5t-27 -71.5q0 -46 25 -72.5t74 -26.5z" />
    <glyph glyph-name="ae" unicode="&#xe6;" horiz-adv-x="1573" 
d="M325 -20q-78 0 -136.5 42.5t-91 124t-32.5 197.5q0 114 21.5 228t63 215.5t100 180.5t132.5 124.5t161 45.5q54 0 97 -16.5t76.5 -49.5t56.5 -82h8l43 127h181l-18 -90q45 49 111 79.5t147 30.5q138 0 215.5 -78t77.5 -205q0 -93 -38 -166t-113 -124t-184 -77t-250 -26
h-35q-4 -20 -5.5 -38t-1.5 -37q0 -86 41 -139t141 -53q69 0 144 23t148 63l-21 -219q-75 -39 -153 -60t-166 -21q-95 0 -154.5 28.5t-92.5 82.5l-18 -91h-180l17 141h-7q-38 -48 -80 -84t-92.5 -56.5t-112.5 -20.5zM443 206q42 0 77.5 27t63.5 72.5t49 102t35 115.5
q16 70 23 126t7 105q0 73 -26.5 114t-80.5 41q-42 0 -79.5 -33t-68 -89t-53 -126.5t-34.5 -146.5t-12 -147q0 -84 28 -122.5t71 -38.5zM952 651h26q111 0 177.5 25.5t96 68.5t29.5 95q0 44 -24.5 67.5t-69.5 23.5q-53 0 -99.5 -38t-81.5 -102t-54 -140z" />
    <glyph glyph-name="ccedilla" unicode="&#xe7;" horiz-adv-x="862" 
d="M423 -20q-105 0 -185.5 41.5t-125 126t-44.5 213.5q0 110 21.5 221t65 211t109.5 177.5t155.5 122.5t202.5 45q84 0 153 -18t130 -53l-97 -213q-41 23 -85 39t-94 16q-71 0 -124 -50t-88 -129.5t-52.5 -169.5t-17.5 -169q0 -60 16 -101t47 -61.5t75 -20.5
q59 0 116.5 21.5t119.5 59.5v-230q-58 -34 -133.5 -56.5t-164.5 -22.5zM274 -492q-43 0 -82 6.5t-69 14.5v156q22 -7 54 -13t66 -6q35 0 58.5 10.5t35.5 30t12 46.5q0 36 -30.5 58.5t-101.5 28.5l100 160h157l-47 -79q61 -15 101.5 -56.5t40.5 -113.5q0 -77 -35 -131.5
t-100.5 -83t-159.5 -28.5z" />
    <glyph glyph-name="egrave" unicode="&#xe8;" horiz-adv-x="1003" 
d="M453 -20q-117 0 -203.5 45t-134.5 133.5t-48 216.5q0 144 37 280.5t109.5 245t180 172.5t248.5 64q156 0 240.5 -77t84.5 -206q0 -92 -38 -165.5t-113 -124t-184.5 -77t-251.5 -26.5h-34q-3 -20 -5 -39t-2 -38q0 -94 44.5 -142t128.5 -48q77 0 140 18t148 62v-209
q-80 -45 -163.5 -65t-183.5 -20zM380 651h26q110 0 176.5 25.5t96.5 68.5t30 95q0 44 -24 67.5t-69 23.5q-49 0 -95.5 -34.5t-83 -97t-57.5 -148.5zM622 1241q-33 38 -75 93.5t-79.5 113t-58.5 101.5v20h294q11 -45 26 -94.5t34 -102t42 -106.5l-2 -25h-181z" />
    <glyph glyph-name="eacute" unicode="&#xe9;" horiz-adv-x="1003" 
d="M453 -20q-117 0 -203.5 45t-134.5 133.5t-48 216.5q0 144 37 280.5t109.5 245t180 172.5t248.5 64q156 0 240.5 -77t84.5 -206q0 -92 -38 -165.5t-113 -124t-184.5 -77t-251.5 -26.5h-34q-3 -20 -5 -39t-2 -38q0 -94 44.5 -142t128.5 -48q77 0 140 18t148 62v-209
q-80 -45 -163.5 -65t-183.5 -20zM380 651h26q110 0 176.5 25.5t96.5 68.5t30 95q0 44 -24 67.5t-69 23.5q-49 0 -95.5 -34.5t-83 -97t-57.5 -148.5zM491 1241l2 23q38 45 77 97.5t75.5 106t67.5 101.5h307l-1 -17q-22 -27 -64.5 -69.5t-93 -89t-98 -87t-79.5 -65.5h-193z
" />
    <glyph glyph-name="ecircumflex" unicode="&#xea;" horiz-adv-x="1003" 
d="M453 -20q-117 0 -203.5 45t-134.5 133.5t-48 216.5q0 144 37 280.5t109.5 245t180 172.5t248.5 64q156 0 240.5 -77t84.5 -206q0 -92 -38 -165.5t-113 -124t-184.5 -77t-251.5 -26.5h-34q-3 -20 -5 -39t-2 -38q0 -94 44.5 -142t128.5 -48q77 0 140 18t148 62v-209
q-80 -45 -163.5 -65t-183.5 -20zM380 651h26q110 0 176.5 25.5t96.5 68.5t30 95q0 44 -24 67.5t-69 23.5q-49 0 -95.5 -34.5t-83 -97t-57.5 -148.5zM301 1241l2 24q44 43 93 95t95.5 106.5t81.5 102.5h279q16 -43 40.5 -98.5t53 -110t51.5 -94.5l-3 -25h-173
q-20 22 -43 48.5t-46 57t-44 60.5q-54 -50 -103.5 -91t-97.5 -75h-186z" />
    <glyph glyph-name="edieresis" unicode="&#xeb;" horiz-adv-x="1003" 
d="M453 -20q-117 0 -203.5 45t-134.5 133.5t-48 216.5q0 144 37 280.5t109.5 245t180 172.5t248.5 64q156 0 240.5 -77t84.5 -206q0 -92 -38 -165.5t-113 -124t-184.5 -77t-251.5 -26.5h-34q-3 -20 -5 -39t-2 -38q0 -94 44.5 -142t128.5 -48q77 0 140 18t148 62v-209
q-80 -45 -163.5 -65t-183.5 -20zM380 651h26q110 0 176.5 25.5t96.5 68.5t30 95q0 44 -24 67.5t-69 23.5q-49 0 -95.5 -34.5t-83 -97t-57.5 -148.5zM851 1273q-52 0 -83 24.5t-31 78.5q0 71 39.5 116.5t111.5 45.5q47 0 78 -23.5t31 -76.5q0 -74 -39 -119.5t-107 -45.5z
M486 1273q-52 0 -83 24.5t-31 78.5q0 71 39 116.5t111 45.5q32 0 56.5 -10t38.5 -32t14 -58q0 -74 -39 -119.5t-106 -45.5z" />
    <glyph glyph-name="igrave" unicode="&#xec;" horiz-adv-x="533" 
d="M13 0l237 1117h272l-237 -1117h-272zM373 1241q-33 38 -75 93.5t-79.5 113t-58.5 101.5v20h294q11 -45 26 -94.5t34 -102t42 -106.5l-2 -25h-181z" />
    <glyph glyph-name="iacute" unicode="&#xed;" horiz-adv-x="533" 
d="M13 0l237 1117h272l-237 -1117h-272zM252 1241l2 23q38 45 77 97.5t75.5 106t67.5 101.5h307l-1 -17q-22 -27 -64.5 -69.5t-93 -89t-98 -87t-79.5 -65.5h-193z" />
    <glyph glyph-name="icircumflex" unicode="&#xee;" horiz-adv-x="533" 
d="M13 0l237 1117h272l-237 -1117h-272zM50 1241l2 24q44 43 93 95t95.5 106.5t81.5 102.5h279q16 -43 40.5 -98.5t53 -110t51.5 -94.5l-3 -25h-173q-20 22 -43 48.5t-46 57t-44 60.5q-54 -50 -103.5 -91t-97.5 -75h-186z" />
    <glyph glyph-name="idieresis" unicode="&#xef;" horiz-adv-x="533" 
d="M13 0l237 1117h272l-237 -1117h-272zM600 1273q-52 0 -83 24.5t-31 78.5q0 71 39.5 116.5t111.5 45.5q47 0 78 -23.5t31 -76.5q0 -74 -39 -119.5t-107 -45.5zM235 1273q-52 0 -83 24.5t-31 78.5q0 71 39 116.5t111 45.5q32 0 56.5 -10t38.5 -32t14 -58q0 -74 -39 -119.5
t-106 -45.5z" />
    <glyph glyph-name="eth" unicode="&#xf0;" horiz-adv-x="1045" 
d="M428 -20q-115 0 -200.5 42.5t-132 128.5t-46.5 218q0 109 31 219.5t92 202t151.5 147.5t209.5 56q77 0 125 -33t77 -78h6q-4 89 -25 166.5t-70 138.5l-194 -120l-85 131l186 115q-22 24 -52.5 47t-65.5 46l121 162q55 -28 104.5 -61.5t89.5 -69.5l201 125l80 -133
l-179 -112q48 -68 77.5 -144.5t43 -160.5t13.5 -177q0 -120 -18.5 -241.5t-58.5 -232t-105 -196.5t-158.5 -136t-217.5 -50zM449 197q41 0 76.5 25.5t64 69.5t48.5 98.5t30.5 113t10.5 113.5q0 36 -7.5 65t-22 50t-37 32.5t-53.5 11.5q-56 0 -100 -38.5t-74 -101.5
t-45 -135.5t-15 -140.5q0 -78 31.5 -120.5t92.5 -42.5z" />
    <glyph glyph-name="ntilde" unicode="&#xf1;" horiz-adv-x="1082" 
d="M12 0l237 1117h213l-15 -173h7q37 59 82 102.5t98.5 67.5t116.5 24q77 0 135 -31t89.5 -93t31.5 -156q0 -37 -6.5 -83.5t-17.5 -99.5l-142 -675h-273l138 654q8 41 14 79t6 68q0 52 -21.5 77.5t-67.5 25.5q-58 0 -103.5 -49.5t-79.5 -135t-58 -193.5l-110 -526h-274z
M338 1244q20 97 53 165t83 104t119 36q47 0 83.5 -16t65 -37t54 -37t52.5 -16q32 0 53.5 24.5t39.5 83.5h157q-21 -110 -59 -177.5t-88 -97.5t-109 -30q-47 0 -82.5 16.5t-64 37.5t-54.5 37t-55 16t-52 -27t-36 -82h-160z" />
    <glyph glyph-name="ograve" unicode="&#xf2;" horiz-adv-x="1054" 
d="M436 -20q-112 0 -195 47.5t-128.5 136.5t-45.5 212q0 103 20.5 210t62.5 206t108 177t156.5 123.5t207.5 45.5q113 0 195 -48t126 -138.5t44 -217.5q0 -106 -20.5 -213t-63 -204.5t-107.5 -173t-155 -119.5t-205 -44zM463 207q47 0 86 32.5t69 88.5t51 125t32 142t11 140
q0 53 -11.5 92.5t-37.5 61.5t-69 22q-50 0 -90.5 -36.5t-71 -96t-50.5 -130.5t-30 -142.5t-10 -130.5q0 -81 30 -124.5t91 -43.5zM614 1241q-33 38 -75 93.5t-79.5 113t-58.5 101.5v20h294q11 -45 26 -94.5t34 -102t42 -106.5l-2 -25h-181z" />
    <glyph glyph-name="oacute" unicode="&#xf3;" horiz-adv-x="1054" 
d="M436 -20q-112 0 -195 47.5t-128.5 136.5t-45.5 212q0 103 20.5 210t62.5 206t108 177t156.5 123.5t207.5 45.5q113 0 195 -48t126 -138.5t44 -217.5q0 -106 -20.5 -213t-63 -204.5t-107.5 -173t-155 -119.5t-205 -44zM463 207q47 0 86 32.5t69 88.5t51 125t32 142t11 140
q0 53 -11.5 92.5t-37.5 61.5t-69 22q-50 0 -90.5 -36.5t-71 -96t-50.5 -130.5t-30 -142.5t-10 -130.5q0 -81 30 -124.5t91 -43.5zM505 1241l2 23q38 45 77 97.5t75.5 106t67.5 101.5h307l-1 -17q-22 -27 -64.5 -69.5t-93 -89t-98 -87t-79.5 -65.5h-193z" />
    <glyph glyph-name="ocircumflex" unicode="&#xf4;" horiz-adv-x="1054" 
d="M436 -20q-112 0 -195 47.5t-128.5 136.5t-45.5 212q0 103 20.5 210t62.5 206t108 177t156.5 123.5t207.5 45.5q113 0 195 -48t126 -138.5t44 -217.5q0 -106 -20.5 -213t-63 -204.5t-107.5 -173t-155 -119.5t-205 -44zM463 207q47 0 86 32.5t69 88.5t51 125t32 142t11 140
q0 53 -11.5 92.5t-37.5 61.5t-69 22q-50 0 -90.5 -36.5t-71 -96t-50.5 -130.5t-30 -142.5t-10 -130.5q0 -81 30 -124.5t91 -43.5zM297 1241l2 24q44 43 93 95t95.5 106.5t81.5 102.5h279q16 -43 40.5 -98.5t53 -110t51.5 -94.5l-3 -25h-173q-20 22 -43 48.5t-46 57t-44 60.5
q-54 -50 -103.5 -91t-97.5 -75h-186z" />
    <glyph glyph-name="otilde" unicode="&#xf5;" horiz-adv-x="1054" 
d="M436 -20q-112 0 -195 47.5t-128.5 136.5t-45.5 212q0 103 20.5 210t62.5 206t108 177t156.5 123.5t207.5 45.5q113 0 195 -48t126 -138.5t44 -217.5q0 -106 -20.5 -213t-63 -204.5t-107.5 -173t-155 -119.5t-205 -44zM463 207q47 0 86 32.5t69 88.5t51 125t32 142t11 140
q0 53 -11.5 92.5t-37.5 61.5t-69 22q-50 0 -90.5 -36.5t-71 -96t-50.5 -130.5t-30 -142.5t-10 -130.5q0 -81 30 -124.5t91 -43.5zM302 1240q20 97 53 165t83 104t119 36q47 0 83.5 -16t65 -37t54 -37t52.5 -16q32 0 53.5 24.5t39.5 83.5h157q-21 -110 -59 -177.5t-88 -97.5
t-109 -30q-47 0 -82.5 16.5t-64 37.5t-54.5 37t-55 16t-52 -27t-36 -82h-160z" />
    <glyph glyph-name="odieresis" unicode="&#xf6;" horiz-adv-x="1054" 
d="M436 -20q-112 0 -195 47.5t-128.5 136.5t-45.5 212q0 103 20.5 210t62.5 206t108 177t156.5 123.5t207.5 45.5q113 0 195 -48t126 -138.5t44 -217.5q0 -106 -20.5 -213t-63 -204.5t-107.5 -173t-155 -119.5t-205 -44zM463 207q47 0 86 32.5t69 88.5t51 125t32 142t11 140
q0 53 -11.5 92.5t-37.5 61.5t-69 22q-50 0 -90.5 -36.5t-71 -96t-50.5 -130.5t-30 -142.5t-10 -130.5q0 -81 30 -124.5t91 -43.5zM843 1273q-52 0 -83 24.5t-31 78.5q0 71 39.5 116.5t111.5 45.5q47 0 78 -23.5t31 -76.5q0 -74 -39 -119.5t-107 -45.5zM478 1273
q-52 0 -83 24.5t-31 78.5q0 71 39 116.5t111 45.5q32 0 56.5 -10t38.5 -32t14 -58q0 -74 -39 -119.5t-106 -45.5z" />
    <glyph glyph-name="divide" unicode="&#xf7;" horiz-adv-x="1070" 
d="M99 613v218h913v-218h-913zM555 199q-61 0 -100.5 38t-39.5 117t38.5 116t101.5 37q61 0 99 -37t38 -116t-38.5 -117t-98.5 -38zM555 937q-61 0 -100.5 38.5t-39.5 115.5q0 81 38.5 118t101.5 37q61 0 99 -37t38 -118q0 -77 -38.5 -115.5t-98.5 -38.5z" />
    <glyph glyph-name="oslash" unicode="&#xf8;" horiz-adv-x="1054" 
d="M140 -114l-126 89l115 162q-30 47 -45.5 107.5t-15.5 131.5q0 102 20 209t62.5 205.5t108 177t156.5 124.5t208 46q56 0 105.5 -13.5t88.5 -39.5l77 109l130 -91l-93 -131q27 -48 42 -107.5t15 -130.5q0 -102 -20 -208t-62 -203.5t-107.5 -175t-155 -122.5t-206.5 -45
q-55 0 -103.5 12.5t-89.5 35.5zM462 198q48 0 86.5 28.5t68 77t50.5 108.5t33.5 122.5t17.5 120.5q2 12 2 24v23l-338 -472q13 -14 34.5 -23t45.5 -9zM335 404l344 480q-13 16 -35 26t-49 10q-49 0 -87.5 -29t-68.5 -78t-50.5 -109.5t-33 -124t-17.5 -121.5q-1 -14 -2 -27.5
t-1 -26.5z" />
    <glyph glyph-name="ugrave" unicode="&#xf9;" horiz-adv-x="1082" 
d="M331 -20q-84 0 -140 34t-84.5 97t-28.5 149q0 37 6.5 89.5t16.5 104.5l141 663h272l-138 -658q-9 -40 -14 -76.5t-5 -65.5q0 -52 21.5 -78.5t66.5 -26.5q58 0 103.5 50t80 136t56.5 195l113 524h272l-236 -1117h-213l14 171h-8q-38 -57 -82.5 -100t-97.5 -67t-116 -24z
M634 1241q-33 38 -75 93.5t-79.5 113t-58.5 101.5v20h294q11 -45 26 -94.5t34 -102t42 -106.5l-2 -25h-181z" />
    <glyph glyph-name="uacute" unicode="&#xfa;" horiz-adv-x="1082" 
d="M331 -20q-84 0 -140 34t-84.5 97t-28.5 149q0 37 6.5 89.5t16.5 104.5l141 663h272l-138 -658q-9 -40 -14 -76.5t-5 -65.5q0 -52 21.5 -78.5t66.5 -26.5q58 0 103.5 50t80 136t56.5 195l113 524h272l-236 -1117h-213l14 171h-8q-38 -57 -82.5 -100t-97.5 -67t-116 -24z
M536 1241l2 23q38 45 77 97.5t75.5 106t67.5 101.5h307l-1 -17q-22 -27 -64.5 -69.5t-93 -89t-98 -87t-79.5 -65.5h-193z" />
    <glyph glyph-name="ucircumflex" unicode="&#xfb;" horiz-adv-x="1082" 
d="M331 -20q-84 0 -140 34t-84.5 97t-28.5 149q0 37 6.5 89.5t16.5 104.5l141 663h272l-138 -658q-9 -40 -14 -76.5t-5 -65.5q0 -52 21.5 -78.5t66.5 -26.5q58 0 103.5 50t80 136t56.5 195l113 524h272l-236 -1117h-213l14 171h-8q-38 -57 -82.5 -100t-97.5 -67t-116 -24z
M324 1241l2 24q44 43 93 95t95.5 106.5t81.5 102.5h279q16 -43 40.5 -98.5t53 -110t51.5 -94.5l-3 -25h-173q-20 22 -43 48.5t-46 57t-44 60.5q-54 -50 -103.5 -91t-97.5 -75h-186z" />
    <glyph glyph-name="udieresis" unicode="&#xfc;" horiz-adv-x="1082" 
d="M331 -20q-84 0 -140 34t-84.5 97t-28.5 149q0 37 6.5 89.5t16.5 104.5l141 663h272l-138 -658q-9 -40 -14 -76.5t-5 -65.5q0 -52 21.5 -78.5t66.5 -26.5q58 0 103.5 50t80 136t56.5 195l113 524h272l-236 -1117h-213l14 171h-8q-38 -57 -82.5 -100t-97.5 -67t-116 -24z
M866 1273q-52 0 -83 24.5t-31 78.5q0 71 39.5 116.5t111.5 45.5q47 0 78 -23.5t31 -76.5q0 -74 -39 -119.5t-107 -45.5zM501 1273q-52 0 -83 24.5t-31 78.5q0 71 39 116.5t111 45.5q32 0 56.5 -10t38.5 -32t14 -58q0 -74 -39 -119.5t-106 -45.5z" />
    <glyph glyph-name="yacute" unicode="&#xfd;" horiz-adv-x="943" 
d="M-8 -492q-48 0 -81.5 5.5t-58.5 13.5l20 231q25 -7 49.5 -11.5t51.5 -4.5q73 0 119 45t84 119l47 101l-106 1110h271l29 -522q3 -40 4 -84.5t0.5 -88t-1.5 -81.5h7q13 36 26.5 76.5t29.5 82.5t34 81l242 536h293l-632 -1281q-52 -104 -114 -177.5t-138.5 -112
t-175.5 -38.5zM449 1241l2 23q38 45 77 97.5t75.5 106t67.5 101.5h307l-1 -17q-22 -27 -64.5 -69.5t-93 -89t-98 -87t-79.5 -65.5h-193z" />
    <glyph glyph-name="thorn" unicode="&#xfe;" horiz-adv-x="1074" 
d="M-91 -487l433 2045h273l-82 -385q-10 -45 -24.5 -95t-28.5 -90h8q35 48 75.5 81.5t85 51t93.5 17.5q122 0 195.5 -90t73.5 -277q0 -97 -19 -205.5t-56.5 -212t-94.5 -188t-133 -135t-171 -50.5q-58 0 -102 20t-76 55t-53 80h-7q-6 -64 -14.5 -120.5t-20.5 -108.5
l-83 -393h-272zM481 209q46 0 85 35.5t70 94.5t52 130t32 144.5t11 136.5q0 82 -28 122t-78 40q-57 0 -102 -48.5t-77.5 -125t-51.5 -160.5q-12 -58 -18.5 -113.5t-6.5 -98.5q0 -74 27.5 -115.5t84.5 -41.5z" />
    <glyph glyph-name="ydieresis" unicode="&#xff;" horiz-adv-x="943" 
d="M-8 -492q-48 0 -81.5 5.5t-58.5 13.5l20 231q25 -7 49.5 -11.5t51.5 -4.5q73 0 119 45t84 119l47 101l-106 1110h271l29 -522q3 -40 4 -84.5t0.5 -88t-1.5 -81.5h7q13 36 26.5 76.5t29.5 82.5t34 81l242 536h293l-632 -1281q-52 -104 -114 -177.5t-138.5 -112
t-175.5 -38.5zM782 1273q-52 0 -83 24.5t-31 78.5q0 71 39.5 116.5t111.5 45.5q47 0 78 -23.5t31 -76.5q0 -74 -39 -119.5t-107 -45.5zM417 1273q-52 0 -83 24.5t-31 78.5q0 71 39 116.5t111 45.5q32 0 56.5 -10t38.5 -32t14 -58q0 -74 -39 -119.5t-106 -45.5z" />
    <glyph glyph-name="Amacron" unicode="&#x100;" horiz-adv-x="1125" 
d="M-125 0l695 1465h349l81 -1465h-284l-9 361h-372l-159 -361h-301zM441 603h265l-7 411q-1 55 -2 108t2 109h-6q-13 -50 -32 -99.5t-43 -105.5zM478 1606l41 196h577l-41 -196h-577z" />
    <glyph glyph-name="amacron" unicode="&#x101;" horiz-adv-x="1075" 
d="M335 -20q-75 0 -136.5 39.5t-97.5 120t-36 204.5q0 100 20 209.5t59.5 213.5t97.5 187.5t134.5 133.5t169.5 50q58 0 103 -18.5t78.5 -54t54.5 -88.5h7l53 140h222l-237 -1117h-212l8 145h-7q-38 -49 -79.5 -86t-90.5 -58t-111 -21zM446 206q58 0 104.5 50t79.5 127.5
t50 157.5q15 68 21 119t6 99q0 68 -30 109t-83 41q-44 0 -82 -35t-68.5 -93.5t-53 -129.5t-34.5 -145t-12 -138q0 -80 26.5 -121t75.5 -41zM389 1247l41 196h577l-41 -196h-577z" />
    <glyph glyph-name="Abreve" unicode="&#x102;" horiz-adv-x="1125" 
d="M-125 0l695 1465h349l81 -1465h-284l-9 361h-372l-159 -361h-301zM441 603h265l-7 411q-1 55 -2 108t2 109h-6q-13 -50 -32 -99.5t-43 -105.5zM770 1604q-102 0 -164 34.5t-89.5 91t-27.5 122.5q0 22 2.5 43t5.5 40h163q0 -44 12 -74t39.5 -45.5t71.5 -15.5
q66 0 108.5 30t60.5 105h172q-27 -159 -115.5 -245t-238.5 -86z" />
    <glyph glyph-name="abreve" unicode="&#x103;" horiz-adv-x="1075" 
d="M335 -20q-75 0 -136.5 39.5t-97.5 120t-36 204.5q0 100 20 209.5t59.5 213.5t97.5 187.5t134.5 133.5t169.5 50q58 0 103 -18.5t78.5 -54t54.5 -88.5h7l53 140h222l-237 -1117h-212l8 145h-7q-38 -49 -79.5 -86t-90.5 -58t-111 -21zM446 206q58 0 104.5 50t79.5 127.5
t50 157.5q15 68 21 119t6 99q0 68 -30 109t-83 41q-44 0 -82 -35t-68.5 -93.5t-53 -129.5t-34.5 -145t-12 -138q0 -80 26.5 -121t75.5 -41zM681 1245q-102 0 -164 34.5t-89.5 91t-27.5 122.5q0 22 2.5 43t5.5 40h163q0 -44 12 -74t39.5 -45.5t71.5 -15.5q66 0 108.5 30
t60.5 105h172q-27 -159 -115.5 -245t-238.5 -86z" />
    <glyph glyph-name="Aogonek" unicode="&#x104;" horiz-adv-x="1125" 
d="M-125 0l695 1465h349l81 -1465h-284l-9 361h-372l-159 -361h-301zM441 603h265l-7 411q-1 55 -2 108t2 109h-6q-13 -50 -32 -99.5t-43 -105.5zM733 -483q-96 0 -147 49t-51 128q0 64 26.5 117t74 99.5t110.5 89.5h176q-51 -45 -89.5 -86t-60 -81t-22.5 -83
q0 -27 15.5 -41.5t39.5 -14.5q23 0 46 5t48 11l-18 -171q-34 -11 -70 -16.5t-78 -5.5z" />
    <glyph glyph-name="aogonek" unicode="&#x105;" horiz-adv-x="1075" 
d="M335 -20q-75 0 -136.5 39.5t-97.5 120t-36 204.5q0 100 20 209.5t59.5 213.5t97.5 187.5t134.5 133.5t169.5 50q58 0 103 -18.5t78.5 -54t54.5 -88.5h7l53 140h222l-237 -1117h-212l8 145h-7q-38 -49 -79.5 -86t-90.5 -58t-111 -21zM446 206q58 0 104.5 50t79.5 127.5
t50 157.5q15 68 21 119t6 99q0 68 -30 109t-83 41q-44 0 -82 -35t-68.5 -93.5t-53 -129.5t-34.5 -145t-12 -138q0 -80 26.5 -121t75.5 -41zM610 -483q-96 0 -147 49t-51 128q0 64 26.5 117t74 99.5t110.5 89.5h176q-51 -45 -89.5 -86t-60 -81t-22.5 -83q0 -27 15.5 -41.5
t39.5 -14.5q23 0 46 5t48 11l-18 -171q-34 -11 -70 -16.5t-78 -5.5z" />
    <glyph glyph-name="Cacute" unicode="&#x106;" horiz-adv-x="1067" 
d="M542 -20q-146 0 -245 63t-149 180t-50 279q0 132 28 269.5t85 265t142.5 228.5t200.5 160t260 59q110 0 197 -23t167 -73l-122 -228q-56 38 -113.5 60t-125.5 22q-89 0 -159 -49.5t-120.5 -131t-84 -178.5t-49.5 -193t-16 -173q0 -151 53 -222t166 -71q69 0 140.5 19.5
t142.5 50.5v-245q-64 -28 -154.5 -48.5t-193.5 -20.5zM664 1582l2 23q38 45 77 97.5t75.5 106t67.5 101.5h307l-1 -17q-22 -27 -64.5 -69.5t-93 -89t-98 -87t-79.5 -65.5h-193z" />
    <glyph glyph-name="cacute" unicode="&#x107;" horiz-adv-x="862" 
d="M423 -20q-105 0 -185.5 41.5t-125 126t-44.5 213.5q0 110 21.5 221t65 211t109.5 177.5t155.5 122.5t202.5 45q84 0 153 -18t130 -53l-97 -213q-41 23 -85 39t-94 16q-71 0 -124 -50t-88 -129.5t-52.5 -169.5t-17.5 -169q0 -60 16 -101t47 -61.5t75 -20.5
q59 0 116.5 21.5t119.5 59.5v-230q-58 -34 -133.5 -56.5t-164.5 -22.5zM489 1241l2 23q38 45 77 97.5t75.5 106t67.5 101.5h307l-1 -17q-22 -27 -64.5 -69.5t-93 -89t-98 -87t-79.5 -65.5h-193z" />
    <glyph glyph-name="Ccircumflex" unicode="&#x108;" horiz-adv-x="1067" 
d="M542 -20q-146 0 -245 63t-149 180t-50 279q0 132 28 269.5t85 265t142.5 228.5t200.5 160t260 59q110 0 197 -23t167 -73l-122 -228q-56 38 -113.5 60t-125.5 22q-89 0 -159 -49.5t-120.5 -131t-84 -178.5t-49.5 -193t-16 -173q0 -151 53 -222t166 -71q69 0 140.5 19.5
t142.5 50.5v-245q-64 -28 -154.5 -48.5t-193.5 -20.5zM469 1582l2 24q44 43 93 95t95.5 106.5t81.5 102.5h279q16 -43 40.5 -98.5t53 -110t51.5 -94.5l-3 -25h-173q-20 22 -43 48.5t-46 57t-44 60.5q-54 -50 -103.5 -91t-97.5 -75h-186z" />
    <glyph glyph-name="ccircumflex" unicode="&#x109;" horiz-adv-x="862" 
d="M423 -20q-105 0 -185.5 41.5t-125 126t-44.5 213.5q0 110 21.5 221t65 211t109.5 177.5t155.5 122.5t202.5 45q84 0 153 -18t130 -53l-97 -213q-41 23 -85 39t-94 16q-71 0 -124 -50t-88 -129.5t-52.5 -169.5t-17.5 -169q0 -60 16 -101t47 -61.5t75 -20.5
q59 0 116.5 21.5t119.5 59.5v-230q-58 -34 -133.5 -56.5t-164.5 -22.5zM274 1241l2 24q44 43 93 95t95.5 106.5t81.5 102.5h279q16 -43 40.5 -98.5t53 -110t51.5 -94.5l-3 -25h-173q-20 22 -43 48.5t-46 57t-44 60.5q-54 -50 -103.5 -91t-97.5 -75h-186z" />
    <glyph glyph-name="Cdot" unicode="&#x10a;" horiz-adv-x="1067" 
d="M542 -20q-146 0 -245 63t-149 180t-50 279q0 132 28 269.5t85 265t142.5 228.5t200.5 160t260 59q110 0 197 -23t167 -73l-122 -228q-56 38 -113.5 60t-125.5 22q-89 0 -159 -49.5t-120.5 -131t-84 -178.5t-49.5 -193t-16 -173q0 -151 53 -222t166 -71q69 0 140.5 19.5
t142.5 50.5v-245q-64 -28 -154.5 -48.5t-193.5 -20.5zM847 1603q-62 0 -99.5 29.5t-37.5 88.5q0 77 45 126t127 49q41 0 71 -12t47 -37.5t17 -67.5q0 -75 -42.5 -125.5t-127.5 -50.5z" />
    <glyph glyph-name="cdot" unicode="&#x10b;" horiz-adv-x="862" 
d="M423 -20q-105 0 -185.5 41.5t-125 126t-44.5 213.5q0 110 21.5 221t65 211t109.5 177.5t155.5 122.5t202.5 45q84 0 153 -18t130 -53l-97 -213q-41 23 -85 39t-94 16q-71 0 -124 -50t-88 -129.5t-52.5 -169.5t-17.5 -169q0 -60 16 -101t47 -61.5t75 -20.5
q59 0 116.5 21.5t119.5 59.5v-230q-58 -34 -133.5 -56.5t-164.5 -22.5zM654 1260q-62 0 -99.5 29.5t-37.5 88.5q0 77 45 126t127 49q41 0 71 -12t47 -37.5t17 -67.5q0 -75 -42.5 -125.5t-127.5 -50.5z" />
    <glyph glyph-name="Ccaron" unicode="&#x10c;" horiz-adv-x="1067" 
d="M542 -20q-146 0 -245 63t-149 180t-50 279q0 132 28 269.5t85 265t142.5 228.5t200.5 160t260 59q110 0 197 -23t167 -73l-122 -228q-56 38 -113.5 60t-125.5 22q-89 0 -159 -49.5t-120.5 -131t-84 -178.5t-49.5 -193t-16 -173q0 -151 53 -222t166 -71q69 0 140.5 19.5
t142.5 50.5v-245q-64 -28 -154.5 -48.5t-193.5 -20.5zM690 1582q-15 44 -40 99.5t-52.5 109.5t-51.5 94l3 25h173q20 -19 42 -45.5t46 -57t44 -63.5q55 51 104.5 92t96.5 74h186l-2 -24q-36 -35 -88 -91t-101.5 -113.5t-79.5 -99.5h-280z" />
    <glyph glyph-name="ccaron" unicode="&#x10d;" horiz-adv-x="862" 
d="M423 -20q-105 0 -185.5 41.5t-125 126t-44.5 213.5q0 110 21.5 221t65 211t109.5 177.5t155.5 122.5t202.5 45q84 0 153 -18t130 -53l-97 -213q-41 23 -85 39t-94 16q-71 0 -124 -50t-88 -129.5t-52.5 -169.5t-17.5 -169q0 -60 16 -101t47 -61.5t75 -20.5
q59 0 116.5 21.5t119.5 59.5v-230q-58 -34 -133.5 -56.5t-164.5 -22.5zM492 1241q-15 44 -40 99.5t-52.5 109.5t-51.5 94l3 25h173q20 -19 42 -45.5t46 -57t44 -63.5q55 51 104.5 92t96.5 74h186l-2 -24q-36 -35 -88 -91t-101.5 -113.5t-79.5 -99.5h-280z" />
    <glyph glyph-name="Dcaron" unicode="&#x10e;" horiz-adv-x="1210" 
d="M25 0l309 1462h342q239 0 368 -129t129 -371q0 -151 -30.5 -292.5t-91 -263t-152.5 -213t-215 -142.5t-278 -51h-381zM356 243h75q95 0 168 42t126.5 114.5t88 163t51 188.5t16.5 190q0 145 -60.5 213t-171.5 68h-86zM631 1582q-15 44 -40 99.5t-52.5 109.5t-51.5 94
l3 25h173q20 -19 42 -45.5t46 -57t44 -63.5q55 51 104.5 92t96.5 74h186l-2 -24q-36 -35 -88 -91t-101.5 -113.5t-79.5 -99.5h-280z" />
    <glyph glyph-name="dcaron" unicode="&#x10f;" horiz-adv-x="1272" 
d="M334 -20q-75 0 -136 39.5t-97 120.5t-36 205q0 98 20 207t59.5 213t97 188.5t132.5 134.5t166 50q57 0 100.5 -18.5t76 -52.5t53.5 -81h7q3 22 7 58t9.5 76t12.5 72l78 364h273l-330 -1556h-214l10 139h-7q-40 -49 -81 -84.5t-89.5 -55t-111.5 -19.5zM450 206
q44 0 80.5 28.5t65 76.5t49.5 107t35 120.5t20.5 117.5t6.5 97q0 74 -29.5 115t-83.5 41q-45 0 -83.5 -36.5t-69 -96.5t-52.5 -132t-33.5 -144.5t-11.5 -132.5q0 -80 27 -120.5t79 -40.5zM1185 1229v23q21 47 42 99.5t40 105.5t32 99h259v-20q-23 -47 -56 -100t-70.5 -106.5
t-76.5 -100.5h-170z" />
    <glyph glyph-name="Dcroat" unicode="&#x110;" horiz-adv-x="1211" 
d="M25 0l132 629h-123l48 225h122l130 608h342q239 0 368 -129t129 -371q0 -152 -31 -294.5t-92 -263.5t-153 -212t-215 -141.5t-276 -50.5h-381zM356 243h75q96 0 170 43.5t127 117t87 165t50 188t16 184.5q0 145 -60.5 213t-171.5 68h-86l-77 -368h193l-48 -225h-195z" />
    <glyph glyph-name="dcroat" unicode="&#x111;" horiz-adv-x="1075" 
d="M339 -20q-81 0 -143 41.5t-96.5 123t-34.5 200.5q0 89 18.5 192t55.5 203.5t93 183.5t131.5 133t170.5 50q58 0 102.5 -17t77 -49.5t52.5 -77.5h7q2 25 5.5 54.5t8 60t9.5 56.5l13 70h-231l40 190h231l35 162h273l-34 -162h134l-40 -190h-135l-255 -1204h-212l8 139h-7
q-38 -46 -78.5 -82t-88 -56.5t-110.5 -20.5zM452 206q42 0 77 26.5t63.5 71t49.5 100t35.5 114.5t21.5 114t7 98q0 70 -27 109t-85 39q-47 0 -85.5 -34.5t-69 -91.5t-52 -125t-32.5 -136.5t-11 -123.5q0 -80 28.5 -120.5t79.5 -40.5z" />
    <glyph glyph-name="Emacron" unicode="&#x112;" horiz-adv-x="959" 
d="M25 0l309 1462h709l-51 -238h-428l-72 -345h398l-51 -239h-398l-86 -399h429l-51 -241h-708zM405 1584l41 196h577l-41 -196h-577z" />
    <glyph glyph-name="emacron" unicode="&#x113;" horiz-adv-x="1003" 
d="M453 -20q-117 0 -203.5 45t-134.5 133.5t-48 216.5q0 144 37 280.5t109.5 245t180 172.5t248.5 64q156 0 240.5 -77t84.5 -206q0 -92 -38 -165.5t-113 -124t-184.5 -77t-251.5 -26.5h-34q-3 -20 -5 -39t-2 -38q0 -94 44.5 -142t128.5 -48q77 0 140 18t148 62v-209
q-80 -45 -163.5 -65t-183.5 -20zM380 651h26q110 0 176.5 25.5t96.5 68.5t30 95q0 44 -24 67.5t-69 23.5q-49 0 -95.5 -34.5t-83 -97t-57.5 -148.5zM366 1243l41 196h577l-41 -196h-577z" />
    <glyph glyph-name="Ebreve" unicode="&#x114;" horiz-adv-x="959" 
d="M25 0l309 1462h709l-51 -238h-428l-72 -345h398l-51 -239h-398l-86 -399h429l-51 -241h-708zM701 1582q-102 0 -164 34.5t-89.5 91t-27.5 122.5q0 22 2.5 43t5.5 40h163q0 -44 12 -74t39.5 -45.5t71.5 -15.5q66 0 108.5 30t60.5 105h172q-27 -159 -115.5 -245t-238.5 -86
z" />
    <glyph glyph-name="ebreve" unicode="&#x115;" horiz-adv-x="1003" 
d="M453 -20q-117 0 -203.5 45t-134.5 133.5t-48 216.5q0 144 37 280.5t109.5 245t180 172.5t248.5 64q156 0 240.5 -77t84.5 -206q0 -92 -38 -165.5t-113 -124t-184.5 -77t-251.5 -26.5h-34q-3 -20 -5 -39t-2 -38q0 -94 44.5 -142t128.5 -48q77 0 140 18t148 62v-209
q-80 -45 -163.5 -65t-183.5 -20zM380 651h26q110 0 176.5 25.5t96.5 68.5t30 95q0 44 -24 67.5t-69 23.5q-49 0 -95.5 -34.5t-83 -97t-57.5 -148.5zM671 1241q-102 0 -164 34.5t-89.5 91t-27.5 122.5q0 22 2.5 43t5.5 40h163q0 -44 12 -74t39.5 -45.5t71.5 -15.5
q66 0 108.5 30t60.5 105h172q-27 -159 -115.5 -245t-238.5 -86z" />
    <glyph glyph-name="Edotaccent" unicode="&#x116;" horiz-adv-x="959" 
d="M25 0l309 1462h709l-51 -238h-428l-72 -345h398l-51 -239h-398l-86 -399h429l-51 -241h-708zM712 1587q-62 0 -99.5 29.5t-37.5 88.5q0 77 45 126t127 49q41 0 71 -12t47 -37.5t17 -67.5q0 -75 -42.5 -125.5t-127.5 -50.5z" />
    <glyph glyph-name="edotaccent" unicode="&#x117;" horiz-adv-x="1003" 
d="M453 -20q-117 0 -203.5 45t-134.5 133.5t-48 216.5q0 144 37 280.5t109.5 245t180 172.5t248.5 64q156 0 240.5 -77t84.5 -206q0 -92 -38 -165.5t-113 -124t-184.5 -77t-251.5 -26.5h-34q-3 -20 -5 -39t-2 -38q0 -94 44.5 -142t128.5 -48q77 0 140 18t148 62v-209
q-80 -45 -163.5 -65t-183.5 -20zM380 651h26q110 0 176.5 25.5t96.5 68.5t30 95q0 44 -24 67.5t-69 23.5q-49 0 -95.5 -34.5t-83 -97t-57.5 -148.5zM680 1260q-62 0 -99.5 29.5t-37.5 88.5q0 77 45 126t127 49q41 0 71 -12t47 -37.5t17 -67.5q0 -75 -42.5 -125.5
t-127.5 -50.5z" />
    <glyph glyph-name="Eogonek" unicode="&#x118;" horiz-adv-x="959" 
d="M25 0l309 1462h709l-51 -238h-428l-72 -345h398l-51 -239h-398l-86 -399h429l-51 -241h-708zM479 -483q-96 0 -147 49t-51 128q0 64 26.5 117t74 99.5t110.5 89.5h176q-51 -45 -89.5 -86t-60 -81t-22.5 -83q0 -27 15.5 -41.5t39.5 -14.5q23 0 46 5t48 11l-18 -171
q-34 -11 -70 -16.5t-78 -5.5z" />
    <glyph glyph-name="eogonek" unicode="&#x119;" horiz-adv-x="1003" 
d="M506 -473q-94 0 -145 49.5t-51 127.5q0 65 26.5 118t74.5 99t110 89l229 35q-74 -51 -123.5 -100.5t-74.5 -95.5t-26 -88q0 -27 14.5 -42t39.5 -15q22 0 45 5t48 11l-18 -170q-35 -12 -71 -17.5t-78 -5.5zM453 -20q-117 0 -203.5 45t-134.5 133.5t-48 216.5
q0 144 37 280.5t109.5 245t180 172.5t248.5 64q156 0 240.5 -77t84.5 -206q0 -92 -38 -165.5t-113 -124t-184.5 -77t-251.5 -26.5h-34q-3 -20 -5 -39t-2 -38q0 -94 44.5 -142t128.5 -48q77 0 140 18t148 62v-209q-80 -45 -163.5 -65t-183.5 -20zM380 651h26
q110 0 176.5 25.5t96.5 68.5t30 95q0 44 -24 67.5t-69 23.5q-49 0 -95.5 -34.5t-83 -97t-57.5 -148.5z" />
    <glyph glyph-name="Ecaron" unicode="&#x11a;" horiz-adv-x="959" 
d="M25 0l309 1462h709l-51 -238h-428l-72 -345h398l-51 -239h-398l-86 -399h429l-51 -241h-708zM555 1582q-15 44 -40 99.5t-52.5 109.5t-51.5 94l3 25h173q20 -19 42 -45.5t46 -57t44 -63.5q55 51 104.5 92t96.5 74h186l-2 -24q-36 -35 -88 -91t-101.5 -113.5t-79.5 -99.5
h-280z" />
    <glyph glyph-name="ecaron" unicode="&#x11b;" horiz-adv-x="1003" 
d="M453 -20q-117 0 -203.5 45t-134.5 133.5t-48 216.5q0 144 37 280.5t109.5 245t180 172.5t248.5 64q156 0 240.5 -77t84.5 -206q0 -92 -38 -165.5t-113 -124t-184.5 -77t-251.5 -26.5h-34q-3 -20 -5 -39t-2 -38q0 -94 44.5 -142t128.5 -48q77 0 140 18t148 62v-209
q-80 -45 -163.5 -65t-183.5 -20zM380 651h26q110 0 176.5 25.5t96.5 68.5t30 95q0 44 -24 67.5t-69 23.5q-49 0 -95.5 -34.5t-83 -97t-57.5 -148.5zM515 1241q-15 44 -40 99.5t-52.5 109.5t-51.5 94l3 25h173q20 -19 42 -45.5t46 -57t44 -63.5q55 51 104.5 92t96.5 74h186
l-2 -24q-36 -35 -88 -91t-101.5 -113.5t-79.5 -99.5h-280z" />
    <glyph glyph-name="Gcircumflex" unicode="&#x11c;" horiz-adv-x="1239" 
d="M580 -20q-235 0 -358 133.5t-123 386.5q0 152 32.5 296t96.5 268.5t159 219t219.5 147.5t278.5 53q107 0 199.5 -24.5t171.5 -70.5l-115 -234q-65 40 -132 62.5t-143 22.5q-116 0 -205 -64.5t-150 -170.5t-92.5 -232t-31.5 -250q0 -99 25 -166t77.5 -100t134.5 -33
q41 0 75 5.5t71 15.5l72 335h-213l50 238h489l-161 -760q-100 -36 -203 -57t-224 -21zM515 1582l2 24q44 43 93 95t95.5 106.5t81.5 102.5h279q16 -43 40.5 -98.5t53 -110t51.5 -94.5l-3 -25h-173q-20 22 -43 48.5t-46 57t-44 60.5q-54 -50 -103.5 -91t-97.5 -75h-186z" />
    <glyph glyph-name="gcircumflex" unicode="&#x11d;" horiz-adv-x="1010" 
d="M274 -492q-195 0 -298.5 71.5t-102.5 201.5q0 108 70 186.5t204 123.5q-34 19 -54.5 53.5t-20.5 80.5q0 66 42.5 117.5t129.5 100.5q-52 38 -79 99t-27 144q0 107 41.5 201.5t119.5 154.5q53 45 125.5 70t157.5 25q48 0 88 -8t72 -18h353l-33 -156l-155 -39
q8 -23 12 -49.5t4 -56.5q0 -89 -32 -173.5t-87 -142.5q-57 -59 -137.5 -90.5t-181.5 -31.5q-33 0 -54 0.5t-35 1.5q-43 -16 -65 -41.5t-22 -52.5q0 -25 20 -36q13 -9 34.5 -13.5t52.5 -7.5l157 -9q94 -7 154 -37t89 -83t29 -129q0 -122 -51 -214t-144 -149
q-71 -46 -166.5 -69.5t-209.5 -24.5zM287 -297q69 0 124.5 14t93.5 41q38 26 59 62.5t21 82.5q0 16 -4.5 29t-16.5 23q-16 14 -44 21.5t-70 10.5l-139 8q-55 -5 -98 -33t-67.5 -68.5t-24.5 -83.5q0 -57 42 -82t124 -25zM486 554q48 0 85 35t60 95.5t28 138.5q3 41 -2 68.5
t-19 42.5q-10 10 -24 15.5t-33 5.5q-39 0 -70 -22.5t-54 -60.5t-36.5 -85.5t-16.5 -98.5q-2 -27 -1 -48.5t7 -37.5q20 -48 76 -48zM334 1246l2 24q44 43 93 95t95.5 106.5t81.5 102.5h279q16 -43 40.5 -98.5t53 -110t51.5 -94.5l-3 -25h-173q-20 22 -43 48.5t-46 57
t-44 60.5q-54 -50 -103.5 -91t-97.5 -75h-186z" />
    <glyph glyph-name="Gbreve" unicode="&#x11e;" horiz-adv-x="1239" 
d="M580 -20q-235 0 -358 133.5t-123 386.5q0 152 32.5 296t96.5 268.5t159 219t219.5 147.5t278.5 53q107 0 199.5 -24.5t171.5 -70.5l-115 -234q-65 40 -132 62.5t-143 22.5q-116 0 -205 -64.5t-150 -170.5t-92.5 -232t-31.5 -250q0 -99 25 -166t77.5 -100t134.5 -33
q41 0 75 5.5t71 15.5l72 335h-213l50 238h489l-161 -760q-100 -36 -203 -57t-224 -21zM883 1582q-102 0 -164 34.5t-89.5 91t-27.5 122.5q0 22 2.5 43t5.5 40h163q0 -44 12 -74t39.5 -45.5t71.5 -15.5q66 0 108.5 30t60.5 105h172q-27 -159 -115.5 -245t-238.5 -86z" />
    <glyph glyph-name="gbreve" unicode="&#x11f;" horiz-adv-x="1010" 
d="M274 -492q-195 0 -298.5 71.5t-102.5 201.5q0 108 70 186.5t204 123.5q-34 19 -54.5 53.5t-20.5 80.5q0 66 42.5 117.5t129.5 100.5q-52 38 -79 99t-27 144q0 107 41.5 201.5t119.5 154.5q53 45 125.5 70t157.5 25q48 0 88 -8t72 -18h353l-33 -156l-155 -39
q8 -23 12 -49.5t4 -56.5q0 -89 -32 -173.5t-87 -142.5q-57 -59 -137.5 -90.5t-181.5 -31.5q-33 0 -54 0.5t-35 1.5q-43 -16 -65 -41.5t-22 -52.5q0 -25 20 -36q13 -9 34.5 -13.5t52.5 -7.5l157 -9q94 -7 154 -37t89 -83t29 -129q0 -122 -51 -214t-144 -149
q-71 -46 -166.5 -69.5t-209.5 -24.5zM287 -297q69 0 124.5 14t93.5 41q38 26 59 62.5t21 82.5q0 16 -4.5 29t-16.5 23q-16 14 -44 21.5t-70 10.5l-139 8q-55 -5 -98 -33t-67.5 -68.5t-24.5 -83.5q0 -57 42 -82t124 -25zM486 554q48 0 85 35t60 95.5t28 138.5q3 41 -2 68.5
t-19 42.5q-10 10 -24 15.5t-33 5.5q-39 0 -70 -22.5t-54 -60.5t-36.5 -85.5t-16.5 -98.5q-2 -27 -1 -48.5t7 -37.5q20 -48 76 -48zM646 1246q-102 0 -164 34.5t-89.5 91t-27.5 122.5q0 22 2.5 43t5.5 40h163q0 -44 12 -74t39.5 -45.5t71.5 -15.5q66 0 108.5 30t60.5 105h172
q-27 -159 -115.5 -245t-238.5 -86z" />
    <glyph glyph-name="Gdot" unicode="&#x120;" horiz-adv-x="1239" 
d="M580 -20q-235 0 -358 133.5t-123 386.5q0 152 32.5 296t96.5 268.5t159 219t219.5 147.5t278.5 53q107 0 199.5 -24.5t171.5 -70.5l-115 -234q-65 40 -132 62.5t-143 22.5q-116 0 -205 -64.5t-150 -170.5t-92.5 -232t-31.5 -250q0 -99 25 -166t77.5 -100t134.5 -33
q41 0 75 5.5t71 15.5l72 335h-213l50 238h489l-161 -760q-100 -36 -203 -57t-224 -21zM894 1601q-62 0 -99.5 29.5t-37.5 88.5q0 77 45 126t127 49q41 0 71 -12t47 -37.5t17 -67.5q0 -75 -42.5 -125.5t-127.5 -50.5z" />
    <glyph glyph-name="gdot" unicode="&#x121;" horiz-adv-x="1010" 
d="M274 -492q-195 0 -298.5 71.5t-102.5 201.5q0 108 70 186.5t204 123.5q-34 19 -54.5 53.5t-20.5 80.5q0 66 42.5 117.5t129.5 100.5q-52 38 -79 99t-27 144q0 107 41.5 201.5t119.5 154.5q53 45 125.5 70t157.5 25q48 0 88 -8t72 -18h353l-33 -156l-155 -39
q8 -23 12 -49.5t4 -56.5q0 -89 -32 -173.5t-87 -142.5q-57 -59 -137.5 -90.5t-181.5 -31.5q-33 0 -54 0.5t-35 1.5q-43 -16 -65 -41.5t-22 -52.5q0 -25 20 -36q13 -9 34.5 -13.5t52.5 -7.5l157 -9q94 -7 154 -37t89 -83t29 -129q0 -122 -51 -214t-144 -149
q-71 -46 -166.5 -69.5t-209.5 -24.5zM287 -297q69 0 124.5 14t93.5 41q38 26 59 62.5t21 82.5q0 16 -4.5 29t-16.5 23q-16 14 -44 21.5t-70 10.5l-139 8q-55 -5 -98 -33t-67.5 -68.5t-24.5 -83.5q0 -57 42 -82t124 -25zM486 554q48 0 85 35t60 95.5t28 138.5q3 41 -2 68.5
t-19 42.5q-10 10 -24 15.5t-33 5.5q-39 0 -70 -22.5t-54 -60.5t-36.5 -85.5t-16.5 -98.5q-2 -27 -1 -48.5t7 -37.5q20 -48 76 -48zM666 1265q-62 0 -99.5 29.5t-37.5 88.5q0 77 45 126t127 49q41 0 71 -12t47 -37.5t17 -67.5q0 -75 -42.5 -125.5t-127.5 -50.5z" />
    <glyph glyph-name="uni0122" unicode="&#x122;" horiz-adv-x="1239" 
d="M580 -20q-235 0 -358 133.5t-123 386.5q0 152 32.5 296t96.5 268.5t159 219t219.5 147.5t278.5 53q107 0 199.5 -24.5t171.5 -70.5l-115 -234q-65 40 -132 62.5t-143 22.5q-116 0 -205 -64.5t-150 -170.5t-92.5 -232t-31.5 -250q0 -99 25 -166t77.5 -100t134.5 -33
q41 0 75 5.5t71 15.5l72 335h-213l50 238h489l-161 -760q-100 -36 -203 -57t-224 -21zM333 -453v27q20 39 43.5 92.5t45 109t34.5 99.5h258v-20q-22 -45 -56 -100t-74.5 -109t-79.5 -99h-171z" />
    <glyph glyph-name="uni0123" unicode="&#x123;" horiz-adv-x="1010" 
d="M499 1241v21q23 46 56.5 100t74 108t80.5 99h169l1 -25q-18 -37 -42.5 -92.5t-46 -112.5t-34.5 -98h-258zM274 -492q-195 0 -298.5 71.5t-102.5 201.5q0 108 70 186.5t204 123.5q-34 19 -54.5 53.5t-20.5 80.5q0 66 42.5 117.5t129.5 100.5q-52 38 -79 99t-27 144
q0 107 41.5 201.5t119.5 154.5q53 45 125.5 70t157.5 25q48 0 88 -8t72 -18h353l-33 -156l-155 -39q8 -23 12 -49.5t4 -56.5q0 -89 -32 -173.5t-87 -142.5q-57 -59 -137.5 -90.5t-181.5 -31.5q-33 0 -54 0.5t-35 1.5q-43 -16 -65 -41.5t-22 -52.5q0 -25 20 -36
q13 -9 34.5 -13.5t52.5 -7.5l157 -9q94 -7 154 -37t89 -83t29 -129q0 -122 -51 -214t-144 -149q-71 -46 -166.5 -69.5t-209.5 -24.5zM287 -297q69 0 124.5 14t93.5 41q38 26 59 62.5t21 82.5q0 16 -4.5 29t-16.5 23q-16 14 -44 21.5t-70 10.5l-139 8q-55 -5 -98 -33
t-67.5 -68.5t-24.5 -83.5q0 -57 42 -82t124 -25zM486 554q48 0 85 35t60 95.5t28 138.5q3 41 -2 68.5t-19 42.5q-10 10 -24 15.5t-33 5.5q-39 0 -70 -22.5t-54 -60.5t-36.5 -85.5t-16.5 -98.5q-2 -27 -1 -48.5t7 -37.5q20 -48 76 -48z" />
    <glyph glyph-name="Hcircumflex" unicode="&#x124;" horiz-adv-x="1255" 
d="M25 0l309 1462h281l-123 -579h397l123 579h281l-311 -1462h-281l136 640h-396l-136 -640h-280zM476 1582l2 24q44 43 93 95t95.5 106.5t81.5 102.5h279q16 -43 40.5 -98.5t53 -110t51.5 -94.5l-3 -25h-173q-20 22 -43 48.5t-46 57t-44 60.5q-54 -50 -103.5 -91t-97.5 -75
h-186z" />
    <glyph glyph-name="hcircumflex" unicode="&#x125;" horiz-adv-x="1082" 
d="M13 0l329 1556h274l-66 -307q-8 -40 -21 -88t-27 -95t-27 -86h6q36 49 77 84.5t90.5 54.5t107.5 19q82 0 138 -34t84.5 -97t28.5 -151q0 -37 -7 -85.5t-17 -97.5l-141 -673h-273l137 651q9 41 14.5 79t5.5 71q0 50 -22.5 76.5t-68.5 26.5q-53 0 -97 -43t-78 -124
t-59 -195l-115 -542h-273zM140 1690l2 24q44 43 93 95t95.5 106.5t81.5 102.5h279q16 -43 40.5 -98.5t53 -110t51.5 -94.5l-3 -25h-173q-20 22 -43 48.5t-46 57t-44 60.5q-54 -50 -103.5 -91t-97.5 -75h-186z" />
    <glyph glyph-name="Hbar" unicode="&#x126;" horiz-adv-x="1253" 
d="M25 0l226 1073h-149l40 191h150l42 198h281l-42 -198h396l43 198h281l-42 -198h147l-40 -191h-148l-228 -1073h-281l136 640h-396l-136 -640h-280zM491 875h396l42 198h-397z" />
    <glyph glyph-name="hbar" unicode="&#x127;" horiz-adv-x="1083" 
d="M13 0l255 1204h-138l40 190h138l34 162h274l-34 -162h238l-40 -190h-239q-15 -66 -28.5 -116.5t-25 -87.5t-21.5 -65h7q36 49 76.5 84t89.5 54t108 19q82 0 137.5 -34.5t84 -97.5t28.5 -150q0 -38 -6.5 -86.5t-16.5 -96.5l-132 -627h-273l127 605q9 41 15 79t6 71
q0 52 -22.5 78t-66.5 26q-56 0 -101 -45t-78 -126.5t-57 -191.5l-106 -496h-273z" />
    <glyph glyph-name="Itilde" unicode="&#x128;" horiz-adv-x="576" 
d="M23 0l311 1462h280l-311 -1462h-280zM159 1601q20 97 53 165t83 104t119 36q47 0 83.5 -16t65 -37t54 -37t52.5 -16q32 0 53.5 24.5t39.5 83.5h157q-21 -110 -59 -177.5t-88 -97.5t-109 -30q-47 0 -82.5 16.5t-64 37.5t-54.5 37t-55 16t-52 -27t-36 -82h-160z" />
    <glyph glyph-name="itilde" unicode="&#x129;" horiz-adv-x="533" 
d="M13 0l237 1117h272l-237 -1117h-272zM53 1240q20 97 53 165t83 104t119 36q47 0 83.5 -16t65 -37t54 -37t52.5 -16q32 0 53.5 24.5t39.5 83.5h157q-21 -110 -59 -177.5t-88 -97.5t-109 -30q-47 0 -82.5 16.5t-64 37.5t-54.5 37t-55 16t-52 -27t-36 -82h-160z" />
    <glyph glyph-name="Imacron" unicode="&#x12a;" horiz-adv-x="576" 
d="M23 0l311 1462h280l-311 -1462h-280zM218 1604l41 196h577l-41 -196h-577z" />
    <glyph glyph-name="imacron" unicode="&#x12b;" horiz-adv-x="533" 
d="M13 0l237 1117h272l-237 -1117h-272zM115 1243l41 196h577l-41 -196h-577z" />
    <glyph glyph-name="Ibreve" unicode="&#x12c;" horiz-adv-x="576" 
d="M23 0l311 1462h280l-311 -1462h-280zM505 1602q-102 0 -164 34.5t-89.5 91t-27.5 122.5q0 22 2.5 43t5.5 40h163q0 -44 12 -74t39.5 -45.5t71.5 -15.5q66 0 108.5 30t60.5 105h172q-27 -159 -115.5 -245t-238.5 -86z" />
    <glyph glyph-name="ibreve" unicode="&#x12d;" horiz-adv-x="533" 
d="M13 0l237 1117h272l-237 -1117h-272zM413 1241q-102 0 -164 34.5t-89.5 91t-27.5 122.5q0 22 2.5 43t5.5 40h163q0 -44 12 -74t39.5 -45.5t71.5 -15.5q66 0 108.5 30t60.5 105h172q-27 -159 -115.5 -245t-238.5 -86z" />
    <glyph glyph-name="Iogonek" unicode="&#x12e;" horiz-adv-x="576" 
d="M23 0l311 1462h280l-311 -1462h-280zM114 -483q-96 0 -147 49t-51 128q0 64 26.5 117t74 99.5t110.5 89.5h176q-51 -45 -89.5 -86t-60 -81t-22.5 -83q0 -27 15.5 -41.5t39.5 -14.5q23 0 46 5t48 11l-18 -171q-34 -11 -70 -16.5t-78 -5.5z" />
    <glyph glyph-name="iogonek" unicode="&#x12f;" horiz-adv-x="533" 
d="M13 0l237 1117h272l-236 -1117h-273zM429 1260q-61 0 -97.5 27t-36.5 86q0 51 19.5 91.5t58.5 64.5t95 24q58 0 95.5 -25t37.5 -86q0 -78 -44.5 -130t-127.5 -52zM86 -483q-96 0 -147 49t-51 128q0 64 26.5 117t74 99.5t110.5 89.5h176q-51 -45 -89.5 -86t-60 -81
t-22.5 -83q0 -27 15.5 -41.5t39.5 -14.5q23 0 46 5t48 11l-18 -171q-34 -11 -70 -16.5t-78 -5.5z" />
    <glyph glyph-name="Idotaccent" unicode="&#x130;" horiz-adv-x="576" 
d="M23 0l311 1462h280l-311 -1462h-280zM520 1621q-62 0 -99.5 29.5t-37.5 88.5q0 77 45 126t127 49q41 0 71 -12t47 -37.5t17 -67.5q0 -75 -42.5 -125.5t-127.5 -50.5z" />
    <glyph glyph-name="dotlessi" unicode="&#x131;" horiz-adv-x="533" 
d="M13 0l237 1117h272l-237 -1117h-272z" />
    <glyph glyph-name="IJ" unicode="&#x132;" horiz-adv-x="1161" 
d="M23 0l311 1462h280l-311 -1462h-280zM435 -428q-59 0 -100 7t-76 19l25 238q31 -10 63.5 -16t69.5 -6q59 0 99.5 32t67.5 88.5t42 131.5l296 1396h281l-305 -1437q-35 -162 -97 -261.5t-153 -145.5t-213 -46z" />
    <glyph glyph-name="ij" unicode="&#x133;" horiz-adv-x="1066" 
d="M13 0l237 1117h272l-236 -1117h-273zM429 1260q-61 0 -97.5 27t-36.5 86q0 51 19.5 91.5t58.5 64.5t95 24q58 0 95.5 -25t37.5 -86q0 -78 -44.5 -130t-127.5 -52zM423 -492q-41 0 -80.5 5.5t-71.5 16.5v230q25 -10 52.5 -15t51.5 -5q41 0 71 18.5t51 59t34 105.5
l253 1194h273l-261 -1225q-23 -113 -65.5 -199.5t-116 -135.5t-191.5 -49zM964 1260q-61 0 -97.5 27t-36.5 86q0 51 19.5 91.5t58.5 64.5t95 24q58 0 95.5 -25t37.5 -86q0 -78 -44.5 -130t-127.5 -52z" />
    <glyph glyph-name="Jcircumflex" unicode="&#x134;" horiz-adv-x="585" 
d="M-141 -428q-59 0 -100 7t-76 19l25 238q31 -10 63.5 -16t69.5 -6q59 0 99.5 32t67.5 88.5t42 131.5l296 1396h281l-305 -1437q-35 -162 -97 -261.5t-153 -145.5t-213 -46zM144 1582l2 24q44 43 93 95t95.5 106.5t81.5 102.5h279q16 -43 40.5 -98.5t53 -110t51.5 -94.5
l-3 -25h-173q-20 22 -43 48.5t-46 57t-44 60.5q-54 -50 -103.5 -91t-97.5 -75h-186z" />
    <glyph glyph-name="jcircumflex" unicode="&#x135;" horiz-adv-x="533" 
d="M-109 -492q-41 0 -80.5 5.5t-71.5 16.5v230q25 -10 52.5 -15t52.5 -5q41 0 70.5 18.5t50.5 59t34 105.5l253 1194h273l-261 -1225q-23 -113 -65.5 -199.5t-116 -135.5t-191.5 -49zM45 1241l2 24q44 43 93 95t95.5 106.5t81.5 102.5h279q16 -43 40.5 -98.5t53 -110
t51.5 -94.5l-3 -25h-173q-20 22 -43 48.5t-46 57t-44 60.5q-54 -50 -103.5 -91t-97.5 -75h-186z" />
    <glyph glyph-name="uni0136" unicode="&#x136;" horiz-adv-x="1100" 
d="M25 0l309 1462h281l-147 -680l124 182l376 498h321l-528 -690l224 -772h-309l-155 595l-106 -73l-110 -522h-280zM220 -453v27q20 39 43.5 92.5t45 109t34.5 99.5h258v-20q-22 -45 -56 -100t-74.5 -109t-79.5 -99h-171z" />
    <glyph glyph-name="uni0137" unicode="&#x137;" horiz-adv-x="1017" 
d="M12 0l330 1556h274l-147 -683q-7 -34 -17.5 -73.5t-21.5 -78t-20 -71.5h6l397 467h306l-428 -486l214 -631h-301l-136 435l-111 -88l-72 -347h-273zM176 -453v27q20 39 43.5 92.5t45 109t34.5 99.5h258v-20q-22 -45 -56 -100t-74.5 -109t-79.5 -99h-171z" />
    <glyph glyph-name="kgreenlandic" unicode="&#x138;" horiz-adv-x="1017" 
d="M12 0l237 1117h273l-53 -239q-11 -53 -27 -112.5t-34 -118.5h6l399 470h306l-428 -486l214 -631h-301l-136 435l-111 -88l-72 -347h-273z" />
    <glyph glyph-name="Lacute" unicode="&#x139;" horiz-adv-x="910" 
d="M25 0l309 1462h281l-260 -1221h432l-50 -241h-712zM391 1582l2 23q38 45 77 97.5t75.5 106t67.5 101.5h307l-1 -17q-22 -27 -64.5 -69.5t-93 -89t-98 -87t-79.5 -65.5h-193z" />
    <glyph glyph-name="lacute" unicode="&#x13a;" horiz-adv-x="531" 
d="M12 0l330 1556h274l-331 -1556h-273zM350 1658l2 23q38 45 77 97.5t75.5 106t67.5 101.5h307l-1 -17q-22 -27 -64.5 -69.5t-93 -89t-98 -87t-79.5 -65.5h-193z" />
    <glyph glyph-name="uni013B" unicode="&#x13b;" horiz-adv-x="910" 
d="M25 0l309 1462h281l-260 -1221h432l-50 -241h-712zM117 -453v27q20 39 43.5 92.5t45 109t34.5 99.5h258v-20q-22 -45 -56 -100t-74.5 -109t-79.5 -99h-171z" />
    <glyph glyph-name="uni013C" unicode="&#x13c;" horiz-adv-x="531" 
d="M12 0l330 1556h274l-331 -1556h-273zM-114 -453v27q20 39 43.5 92.5t45 109t34.5 99.5h258v-20q-22 -45 -56 -100t-74.5 -109t-79.5 -99h-171z" />
    <glyph glyph-name="Lcaron" unicode="&#x13d;" horiz-adv-x="910" 
d="M25 0l309 1462h281l-260 -1221h432l-50 -241h-712zM682 1134v23q21 47 42 99.5t40 105.5t32 99h259v-20q-23 -47 -56 -100t-70.5 -106.5t-76.5 -100.5h-170z" />
    <glyph glyph-name="lcaron" unicode="&#x13e;" horiz-adv-x="723" 
d="M12 0l330 1556h274l-331 -1556h-273zM636 1229v23q21 47 42 99.5t40 105.5t32 99h259v-20q-23 -47 -56 -100t-70.5 -106.5t-76.5 -100.5h-170z" />
    <glyph glyph-name="Ldot" unicode="&#x13f;" horiz-adv-x="910" 
d="M25 0l309 1462h281l-260 -1221h432l-50 -241h-712zM740 608q-62 0 -99.5 29.5t-37.5 88.5q0 77 45 126t127 49q41 0 71 -12t47 -37.5t17 -67.5q0 -75 -42.5 -125.5t-127.5 -50.5z" />
    <glyph glyph-name="ldot" unicode="&#x140;" horiz-adv-x="802" 
d="M12 0l330 1556h274l-331 -1556h-273zM684 547q-62 0 -99.5 29.5t-37.5 88.5q0 77 45 126t127 49q41 0 71 -12t47 -37.5t17 -67.5q0 -75 -42.5 -125.5t-127.5 -50.5z" />
    <glyph glyph-name="Lslash" unicode="&#x141;" horiz-adv-x="923" 
d="M40 0l105 496l-72 -42l-101 177l231 142l147 689h279l-105 -492l151 91l105 -174l-315 -195l-96 -451h432l-49 -241h-712z" />
    <glyph glyph-name="lslash" unicode="&#x142;" horiz-adv-x="603" 
d="M43 0l116 545l-80 -41l-86 184l219 111l162 757h271l-131 -614l88 47l88 -184l-229 -117l-147 -688h-271z" />
    <glyph glyph-name="Nacute" unicode="&#x143;" horiz-adv-x="1348" 
d="M25 0l309 1462h323l256 -1035h7q9 53 19.5 117.5t22 127.5t20.5 111l146 679h257l-309 -1462h-315l-264 1061h-8q-4 -31 -11.5 -80t-16.5 -105t-18.5 -109.5t-17.5 -93.5l-143 -673h-257zM744 1582l2 23q38 45 77 97.5t75.5 106t67.5 101.5h307l-1 -17
q-22 -27 -64.5 -69.5t-93 -89t-98 -87t-79.5 -65.5h-193z" />
    <glyph glyph-name="nacute" unicode="&#x144;" horiz-adv-x="1082" 
d="M12 0l237 1117h213l-15 -173h7q37 59 82 102.5t98.5 67.5t116.5 24q77 0 135 -31t89.5 -93t31.5 -156q0 -37 -6.5 -83.5t-17.5 -99.5l-142 -675h-273l138 654q8 41 14 79t6 68q0 52 -21.5 77.5t-67.5 25.5q-58 0 -103.5 -49.5t-79.5 -135t-58 -193.5l-110 -526h-274z
M538 1241l2 23q38 45 77 97.5t75.5 106t67.5 101.5h307l-1 -17q-22 -27 -64.5 -69.5t-93 -89t-98 -87t-79.5 -65.5h-193z" />
    <glyph glyph-name="uni0145" unicode="&#x145;" horiz-adv-x="1348" 
d="M25 0l309 1462h323l256 -1035h7q9 53 19.5 117.5t22 127.5t20.5 111l146 679h257l-309 -1462h-315l-264 1061h-8q-4 -31 -11.5 -80t-16.5 -105t-18.5 -109.5t-17.5 -93.5l-143 -673h-257zM291 -453v27q20 39 43.5 92.5t45 109t34.5 99.5h258v-20q-22 -45 -56 -100
t-74.5 -109t-79.5 -99h-171z" />
    <glyph glyph-name="uni0146" unicode="&#x146;" horiz-adv-x="1082" 
d="M12 0l237 1117h213l-15 -173h7q37 59 82 102.5t98.5 67.5t116.5 24q77 0 135 -31t89.5 -93t31.5 -156q0 -37 -6.5 -83.5t-17.5 -99.5l-142 -675h-273l138 654q8 41 14 79t6 68q0 52 -21.5 77.5t-67.5 25.5q-58 0 -103.5 -49.5t-79.5 -135t-58 -193.5l-110 -526h-274z
M169 -453v27q20 39 43.5 92.5t45 109t34.5 99.5h258v-20q-22 -45 -56 -100t-74.5 -109t-79.5 -99h-171z" />
    <glyph glyph-name="Ncaron" unicode="&#x147;" horiz-adv-x="1348" 
d="M25 0l309 1462h323l256 -1035h7q9 53 19.5 117.5t22 127.5t20.5 111l146 679h257l-309 -1462h-315l-264 1061h-8q-4 -31 -11.5 -80t-16.5 -105t-18.5 -109.5t-17.5 -93.5l-143 -673h-257zM742 1582q-15 44 -40 99.5t-52.5 109.5t-51.5 94l3 25h173q20 -19 42 -45.5
t46 -57t44 -63.5q55 51 104.5 92t96.5 74h186l-2 -24q-36 -35 -88 -91t-101.5 -113.5t-79.5 -99.5h-280z" />
    <glyph glyph-name="ncaron" unicode="&#x148;" horiz-adv-x="1082" 
d="M12 0l237 1117h213l-15 -173h7q37 59 82 102.5t98.5 67.5t116.5 24q77 0 135 -31t89.5 -93t31.5 -156q0 -37 -6.5 -83.5t-17.5 -99.5l-142 -675h-273l138 654q8 41 14 79t6 68q0 52 -21.5 77.5t-67.5 25.5q-58 0 -103.5 -49.5t-79.5 -135t-58 -193.5l-110 -526h-274z
M541 1241q-15 44 -40 99.5t-52.5 109.5t-51.5 94l3 25h173q20 -19 42 -45.5t46 -57t44 -63.5q55 51 104.5 92t96.5 74h186l-2 -24q-36 -35 -88 -91t-101.5 -113.5t-79.5 -99.5h-280z" />
    <glyph glyph-name="napostrophe" unicode="&#x149;" horiz-adv-x="1292" 
d="M222 0l237 1117h213l-15 -173h7q37 59 82 102.5t98.5 67.5t116.5 24q77 0 135 -31t89.5 -93t31.5 -156q0 -37 -6.5 -83.5t-17.5 -99.5l-142 -675h-273l138 654q8 41 14 79t6 68q0 52 -21.5 77.5t-67.5 25.5q-58 0 -103.5 -49.5t-79.5 -135t-58 -193.5l-110 -526h-274z
M38 941q36 84 70 173.5t65.5 178t56.5 169.5h265l6 -21q-33 -83 -73.5 -170t-85.5 -170.5t-91 -159.5h-213z" />
    <glyph glyph-name="Eng" unicode="&#x14a;" horiz-adv-x="1348" 
d="M612 -428q-51 0 -93.5 6.5t-73.5 18.5l23 234q32 -10 66 -17t68 -7q58 0 99 21t68 63.5t43 107.5l-310 1083h-8q-3 -25 -9 -67t-14 -93.5t-17.5 -102.5t-18.5 -93l-153 -726h-257l309 1462h314l279 -958h8q7 46 16 104t19.5 117.5t20.5 111.5l137 625h257l-304 -1438
q-31 -146 -91 -247t-153 -153t-225 -52z" />
    <glyph glyph-name="eng" unicode="&#x14b;" horiz-adv-x="1082" 
d="M443 -492q-45 0 -84.5 6.5t-66.5 15.5v230q26 -10 53.5 -15t50.5 -5q41 0 71 18t50.5 58.5t34.5 106.5l154 731q8 41 14 79t6 68q0 52 -21.5 77.5t-67.5 25.5q-58 0 -103.5 -48.5t-78.5 -131.5t-54 -184l-115 -540h-274l237 1117h212l-15 -173h7q37 59 82 102.5t99 67.5
t117 24q77 0 135 -31t89.5 -93t31.5 -156q0 -37 -6.5 -84t-17.5 -99l-165 -781q-26 -128 -71.5 -214t-119 -129t-184.5 -43z" />
    <glyph glyph-name="Omacron" unicode="&#x14c;" horiz-adv-x="1297" 
d="M556 -20q-152 0 -253.5 59.5t-153 173.5t-51.5 278q0 113 19.5 230t58 228.5t97.5 208.5t137.5 170.5t177.5 115t218 41.5q229 0 340.5 -132t111.5 -370q0 -108 -17.5 -223.5t-54 -228t-93.5 -211.5t-134.5 -175.5t-178 -120.5t-224.5 -44zM578 225q59 0 110.5 31.5
t95 87t78 129t58.5 158.5t37 174.5t13 176.5q0 125 -47 192.5t-140 67.5q-61 0 -115 -33.5t-97.5 -92t-78 -133.5t-58 -159.5t-35.5 -170t-12 -163.5q0 -93 22 -151.5t65 -86t104 -27.5zM561 1584l41 196h577l-41 -196h-577z" />
    <glyph glyph-name="omacron" unicode="&#x14d;" horiz-adv-x="1054" 
d="M436 -20q-112 0 -195 47.5t-128.5 136.5t-45.5 212q0 103 20.5 210t62.5 206t108 177t156.5 123.5t207.5 45.5q113 0 195 -48t126 -138.5t44 -217.5q0 -106 -20.5 -213t-63 -204.5t-107.5 -173t-155 -119.5t-205 -44zM463 207q47 0 86 32.5t69 88.5t51 125t32 142t11 140
q0 53 -11.5 92.5t-37.5 61.5t-69 22q-50 0 -90.5 -36.5t-71 -96t-50.5 -130.5t-30 -142.5t-10 -130.5q0 -81 30 -124.5t91 -43.5zM357 1243l41 196h577l-41 -196h-577z" />
    <glyph glyph-name="Obreve" unicode="&#x14e;" horiz-adv-x="1297" 
d="M556 -20q-152 0 -253.5 59.5t-153 173.5t-51.5 278q0 113 19.5 230t58 228.5t97.5 208.5t137.5 170.5t177.5 115t218 41.5q229 0 340.5 -132t111.5 -370q0 -108 -17.5 -223.5t-54 -228t-93.5 -211.5t-134.5 -175.5t-178 -120.5t-224.5 -44zM578 225q59 0 110.5 31.5
t95 87t78 129t58.5 158.5t37 174.5t13 176.5q0 125 -47 192.5t-140 67.5q-61 0 -115 -33.5t-97.5 -92t-78 -133.5t-58 -159.5t-35.5 -170t-12 -163.5q0 -93 22 -151.5t65 -86t104 -27.5zM860 1582q-102 0 -164 34.5t-89.5 91t-27.5 122.5q0 22 2.5 43t5.5 40h163
q0 -44 12 -74t39.5 -45.5t71.5 -15.5q66 0 108.5 30t60.5 105h172q-27 -159 -115.5 -245t-238.5 -86z" />
    <glyph glyph-name="obreve" unicode="&#x14f;" horiz-adv-x="1054" 
d="M436 -20q-112 0 -195 47.5t-128.5 136.5t-45.5 212q0 103 20.5 210t62.5 206t108 177t156.5 123.5t207.5 45.5q113 0 195 -48t126 -138.5t44 -217.5q0 -106 -20.5 -213t-63 -204.5t-107.5 -173t-155 -119.5t-205 -44zM463 207q47 0 86 32.5t69 88.5t51 125t32 142t11 140
q0 53 -11.5 92.5t-37.5 61.5t-69 22q-50 0 -90.5 -36.5t-71 -96t-50.5 -130.5t-30 -142.5t-10 -130.5q0 -81 30 -124.5t91 -43.5zM662 1241q-102 0 -164 34.5t-89.5 91t-27.5 122.5q0 22 2.5 43t5.5 40h163q0 -44 12 -74t39.5 -45.5t71.5 -15.5q66 0 108.5 30t60.5 105h172
q-27 -159 -115.5 -245t-238.5 -86z" />
    <glyph glyph-name="Ohungarumlaut" unicode="&#x150;" horiz-adv-x="1297" 
d="M556 -20q-152 0 -253.5 59.5t-153 173.5t-51.5 278q0 113 19.5 230t58 228.5t97.5 208.5t137.5 170.5t177.5 115t218 41.5q229 0 340.5 -132t111.5 -370q0 -108 -17.5 -223.5t-54 -228t-93.5 -211.5t-134.5 -175.5t-178 -120.5t-224.5 -44zM578 225q59 0 110.5 31.5
t95 87t78 129t58.5 158.5t37 174.5t13 176.5q0 125 -47 192.5t-140 67.5q-61 0 -115 -33.5t-97.5 -92t-78 -133.5t-58 -159.5t-35.5 -170t-12 -163.5q0 -93 22 -151.5t65 -86t104 -27.5zM925 1582l2 24q43 53 83.5 108t76 105.5t59.5 90.5h271l-1 -17q-22 -28 -62 -69
t-89 -86t-97.5 -86t-86.5 -70h-156zM558 1582l2 24q43 54 84 109t76 105.5t60 89.5h269l-1 -17q-20 -29 -59.5 -69.5t-89 -85t-99.5 -85.5t-92 -71h-150z" />
    <glyph glyph-name="ohungarumlaut" unicode="&#x151;" horiz-adv-x="1054" 
d="M436 -20q-112 0 -195 47.5t-128.5 136.5t-45.5 212q0 103 20.5 210t62.5 206t108 177t156.5 123.5t207.5 45.5q113 0 195 -48t126 -138.5t44 -217.5q0 -106 -20.5 -213t-63 -204.5t-107.5 -173t-155 -119.5t-205 -44zM463 207q47 0 86 32.5t69 88.5t51 125t32 142t11 140
q0 53 -11.5 92.5t-37.5 61.5t-69 22q-50 0 -90.5 -36.5t-71 -96t-50.5 -130.5t-30 -142.5t-10 -130.5q0 -81 30 -124.5t91 -43.5zM728 1241l2 24q43 53 83.5 108t76 105.5t59.5 90.5h271l-1 -17q-22 -28 -62 -69t-89 -86t-97.5 -86t-86.5 -70h-156zM361 1241l2 24
q43 54 84 109t76 105.5t60 89.5h269l-1 -17q-20 -29 -59.5 -69.5t-89 -85t-99.5 -85.5t-92 -71h-150z" />
    <glyph glyph-name="OE" unicode="&#x152;" horiz-adv-x="1579" 
d="M543 -18q-149 0 -248 62t-148 173.5t-49 258.5q0 131 25 271.5t78 271.5t135 235.5t196 166t263 61.5q60 0 106.5 -4.5t81.5 -15.5h681l-50 -238h-427l-74 -345h399l-51 -239h-399l-85 -399h428l-50 -241h-655q-32 -6 -72.5 -12t-84.5 -6zM580 228q35 0 66 5.5t56 15.5
l203 962q-23 14 -54 21.5t-68 7.5q-73 0 -134.5 -45.5t-110 -123t-82 -174.5t-51.5 -202t-18 -203q0 -89 22 -148t65 -87.5t106 -28.5z" />
    <glyph glyph-name="oe" unicode="&#x153;" horiz-adv-x="1594" 
d="M416 -20q-157 0 -253 105t-96 294q0 98 19 203.5t59.5 204.5t104 178.5t152 126t205.5 46.5q103 0 168.5 -43t104.5 -124q65 78 156 122t198 44q155 0 240 -77t85 -206q0 -92 -38.5 -165.5t-113.5 -124t-184 -77t-251 -26.5h-35q-2 -20 -4 -39t-2 -38q0 -94 44.5 -142
t128.5 -48q76 0 143.5 20t144.5 60v-208q-80 -43 -163.5 -64.5t-183.5 -21.5q-69 0 -127.5 18t-103 53.5t-71.5 88.5q-59 -74 -138 -117t-189 -43zM461 207q46 0 83.5 33t67 88.5t50 124.5t31 142.5t10.5 140.5q0 81 -27.5 127.5t-89.5 46.5q-48 0 -86.5 -35.5t-68 -93.5
t-49.5 -128.5t-30 -142t-10 -133.5q0 -83 30 -126.5t89 -43.5zM973 651h27q110 0 176 25.5t96 68.5t30 95q0 44 -25 67.5t-69 23.5q-52 0 -101 -40t-85 -104t-49 -136z" />
    <glyph glyph-name="Racute" unicode="&#x154;" horiz-adv-x="1098" 
d="M25 0l309 1462h318q207 0 319 -90t112 -276q0 -120 -38.5 -214.5t-107 -159.5t-159.5 -97l202 -625h-307l-155 570h-93l-120 -570h-280zM474 800h69q61 0 107.5 20.5t78 57.5t47.5 86t16 106q0 78 -42 117t-128 39h-58zM585 1582l2 23q38 45 77 97.5t75.5 106t67.5 101.5
h307l-1 -17q-22 -27 -64.5 -69.5t-93 -89t-98 -87t-79.5 -65.5h-193z" />
    <glyph glyph-name="racute" unicode="&#x155;" horiz-adv-x="754" 
d="M12 0l237 1117h211l-18 -189h10q40 69 84.5 115.5t98 70.5t117.5 24q22 0 45.5 -3t44.5 -10l-70 -278q-18 7 -42 11.5t-52 4.5q-52 0 -96.5 -24t-80 -67.5t-61.5 -103.5t-42 -132l-113 -536h-273zM412 1241l2 23q38 45 77 97.5t75.5 106t67.5 101.5h307l-1 -17
q-22 -27 -64.5 -69.5t-93 -89t-98 -87t-79.5 -65.5h-193z" />
    <glyph glyph-name="uni0156" unicode="&#x156;" horiz-adv-x="1098" 
d="M25 0l309 1462h318q207 0 319 -90t112 -276q0 -120 -38.5 -214.5t-107 -159.5t-159.5 -97l202 -625h-307l-155 570h-93l-120 -570h-280zM474 800h69q61 0 107.5 20.5t78 57.5t47.5 86t16 106q0 78 -42 117t-128 39h-58zM210 -453v27q20 39 43.5 92.5t45 109t34.5 99.5
h258v-20q-22 -45 -56 -100t-74.5 -109t-79.5 -99h-171z" />
    <glyph glyph-name="uni0157" unicode="&#x157;" horiz-adv-x="754" 
d="M12 0l237 1117h211l-18 -189h10q40 69 84.5 115.5t98 70.5t117.5 24q22 0 45.5 -3t44.5 -10l-70 -278q-18 7 -42 11.5t-52 4.5q-52 0 -96.5 -24t-80 -67.5t-61.5 -103.5t-42 -132l-113 -536h-273zM-105 -453v27q20 39 43.5 92.5t45 109t34.5 99.5h258v-20
q-22 -45 -56 -100t-74.5 -109t-79.5 -99h-171z" />
    <glyph glyph-name="Rcaron" unicode="&#x158;" horiz-adv-x="1098" 
d="M25 0l309 1462h318q207 0 319 -90t112 -276q0 -120 -38.5 -214.5t-107 -159.5t-159.5 -97l202 -625h-307l-155 570h-93l-120 -570h-280zM474 800h69q61 0 107.5 20.5t78 57.5t47.5 86t16 106q0 78 -42 117t-128 39h-58zM595 1582q-15 44 -40 99.5t-52.5 109.5t-51.5 94
l3 25h173q20 -19 42 -45.5t46 -57t44 -63.5q55 51 104.5 92t96.5 74h186l-2 -24q-36 -35 -88 -91t-101.5 -113.5t-79.5 -99.5h-280z" />
    <glyph glyph-name="rcaron" unicode="&#x159;" horiz-adv-x="754" 
d="M12 0l237 1117h211l-18 -189h10q40 69 84.5 115.5t98 70.5t117.5 24q22 0 45.5 -3t44.5 -10l-70 -278q-18 7 -42 11.5t-52 4.5q-52 0 -96.5 -24t-80 -67.5t-61.5 -103.5t-42 -132l-113 -536h-273zM419 1241q-15 44 -40 99.5t-52.5 109.5t-51.5 94l3 25h173
q20 -19 42 -45.5t46 -57t44 -63.5q55 51 104.5 92t96.5 74h186l-2 -24q-36 -35 -88 -91t-101.5 -113.5t-79.5 -99.5h-280z" />
    <glyph glyph-name="Sacute" unicode="&#x15a;" horiz-adv-x="960" 
d="M336 -20q-105 0 -190 21.5t-147 64.5l26 269q72 -46 152 -76t161 -30q45 0 84.5 10.5t69 32.5t46 55.5t16.5 80.5q0 49 -16.5 86t-50.5 72.5t-87 79.5q-60 50 -109 105t-77 124t-28 161q0 98 32.5 179.5t94.5 141.5t151 93t202 33q96 0 186 -24t167 -72l-113 -233
q-66 39 -127.5 60t-119.5 21q-39 0 -72 -11.5t-58 -34t-39 -54.5t-14 -74q0 -47 18 -83.5t54.5 -71.5t93.5 -79q69 -52 114 -109.5t67 -125.5t22 -151q0 -105 -36.5 -190t-103.5 -145.5t-160.5 -93t-208.5 -32.5zM526 1582l2 23q38 45 77 97.5t75.5 106t67.5 101.5h307
l-1 -17q-22 -27 -64.5 -69.5t-93 -89t-98 -87t-79.5 -65.5h-193z" />
    <glyph glyph-name="sacute" unicode="&#x15b;" horiz-adv-x="847" 
d="M305 -20q-99 0 -170 15.5t-129 46.5v242q62 -40 134.5 -62.5t141.5 -22.5q44 0 80.5 14t58 41.5t21.5 68.5q0 28 -10.5 52t-40.5 53t-87 69q-61 43 -100.5 86.5t-58.5 93t-19 110.5q0 106 45.5 185t131.5 122.5t209 43.5q92 0 175.5 -23t153.5 -67l-99 -202
q-51 36 -110 57t-111 21q-49 0 -82.5 -26t-33.5 -75q0 -26 10.5 -48.5t38 -47.5t78.5 -59q59 -41 102.5 -83.5t67 -96.5t23.5 -130q0 -116 -50.5 -200.5t-144.5 -131t-225 -46.5zM409 1241l2 23q38 45 77 97.5t75.5 106t67.5 101.5h307l-1 -17q-22 -27 -64.5 -69.5t-93 -89
t-98 -87t-79.5 -65.5h-193z" />
    <glyph glyph-name="Scircumflex" unicode="&#x15c;" horiz-adv-x="960" 
d="M336 -20q-105 0 -190 21.5t-147 64.5l26 269q72 -46 152 -76t161 -30q45 0 84.5 10.5t69 32.5t46 55.5t16.5 80.5q0 49 -16.5 86t-50.5 72.5t-87 79.5q-60 50 -109 105t-77 124t-28 161q0 98 32.5 179.5t94.5 141.5t151 93t202 33q96 0 186 -24t167 -72l-113 -233
q-66 39 -127.5 60t-119.5 21q-39 0 -72 -11.5t-58 -34t-39 -54.5t-14 -74q0 -47 18 -83.5t54.5 -71.5t93.5 -79q69 -52 114 -109.5t67 -125.5t22 -151q0 -105 -36.5 -190t-103.5 -145.5t-160.5 -93t-208.5 -32.5zM327 1582l2 24q44 43 93 95t95.5 106.5t81.5 102.5h279
q16 -43 40.5 -98.5t53 -110t51.5 -94.5l-3 -25h-173q-20 22 -43 48.5t-46 57t-44 60.5q-54 -50 -103.5 -91t-97.5 -75h-186z" />
    <glyph glyph-name="scircumflex" unicode="&#x15d;" horiz-adv-x="847" 
d="M305 -20q-99 0 -170 15.5t-129 46.5v242q62 -40 134.5 -62.5t141.5 -22.5q44 0 80.5 14t58 41.5t21.5 68.5q0 28 -10.5 52t-40.5 53t-87 69q-61 43 -100.5 86.5t-58.5 93t-19 110.5q0 106 45.5 185t131.5 122.5t209 43.5q92 0 175.5 -23t153.5 -67l-99 -202
q-51 36 -110 57t-111 21q-49 0 -82.5 -26t-33.5 -75q0 -26 10.5 -48.5t38 -47.5t78.5 -59q59 -41 102.5 -83.5t67 -96.5t23.5 -130q0 -116 -50.5 -200.5t-144.5 -131t-225 -46.5zM187 1241l2 24q44 43 93 95t95.5 106.5t81.5 102.5h279q16 -43 40.5 -98.5t53 -110
t51.5 -94.5l-3 -25h-173q-20 22 -43 48.5t-46 57t-44 60.5q-54 -50 -103.5 -91t-97.5 -75h-186z" />
    <glyph glyph-name="Scedilla" unicode="&#x15e;" horiz-adv-x="960" 
d="M336 -20q-105 0 -190 21.5t-147 64.5l26 269q72 -46 152 -76t161 -30q45 0 84.5 10.5t69 32.5t46 55.5t16.5 80.5q0 49 -16.5 86t-50.5 72.5t-87 79.5q-60 50 -109 105t-77 124t-28 161q0 98 32.5 179.5t94.5 141.5t151 93t202 33q96 0 186 -24t167 -72l-113 -233
q-66 39 -127.5 60t-119.5 21q-39 0 -72 -11.5t-58 -34t-39 -54.5t-14 -74q0 -47 18 -83.5t54.5 -71.5t93.5 -79q69 -52 114 -109.5t67 -125.5t22 -151q0 -105 -36.5 -190t-103.5 -145.5t-160.5 -93t-208.5 -32.5zM235 -492q-43 0 -82 6.5t-69 14.5v156q22 -7 54 -13t66 -6
q35 0 58.5 10.5t35.5 30t12 46.5q0 36 -30.5 58.5t-101.5 28.5l100 160h157l-47 -79q61 -15 101.5 -56.5t40.5 -113.5q0 -77 -35 -131.5t-100.5 -83t-159.5 -28.5z" />
    <glyph glyph-name="scedilla" unicode="&#x15f;" horiz-adv-x="847" 
d="M305 -20q-99 0 -170 15.5t-129 46.5v242q62 -40 134.5 -62.5t141.5 -22.5q44 0 80.5 14t58 41.5t21.5 68.5q0 28 -10.5 52t-40.5 53t-87 69q-61 43 -100.5 86.5t-58.5 93t-19 110.5q0 106 45.5 185t131.5 122.5t209 43.5q92 0 175.5 -23t153.5 -67l-99 -202
q-51 36 -110 57t-111 21q-49 0 -82.5 -26t-33.5 -75q0 -26 10.5 -48.5t38 -47.5t78.5 -59q59 -41 102.5 -83.5t67 -96.5t23.5 -130q0 -116 -50.5 -200.5t-144.5 -131t-225 -46.5zM185 -492q-43 0 -82 6.5t-69 14.5v156q22 -7 54 -13t66 -6q35 0 58.5 10.5t35.5 30t12 46.5
q0 36 -30.5 58.5t-101.5 28.5l100 160h157l-47 -79q61 -15 101.5 -56.5t40.5 -113.5q0 -77 -35 -131.5t-100.5 -83t-159.5 -28.5z" />
    <glyph glyph-name="Scaron" unicode="&#x160;" horiz-adv-x="960" 
d="M336 -20q-105 0 -190 21.5t-147 64.5l26 269q72 -46 152 -76t161 -30q45 0 84.5 10.5t69 32.5t46 55.5t16.5 80.5q0 49 -16.5 86t-50.5 72.5t-87 79.5q-60 50 -109 105t-77 124t-28 161q0 98 32.5 179.5t94.5 141.5t151 93t202 33q96 0 186 -24t167 -72l-113 -233
q-66 39 -127.5 60t-119.5 21q-39 0 -72 -11.5t-58 -34t-39 -54.5t-14 -74q0 -47 18 -83.5t54.5 -71.5t93.5 -79q69 -52 114 -109.5t67 -125.5t22 -151q0 -105 -36.5 -190t-103.5 -145.5t-160.5 -93t-208.5 -32.5zM550 1582q-15 44 -40 99.5t-52.5 109.5t-51.5 94l3 25h173
q20 -19 42 -45.5t46 -57t44 -63.5q55 51 104.5 92t96.5 74h186l-2 -24q-36 -35 -88 -91t-101.5 -113.5t-79.5 -99.5h-280z" />
    <glyph glyph-name="scaron" unicode="&#x161;" horiz-adv-x="847" 
d="M305 -20q-99 0 -170 15.5t-129 46.5v242q62 -40 134.5 -62.5t141.5 -22.5q44 0 80.5 14t58 41.5t21.5 68.5q0 28 -10.5 52t-40.5 53t-87 69q-61 43 -100.5 86.5t-58.5 93t-19 110.5q0 106 45.5 185t131.5 122.5t209 43.5q92 0 175.5 -23t153.5 -67l-99 -202
q-51 36 -110 57t-111 21q-49 0 -82.5 -26t-33.5 -75q0 -26 10.5 -48.5t38 -47.5t78.5 -59q59 -41 102.5 -83.5t67 -96.5t23.5 -130q0 -116 -50.5 -200.5t-144.5 -131t-225 -46.5zM406 1241q-15 44 -40 99.5t-52.5 109.5t-51.5 94l3 25h173q20 -19 42 -45.5t46 -57t44 -63.5
q55 51 104.5 92t96.5 74h186l-2 -24q-36 -35 -88 -91t-101.5 -113.5t-79.5 -99.5h-280z" />
    <glyph glyph-name="uni0162" unicode="&#x162;" horiz-adv-x="941" 
d="M205 0l258 1220h-298l52 242h877l-52 -242h-298l-259 -1220h-280zM236 -492q-43 0 -82 6.5t-69 14.5v156q22 -7 54 -13t66 -6q35 0 58.5 10.5t35.5 30t12 46.5q0 36 -30.5 58.5t-101.5 28.5l100 160h157l-47 -79q61 -15 101.5 -56.5t40.5 -113.5q0 -77 -35 -131.5
t-100.5 -83t-159.5 -28.5z" />
    <glyph glyph-name="uni0163" unicode="&#x163;" horiz-adv-x="719" 
d="M338 -20q-121 0 -183 59.5t-62 182.5q0 29 4 63t12 76l115 538h-127l28 139l167 77l117 240h184l-50 -238h229l-47 -218h-228l-118 -554q-4 -19 -6.5 -36.5t-2.5 -29.5q0 -37 19 -53t55 -16q28 0 62 7.5t73 22.5v-212q-47 -23 -111.5 -35.5t-129.5 -12.5zM199 -492
q-43 0 -82 6.5t-69 14.5v156q22 -7 54 -13t66 -6q35 0 58.5 10.5t35.5 30t12 46.5q0 36 -30.5 58.5t-101.5 28.5l100 160h157l-47 -79q61 -15 101.5 -56.5t40.5 -113.5q0 -77 -35 -131.5t-100.5 -83t-159.5 -28.5z" />
    <glyph glyph-name="Tcaron" unicode="&#x164;" horiz-adv-x="941" 
d="M205 0l258 1220h-298l52 242h877l-52 -242h-298l-259 -1220h-280zM539 1582q-15 44 -40 99.5t-52.5 109.5t-51.5 94l3 25h173q20 -19 42 -45.5t46 -57t44 -63.5q55 51 104.5 92t96.5 74h186l-2 -24q-36 -35 -88 -91t-101.5 -113.5t-79.5 -99.5h-280z" />
    <glyph glyph-name="tcaron" unicode="&#x165;" horiz-adv-x="753" 
d="M338 -20q-121 0 -183 59.5t-62 182.5q0 29 4 63t12 76l115 538h-127l28 139l167 77l117 240h184l-50 -238h229l-47 -218h-228l-118 -554q-4 -19 -6.5 -36.5t-2.5 -29.5q0 -37 19 -53t55 -16q28 0 62 7.5t73 22.5v-212q-47 -23 -111.5 -35.5t-129.5 -12.5zM662 1235v23
q21 47 42 99.5t40 105.5t32 99h259v-20q-23 -47 -56 -100t-70.5 -106.5t-76.5 -100.5h-170z" />
    <glyph glyph-name="Tbar" unicode="&#x166;" horiz-adv-x="941" 
d="M205 0l129 614h-194l48 224h193l81 382h-297l51 242h877l-51 -242h-300l-80 -382h201l-47 -224h-202l-129 -614h-280z" />
    <glyph glyph-name="tbar" unicode="&#x167;" horiz-adv-x="718" 
d="M338 -20q-121 0 -183 59.5t-62 181.5q0 29 3.5 62.5t12.5 75.5l31 144h-117l40 188h117l44 208h-127l28 139l167 77l117 240h184l-50 -238h229l-47 -218h-228l-45 -208h201l-41 -188h-200l-33 -158q-4 -19 -6.5 -36t-2.5 -29q0 -38 19 -54t56 -16q28 0 61.5 7.5
t72.5 22.5v-212q-47 -23 -111.5 -35.5t-129.5 -12.5z" />
    <glyph glyph-name="Utilde" unicode="&#x168;" horiz-adv-x="1229" 
d="M506 -20q-128 0 -217.5 45t-136 128.5t-46.5 197.5q0 35 4.5 78t12.5 83l203 950h280l-201 -951q-8 -35 -12.5 -67.5t-4.5 -58.5q0 -79 38 -119.5t113 -40.5q72 0 120.5 31.5t80 96t52.5 164.5l201 945h281l-208 -976q-32 -153 -99.5 -267t-179.5 -176.5t-281 -62.5z
M469 1581q20 97 53 165t83 104t119 36q47 0 83.5 -16t65 -37t54 -37t52.5 -16q32 0 53.5 24.5t39.5 83.5h157q-21 -110 -59 -177.5t-88 -97.5t-109 -30q-47 0 -82.5 16.5t-64 37.5t-54.5 37t-55 16t-52 -27t-36 -82h-160z" />
    <glyph glyph-name="utilde" unicode="&#x169;" horiz-adv-x="1082" 
d="M331 -20q-84 0 -140 34t-84.5 97t-28.5 149q0 37 6.5 89.5t16.5 104.5l141 663h272l-138 -658q-9 -40 -14 -76.5t-5 -65.5q0 -52 21.5 -78.5t66.5 -26.5q58 0 103.5 50t80 136t56.5 195l113 524h272l-236 -1117h-213l14 171h-8q-38 -57 -82.5 -100t-97.5 -67t-116 -24z
M333 1240q20 97 53 165t83 104t119 36q47 0 83.5 -16t65 -37t54 -37t52.5 -16q32 0 53.5 24.5t39.5 83.5h157q-21 -110 -59 -177.5t-88 -97.5t-109 -30q-47 0 -82.5 16.5t-64 37.5t-54.5 37t-55 16t-52 -27t-36 -82h-160z" />
    <glyph glyph-name="Umacron" unicode="&#x16a;" horiz-adv-x="1229" 
d="M506 -20q-128 0 -217.5 45t-136 128.5t-46.5 197.5q0 35 4.5 78t12.5 83l203 950h280l-201 -951q-8 -35 -12.5 -67.5t-4.5 -58.5q0 -79 38 -119.5t113 -40.5q72 0 120.5 31.5t80 96t52.5 164.5l201 945h281l-208 -976q-32 -153 -99.5 -267t-179.5 -176.5t-281 -62.5z
M524 1584l41 196h577l-41 -196h-577z" />
    <glyph glyph-name="umacron" unicode="&#x16b;" horiz-adv-x="1083" 
d="M331 -20q-84 0 -140 34t-84.5 97t-28.5 149q0 37 6.5 89.5t16.5 104.5l141 663h272l-138 -658q-9 -40 -14 -76.5t-5 -65.5q0 -52 21.5 -78.5t66.5 -26.5q58 0 103.5 50t80 136t56.5 195l113 524h272l-236 -1117h-213l14 171h-8q-38 -57 -82.5 -100t-97.5 -67t-116 -24z
M386 1243l41 196h577l-41 -196h-577z" />
    <glyph glyph-name="Ubreve" unicode="&#x16c;" horiz-adv-x="1229" 
d="M506 -20q-128 0 -217.5 45t-136 128.5t-46.5 197.5q0 35 4.5 78t12.5 83l203 950h280l-201 -951q-8 -35 -12.5 -67.5t-4.5 -58.5q0 -79 38 -119.5t113 -40.5q72 0 120.5 31.5t80 96t52.5 164.5l201 945h281l-208 -976q-32 -153 -99.5 -267t-179.5 -176.5t-281 -62.5z
M822 1582q-102 0 -164 34.5t-89.5 91t-27.5 122.5q0 22 2.5 43t5.5 40h163q0 -44 12 -74t39.5 -45.5t71.5 -15.5q66 0 108.5 30t60.5 105h172q-27 -159 -115.5 -245t-238.5 -86z" />
    <glyph glyph-name="ubreve" unicode="&#x16d;" horiz-adv-x="1082" 
d="M331 -20q-84 0 -140 34t-84.5 97t-28.5 149q0 37 6.5 89.5t16.5 104.5l141 663h272l-138 -658q-9 -40 -14 -76.5t-5 -65.5q0 -52 21.5 -78.5t66.5 -26.5q58 0 103.5 50t80 136t56.5 195l113 524h272l-236 -1117h-213l14 171h-8q-38 -57 -82.5 -100t-97.5 -67t-116 -24z
M686 1241q-102 0 -164 34.5t-89.5 91t-27.5 122.5q0 22 2.5 43t5.5 40h163q0 -44 12 -74t39.5 -45.5t71.5 -15.5q66 0 108.5 30t60.5 105h172q-27 -159 -115.5 -245t-238.5 -86z" />
    <glyph glyph-name="Uring" unicode="&#x16e;" horiz-adv-x="1229" 
d="M506 -20q-128 0 -217.5 45t-136 128.5t-46.5 197.5q0 35 4.5 78t12.5 83l203 950h280l-201 -951q-8 -35 -12.5 -67.5t-4.5 -58.5q0 -79 38 -119.5t113 -40.5q72 0 120.5 31.5t80 96t52.5 164.5l201 945h281l-208 -976q-32 -153 -99.5 -267t-179.5 -176.5t-281 -62.5z
M841 1582q-110 0 -175 63t-65 171q0 106 66 168.5t174 62.5q104 0 173 -62t69 -166q0 -107 -67.5 -172t-174.5 -65zM841 1716q43 0 71 26.5t28 72.5q0 44 -27 71.5t-71 27.5q-46 0 -73 -27.5t-27 -71.5q0 -46 25 -72.5t74 -26.5z" />
    <glyph glyph-name="uring" unicode="&#x16f;" horiz-adv-x="1082" 
d="M331 -20q-84 0 -140 34t-84.5 97t-28.5 149q0 37 6.5 89.5t16.5 104.5l141 663h272l-138 -658q-9 -40 -14 -76.5t-5 -65.5q0 -52 21.5 -78.5t66.5 -26.5q58 0 103.5 50t80 136t56.5 195l113 524h272l-236 -1117h-213l14 171h-8q-38 -57 -82.5 -100t-97.5 -67t-116 -24z
M714 1241q-110 0 -175 63t-65 171q0 106 66 168.5t174 62.5q104 0 173 -62t69 -166q0 -107 -67.5 -172t-174.5 -65zM714 1375q43 0 71 26.5t28 72.5q0 44 -27 71.5t-71 27.5q-46 0 -73 -27.5t-27 -71.5q0 -46 25 -72.5t74 -26.5z" />
    <glyph glyph-name="Uhungarumlaut" unicode="&#x170;" horiz-adv-x="1229" 
d="M506 -20q-128 0 -217.5 45t-136 128.5t-46.5 197.5q0 35 4.5 78t12.5 83l203 950h280l-201 -951q-8 -35 -12.5 -67.5t-4.5 -58.5q0 -79 38 -119.5t113 -40.5q72 0 120.5 31.5t80 96t52.5 164.5l201 945h281l-208 -976q-32 -153 -99.5 -267t-179.5 -176.5t-281 -62.5z
M893 1582l2 24q43 53 83.5 108t76 105.5t59.5 90.5h271l-1 -17q-22 -28 -62 -69t-89 -86t-97.5 -86t-86.5 -70h-156zM526 1582l2 24q43 54 84 109t76 105.5t60 89.5h269l-1 -17q-20 -29 -59.5 -69.5t-89 -85t-99.5 -85.5t-92 -71h-150z" />
    <glyph glyph-name="uhungarumlaut" unicode="&#x171;" horiz-adv-x="1082" 
d="M331 -20q-84 0 -140 34t-84.5 97t-28.5 149q0 37 6.5 89.5t16.5 104.5l141 663h272l-138 -658q-9 -40 -14 -76.5t-5 -65.5q0 -52 21.5 -78.5t66.5 -26.5q58 0 103.5 50t80 136t56.5 195l113 524h272l-236 -1117h-213l14 171h-8q-38 -57 -82.5 -100t-97.5 -67t-116 -24z
M747 1241l2 24q43 53 83.5 108t76 105.5t59.5 90.5h271l-1 -17q-22 -28 -62 -69t-89 -86t-97.5 -86t-86.5 -70h-156zM380 1241l2 24q43 54 84 109t76 105.5t60 89.5h269l-1 -17q-20 -29 -59.5 -69.5t-89 -85t-99.5 -85.5t-92 -71h-150z" />
    <glyph glyph-name="Uogonek" unicode="&#x172;" horiz-adv-x="1229" 
d="M506 -20q-128 0 -217.5 45t-136 128.5t-46.5 197.5q0 35 4.5 78t12.5 83l203 950h280l-201 -951q-8 -35 -12.5 -67.5t-4.5 -58.5q0 -79 38 -119.5t113 -40.5q72 0 120.5 31.5t80 96t52.5 164.5l201 945h281l-208 -976q-32 -153 -99.5 -267t-179.5 -176.5t-281 -62.5z
M477 -483q-96 0 -147 49t-51 128q0 64 26.5 117t74 99.5t110.5 89.5h176q-51 -45 -89.5 -86t-60 -81t-22.5 -83q0 -27 15.5 -41.5t39.5 -14.5q23 0 46 5t48 11l-18 -171q-34 -11 -70 -16.5t-78 -5.5z" />
    <glyph glyph-name="uogonek" unicode="&#x173;" horiz-adv-x="1082" 
d="M331 -20q-84 0 -140 34t-84.5 97t-28.5 149q0 37 6.5 89.5t16.5 104.5l141 663h272l-138 -658q-9 -40 -14 -76.5t-5 -65.5q0 -52 21.5 -78.5t66.5 -26.5q58 0 103.5 50t80 136t56.5 195l113 524h272l-236 -1117h-213l14 171h-8q-38 -57 -82.5 -100t-97.5 -67t-116 -24z
M626 -483q-96 0 -147 49t-51 128q0 64 26.5 117t74 99.5t110.5 89.5h176q-51 -45 -89.5 -86t-60 -81t-22.5 -83q0 -27 15.5 -41.5t39.5 -14.5q23 0 46 5t48 11l-18 -171q-34 -11 -70 -16.5t-78 -5.5z" />
    <glyph glyph-name="Wcircumflex" unicode="&#x174;" horiz-adv-x="1633" 
d="M184 0v1462h268l-12 -779q-2 -80 -6 -160.5t-11 -145.5h6q26 73 55.5 152t57.5 144l335 789h244l-4 -783q-1 -69 -3.5 -148t-8.5 -153h6q17 51 35.5 104t39 106t39.5 101l308 773h284l-608 -1462h-320l3 690q-1 59 -0.5 105t2 88t3.5 86h-6q-20 -65 -42 -125.5
t-47 -118.5l-303 -725h-315zM664 1582l2 24q44 43 93 95t95.5 106.5t81.5 102.5h279q16 -43 40.5 -98.5t53 -110t51.5 -94.5l-3 -25h-173q-20 22 -43 48.5t-46 57t-44 60.5q-54 -50 -103.5 -91t-97.5 -75h-186z" />
    <glyph glyph-name="wcircumflex" unicode="&#x175;" horiz-adv-x="1435" 
d="M141 0l-13 1117h261l-8 -490q-2 -72 -5.5 -142.5t-9.5 -145.5h7q12 42 29 92t33.5 94.5t26.5 70.5l213 521h303l-11 -517q-2 -64 -5 -131t-8 -137h7q15 45 32.5 99t36.5 107.5t35 94.5l199 484h276l-489 -1117h-307l12 556q1 37 3 83.5t4.5 94.5t4.5 88h-8
q-13 -38 -28 -81.5t-30 -84.5t-28 -74l-234 -582h-299zM493 1241l2 24q44 43 93 95t95.5 106.5t81.5 102.5h279q16 -43 40.5 -98.5t53 -110t51.5 -94.5l-3 -25h-173q-20 22 -43 48.5t-46 57t-44 60.5q-54 -50 -103.5 -91t-97.5 -75h-186z" />
    <glyph glyph-name="Ycircumflex" unicode="&#x176;" horiz-adv-x="1013" 
d="M243 0l118 558l-177 904h290l87 -580l330 580h308l-557 -900l-120 -562h-279zM343 1582l2 24q44 43 93 95t95.5 106.5t81.5 102.5h279q16 -43 40.5 -98.5t53 -110t51.5 -94.5l-3 -25h-173q-20 22 -43 48.5t-46 57t-44 60.5q-54 -50 -103.5 -91t-97.5 -75h-186z" />
    <glyph glyph-name="ycircumflex" unicode="&#x177;" horiz-adv-x="943" 
d="M-8 -492q-48 0 -81.5 5.5t-58.5 13.5l20 231q25 -7 49.5 -11.5t51.5 -4.5q73 0 119 45t84 119l47 101l-106 1110h271l29 -522q3 -40 4 -84.5t0.5 -88t-1.5 -81.5h7q13 36 26.5 76.5t29.5 82.5t34 81l242 536h293l-632 -1281q-52 -104 -114 -177.5t-138.5 -112
t-175.5 -38.5zM231 1241l2 24q44 43 93 95t95.5 106.5t81.5 102.5h279q16 -43 40.5 -98.5t53 -110t51.5 -94.5l-3 -25h-173q-20 22 -43 48.5t-46 57t-44 60.5q-54 -50 -103.5 -91t-97.5 -75h-186z" />
    <glyph glyph-name="Ydieresis" unicode="&#x178;" horiz-adv-x="1013" 
d="M243 0l118 558l-177 904h290l87 -580l330 580h308l-557 -900l-120 -562h-279zM890 1614q-52 0 -83 24.5t-31 78.5q0 71 39.5 116.5t111.5 45.5q47 0 78 -23.5t31 -76.5q0 -74 -39 -119.5t-107 -45.5zM525 1614q-52 0 -83 24.5t-31 78.5q0 71 39 116.5t111 45.5
q32 0 56.5 -10t38.5 -32t14 -58q0 -74 -39 -119.5t-106 -45.5z" />
    <glyph glyph-name="Zacute" unicode="&#x179;" horiz-adv-x="948" 
d="M-71 0l38 193l708 1030h-474l50 239h816l-40 -194l-711 -1027h512l-50 -241h-849zM523 1582l2 23q38 45 77 97.5t75.5 106t67.5 101.5h307l-1 -17q-22 -27 -64.5 -69.5t-93 -89t-98 -87t-79.5 -65.5h-193z" />
    <glyph glyph-name="zacute" unicode="&#x17a;" horiz-adv-x="813" 
d="M-63 0l34 166l529 730h-350l48 221h666l-39 -183l-519 -713h384l-47 -221h-706zM399 1241l2 23q38 45 77 97.5t75.5 106t67.5 101.5h307l-1 -17q-22 -27 -64.5 -69.5t-93 -89t-98 -87t-79.5 -65.5h-193z" />
    <glyph glyph-name="Zdotaccent" unicode="&#x17b;" horiz-adv-x="948" 
d="M-71 0l38 193l708 1030h-474l50 239h816l-40 -194l-711 -1027h512l-50 -241h-849zM696 1601q-62 0 -99.5 29.5t-37.5 88.5q0 77 45 126t127 49q41 0 71 -12t47 -37.5t17 -67.5q0 -75 -42.5 -125.5t-127.5 -50.5z" />
    <glyph glyph-name="zdotaccent" unicode="&#x17c;" horiz-adv-x="813" 
d="M-63 0l34 166l529 730h-350l48 221h666l-39 -183l-519 -713h384l-47 -221h-706zM560 1260q-62 0 -99.5 29.5t-37.5 88.5q0 77 45 126t127 49q41 0 71 -12t47 -37.5t17 -67.5q0 -75 -42.5 -125.5t-127.5 -50.5z" />
    <glyph glyph-name="Zcaron" unicode="&#x17d;" horiz-adv-x="948" 
d="M-71 0l38 193l708 1030h-474l50 239h816l-40 -194l-711 -1027h512l-50 -241h-849zM542 1582q-15 44 -40 99.5t-52.5 109.5t-51.5 94l3 25h173q20 -19 42 -45.5t46 -57t44 -63.5q55 51 104.5 92t96.5 74h186l-2 -24q-36 -35 -88 -91t-101.5 -113.5t-79.5 -99.5h-280z" />
    <glyph glyph-name="zcaron" unicode="&#x17e;" horiz-adv-x="813" 
d="M-63 0l34 166l529 730h-350l48 221h666l-39 -183l-519 -713h384l-47 -221h-706zM400 1241q-15 44 -40 99.5t-52.5 109.5t-51.5 94l3 25h173q20 -19 42 -45.5t46 -57t44 -63.5q55 51 104.5 92t96.5 74h186l-2 -24q-36 -35 -88 -91t-101.5 -113.5t-79.5 -99.5h-280z" />
    <glyph glyph-name="longs" unicode="&#x17f;" horiz-adv-x="625" 
d="M-92 -492q-41 0 -80.5 5.5t-71.5 16.5v230q25 -10 53 -15t52 -5q64 0 99 44t54 133l274 1287q24 118 69.5 198.5t119 122.5t179.5 42q59 0 114 -11.5t104 -35.5l-83 -207q-24 13 -51.5 20.5t-57.5 7.5q-36 0 -61.5 -22t-41.5 -60.5t-26 -88.5l-273 -1286
q-23 -109 -66 -194t-116.5 -133.5t-189.5 -48.5z" />
    <glyph glyph-name="florin" unicode="&#x192;" horiz-adv-x="1009" 
d="M97 -492q-48 0 -89.5 8t-69.5 18v227q30 -12 61.5 -18t54.5 -6q54 0 87.5 39.5t52.5 129.5l190 895h-146l27 139l165 76l24 106q31 135 79 214t119.5 113t171.5 34q60 0 113.5 -12t105.5 -37l-85 -206q-30 14 -57 21.5t-57 7.5q-52 0 -79.5 -41t-42.5 -110l-18 -87h193
l-46 -218h-194l-194 -910q-24 -119 -68 -205t-116 -132t-182 -46z" />
    <glyph glyph-name="Ohorn" unicode="&#x1a0;" horiz-adv-x="1355" 
d="M556 -20q-152 0 -253.5 59.5t-153 173.5t-51.5 278q0 115 19.5 233t59 229.5t98.5 208t137.5 169t177 113.5t216.5 41q137 0 231.5 -50.5t148.5 -145.5q53 38 86.5 107t47.5 160h264l10 -22q-39 -159 -124 -264t-223 -162q6 -29 8.5 -60.5t2.5 -64.5q0 -119 -19 -239
t-57.5 -232.5t-97 -208.5t-136.5 -168.5t-175.5 -113.5t-216.5 -41zM578 225q58 0 110 31.5t95.5 87.5t78 130.5t58.5 159t37 173.5t13 175q0 125 -47 192.5t-140 67.5q-59 0 -111.5 -32t-96.5 -88.5t-79 -130.5t-59.5 -158t-37 -172t-12.5 -171q0 -93 22 -151.5t65 -86
t104 -27.5z" />
    <glyph glyph-name="ohorn" unicode="&#x1a1;" horiz-adv-x="1156" 
d="M434 -20q-111 0 -194 47.5t-129 136.5t-46 212q0 114 22.5 225t67 208t111.5 171t155.5 116t198.5 42q99 0 174 -38t122 -111q50 26 82.5 70t51.5 102t28 122h260l8 -22q-26 -112 -70.5 -197t-116.5 -144t-182 -94q5 -22 6.5 -45t1.5 -47q0 -112 -22 -221.5t-66 -205.5
t-110 -169.5t-154.5 -115.5t-198.5 -42zM461 207q47 0 85.5 33t69 88.5t51.5 124.5t32 142.5t11 140.5q0 54 -11.5 93t-37.5 60t-69 21q-49 0 -89 -36.5t-70.5 -96.5t-51 -131t-31 -142.5t-10.5 -129.5q0 -82 30 -124.5t91 -42.5z" />
    <glyph glyph-name="Uhorn" unicode="&#x1af;" horiz-adv-x="1395" 
d="M502 -20q-126 0 -214.5 46.5t-135 131.5t-46.5 198q0 35 4.5 75.5t12.5 80.5l203 950h280l-201 -951q-8 -35 -12.5 -67.5t-4.5 -58.5q0 -79 38 -119.5t113 -40.5q68 0 117 31.5t82 96t54 164.5l201 945h281l-42 -196q53 14 87.5 54.5t55.5 101.5t31 134h265l8 -22
q-22 -92 -61.5 -171t-98.5 -138.5t-140 -95t-186 -42.5l-127 -601q-32 -153 -100.5 -267t-182.5 -176.5t-281 -62.5z" />
    <glyph glyph-name="uhorn" unicode="&#x1b0;" horiz-adv-x="1274" 
d="M329 -20q-83 0 -139.5 34t-85.5 97t-29 149q0 38 7.5 90t18.5 106l139 661h273l-139 -658q-8 -40 -13 -76t-5 -64q0 -53 21.5 -79.5t66.5 -26.5q58 0 103.5 49.5t80 135.5t56.5 195l112 524h273l-26 -124q57 15 91 57t53 102.5t30 129.5h264l8 -22q-21 -88 -59 -165.5
t-96 -138.5t-139.5 -98.5t-189.5 -45.5l-172 -812h-212l14 171h-7q-37 -57 -82.5 -100t-99.5 -67t-117 -24z" />
    <glyph glyph-name="uni01EA" unicode="&#x1ea;" horiz-adv-x="1297" 
d="M556 -20q-152 0 -253.5 59.5t-153 173.5t-51.5 278q0 113 19.5 230t58 228.5t97.5 208.5t137.5 170.5t177.5 115t218 41.5q229 0 340.5 -132t111.5 -370q0 -108 -17.5 -223.5t-54 -228t-93.5 -211.5t-134.5 -175.5t-178 -120.5t-224.5 -44zM578 225q59 0 110.5 31.5
t95 87t78 129t58.5 158.5t37 174.5t13 176.5q0 125 -47 192.5t-140 67.5q-61 0 -115 -33.5t-97.5 -92t-78 -133.5t-58 -159.5t-35.5 -170t-12 -163.5q0 -93 22 -151.5t65 -86t104 -27.5zM486 -483q-96 0 -147 49t-51 128q0 64 26.5 117t74 99.5t110.5 89.5h176
q-51 -45 -89.5 -86t-60 -81t-22.5 -83q0 -27 15.5 -41.5t39.5 -14.5q23 0 46 5t48 11l-18 -171q-34 -11 -70 -16.5t-78 -5.5z" />
    <glyph glyph-name="uni01EB" unicode="&#x1eb;" horiz-adv-x="1054" 
d="M436 -20q-112 0 -195 47.5t-128.5 136.5t-45.5 212q0 103 20.5 210t62.5 206t108 177t156.5 123.5t207.5 45.5q113 0 195 -48t126 -138.5t44 -217.5q0 -106 -20.5 -213t-63 -204.5t-107.5 -173t-155 -119.5t-205 -44zM463 207q47 0 86 32.5t69 88.5t51 125t32 142t11 140
q0 53 -11.5 92.5t-37.5 61.5t-69 22q-50 0 -90.5 -36.5t-71 -96t-50.5 -130.5t-30 -142.5t-10 -130.5q0 -81 30 -124.5t91 -43.5zM356 -483q-96 0 -147 49t-51 128q0 64 26.5 117t74 99.5t110.5 89.5h176q-51 -45 -89.5 -86t-60 -81t-22.5 -83q0 -27 15.5 -41.5t39.5 -14.5
q23 0 46 5t48 11l-18 -171q-34 -11 -70 -16.5t-78 -5.5z" />
    <glyph glyph-name="uni01EC" unicode="&#x1ec;" horiz-adv-x="1297" 
d="M556 -20q-152 0 -253.5 59.5t-153 173.5t-51.5 278q0 113 19.5 230t58 228.5t97.5 208.5t137.5 170.5t177.5 115t218 41.5q229 0 340.5 -132t111.5 -370q0 -108 -17.5 -223.5t-54 -228t-93.5 -211.5t-134.5 -175.5t-178 -120.5t-224.5 -44zM578 225q59 0 110.5 31.5
t95 87t78 129t58.5 158.5t37 174.5t13 176.5q0 125 -47 192.5t-140 67.5q-61 0 -115 -33.5t-97.5 -92t-78 -133.5t-58 -159.5t-35.5 -170t-12 -163.5q0 -93 22 -151.5t65 -86t104 -27.5zM568 1598l41 196h577l-41 -196h-577zM486 -483q-96 0 -147 49t-51 128q0 64 26.5 117
t74 99.5t110.5 89.5h176q-51 -45 -89.5 -86t-60 -81t-22.5 -83q0 -27 15.5 -41.5t39.5 -14.5q23 0 46 5t48 11l-18 -171q-34 -11 -70 -16.5t-78 -5.5z" />
    <glyph glyph-name="uni01ED" unicode="&#x1ed;" horiz-adv-x="1054" 
d="M436 -20q-112 0 -195 47.5t-128.5 136.5t-45.5 212q0 103 20.5 210t62.5 206t108 177t156.5 123.5t207.5 45.5q113 0 195 -48t126 -138.5t44 -217.5q0 -106 -20.5 -213t-63 -204.5t-107.5 -173t-155 -119.5t-205 -44zM463 207q47 0 86 32.5t69 88.5t51 125t32 142t11 140
q0 53 -11.5 92.5t-37.5 61.5t-69 22q-50 0 -90.5 -36.5t-71 -96t-50.5 -130.5t-30 -142.5t-10 -130.5q0 -81 30 -124.5t91 -43.5zM362 1243l41 196h577l-41 -196h-577zM356 -483q-96 0 -147 49t-51 128q0 64 26.5 117t74 99.5t110.5 89.5h176q-51 -45 -89.5 -86t-60 -81
t-22.5 -83q0 -27 15.5 -41.5t39.5 -14.5q23 0 46 5t48 11l-18 -171q-34 -11 -70 -16.5t-78 -5.5z" />
    <glyph glyph-name="uni01F0" unicode="&#x1f0;" horiz-adv-x="533" 
d="M-109 -492q-41 0 -80.5 5.5t-71.5 16.5v230q25 -10 52.5 -15t52.5 -5q41 0 70.5 18.5t50.5 59t34 105.5l253 1194h273l-261 -1225q-23 -113 -65.5 -199.5t-116 -135.5t-191.5 -49zM261 1241q-15 44 -40 99.5t-52.5 109.5t-51.5 94l3 25h173q20 -19 42 -45.5t46 -57
t44 -63.5q55 51 104.5 92t96.5 74h186l-2 -24q-36 -35 -88 -91t-101.5 -113.5t-79.5 -99.5h-280z" />
    <glyph glyph-name="Aringacute" unicode="&#x1fa;" horiz-adv-x="1125" 
d="M-124 0l655 1345q-16 22 -24 51t-8 62q0 106 66 169t174 63q105 0 174 -63.5t69 -165.5q0 -54 -19.5 -96t-52.5 -69l92 -1296h-284l-16 346h-367l-158 -346h-301zM444 590h258l-9 359q-2 39 -4 98.5t-1 116.5h-8q-16 -53 -36.5 -104.5t-36.5 -91.5zM739 1359
q44 0 71.5 26.5t27.5 71.5t-27 71.5t-72 26.5q-44 0 -71 -26.5t-27 -71.5t24.5 -71.5t73.5 -26.5zM673 1745l1 13q32 30 67.5 64.5t69 70.5t59.5 69h317l-1 -10q-36 -32 -92 -72t-114.5 -76t-100.5 -59h-206z" />
    <glyph glyph-name="aringacute" unicode="&#x1fb;" horiz-adv-x="1076" 
d="M336 -20q-76 0 -137.5 39t-97.5 119.5t-36 203.5q0 100 20 209.5t59.5 213.5t98 188.5t134.5 134.5t170 50q57 0 102 -18t78.5 -53.5t54.5 -87.5h7l53 138h222l-237 -1117h-212l7 144h-7q-38 -49 -80 -85.5t-90.5 -57.5t-108.5 -21zM445 207q59 0 105.5 50t79.5 127
t50 157q15 68 21.5 118.5t6.5 99.5q0 68 -30.5 109t-83.5 41q-44 0 -82 -35t-68.5 -94t-53 -130.5t-34.5 -145.5t-12 -139q0 -78 25.5 -118t75.5 -40zM684 1199q-109 0 -174 62.5t-65 170.5q0 107 65.5 169.5t173.5 62.5q104 0 172.5 -62t70.5 -167q0 -107 -67.5 -171.5
t-175.5 -64.5zM685 1333q43 0 71.5 26.5t28.5 72.5q0 44 -27.5 71.5t-72.5 27.5q-44 0 -71 -27.5t-27 -71.5q0 -47 24.5 -73t73.5 -26zM628 1737l1 14q32 30 66.5 65.5t68.5 72.5t61 73h319l-1 -11q-36 -33 -92.5 -74t-115.5 -78.5t-102 -61.5h-205z" />
    <glyph glyph-name="AEacute" unicode="&#x1fc;" horiz-adv-x="1556" 
d="M-128 0l815 1462h953l-51 -238h-428l-72 -345h398l-51 -239h-399l-84 -399h428l-51 -241h-707l77 361h-330l-196 -361h-302zM504 604h248l131 620h-51zM866 1582l2 23q38 45 77 97.5t75.5 106t67.5 101.5h307l-1 -17q-22 -27 -64.5 -69.5t-93 -89t-98 -87t-79.5 -65.5
h-193z" />
    <glyph glyph-name="aeacute" unicode="&#x1fd;" horiz-adv-x="1573" 
d="M325 -20q-78 0 -136.5 42.5t-91 124t-32.5 197.5q0 114 21.5 228t63 215.5t100 180.5t132.5 124.5t161 45.5q54 0 97 -16.5t76.5 -49.5t56.5 -82h8l43 127h181l-18 -90q45 49 111 79.5t147 30.5q138 0 215.5 -78t77.5 -205q0 -93 -38 -166t-113 -124t-184 -77t-250 -26
h-35q-4 -20 -5.5 -38t-1.5 -37q0 -86 41 -139t141 -53q69 0 144 23t148 63l-21 -219q-75 -39 -153 -60t-166 -21q-95 0 -154.5 28.5t-92.5 82.5l-18 -91h-180l17 141h-7q-38 -48 -80 -84t-92.5 -56.5t-112.5 -20.5zM443 206q42 0 77.5 27t63.5 72.5t49 102t35 115.5
q16 70 23 126t7 105q0 73 -26.5 114t-80.5 41q-42 0 -79.5 -33t-68 -89t-53 -126.5t-34.5 -146.5t-12 -147q0 -84 28 -122.5t71 -38.5zM952 651h26q111 0 177.5 25.5t96 68.5t29.5 95q0 44 -24.5 67.5t-69.5 23.5q-53 0 -99.5 -38t-81.5 -102t-54 -140zM762 1241l2 23
q38 45 77 97.5t75.5 106t67.5 101.5h307l-1 -17q-22 -27 -64.5 -69.5t-93 -89t-98 -87t-79.5 -65.5h-193z" />
    <glyph glyph-name="Oslashacute" unicode="&#x1fe;" horiz-adv-x="1298" 
d="M189 -97l-137 92l122 172q-38 61 -57 143t-19 181q0 113 19 230t58 228.5t97.5 208.5t137.5 170.5t177.5 115t217.5 41.5q82 0 149 -19t117 -56l98 136l135 -93l-117 -164q36 -60 53.5 -137t17.5 -169q0 -108 -17.5 -223.5t-54 -228t-93.5 -211.5t-135 -175.5
t-178 -120.5t-225 -44q-80 0 -145 17.5t-117 51.5zM579 221q56 0 106.5 27.5t93 76t76.5 114.5t59 144.5t39 164t17 173.5q2 17 1.5 36.5t-0.5 36.5l-519 -722q21 -25 54 -38t73 -13zM388 454l526 731q-23 29 -56 44.5t-77 15.5q-60 0 -112 -29.5t-94.5 -81t-76.5 -120
t-57.5 -146t-37.5 -159t-17 -160.5q0 -24 0.5 -48t1.5 -47zM703 1579l2 23q38 45 77 97.5t75.5 106t67.5 101.5h307l-1 -17q-22 -27 -64.5 -69.5t-93 -89t-98 -87t-79.5 -65.5h-193z" />
    <glyph glyph-name="oslashacute" unicode="&#x1ff;" horiz-adv-x="1054" 
d="M140 -114l-126 89l115 162q-30 47 -45.5 107.5t-15.5 131.5q0 102 20 209t62.5 205.5t108 177t156.5 124.5t208 46q56 0 105.5 -13.5t88.5 -39.5l77 109l130 -91l-93 -131q27 -48 42 -107.5t15 -130.5q0 -102 -20 -208t-62 -203.5t-107.5 -175t-155 -122.5t-206.5 -45
q-55 0 -103.5 12.5t-89.5 35.5zM462 198q48 0 86.5 28.5t68 77t50.5 108.5t33.5 122.5t17.5 120.5q2 12 2 24v23l-338 -472q13 -14 34.5 -23t45.5 -9zM335 404l344 480q-13 16 -35 26t-49 10q-49 0 -87.5 -29t-68.5 -78t-50.5 -109.5t-33 -124t-17.5 -121.5q-1 -14 -2 -27.5
t-1 -26.5zM526 1241l2 23q38 45 77 97.5t75.5 106t67.5 101.5h307l-1 -17q-22 -27 -64.5 -69.5t-93 -89t-98 -87t-79.5 -65.5h-193z" />
    <glyph glyph-name="uni0218" unicode="&#x218;" horiz-adv-x="960" 
d="M336 -20q-105 0 -190 21.5t-147 64.5l26 269q72 -46 152 -76t161 -30q45 0 84.5 10.5t69 32.5t46 55.5t16.5 80.5q0 49 -16.5 86t-50.5 72.5t-87 79.5q-60 50 -109 105t-77 124t-28 161q0 98 32.5 179.5t94.5 141.5t151 93t202 33q96 0 186 -24t167 -72l-113 -233
q-66 39 -127.5 60t-119.5 21q-39 0 -72 -11.5t-58 -34t-39 -54.5t-14 -74q0 -47 18 -83.5t54.5 -71.5t93.5 -79q69 -52 114 -109.5t67 -125.5t22 -151q0 -105 -36.5 -190t-103.5 -145.5t-160.5 -93t-208.5 -32.5zM79 -453v27q20 39 43.5 92.5t45 109t34.5 99.5h258v-20
q-22 -45 -56 -100t-74.5 -109t-79.5 -99h-171z" />
    <glyph glyph-name="uni0219" unicode="&#x219;" horiz-adv-x="847" 
d="M305 -20q-99 0 -170 15.5t-129 46.5v242q62 -40 134.5 -62.5t141.5 -22.5q44 0 80.5 14t58 41.5t21.5 68.5q0 28 -10.5 52t-40.5 53t-87 69q-61 43 -100.5 86.5t-58.5 93t-19 110.5q0 106 45.5 185t131.5 122.5t209 43.5q92 0 175.5 -23t153.5 -67l-99 -202
q-51 36 -110 57t-111 21q-49 0 -82.5 -26t-33.5 -75q0 -26 10.5 -48.5t38 -47.5t78.5 -59q59 -41 102.5 -83.5t67 -96.5t23.5 -130q0 -116 -50.5 -200.5t-144.5 -131t-225 -46.5zM43 -453v27q20 39 43.5 92.5t45 109t34.5 99.5h258v-20q-22 -45 -56 -100t-74.5 -109
t-79.5 -99h-171z" />
    <glyph glyph-name="uni021A" unicode="&#x21a;" horiz-adv-x="941" 
d="M205 0l258 1220h-298l52 242h877l-52 -242h-298l-259 -1220h-280zM86 -453v27q20 39 43.5 92.5t45 109t34.5 99.5h258v-20q-22 -45 -56 -100t-74.5 -109t-79.5 -99h-171z" />
    <glyph glyph-name="uni021B" unicode="&#x21b;" horiz-adv-x="719" 
d="M338 -20q-121 0 -183 59.5t-62 182.5q0 29 4 63t12 76l115 538h-127l28 139l167 77l117 240h184l-50 -238h229l-47 -218h-228l-118 -554q-4 -19 -6.5 -36.5t-2.5 -29.5q0 -37 19 -53t55 -16q28 0 62 7.5t73 22.5v-212q-47 -23 -111.5 -35.5t-129.5 -12.5zM50 -453v27
q20 39 43.5 92.5t45 109t34.5 99.5h258v-20q-22 -45 -56 -100t-74.5 -109t-79.5 -99h-171z" />
    <glyph glyph-name="uni0237" unicode="&#x237;" horiz-adv-x="533" 
d="M-109 -492q-41 0 -80.5 5.5t-71.5 16.5v230q25 -10 52.5 -15t52.5 -5q41 0 70.5 18.5t50.5 59t34 105.5l253 1194h273l-261 -1225q-23 -113 -65.5 -199.5t-116 -135.5t-191.5 -49z" />
    <glyph glyph-name="uni0259" unicode="&#x259;" horiz-adv-x="1003" 
d="M358 -20q-156 0 -241 77t-85 206q0 93 38.5 165.5t113.5 123.5t184.5 77.5t251.5 26.5h33q4 20 5.5 39t1.5 38q0 95 -44.5 142.5t-128.5 47.5q-76 0 -143 -20t-156 -66l20 221q79 42 158.5 60.5t179.5 18.5q117 0 204 -44.5t134.5 -133t47.5 -217.5q0 -145 -37 -281
t-110 -244.5t-180 -172.5t-247 -64zM385 187q49 0 95 34t83 96.5t57 147.5h-29q-109 0 -175 -25t-95.5 -68t-29.5 -95q0 -44 25 -67t69 -23z" />
    <glyph glyph-name="uni02BC" unicode="&#x2bc;" horiz-adv-x="442" 
d="M115 941q36 84 70 173.5t65.5 178t56.5 169.5h265l6 -21q-33 -83 -73.5 -170t-85.5 -170.5t-91 -159.5h-213z" />
    <glyph glyph-name="circumflex" unicode="&#x2c6;" horiz-adv-x="859" 
d="M229 1241l2 24q44 43 93 95t95.5 106.5t81.5 102.5h279q16 -43 40.5 -98.5t53 -110t51.5 -94.5l-3 -25h-173q-20 22 -43 48.5t-46 57t-44 60.5q-54 -50 -103.5 -91t-97.5 -75h-186z" />
    <glyph glyph-name="caron" unicode="&#x2c7;" horiz-adv-x="859" 
d="M438 1241q-15 44 -40 99.5t-52.5 109.5t-51.5 94l3 25h173q20 -19 42 -45.5t46 -57t44 -63.5q55 51 104.5 92t96.5 74h186l-2 -24q-36 -35 -88 -91t-101.5 -113.5t-79.5 -99.5h-280z" />
    <glyph glyph-name="macron" unicode="&#x2c9;" horiz-adv-x="741" 
d="M228 1243l41 196h577l-41 -196h-577z" />
    <glyph glyph-name="breve" unicode="&#x2d8;" horiz-adv-x="792" 
d="M570 1241q-102 0 -164 34.5t-89.5 91t-27.5 122.5q0 22 2.5 43t5.5 40h163q0 -44 12 -74t39.5 -45.5t71.5 -15.5q66 0 108.5 30t60.5 105h172q-27 -159 -115.5 -245t-238.5 -86z" />
    <glyph glyph-name="dotaccent" unicode="&#x2d9;" horiz-adv-x="468" 
d="M398 1260q-62 0 -99.5 29.5t-37.5 88.5q0 77 45 126t127 49q41 0 71 -12t47 -37.5t17 -67.5q0 -75 -42.5 -125.5t-127.5 -50.5z" />
    <glyph glyph-name="ring" unicode="&#x2da;" horiz-adv-x="659" 
d="M523 1241q-110 0 -175 63t-65 171q0 106 66 168.5t174 62.5q104 0 173 -62t69 -166q0 -107 -67.5 -172t-174.5 -65zM523 1375q43 0 71 26.5t28 72.5q0 44 -27 71.5t-71 27.5q-46 0 -73 -27.5t-27 -71.5q0 -46 25 -72.5t74 -26.5z" />
    <glyph glyph-name="ogonek" unicode="&#x2db;" horiz-adv-x="548" 
d="M102 -483q-96 0 -147 49t-51 128q0 64 26.5 117t74 99.5t110.5 89.5h176q-51 -45 -89.5 -86t-60 -81t-22.5 -83q0 -27 15.5 -41.5t39.5 -14.5q23 0 46 5t48 11l-18 -171q-34 -11 -70 -16.5t-78 -5.5z" />
    <glyph glyph-name="tilde" unicode="&#x2dc;" horiz-adv-x="859" 
d="M227 1240q20 97 53 165t83 104t119 36q47 0 83.5 -16t65 -37t54 -37t52.5 -16q32 0 53.5 24.5t39.5 83.5h157q-21 -110 -59 -177.5t-88 -97.5t-109 -30q-47 0 -82.5 16.5t-64 37.5t-54.5 37t-55 16t-52 -27t-36 -82h-160z" />
    <glyph glyph-name="hungarumlaut" unicode="&#x2dd;" horiz-adv-x="958" 
d="M596 1241l2 24q43 53 83.5 108t76 105.5t59.5 90.5h271l-1 -17q-22 -28 -62 -69t-89 -86t-97.5 -86t-86.5 -70h-156zM229 1241l2 24q43 54 84 109t76 105.5t60 89.5h269l-1 -17q-20 -29 -59.5 -69.5t-89 -85t-99.5 -85.5t-92 -71h-150z" />
    <glyph glyph-name="uni02F3" unicode="&#x2f3;" horiz-adv-x="709" 
d="M172 -581q-109 0 -174 62.5t-65 169.5t65.5 169.5t173.5 62.5q101 0 172 -62t71 -167q0 -106 -67.5 -170.5t-175.5 -64.5zM171 -447q45 0 72.5 27t27.5 71q0 45 -27.5 72.5t-72.5 27.5q-44 0 -71 -27.5t-27 -72.5t24.5 -71.5t73.5 -26.5z" />
    <glyph glyph-name="gravecomb" unicode="&#x300;" 
d="M-496 1241q-33 38 -75 93.5t-79.5 113t-58.5 101.5v20h294q11 -45 26 -94.5t34 -102t42 -106.5l-2 -25h-181z" />
    <glyph glyph-name="acutecomb" unicode="&#x301;" 
d="M-550 1241l2 23q38 45 77 97.5t75.5 106t67.5 101.5h307l-1 -17q-22 -27 -64.5 -69.5t-93 -89t-98 -87t-79.5 -65.5h-193z" />
    <glyph glyph-name="uni0302" unicode="&#x302;" 
d="M-211 1241l2 24q44 43 93 95t95.5 106.5t81.5 102.5h279q16 -43 40.5 -98.5t53 -110t51.5 -94.5l-3 -25h-173q-20 22 -43 48.5t-46 57t-44 60.5q-54 -50 -103.5 -91t-97.5 -75h-186z" />
    <glyph glyph-name="tildecomb" unicode="&#x303;" 
d="M-820 1240q20 97 53 165t83 104t119 36q47 0 83.5 -16t65 -37t54 -37t52.5 -16q32 0 53.5 24.5t39.5 83.5h157q-21 -110 -59 -177.5t-88 -97.5t-109 -30q-47 0 -82.5 16.5t-64 37.5t-54.5 37t-55 16t-52 -27t-36 -82h-160z" />
    <glyph glyph-name="uni0304" unicode="&#x304;" 
d="M-145 1243l41 196h577l-41 -196h-577z" />
    <glyph glyph-name="uni0306" unicode="&#x306;" 
d="M163 1241q-102 0 -164 34.5t-89.5 91t-27.5 122.5q0 22 2.5 43t5.5 40h163q0 -44 12 -74t39.5 -45.5t71.5 -15.5q66 0 108.5 30t60.5 105h172q-27 -159 -115.5 -245t-238.5 -86z" />
    <glyph glyph-name="uni0307" unicode="&#x307;" 
d="M158 1260q-62 0 -99.5 29.5t-37.5 88.5q0 77 45 126t127 49q41 0 71 -12t47 -37.5t17 -67.5q0 -75 -42.5 -125.5t-127.5 -50.5z" />
    <glyph glyph-name="uni0308" unicode="&#x308;" 
d="M348 1273q-52 0 -83 24.5t-31 78.5q0 71 39.5 116.5t111.5 45.5q47 0 78 -23.5t31 -76.5q0 -74 -39 -119.5t-107 -45.5zM-17 1273q-52 0 -83 24.5t-31 78.5q0 71 39 116.5t111 45.5q32 0 56.5 -10t38.5 -32t14 -58q0 -74 -39 -119.5t-106 -45.5z" />
    <glyph glyph-name="hookabovecomb" unicode="&#x309;" 
d="M-496 1219l18 146q36 6 66 18.5t48.5 34.5t18.5 58q0 30 -17.5 45t-47.5 15q-26 0 -51 -5t-51 -14v154q33 14 77 21.5t89 7.5q107 0 166 -49t59 -137q0 -85 -53 -142.5t-146 -80.5l-23 -72h-153z" />
    <glyph glyph-name="uni030A" unicode="&#x30a;" 
d="M178 1241q-110 0 -175 63t-65 171q0 106 66 168.5t174 62.5q104 0 173 -62t69 -166q0 -107 -67.5 -172t-174.5 -65zM178 1375q43 0 71 26.5t28 72.5q0 44 -27 71.5t-71 27.5q-46 0 -73 -27.5t-27 -71.5q0 -46 25 -72.5t74 -26.5z" />
    <glyph glyph-name="uni030B" unicode="&#x30b;" 
d="M157 1241l2 24q43 53 83.5 108t76 105.5t59.5 90.5h271l-1 -17q-22 -28 -62 -69t-89 -86t-97.5 -86t-86.5 -70h-156zM-210 1241l2 24q43 54 84 109t76 105.5t60 89.5h269l-1 -17q-20 -29 -59.5 -69.5t-89 -85t-99.5 -85.5t-92 -71h-150z" />
    <glyph glyph-name="uni030C" unicode="&#x30c;" 
d="M11 1241q-15 44 -40 99.5t-52.5 109.5t-51.5 94l3 25h173q20 -19 42 -45.5t46 -57t44 -63.5q55 51 104.5 92t96.5 74h186l-2 -24q-36 -35 -88 -91t-101.5 -113.5t-79.5 -99.5h-280z" />
    <glyph glyph-name="uni030F" unicode="&#x30f;" 
d="M-286 1241q-41 44 -83.5 99t-77 110t-52.5 98l3 21h256q9 -42 23 -90.5t32.5 -102t40.5 -110.5l-3 -25h-139zM-639 1241q-38 42 -80.5 97.5t-77 112t-51.5 97.5l2 21h256q10 -45 25 -97.5t33.5 -105.5t39.5 -100l-3 -25h-144z" />
    <glyph glyph-name="uni0312" unicode="&#x312;" 
d="M-81 941l-7 21q34 85 74.5 171.5t85.5 170.5t91 158h213q-24 -56 -50.5 -124t-53 -140t-49.5 -138.5t-39 -118.5h-265z" />
    <glyph glyph-name="dotbelowcomb" unicode="&#x323;" 
d="M-716 -426q-62 0 -99.5 30t-37.5 89q0 77 45 126t128 49q40 0 70 -12t46.5 -38t16.5 -68q0 -74 -42 -125t-127 -51z" />
    <glyph glyph-name="uni0326" unicode="&#x326;" 
d="M92 -453v27q20 39 43.5 92.5t45 109t34.5 99.5h258v-20q-22 -45 -56 -100t-74.5 -109t-79.5 -99h-171z" />
    <glyph glyph-name="uni0327" unicode="&#x327;" 
d="M-231 -492q-43 0 -82 6.5t-69 14.5v156q22 -7 54 -13t66 -6q35 0 58.5 10.5t35.5 30t12 46.5q0 36 -30.5 58.5t-101.5 28.5l100 160h157l-47 -79q61 -15 101.5 -56.5t40.5 -113.5q0 -77 -35 -131.5t-100.5 -83t-159.5 -28.5z" />
    <glyph glyph-name="uni0328" unicode="&#x328;" 
d="M-157 -484q-96 0 -147 49t-51 128q0 64 26.5 117t74 99.5t110.5 89.5h176q-51 -45 -89.5 -86t-60 -81t-22.5 -83q0 -27 15.5 -41.5t39.5 -14.5q23 0 46 5t48 11l-18 -171q-34 -11 -70 -16.5t-78 -5.5z" />
    <glyph glyph-name="tonos" unicode="&#x384;" horiz-adv-x="1012" 
d="M506 1241l3 29q16 30 35.5 74t40 92.5t38 93t29.5 76.5h255l-2 -22q-20 -34 -48 -77.5t-59.5 -90.5t-63 -92t-61.5 -83h-167z" />
    <glyph glyph-name="dieresistonos" unicode="&#x385;" horiz-adv-x="1022" 
d="M579 1399v22q17 37 39 92t42 110.5t31 92.5h234l-2 -18q-22 -40 -58.5 -94t-77 -108.5t-76.5 -96.5h-132zM400 1273q-49 0 -78.5 24.5t-29.5 78.5q0 71 37.5 116.5t104.5 45.5q45 0 75 -23.5t30 -76.5q0 -74 -37.5 -119.5t-101.5 -45.5zM915 1273q-48 0 -77.5 24.5
t-29.5 78.5q0 71 37.5 116.5t104.5 45.5q44 0 74 -23.5t30 -76.5q0 -74 -37 -119.5t-102 -45.5z" />
    <glyph glyph-name="Alphatonos" unicode="&#x386;" horiz-adv-x="1153" 
d="M-96 0l695 1465h349l81 -1465h-284l-9 361h-372l-159 -361h-301zM470 603h265l-7 411q-1 55 -2 108t2 109h-6q-13 -50 -32 -99.5t-43 -105.5zM68 1098l3 29q16 30 35.5 74t40 92.5t38 93t29.5 76.5h255l-2 -22q-20 -34 -48 -77.5t-59.5 -90.5t-63 -92t-61.5 -83h-167z
" />
    <glyph glyph-name="anoteleia" unicode="&#x387;" horiz-adv-x="531" 
d="M332 802q-73 0 -106.5 36t-33.5 92q0 77 47 139t147 62q62 0 97.5 -34t35.5 -96q0 -88 -53.5 -143.5t-133.5 -55.5z" />
    <glyph glyph-name="Epsilontonos" unicode="&#x388;" horiz-adv-x="1189" 
d="M256 0l309 1462h709l-51 -238h-428l-72 -345h398l-51 -239h-398l-86 -399h429l-51 -241h-708zM87 1097l3 29q16 30 35.5 74t40 92.5t38 93t29.5 76.5h255l-2 -22q-20 -34 -48 -77.5t-59.5 -90.5t-63 -92t-61.5 -83h-167z" />
    <glyph glyph-name="Etatonos" unicode="&#x389;" horiz-adv-x="1487" 
d="M258 0l309 1462h281l-123 -579h397l123 579h281l-311 -1462h-281l136 640h-396l-136 -640h-280zM87 1097l3 29q16 30 35.5 74t40 92.5t38 93t29.5 76.5h255l-2 -22q-20 -34 -48 -77.5t-59.5 -90.5t-63 -92t-61.5 -83h-167z" />
    <glyph glyph-name="Iotatonos" unicode="&#x38a;" horiz-adv-x="811" 
d="M259 0l311 1462h280l-311 -1462h-280zM87 1097l3 29q16 30 35.5 74t40 92.5t38 93t29.5 76.5h255l-2 -22q-20 -34 -48 -77.5t-59.5 -90.5t-63 -92t-61.5 -83h-167z" />
    <glyph glyph-name="Omicrontonos" unicode="&#x38c;" horiz-adv-x="1450" 
d="M710 -20q-152 0 -253.5 59.5t-153 173.5t-51.5 278q0 113 19.5 230t58 228.5t97.5 208.5t137.5 170.5t177.5 115t218 41.5q229 0 340.5 -132t111.5 -370q0 -108 -17.5 -223.5t-54 -228t-93.5 -211.5t-134.5 -175.5t-178 -120.5t-224.5 -44zM732 225q59 0 110.5 31.5
t95 87t78 129t58.5 158.5t37 174.5t13 176.5q0 125 -47 192.5t-140 67.5q-61 0 -115 -33.5t-97.5 -92t-78 -133.5t-58 -159.5t-35.5 -170t-12 -163.5q0 -93 22 -151.5t65 -86t104 -27.5zM87 1097l3 29q16 30 35.5 74t40 92.5t38 93t29.5 76.5h255l-2 -22q-20 -34 -48 -77.5
t-59.5 -90.5t-63 -92t-61.5 -83h-167z" />
    <glyph glyph-name="Upsilontonos" unicode="&#x38e;" horiz-adv-x="1321" 
d="M551 0l118 558l-177 904h290l87 -580l330 580h308l-557 -900l-120 -562h-279zM49 1097l3 29q16 30 35.5 74t40 92.5t38 93t29.5 76.5h255l-2 -22q-20 -34 -48 -77.5t-59.5 -90.5t-63 -92t-61.5 -83h-167z" />
    <glyph glyph-name="Omegatonos" unicode="&#x38f;" horiz-adv-x="1491" 
d="M87 1097l3 29q16 30 35.5 74t40 92.5t38 93t29.5 76.5h255l-2 -22q-20 -34 -48 -77.5t-59.5 -90.5t-63 -92t-61.5 -83h-167zM122 0l50 243h310q-50 41 -90.5 105.5t-63.5 148.5t-23 184q0 107 24.5 220t76.5 217.5t131.5 187t189.5 131t251 48.5q160 0 268 -61.5
t163 -169.5t55 -247q0 -140 -32 -258.5t-87.5 -214.5t-127 -169t-150.5 -122h312l-52 -243h-544l55 259q86 56 149 135.5t104.5 174t61.5 195.5t20 200q0 91 -24.5 153t-73 93.5t-119.5 31.5q-81 0 -142.5 -42t-105.5 -111t-72 -154t-41 -172t-13 -163q0 -111 27 -194.5
t83 -146.5l-55 -259h-515z" />
    <glyph glyph-name="iotadieresistonos" unicode="&#x390;" horiz-adv-x="657" 
d="M317 -20q-115 0 -181 55t-66 176q0 28 5 67t16 91l159 748h273l-162 -771q-5 -22 -7.5 -40.5t-2.5 -32.5q0 -31 17 -47t48 -16q30 0 61.5 9t66.5 23v-210q-45 -24 -104.5 -38t-122.5 -14zM351 1399v22q17 37 39 92t42 110.5t31 92.5h234l-2 -18q-22 -40 -58.5 -94
t-77 -108.5t-76.5 -96.5h-132zM172 1273q-49 0 -78.5 24.5t-29.5 78.5q0 71 37.5 116.5t104.5 45.5q45 0 75 -23.5t30 -76.5q0 -74 -37.5 -119.5t-101.5 -45.5zM687 1273q-48 0 -77.5 24.5t-29.5 78.5q0 71 37.5 116.5t104.5 45.5q44 0 74 -23.5t30 -76.5q0 -74 -37 -119.5
t-102 -45.5z" />
    <glyph glyph-name="Alpha" unicode="&#x391;" horiz-adv-x="1125" 
d="M-125 0l695 1465h349l81 -1465h-284l-9 361h-372l-159 -361h-301zM441 603h265l-7 411q-1 55 -2 108t2 109h-6q-13 -50 -32 -99.5t-43 -105.5z" />
    <glyph glyph-name="Beta" unicode="&#x392;" horiz-adv-x="1122" 
d="M24 0l309 1462h381q117 0 209 -31.5t145.5 -100t53.5 -181.5q0 -93 -33 -171t-98.5 -133t-162.5 -80v-8q86 -26 136 -97t50 -174q0 -148 -65.5 -257.5t-185 -169t-281.5 -59.5h-458zM355 238h136q76 0 128.5 32t80 89.5t27.5 131.5q0 76 -40 115.5t-117 39.5h-128z
M490 874h116q69 0 119 28t77.5 78t27.5 116q0 65 -37.5 98.5t-113.5 33.5h-114z" />
    <glyph glyph-name="Gamma" unicode="&#x393;" horiz-adv-x="894" 
d="M25 0l309 1462h712l-51 -239h-433l-259 -1223h-278z" />
    <glyph glyph-name="uni0394" unicode="&#x394;" horiz-adv-x="1101" 
d="M-61 0l17 169l612 1299h337l83 -1302l-35 -166h-1014zM273 243h440l-33 765v39t-0.5 44.5t-0.5 50v55.5q-7 -27 -17.5 -59t-22.5 -64t-24 -58z" />
    <glyph glyph-name="Epsilon" unicode="&#x395;" horiz-adv-x="959" 
d="M25 0l309 1462h709l-51 -238h-428l-72 -345h398l-51 -239h-398l-86 -399h429l-51 -241h-708z" />
    <glyph glyph-name="Zeta" unicode="&#x396;" horiz-adv-x="948" 
d="M-71 0l38 193l708 1030h-474l50 239h816l-40 -194l-711 -1027h512l-50 -241h-849z" />
    <glyph glyph-name="Eta" unicode="&#x397;" horiz-adv-x="1255" 
d="M25 0l309 1462h281l-123 -579h397l123 579h281l-311 -1462h-281l136 640h-396l-136 -640h-280z" />
    <glyph glyph-name="Theta" unicode="&#x398;" horiz-adv-x="1327" 
d="M576 -20q-156 0 -262.5 60t-161 176t-54.5 284q0 113 19.5 229t59.5 226.5t99.5 206.5t139.5 168.5t180.5 113.5t221.5 41q232 0 349.5 -135t117.5 -384q0 -122 -20 -242.5t-60 -230.5t-99.5 -203.5t-138 -163t-176.5 -108t-215 -38.5zM590 225q71 0 129 35t103.5 95.5
t79 137.5t55.5 161.5t33 167.5t11 154q0 126 -52 196t-149 70q-72 0 -131 -35t-105 -95.5t-79.5 -137.5t-55.5 -161t-33 -166t-11 -152q0 -90 24 -150t70 -90t111 -30zM495 629l49 233h349l-49 -233h-349z" />
    <glyph glyph-name="Iota" unicode="&#x399;" horiz-adv-x="576" 
d="M23 0l311 1462h280l-311 -1462h-280z" />
    <glyph glyph-name="Kappa" unicode="&#x39a;" horiz-adv-x="1100" 
d="M25 0l309 1462h281l-147 -680l124 182l376 498h321l-528 -690l224 -772h-309l-155 595l-106 -73l-110 -522h-280z" />
    <glyph glyph-name="Lambda" unicode="&#x39b;" horiz-adv-x="1088" 
d="M-124 0l692 1468h319l78 -1468h-283l-23 841q-2 58 -2.5 136.5t1.5 148.5q-23 -79 -53.5 -152.5t-54.5 -126.5l-380 -847h-294z" />
    <glyph glyph-name="Mu" unicode="&#x39c;" horiz-adv-x="1614" 
d="M25 0l309 1462h372l48 -1053h7l498 1053h393l-310 -1462h-265l159 757q11 48 24 101.5t27 106.5t25 97h-6l-508 -1062h-252l-45 1059h-7q-6 -43 -15 -99.5t-20 -117.5t-24 -120l-152 -722h-258z" />
    <glyph glyph-name="Nu" unicode="&#x39d;" horiz-adv-x="1348" 
d="M25 0l309 1462h323l256 -1035h7q9 53 19.5 117.5t22 127.5t20.5 111l146 679h257l-309 -1462h-315l-264 1061h-8q-4 -31 -11.5 -80t-16.5 -105t-18.5 -109.5t-17.5 -93.5l-143 -673h-257z" />
    <glyph glyph-name="Xi" unicode="&#x39e;" horiz-adv-x="940" 
d="M-51 0l49 241h794l-50 -241h-793zM179 644l51 239h606l-53 -239h-604zM240 1224l50 238h731l-50 -238h-731z" />
    <glyph glyph-name="Omicron" unicode="&#x39f;" horiz-adv-x="1297" 
d="M556 -20q-152 0 -253.5 59.5t-153 173.5t-51.5 278q0 113 19.5 230t58 228.5t97.5 208.5t137.5 170.5t177.5 115t218 41.5q229 0 340.5 -132t111.5 -370q0 -108 -17.5 -223.5t-54 -228t-93.5 -211.5t-134.5 -175.5t-178 -120.5t-224.5 -44zM578 225q59 0 110.5 31.5
t95 87t78 129t58.5 158.5t37 174.5t13 176.5q0 125 -47 192.5t-140 67.5q-61 0 -115 -33.5t-97.5 -92t-78 -133.5t-58 -159.5t-35.5 -170t-12 -163.5q0 -93 22 -151.5t65 -86t104 -27.5z" />
    <glyph glyph-name="Pi" unicode="&#x3a0;" horiz-adv-x="1239" 
d="M25 0l309 1462h943l-309 -1462h-281l259 1220h-383l-258 -1220h-280z" />
    <glyph glyph-name="Rho" unicode="&#x3a1;" horiz-adv-x="1079" 
d="M25 0l309 1462h349q152 0 246.5 -47.5t138 -133t43.5 -200.5q0 -121 -39.5 -223t-114.5 -177t-181 -116t-240 -41h-121l-110 -524h-280zM466 763h83q85 0 146.5 36.5t95 103.5t33.5 158q0 85 -42 124t-126 39h-92z" />
    <glyph glyph-name="Sigma" unicode="&#x3a3;" horiz-adv-x="973" 
d="M-54 0l46 227l478 530l-249 485l46 220h791l-50 -238h-472l241 -476l-450 -507h517l-51 -241h-847z" />
    <glyph glyph-name="Tau" unicode="&#x3a4;" horiz-adv-x="941" 
d="M205 0l258 1220h-298l52 242h877l-52 -242h-298l-259 -1220h-280z" />
    <glyph glyph-name="Upsilon" unicode="&#x3a5;" horiz-adv-x="1013" 
d="M243 0l118 558l-177 904h290l87 -580l330 580h308l-557 -900l-120 -562h-279z" />
    <glyph glyph-name="Phi" unicode="&#x3a6;" horiz-adv-x="1483" 
d="M473 -20l49 224q-145 10 -237.5 68.5t-136.5 155t-44 218.5q0 144 44.5 262.5t129 205t205.5 135.5t272 54l38 180h266l-37 -180q140 -9 233 -68t139 -155t46 -217q0 -140 -42.5 -259t-125.5 -208t-204.5 -139t-278.5 -52l-49 -225h-267zM570 433l137 640
q-77 -3 -137.5 -38t-101.5 -93.5t-62.5 -133t-21.5 -156.5q0 -66 20 -114.5t61.5 -75t104.5 -29.5zM837 433q76 4 136 38t101.5 92t63 132.5t21.5 157.5q0 67 -20.5 115.5t-62 76t-103.5 28.5z" />
    <glyph glyph-name="Chi" unicode="&#x3a7;" horiz-adv-x="1069" 
d="M-118 0l516 757l-180 705h293l105 -483l299 483h309l-482 -721l203 -741h-304l-114 513l-337 -513h-308z" />
    <glyph glyph-name="Psi" unicode="&#x3a8;" horiz-adv-x="1493" 
d="M486 0l92 425h-9q-140 2 -229.5 48t-132.5 128t-43 189q0 39 6 93t20 118l98 461h276l-106 -497q-8 -39 -13.5 -74.5t-5.5 -65.5q0 -59 21 -94.5t61 -50.5t97 -15h10l168 797h267l-169 -797h11q81 0 136 32t90.5 97.5t56.5 165.5l107 502h276l-112 -526
q-25 -120 -69 -215t-114 -161t-173 -100.5t-245 -34.5h-14l-90 -425h-268z" />
    <glyph glyph-name="uni03A9" unicode="&#x3a9;" horiz-adv-x="1310" 
d="M-60 0l50 243h310q-50 41 -90.5 105.5t-63.5 148.5t-23 184q0 107 24.5 220t76.5 217.5t131.5 187t189.5 131t251 48.5q160 0 268 -61.5t163 -169.5t55 -247q0 -140 -32 -258.5t-87.5 -214.5t-127 -169t-150.5 -122h312l-52 -243h-544l55 259q86 56 149 135.5t104.5 174
t61.5 195.5t20 200q0 91 -24.5 153t-73 93.5t-119.5 31.5q-81 0 -142.5 -42t-105.5 -111t-72 -154t-41 -172t-13 -163q0 -111 27 -194.5t83 -146.5l-55 -259h-515z" />
    <glyph glyph-name="Iotadieresis" unicode="&#x3aa;" horiz-adv-x="576" 
d="M23 0l311 1462h280l-311 -1462h-280zM693 1636q-52 0 -83 24.5t-31 78.5q0 71 39.5 116.5t111.5 45.5q47 0 78 -23.5t31 -76.5q0 -74 -39 -119.5t-107 -45.5zM328 1636q-52 0 -83 24.5t-31 78.5q0 71 39 116.5t111 45.5q32 0 56.5 -10t38.5 -32t14 -58q0 -74 -39 -119.5
t-106 -45.5z" />
    <glyph glyph-name="Upsilondieresis" unicode="&#x3ab;" horiz-adv-x="1013" 
d="M243 0l118 558l-177 904h290l87 -580l330 580h308l-557 -900l-120 -562h-279zM890 1614q-52 0 -83 24.5t-31 78.5q0 71 39.5 116.5t111.5 45.5q47 0 78 -23.5t31 -76.5q0 -74 -39 -119.5t-107 -45.5zM525 1614q-52 0 -83 24.5t-31 78.5q0 71 39 116.5t111 45.5
q32 0 56.5 -10t38.5 -32t14 -58q0 -74 -39 -119.5t-106 -45.5z" />
    <glyph glyph-name="alphatonos" unicode="&#x3ac;" horiz-adv-x="1112" 
d="M333 -20q-119 0 -193.5 92t-74.5 272q0 120 22 235t64 216t102 178t135.5 121t164.5 44t147.5 -44.5t90.5 -123.5h7q12 26 26.5 53t30.5 52t32 42h234q-25 -52 -53 -120.5t-53 -148.5t-44 -166l-70 -333q-5 -21 -8 -41.5t-3 -35.5q0 -31 13.5 -43.5t36.5 -12.5q13 0 30 4
t32 11v-220q-28 -11 -72.5 -21t-86.5 -10q-73 0 -118.5 22.5t-68.5 60t-30 82.5h-7q-36 -47 -77 -84.5t-92 -59t-117 -21.5zM448 206q56 0 98 42.5t71.5 110t47.5 140.5q18 75 28 138.5t10 113.5q0 75 -27 116.5t-82 41.5q-46 0 -84.5 -36t-69 -95t-52 -130t-33 -142
t-11.5 -130q0 -86 26 -128t78 -42zM575 1241l3 29q16 30 35.5 74t40 92.5t38 93t29.5 76.5h255l-2 -22q-20 -34 -48 -77.5t-59.5 -90.5t-63 -92t-61.5 -83h-167z" />
    <glyph glyph-name="epsilontonos" unicode="&#x3ad;" horiz-adv-x="907" 
d="M399 -20q-118 0 -203.5 32t-131 95.5t-45.5 156.5q0 85 35 151t101 110t160 60l1 8q-59 25 -98.5 78.5t-39.5 136.5q0 107 55.5 181t149.5 111.5t209 37.5q106 0 192.5 -21t156.5 -65l-101 -203q-56 34 -114 53.5t-124 19.5q-75 0 -122 -35.5t-47 -103.5q0 -53 39.5 -78
t119.5 -25h105l-42 -198h-119q-69 0 -121 -19.5t-80.5 -56t-28.5 -87.5q0 -55 37.5 -86t113.5 -31q86 0 155.5 22.5t134.5 57.5v-227q-71 -37 -157.5 -56t-190.5 -19zM507 1241l3 29q16 30 35.5 74t40 92.5t38 93t29.5 76.5h255l-2 -22q-20 -34 -48 -77.5t-59.5 -90.5
t-63 -92t-61.5 -83h-167z" />
    <glyph glyph-name="etatonos" unicode="&#x3ae;" horiz-adv-x="1083" 
d="M463 -492l243 1146q8 41 14 79t6 68q0 52 -21.5 77.5t-67.5 25.5q-58 0 -103.5 -49.5t-79.5 -135t-58 -193.5l-110 -526h-274l237 1117h212l-15 -173h7q37 59 82 102.5t99 67.5t117 24q77 0 135 -31t89.5 -93t31.5 -156q0 -37 -6.5 -83.5t-17.5 -99.5l-247 -1167h-273z
M573 1241l3 29q16 30 35.5 74t40 92.5t38 93t29.5 76.5h255l-2 -22q-20 -34 -48 -77.5t-59.5 -90.5t-63 -92t-61.5 -83h-167z" />
    <glyph glyph-name="iotatonos" unicode="&#x3af;" horiz-adv-x="655" 
d="M317 -20q-115 0 -181 55t-66 176q0 28 5 67t16 91l159 748h273l-162 -771q-5 -22 -7.5 -40.5t-2.5 -32.5q0 -31 17 -47t48 -16q30 0 61.5 9t66.5 23v-210q-45 -24 -104.5 -38t-122.5 -14zM307 1241l3 29q16 30 35.5 74t40 92.5t38 93t29.5 76.5h255l-2 -22
q-20 -34 -48 -77.5t-59.5 -90.5t-63 -92t-61.5 -83h-167z" />
    <glyph glyph-name="upsilondieresistonos" unicode="&#x3b0;" horiz-adv-x="1096" 
d="M442 -19q-184 0 -269 90.5t-85 243.5q0 42 7 91.5t17 102.5l129 608h272l-133 -631q-8 -39 -12.5 -75.5t-4.5 -65.5q0 -67 27.5 -99.5t79.5 -32.5q48 0 88 33t72 93t56.5 143t41.5 184t26 215t10 236h272q-1 -152 -14.5 -312t-49.5 -307t-102 -263.5t-170.5 -185
t-257.5 -68.5zM604 1399v22q17 37 39 92t42 110.5t31 92.5h234l-2 -18q-22 -40 -58.5 -94t-77 -108.5t-76.5 -96.5h-132zM425 1273q-49 0 -78.5 24.5t-29.5 78.5q0 71 37.5 116.5t104.5 45.5q45 0 75 -23.5t30 -76.5q0 -74 -37.5 -119.5t-101.5 -45.5zM940 1273
q-48 0 -77.5 24.5t-29.5 78.5q0 71 37.5 116.5t104.5 45.5q44 0 74 -23.5t30 -76.5q0 -74 -37 -119.5t-102 -45.5z" />
    <glyph glyph-name="alpha" unicode="&#x3b1;" horiz-adv-x="1112" 
d="M333 -20q-119 0 -193.5 92t-74.5 272q0 120 22 235t64 216t102 178t135.5 121t164.5 44t147.5 -44.5t90.5 -123.5h7q12 26 26.5 53t30.5 52t32 42h234q-25 -52 -53 -120.5t-53 -148.5t-44 -166l-70 -333q-5 -21 -8 -41.5t-3 -35.5q0 -31 13.5 -43.5t36.5 -12.5q13 0 30 4
t32 11v-220q-28 -11 -72.5 -21t-86.5 -10q-73 0 -118.5 22.5t-68.5 60t-30 82.5h-7q-36 -47 -77 -84.5t-92 -59t-117 -21.5zM448 206q56 0 98 42.5t71.5 110t47.5 140.5q18 75 28 138.5t10 113.5q0 75 -27 116.5t-82 41.5q-46 0 -84.5 -36t-69 -95t-52 -130t-33 -142
t-11.5 -130q0 -86 26 -128t78 -42z" />
    <glyph glyph-name="beta" unicode="&#x3b2;" horiz-adv-x="1109" 
d="M-91 -492l344 1632q30 139 88.5 234t154 144t237.5 49q118 0 200.5 -41t125.5 -115t43 -174q0 -112 -36.5 -198.5t-107.5 -142.5t-177 -77q107 -20 168.5 -102.5t61.5 -205.5q0 -85 -25 -177.5t-79.5 -173t-143.5 -130.5t-218 -50q-85 0 -147.5 20.5t-101.5 44.5
l-114 -537h-273zM497 210q61 0 104.5 28t71 74t40.5 99.5t13 104.5q0 89 -43.5 132.5t-118.5 43.5h-45l48 227h46q49 0 87.5 24t65 65t40 93.5t13.5 108.5q0 64 -30 98.5t-84 34.5q-43 0 -77 -22.5t-59.5 -72t-43.5 -130.5l-182 -847q25 -29 70.5 -45t83.5 -16z" />
    <glyph glyph-name="gamma" unicode="&#x3b3;" horiz-adv-x="935" 
d="M30 -492q18 84 43 167.5t58 167t72 166.5l-88 1108h271l20 -471q1 -37 1.5 -78t0.5 -81.5t-1 -78t-2 -69.5h8q24 71 57 150.5t69 156.5l217 471h293l-521 -1044q-51 -102 -91.5 -200t-69.5 -190t-47 -175h-290z" />
    <glyph glyph-name="delta" unicode="&#x3b4;" horiz-adv-x="1058" 
d="M430 -20q-135 0 -220.5 49.5t-126.5 134t-41 190.5q0 138 54.5 251t152 194t228.5 123q-60 62 -97.5 133t-37.5 157q0 113 54.5 192.5t148 121t211.5 41.5q117 0 208 -29t160 -77l-118 -204q-66 46 -128.5 69.5t-123.5 23.5q-59 0 -98.5 -31.5t-39.5 -93.5
q0 -40 19.5 -75.5t55.5 -72.5t83 -84q60 -60 101 -126.5t62.5 -139.5t21.5 -155q0 -128 -35 -236t-102 -188t-165.5 -124t-226.5 -44zM457 207q53 0 93 32.5t67.5 85.5t41.5 115t14 120q0 75 -22 133t-63 100q-55 -23 -102.5 -67t-82.5 -102t-55 -122.5t-20 -129.5
q0 -75 32 -120t97 -45z" />
    <glyph glyph-name="epsilon" unicode="&#x3b5;" horiz-adv-x="907" 
d="M399 -20q-118 0 -203.5 32t-131 95.5t-45.5 156.5q0 85 35 151t101 110t160 60l1 8q-59 25 -98.5 78.5t-39.5 136.5q0 107 55.5 181t149.5 111.5t209 37.5q106 0 192.5 -21t156.5 -65l-101 -203q-56 34 -114 53.5t-124 19.5q-75 0 -122 -35.5t-47 -103.5q0 -53 39.5 -78
t119.5 -25h105l-42 -198h-119q-69 0 -121 -19.5t-80.5 -56t-28.5 -87.5q0 -55 37.5 -86t113.5 -31q86 0 155.5 22.5t134.5 57.5v-227q-71 -37 -157.5 -56t-190.5 -19z" />
    <glyph glyph-name="zeta" unicode="&#x3b6;" horiz-adv-x="838" 
d="M240 -382q42 45 81.5 93t65.5 96.5t26 91.5q0 40 -30.5 69t-97.5 65q-72 39 -122.5 86t-77 110.5t-26.5 151.5q0 142 48 272t132 250t192.5 232t230.5 217q-39 -7 -80.5 -9t-74.5 -2h-209l48 215h682l-37 -173q-155 -137 -275.5 -263.5t-203.5 -243t-126 -224t-43 -206.5
q0 -56 22 -95.5t58.5 -68t79.5 -54.5q52 -28 98 -62t74.5 -80t28.5 -112q0 -71 -23 -131.5t-63.5 -115t-94.5 -109.5h-283z" />
    <glyph glyph-name="eta" unicode="&#x3b7;" horiz-adv-x="1083" 
d="M463 -492l243 1146q8 41 14 79t6 68q0 52 -21.5 77.5t-67.5 25.5q-58 0 -103.5 -49.5t-79.5 -135t-58 -193.5l-110 -526h-274l237 1117h212l-15 -173h7q37 59 82 102.5t99 67.5t117 24q77 0 135 -31t89.5 -93t31.5 -156q0 -37 -6.5 -83.5t-17.5 -99.5l-247 -1167h-273z
" />
    <glyph glyph-name="theta" unicode="&#x3b8;" horiz-adv-x="1068" 
d="M429 -20q-122 0 -199 52t-112.5 148t-35.5 230q0 60 6 132.5t19 152.5t32 162q35 148 84 278t117 228.5t161 154t215 55.5q108 0 184 -46t116.5 -142.5t40.5 -246.5q0 -81 -11.5 -181t-34 -205t-55.5 -203q-35 -123 -82.5 -227t-110.5 -180.5t-145.5 -119t-188.5 -42.5z
M448 191q43 0 81 35t70.5 99.5t61 154t53.5 196.5h-333q-17 -94 -27 -171t-10 -136q0 -86 26 -132t78 -46zM428 890h329q15 90 23.5 162.5t8.5 136.5q0 83 -25 127.5t-73 44.5q-42 0 -78.5 -33t-69.5 -94.5t-61.5 -148.5t-53.5 -195z" />
    <glyph glyph-name="iota" unicode="&#x3b9;" horiz-adv-x="655" 
d="M317 -20q-115 0 -181 55t-66 176q0 28 5 67t16 91l159 748h273l-162 -771q-5 -22 -7.5 -40.5t-2.5 -32.5q0 -31 17 -47t48 -16q30 0 61.5 9t66.5 23v-210q-45 -24 -104.5 -38t-122.5 -14z" />
    <glyph glyph-name="kappa" unicode="&#x3ba;" horiz-adv-x="1017" 
d="M12 0l237 1117h273l-53 -239q-11 -53 -27 -112.5t-34 -118.5h6l399 470h306l-428 -486l214 -631h-301l-136 435l-111 -88l-72 -347h-273z" />
    <glyph glyph-name="lambda" unicode="&#x3bb;" horiz-adv-x="1025" 
d="M778 -20q-87 0 -138 34.5t-75 98.5t-31 154l-14 228q-3 47 -5 101.5t-3 97.5q-8 -19 -16 -42t-17.5 -47t-19.5 -47.5t-21 -46.5l-247 -511h-292l565 1069l-5 126q-5 83 -31 113t-74 30q-22 0 -42 -3.5t-43 -10.5l-18 224q36 10 82 16t89 6q107 0 169.5 -42.5t93.5 -121.5
t40 -189l60 -842q6 -61 16.5 -95t28 -47.5t43.5 -13.5q14 0 29.5 2.5t36.5 8.5v-225q-30 -10 -73 -17.5t-88 -7.5z" />
    <glyph glyph-name="uni03BC" unicode="&#x3bc;" horiz-adv-x="1089" 
d="M-93 -492l342 1609h272l-137 -654q-8 -40 -13 -75t-5 -62q0 -55 23.5 -84t65.5 -29q56 0 100 43.5t78 126t58 198.5l114 536h272l-236 -1117h-209l10 149h-7q-32 -57 -67.5 -94.5t-74.5 -56t-83 -18.5q-42 0 -73.5 18t-49.5 46h-7q-3 -28 -6.5 -61t-8 -67t-11.5 -66
l-72 -342h-275z" />
    <glyph glyph-name="nu" unicode="&#x3bd;" horiz-adv-x="989" 
d="M189 0l-72 1117h272l27 -592q3 -59 3 -121.5t-2 -112.5q78 104 139 226t109 270t86 330h282q-42 -212 -114.5 -404t-184.5 -369t-275 -344h-270z" />
    <glyph glyph-name="xi" unicode="&#x3be;" horiz-adv-x="851" 
d="M239 -382q43 45 84 96t68.5 101t27.5 92q-1 36 -23 61t-93 58q-81 40 -134.5 89t-79.5 113t-26 147q0 113 40 201.5t116 150t184 90.5l1 8q-81 24 -123.5 79t-42.5 129q0 61 20.5 112t59 91t90.5 69t114 46q-52 -4 -96.5 -7t-87.5 -3h-65l47 215h665l-45 -208h-55
q-55 0 -108 -11.5t-100 -34.5t-83 -57t-56.5 -79.5t-20.5 -102.5q0 -73 47 -110.5t140 -37.5h98l-45 -210h-84q-109 0 -182 -36t-109.5 -99t-36.5 -144q0 -52 18.5 -85t54 -57.5t85.5 -50.5q57 -28 102 -60.5t71 -78.5t26 -115q0 -65 -21.5 -126t-61.5 -118.5t-98 -116.5
h-282z" />
    <glyph glyph-name="omicron" unicode="&#x3bf;" horiz-adv-x="1054" 
d="M436 -20q-112 0 -195 47.5t-128.5 136.5t-45.5 212q0 103 20.5 210t62.5 206t108 177t156.5 123.5t207.5 45.5q113 0 195 -48t126 -138.5t44 -217.5q0 -106 -20.5 -213t-63 -204.5t-107.5 -173t-155 -119.5t-205 -44zM463 207q47 0 86 32.5t69 88.5t51 125t32 142t11 140
q0 53 -11.5 92.5t-37.5 61.5t-69 22q-50 0 -90.5 -36.5t-71 -96t-50.5 -130.5t-30 -142.5t-10 -130.5q0 -81 30 -124.5t91 -43.5z" />
    <glyph glyph-name="pi" unicode="&#x3c0;" horiz-adv-x="1246" 
d="M886 -18q-112 0 -174 58t-62 169q0 31 5 66.5t13 71.5l114 551h-231l-191 -898h-276l193 898h-196l27 129l167 90h1022l-46 -219h-194l-117 -563q-3 -16 -5.5 -31.5t-2.5 -30.5q0 -32 16 -47.5t47 -15.5q28 0 55 8t52 21v-206q-41 -23 -95.5 -37t-120.5 -14z" />
    <glyph glyph-name="rho" unicode="&#x3c1;" horiz-adv-x="1073" 
d="M-90 -492l228 1085q37 175 94 296.5t154.5 185t252.5 63.5q123 0 205 -49t124 -138.5t42 -209.5q0 -106 -20.5 -214t-60 -206t-98 -175t-135 -121.5t-171.5 -44.5q-79 0 -137.5 28.5t-95.5 75.5q-6 -58 -17 -118t-24 -120l-70 -338h-271zM481 209q51 0 91 39t70 101
t50 134.5t29.5 140.5t9.5 118q0 81 -29 125t-81 44q-51 0 -89 -33.5t-67 -108t-54 -196.5l-59 -281q19 -37 52.5 -60t76.5 -23z" />
    <glyph glyph-name="uni03C2" unicode="&#x3c2;" horiz-adv-x="847" 
d="M248 -382q51 56 89 104t59.5 90t21.5 80q0 26 -11 48t-37.5 44t-76.5 49q-75 42 -125.5 92.5t-75.5 118.5t-25 164q0 95 21 197t64.5 197t110.5 171t158 120.5t207 44.5q86 0 156 -19t128 -52l-95 -211q-42 23 -88 38t-91 15q-55 0 -100 -29.5t-80 -79t-59.5 -110
t-37 -123t-12.5 -118.5q0 -60 19 -100t53 -68t79 -54q58 -33 105.5 -68.5t75.5 -83.5t28 -120q0 -57 -20 -113t-59.5 -111t-98.5 -113h-283z" />
    <glyph glyph-name="sigma" unicode="&#x3c3;" horiz-adv-x="1112" 
d="M441 -20q-171 0 -272 105.5t-101 298.5q0 111 23 218t71 200t122.5 164t176 111t232.5 40h492l-45 -216h-231q28 -42 47.5 -108t19.5 -154q0 -72 -18.5 -160t-58 -175.5t-102 -161t-151 -118t-205.5 -44.5zM464 207q47 0 85.5 31t68.5 84.5t50.5 120.5t31 140.5
t10.5 142.5q0 55 -7 98t-19 77h-26q-83 0 -142.5 -47.5t-97.5 -124.5t-56.5 -167.5t-18.5 -175.5q0 -86 30 -132.5t91 -46.5z" />
    <glyph glyph-name="tau" unicode="&#x3c4;" horiz-adv-x="855" 
d="M439 -21q-118 0 -185.5 56t-67.5 181q0 30 4.5 66.5t12.5 76.5l116 539h-240l27 128l164 91h647l-47 -219h-278l-118 -554q-3 -18 -5.5 -35t-2.5 -31q0 -35 19 -52t54 -17q30 0 62.5 9.5t66.5 22.5v-210q-46 -24 -106 -38t-123 -14z" />
    <glyph glyph-name="upsilon" unicode="&#x3c5;" horiz-adv-x="1096" 
d="M442 -19q-184 0 -269 90.5t-85 243.5q0 42 7 91.5t17 102.5l129 608h272l-133 -631q-8 -39 -12.5 -75.5t-4.5 -65.5q0 -67 27.5 -99.5t79.5 -32.5q48 0 88 33t72 93t56.5 143t41.5 184t26 215t10 236h272q-1 -152 -14.5 -312t-49.5 -307t-102 -263.5t-170.5 -185
t-257.5 -68.5z" />
    <glyph glyph-name="phi" unicode="&#x3c6;" horiz-adv-x="1409" 
d="M336 -492l103 481q-106 15 -190 67t-132.5 145t-48.5 227q0 138 40 261.5t115 235.5t180 212l185 -142q-71 -81 -126 -171t-85.5 -187t-30.5 -201q0 -64 17 -110.5t48.5 -74.5t74.5 -39l113 539q41 186 134.5 286t265.5 100q163 0 253.5 -103t90.5 -289
q0 -122 -28.5 -232.5t-83 -204.5t-133 -164.5t-178.5 -111.5t-220 -47l-99 -477h-265zM749 213q70 12 122.5 51.5t89.5 98t60.5 127t34 139t10.5 132.5q0 72 -20 115t-64 43q-38 0 -68.5 -38.5t-52.5 -141.5z" />
    <glyph glyph-name="chi" unicode="&#x3c7;" horiz-adv-x="986" 
d="M-256 -492l570 880l-35 381q-7 67 -25 98t-56 31q-20 0 -38.5 -4.5t-38.5 -11.5l-10 226q35 13 81.5 20.5t90.5 7.5q117 0 173 -69t71 -209l13 -174l261 433h298l-509 -777l46 -481q7 -64 27 -89t56 -25q18 0 42.5 5.5t51.5 14.5v-222q-43 -16 -90 -25.5t-97 -9.5
q-77 0 -127 30t-78 94.5t-39 168.5l-21 252l-322 -545h-295z" />
    <glyph glyph-name="psi" unicode="&#x3c8;" horiz-adv-x="1446" 
d="M362 -492l100 470q-192 20 -283 117t-91 253q0 43 6.5 90t16.5 99l124 580h272l-128 -604q-9 -42 -13.5 -78t-4.5 -67q0 -75 36.5 -115t112.5 -46l287 1348h264l-285 -1345q74 6 130.5 56t97 134.5t65.5 196.5t37 244.5t13 275.5h270q-1 -164 -15.5 -325t-53.5 -303.5
t-113 -254t-191.5 -179.5t-289.5 -77l-99 -470h-265z" />
    <glyph glyph-name="omega" unicode="&#x3c9;" horiz-adv-x="1462" 
d="M356 -20q-150 0 -222 100t-72 266q0 128 32.5 262t88 264t121.5 245h275q-71 -123 -127.5 -255.5t-89 -262t-32.5 -246.5q0 -67 22 -104t65 -37q66 0 100 67t62 201l60 280h262l-60 -280q-7 -34 -12 -63.5t-8 -54.5t-3 -45q0 -51 18.5 -78t58.5 -27q47 0 85.5 44t67 116
t47.5 159.5t28.5 176t9.5 163.5q0 76 -5 134.5t-16 111.5h268q7 -44 12.5 -104.5t5.5 -130.5q0 -128 -18 -257t-55.5 -244.5t-96.5 -206t-142.5 -142.5t-192.5 -52q-79 0 -128.5 26.5t-76 70t-36.5 95.5q-49 -90 -120.5 -141t-175.5 -51z" />
    <glyph glyph-name="iotadieresis" unicode="&#x3ca;" horiz-adv-x="655" 
d="M317 -20q-115 0 -181 55t-66 176q0 28 5 67t16 91l159 748h273l-162 -771q-5 -22 -7.5 -40.5t-2.5 -32.5q0 -31 17 -47t48 -16q30 0 61.5 9t66.5 23v-210q-45 -24 -104.5 -38t-122.5 -14zM608 1273q-52 0 -83 24.5t-31 78.5q0 71 39.5 116.5t111.5 45.5q47 0 78 -23.5
t31 -76.5q0 -74 -39 -119.5t-107 -45.5zM243 1273q-52 0 -83 24.5t-31 78.5q0 71 39 116.5t111 45.5q32 0 56.5 -10t38.5 -32t14 -58q0 -74 -39 -119.5t-106 -45.5z" />
    <glyph glyph-name="upsilondieresis" unicode="&#x3cb;" horiz-adv-x="1096" 
d="M442 -19q-184 0 -269 90.5t-85 243.5q0 42 7 91.5t17 102.5l129 608h272l-133 -631q-8 -39 -12.5 -75.5t-4.5 -65.5q0 -67 27.5 -99.5t79.5 -32.5q48 0 88 33t72 93t56.5 143t41.5 184t26 215t10 236h272q-1 -152 -14.5 -312t-49.5 -307t-102 -263.5t-170.5 -185
t-257.5 -68.5zM860 1273q-52 0 -83 24.5t-31 78.5q0 71 39.5 116.5t111.5 45.5q47 0 78 -23.5t31 -76.5q0 -74 -39 -119.5t-107 -45.5zM495 1273q-52 0 -83 24.5t-31 78.5q0 71 39 116.5t111 45.5q32 0 56.5 -10t38.5 -32t14 -58q0 -74 -39 -119.5t-106 -45.5z" />
    <glyph glyph-name="omicrontonos" unicode="&#x3cc;" horiz-adv-x="1054" 
d="M436 -20q-112 0 -195 47.5t-128.5 136.5t-45.5 212q0 103 20.5 210t62.5 206t108 177t156.5 123.5t207.5 45.5q113 0 195 -48t126 -138.5t44 -217.5q0 -106 -20.5 -213t-63 -204.5t-107.5 -173t-155 -119.5t-205 -44zM463 207q47 0 86 32.5t69 88.5t51 125t32 142t11 140
q0 53 -11.5 92.5t-37.5 61.5t-69 22q-50 0 -90.5 -36.5t-71 -96t-50.5 -130.5t-30 -142.5t-10 -130.5q0 -81 30 -124.5t91 -43.5zM537 1241l3 29q16 30 35.5 74t40 92.5t38 93t29.5 76.5h255l-2 -22q-20 -34 -48 -77.5t-59.5 -90.5t-63 -92t-61.5 -83h-167z" />
    <glyph glyph-name="upsilontonos" unicode="&#x3cd;" horiz-adv-x="1096" 
d="M442 -19q-184 0 -269 90.5t-85 243.5q0 42 7 91.5t17 102.5l129 608h272l-133 -631q-8 -39 -12.5 -75.5t-4.5 -65.5q0 -67 27.5 -99.5t79.5 -32.5q48 0 88 33t72 93t56.5 143t41.5 184t26 215t10 236h272q-1 -152 -14.5 -312t-49.5 -307t-102 -263.5t-170.5 -185
t-257.5 -68.5zM550 1241l3 29q16 30 35.5 74t40 92.5t38 93t29.5 76.5h255l-2 -22q-20 -34 -48 -77.5t-59.5 -90.5t-63 -92t-61.5 -83h-167z" />
    <glyph glyph-name="omegatonos" unicode="&#x3ce;" horiz-adv-x="1462" 
d="M356 -20q-150 0 -222 100t-72 266q0 128 32.5 262t88 264t121.5 245h275q-71 -123 -127.5 -255.5t-89 -262t-32.5 -246.5q0 -67 22 -104t65 -37q66 0 100 67t62 201l60 280h262l-60 -280q-7 -34 -12 -63.5t-8 -54.5t-3 -45q0 -51 18.5 -78t58.5 -27q47 0 85.5 44t67 116
t47.5 159.5t28.5 176t9.5 163.5q0 76 -5 134.5t-16 111.5h268q7 -44 12.5 -104.5t5.5 -130.5q0 -128 -18 -257t-55.5 -244.5t-96.5 -206t-142.5 -142.5t-192.5 -52q-79 0 -128.5 26.5t-76 70t-36.5 95.5q-49 -90 -120.5 -141t-175.5 -51zM744 1241l3 29q16 30 35.5 74
t40 92.5t38 93t29.5 76.5h255l-2 -22q-20 -34 -48 -77.5t-59.5 -90.5t-63 -92t-61.5 -83h-167z" />
    <glyph glyph-name="uni03D1" unicode="&#x3d1;" horiz-adv-x="1225" 
d="M481 -20q-109 0 -187 31t-119.5 90t-41.5 142q0 45 11 88t25 86q11 34 20 64.5t9 55.5q0 24 -11 37.5t-35 13.5q-15 0 -35.5 -5.5t-40.5 -15.5v211q32 13 84.5 24.5t110.5 11.5q94 0 147 -48.5t53 -135.5q0 -44 -11 -89t-25 -87q-12 -43 -22.5 -83.5t-10.5 -75.5
q0 -45 24 -70t77 -25q40 0 77.5 20t72.5 62t67 108.5t61.5 158.5t55.5 212q-159 6 -262.5 60t-154 142.5t-50.5 199.5q0 117 49 209.5t140.5 146.5t220.5 54q137 0 219.5 -57.5t120 -159t37.5 -234.5q0 -34 -2.5 -68t-6.5 -72h127l-47 -219h-117q-29 -144 -68 -265.5
t-90.5 -217t-119 -162.5t-155 -102.5t-197.5 -35.5zM873 982q6 43 9 82.5t3 71.5q0 100 -28 161t-88 61q-42 0 -70.5 -27t-42.5 -70t-14 -89q0 -56 24 -98t75.5 -65.5t131.5 -26.5z" />
    <glyph glyph-name="uni03D2" unicode="&#x3d2;" horiz-adv-x="1024" 
d="M242 0l118 558l-177 904h287l87 -580q34 67 68 132t68 125.5t68 113t67 94.5q51 65 107.5 96.5t128.5 31.5q43 0 78 -7t66 -20l-49 -223q-11 7 -26.5 11t-34.5 4q-32 0 -60.5 -24.5t-69.5 -84.5q-29 -43 -63.5 -100t-75 -128t-88 -159t-103.5 -194l-117 -550h-279z" />
    <glyph glyph-name="uni03D6" unicode="&#x3d6;" horiz-adv-x="1632" 
d="M436 -20q-150 0 -222 100t-72 266q0 90 20.5 188t56 192.5t77.5 171.5h-212l27 128l168 91h1416l-46 -219h-196q4 -28 8 -66t4 -87q0 -104 -19.5 -212t-58.5 -207t-98 -177t-138 -123.5t-178 -45.5q-109 0 -167.5 52t-71.5 145q-52 -94 -122 -145.5t-176 -51.5zM497 212
q47 0 76.5 34.5t49.5 95t36 138.5l34 154h263l-34 -154q-7 -34 -12.5 -63.5t-8.5 -54.5t-3 -45q0 -51 19 -78t59 -27q46 0 82 36t63 97t44.5 136t26 153.5t8.5 149.5q0 39 -1 65.5t-4 48.5h-638q-42 -89 -74.5 -182.5t-52 -185t-19.5 -177.5q0 -67 21.5 -104t64.5 -37z" />
    <glyph glyph-name="uni0400" unicode="&#x400;" horiz-adv-x="959" 
d="M25 0l309 1462h709l-51 -238h-428l-72 -345h398l-51 -239h-398l-86 -399h429l-51 -241h-708zM654 1582q-33 38 -75 93.5t-79.5 113t-58.5 101.5v20h294q11 -45 26 -94.5t34 -102t42 -106.5l-2 -25h-181z" />
    <glyph glyph-name="uni0401" unicode="&#x401;" horiz-adv-x="959" 
d="M25 0l309 1462h709l-51 -238h-428l-72 -345h398l-51 -239h-398l-86 -399h429l-51 -241h-708zM889 1614q-52 0 -83 24.5t-31 78.5q0 71 39.5 116.5t111.5 45.5q47 0 78 -23.5t31 -76.5q0 -74 -39 -119.5t-107 -45.5zM524 1614q-52 0 -83 24.5t-31 78.5q0 71 39 116.5
t111 45.5q32 0 56.5 -10t38.5 -32t14 -58q0 -74 -39 -119.5t-106 -45.5z" />
    <glyph glyph-name="uni0402" unicode="&#x402;" horiz-adv-x="1292" 
d="M766 -20q-42 0 -87 8t-80 23l22 236q32 -16 58.5 -22.5t48.5 -6.5q39 0 65.5 17t43.5 51.5t28 86.5l28 132q4 20 7 42t3 41q0 49 -26.5 74t-89.5 25h-165l-147 -687h-280l259 1220h-288l51 242h889l-51 -242h-321l-61 -290h179q165 0 249 -80t84 -215q0 -29 -3 -64.5
t-10 -70.5l-37 -184q-23 -116 -67 -190.5t-117.5 -110t-184.5 -35.5z" />
    <glyph glyph-name="uni0403" unicode="&#x403;" horiz-adv-x="894" 
d="M25 0l309 1462h712l-51 -239h-433l-259 -1223h-278zM554 1582l2 23q38 45 77 97.5t75.5 106t67.5 101.5h307l-1 -17q-22 -27 -64.5 -69.5t-93 -89t-98 -87t-79.5 -65.5h-193z" />
    <glyph glyph-name="uni0404" unicode="&#x404;" horiz-adv-x="1087" 
d="M551 -20q-152 0 -252.5 63.5t-150.5 181.5t-50 283q0 134 29.5 271.5t87.5 264t145.5 225.5t203 157t258.5 58q111 0 201.5 -24t167.5 -72l-120 -228q-58 38 -118.5 60t-127.5 22q-74 0 -134 -33t-107.5 -87.5t-81.5 -121t-56 -135.5h451l-51 -239h-450q-3 -31 -5.5 -61
t-2.5 -58q0 -91 22.5 -154.5t72.5 -96t131 -32.5q43 0 91.5 9.5t98.5 26.5t97 38v-245q-53 -24 -113 -40t-120.5 -24.5t-116.5 -8.5z" />
    <glyph glyph-name="uni0405" unicode="&#x405;" horiz-adv-x="960" 
d="M336 -20q-105 0 -190 21.5t-147 64.5l26 269q72 -46 152 -76t161 -30q45 0 84.5 10.5t69 32.5t46 55.5t16.5 80.5q0 49 -16.5 86t-50.5 72.5t-87 79.5q-60 50 -109 105t-77 124t-28 161q0 98 32.5 179.5t94.5 141.5t151 93t202 33q96 0 186 -24t167 -72l-113 -233
q-66 39 -127.5 60t-119.5 21q-39 0 -72 -11.5t-58 -34t-39 -54.5t-14 -74q0 -47 18 -83.5t54.5 -71.5t93.5 -79q69 -52 114 -109.5t67 -125.5t22 -151q0 -105 -36.5 -190t-103.5 -145.5t-160.5 -93t-208.5 -32.5z" />
    <glyph glyph-name="uni0406" unicode="&#x406;" horiz-adv-x="576" 
d="M23 0l311 1462h280l-311 -1462h-280z" />
    <glyph glyph-name="uni0407" unicode="&#x407;" horiz-adv-x="576" 
d="M23 0l311 1462h280l-311 -1462h-280zM689 1636q-52 0 -83 24.5t-31 78.5q0 71 39.5 116.5t111.5 45.5q47 0 78 -23.5t31 -76.5q0 -74 -39 -119.5t-107 -45.5zM324 1636q-52 0 -83 24.5t-31 78.5q0 71 39 116.5t111 45.5q32 0 56.5 -10t38.5 -32t14 -58q0 -74 -39 -119.5
t-106 -45.5z" />
    <glyph glyph-name="uni0408" unicode="&#x408;" horiz-adv-x="585" 
d="M-141 -428q-59 0 -100 7t-76 19l25 238q31 -10 63.5 -16t69.5 -6q59 0 99.5 32t67.5 88.5t42 131.5l296 1396h281l-305 -1437q-35 -162 -97 -261.5t-153 -145.5t-213 -46z" />
    <glyph glyph-name="uni0409" unicode="&#x409;" horiz-adv-x="1704" 
d="M44 -18q-34 0 -66.5 6t-58.5 15v239q22 -9 44.5 -14t44.5 -5q37 0 68.5 15.5t63.5 62t67 139.5q28 68 61 166t71.5 226t83 285.5t94.5 344.5h745l-120 -563h53q144 0 237.5 -44.5t139 -127.5t45.5 -197q0 -115 -36 -212t-107.5 -168t-178.5 -110.5t-250 -39.5h-372
l256 1213h-210q-33 -124 -69 -251t-71.5 -244.5t-67 -212t-55.5 -153.5q-57 -144 -114 -224.5t-128 -113t-170 -32.5zM1002 239h86q64 0 110 21t75 58.5t43 88t14 108.5q0 74 -42 110t-127 36h-69z" />
    <glyph glyph-name="uni040A" unicode="&#x40a;" horiz-adv-x="1666" 
d="M25 0l309 1462h281l-121 -568h328l122 568h281l-119 -563h60q140 0 231.5 -44t136.5 -126t45 -198q0 -120 -36.5 -218t-109 -167.5t-178.5 -107.5t-244 -38h-376l139 656h-330l-139 -656h-280zM966 239h89q81 0 133.5 35.5t78 97t25.5 139.5q0 76 -43 113t-128 37h-65z
" />
    <glyph glyph-name="uni040B" unicode="&#x40b;" horiz-adv-x="1300" 
d="M198 0l259 1220h-288l51 242h889l-51 -242h-321l-61 -290h172q168 0 252.5 -81t84.5 -217q0 -35 -6 -80t-15 -92l-96 -460h-282l109 508q4 22 6.5 43.5t2.5 33.5q0 49 -26.5 75.5t-96.5 26.5h-156l-147 -687h-280z" />
    <glyph glyph-name="uni040C" unicode="&#x40c;" horiz-adv-x="1084" 
d="M25 0l309 1462h281l-148 -692l496 692h311l-533 -717l238 -745h-304l-216 732l-154 -732h-280zM641 1582l2 23q38 45 77 97.5t75.5 106t67.5 101.5h307l-1 -17q-22 -27 -64.5 -69.5t-93 -89t-98 -87t-79.5 -65.5h-193z" />
    <glyph glyph-name="uni040D" unicode="&#x40d;" horiz-adv-x="1356" 
d="M25 0l309 1462h265l-136 -635q-11 -56 -25.5 -121t-30.5 -130t-33 -123h9l675 1009h336l-309 -1462h-263l134 633q13 60 27.5 126t31.5 134t34 131l-8 1l-678 -1025h-338zM842 1582q-33 38 -75 93.5t-79.5 113t-58.5 101.5v20h294q11 -45 26 -94.5t34 -102t42 -106.5
l-2 -25h-181z" />
    <glyph glyph-name="uni040E" unicode="&#x40e;" horiz-adv-x="1052" 
d="M173 -19q-51 0 -98 7.5t-86 21.5v246q38 -19 83.5 -26.5t81.5 -7.5q40 0 70 13t54 38.5t46 62.5t46 84l-188 1042h285l89 -558q3 -22 7 -57t7.5 -70t5.5 -61q20 48 42 100t43 97l275 549h304l-567 -1059q-69 -127 -137 -222t-153.5 -147.5t-209.5 -52.5zM719 1579
q-132 0 -206.5 38t-105.5 101.5t-31 140.5q0 15 2 33.5t4 34.5h232q-2 -19 -3.5 -35t-1.5 -30q0 -61 33 -91t96 -30q74 0 120.5 44t69.5 142h235q-26 -113 -80 -190.5t-143 -117.5t-221 -40z" />
    <glyph glyph-name="uni040F" unicode="&#x40f;" horiz-adv-x="1239" 
d="M267 -425l90 425h-332l309 1462h282l-260 -1220h382l259 1220h280l-309 -1462h-333l-91 -425h-277z" />
    <glyph glyph-name="uni0410" unicode="&#x410;" horiz-adv-x="1125" 
d="M-125 0l695 1465h349l81 -1465h-284l-9 361h-372l-159 -361h-301zM441 603h265l-7 411q-1 55 -2 108t2 109h-6q-13 -50 -32 -99.5t-43 -105.5z" />
    <glyph glyph-name="uni0411" unicode="&#x411;" horiz-adv-x="1062" 
d="M25 0l309 1462h737l-50 -240h-459l-69 -323h58q144 0 237.5 -45t139 -129t45.5 -201q0 -116 -36.5 -212t-109 -166t-180 -108t-248.5 -38h-374zM353 239h82q88 0 143.5 35t82 96t26.5 137q0 79 -44 116.5t-130 37.5h-70z" />
    <glyph glyph-name="uni0412" unicode="&#x412;" horiz-adv-x="1122" 
d="M24 0l309 1462h381q117 0 209 -31.5t145.5 -100t53.5 -181.5q0 -93 -33 -171t-98.5 -133t-162.5 -80v-8q86 -26 136 -97t50 -174q0 -148 -65.5 -257.5t-185 -169t-281.5 -59.5h-458zM355 238h136q76 0 128.5 32t80 89.5t27.5 131.5q0 76 -40 115.5t-117 39.5h-128z
M490 874h116q69 0 119 28t77.5 78t27.5 116q0 65 -37.5 98.5t-113.5 33.5h-114z" />
    <glyph glyph-name="uni0413" unicode="&#x413;" horiz-adv-x="894" 
d="M25 0l309 1462h712l-51 -239h-433l-259 -1223h-278z" />
    <glyph glyph-name="uni0414" unicode="&#x414;" horiz-adv-x="1286" 
d="M-198 -425l141 667h107q74 119 144.5 255t135.5 288.5t124 322t113 354.5h702l-260 -1220h158l-142 -667h-276l91 425h-671l-91 -425h-276zM354 242h371l209 981h-175q-35 -120 -80 -248t-96.5 -256.5t-109.5 -250t-119 -226.5z" />
    <glyph glyph-name="uni0415" unicode="&#x415;" horiz-adv-x="959" 
d="M25 0l309 1462h709l-51 -238h-428l-72 -345h398l-51 -239h-398l-86 -399h429l-51 -241h-708z" />
    <glyph glyph-name="uni0416" unicode="&#x416;" horiz-adv-x="1572" 
d="M-131 0l553 775l-228 687h282l214 -692l147 692h271l-147 -692l489 692h303l-530 -717l232 -745h-293l-209 732l-155 -732h-270l154 731l-502 -731h-311z" />
    <glyph glyph-name="uni0417" unicode="&#x417;" horiz-adv-x="1058" 
d="M368 -20q-125 0 -210 17.5t-151 52.5v260q74 -48 162.5 -71.5t177.5 -23.5q72 0 128.5 16t96.5 47.5t60.5 79t20.5 110.5q0 95 -66.5 135.5t-190.5 40.5h-132l50 233h123q92 0 166 24.5t117 75t43 129.5q0 63 -42 101.5t-123 38.5t-153 -29.5t-142 -78.5l-98 196
q104 71 212.5 110t255.5 39q117 0 201.5 -41.5t130.5 -115.5t47 -170q0 -112 -46 -193t-129.5 -130t-194.5 -64l-1 -7q80 -12 138 -53t89.5 -105t31.5 -149q0 -109 -38.5 -196.5t-112 -149.5t-180 -95.5t-241.5 -33.5z" />
    <glyph glyph-name="uni0418" unicode="&#x418;" horiz-adv-x="1356" 
d="M25 0l309 1462h265l-136 -635q-11 -56 -25.5 -121t-30.5 -130t-33 -123h9l675 1009h336l-309 -1462h-263l134 633q13 60 27.5 126t31.5 134t34 131l-8 1l-678 -1025h-338z" />
    <glyph glyph-name="uni0419" unicode="&#x419;" horiz-adv-x="1356" 
d="M25 0l309 1462h265l-136 -635q-11 -56 -25.5 -121t-30.5 -130t-33 -123h9l675 1009h336l-309 -1462h-263l134 633q13 60 27.5 126t31.5 134t34 131l-8 1l-678 -1025h-338zM880 1579q-132 0 -206.5 38t-105.5 101.5t-31 140.5q0 15 2 33.5t4 34.5h232q-2 -19 -3.5 -35
t-1.5 -30q0 -61 33 -91t96 -30q74 0 120.5 44t69.5 142h235q-26 -113 -80 -190.5t-143 -117.5t-221 -40z" />
    <glyph glyph-name="uni041A" unicode="&#x41a;" horiz-adv-x="1084" 
d="M25 0l309 1462h281l-148 -692l496 692h311l-533 -717l238 -745h-304l-216 732l-154 -732h-280z" />
    <glyph glyph-name="uni041B" unicode="&#x41b;" horiz-adv-x="1239" 
d="M47 -18q-34 0 -67 6t-59 15v239q22 -9 45 -14t46 -5q35 0 66.5 16t63.5 61t65 133q25 65 59 169t75 239t86 292.5t92 328.5h765l-312 -1462h-280l258 1213h-229q-24 -91 -51.5 -191t-57 -200t-58.5 -192.5t-56 -169.5t-48 -131q-54 -132 -110 -208t-125.5 -107.5
t-167.5 -31.5z" />
    <glyph glyph-name="uni041C" unicode="&#x41c;" horiz-adv-x="1614" 
d="M25 0l309 1462h372l48 -1053h7l498 1053h393l-310 -1462h-265l159 757q11 48 24 101.5t27 106.5t25 97h-6l-508 -1062h-252l-45 1059h-7q-6 -43 -15 -99.5t-20 -117.5t-24 -120l-152 -722h-258z" />
    <glyph glyph-name="uni041D" unicode="&#x41d;" horiz-adv-x="1255" 
d="M25 0l309 1462h281l-123 -579h397l123 579h281l-311 -1462h-281l136 640h-396l-136 -640h-280z" />
    <glyph glyph-name="uni041E" unicode="&#x41e;" horiz-adv-x="1297" 
d="M556 -20q-152 0 -253.5 59.5t-153 173.5t-51.5 278q0 113 19.5 230t58 228.5t97.5 208.5t137.5 170.5t177.5 115t218 41.5q229 0 340.5 -132t111.5 -370q0 -108 -17.5 -223.5t-54 -228t-93.5 -211.5t-134.5 -175.5t-178 -120.5t-224.5 -44zM578 225q59 0 110.5 31.5
t95 87t78 129t58.5 158.5t37 174.5t13 176.5q0 125 -47 192.5t-140 67.5q-61 0 -115 -33.5t-97.5 -92t-78 -133.5t-58 -159.5t-35.5 -170t-12 -163.5q0 -93 22 -151.5t65 -86t104 -27.5z" />
    <glyph glyph-name="uni041F" unicode="&#x41f;" horiz-adv-x="1239" 
d="M25 0l309 1462h943l-309 -1462h-281l259 1220h-383l-258 -1220h-280z" />
    <glyph glyph-name="uni0420" unicode="&#x420;" horiz-adv-x="1079" 
d="M25 0l309 1462h349q152 0 246.5 -47.5t138 -133t43.5 -200.5q0 -121 -39.5 -223t-114.5 -177t-181 -116t-240 -41h-121l-110 -524h-280zM466 763h83q85 0 146.5 36.5t95 103.5t33.5 158q0 85 -42 124t-126 39h-92z" />
    <glyph glyph-name="uni0421" unicode="&#x421;" horiz-adv-x="1067" 
d="M542 -20q-146 0 -245 63t-149 180t-50 279q0 132 28 269.5t85 265t142.5 228.5t200.5 160t260 59q110 0 197 -23t167 -73l-122 -228q-56 38 -113.5 60t-125.5 22q-89 0 -159 -49.5t-120.5 -131t-84 -178.5t-49.5 -193t-16 -173q0 -151 53 -222t166 -71q69 0 140.5 19.5
t142.5 50.5v-245q-64 -28 -154.5 -48.5t-193.5 -20.5z" />
    <glyph glyph-name="uni0422" unicode="&#x422;" horiz-adv-x="941" 
d="M205 0l258 1220h-298l52 242h877l-52 -242h-298l-259 -1220h-280z" />
    <glyph glyph-name="uni0423" unicode="&#x423;" horiz-adv-x="1052" 
d="M173 -19q-51 0 -98 7.5t-86 21.5v246q38 -19 83.5 -26.5t81.5 -7.5q40 0 70 13t54 38.5t46 62.5t46 84l-188 1042h285l89 -558q3 -22 7 -57t7.5 -70t5.5 -61q20 48 42 100t43 97l275 549h304l-567 -1059q-69 -127 -137 -222t-153.5 -147.5t-209.5 -52.5z" />
    <glyph glyph-name="uni0424" unicode="&#x424;" horiz-adv-x="1483" 
d="M473 -20l49 224q-145 10 -237.5 68.5t-136.5 155t-44 218.5q0 144 44.5 262.5t129 205t205.5 135.5t272 54l38 180h266l-37 -180q140 -9 233 -68t139 -155t46 -217q0 -140 -42.5 -259t-125.5 -208t-204.5 -139t-278.5 -52l-49 -225h-267zM570 433l137 640
q-77 -3 -137.5 -38t-101.5 -93.5t-62.5 -133t-21.5 -156.5q0 -66 20 -114.5t61.5 -75t104.5 -29.5zM837 433q76 4 136 38t101.5 92t63 132.5t21.5 157.5q0 67 -20.5 115.5t-62 76t-103.5 28.5z" />
    <glyph glyph-name="uni0425" unicode="&#x425;" horiz-adv-x="1069" 
d="M-118 0l516 757l-180 705h293l105 -483l299 483h309l-482 -721l203 -741h-304l-114 513l-337 -513h-308z" />
    <glyph glyph-name="uni0426" unicode="&#x426;" horiz-adv-x="1319" 
d="M788 -425l91 425h-853l310 1462h282l-260 -1220h390l260 1220h280l-261 -1226h178l-141 -661h-276z" />
    <glyph glyph-name="uni0427" unicode="&#x427;" horiz-adv-x="1197" 
d="M642 0l118 559q-67 -31 -147 -56t-156 -25q-84 0 -151.5 31t-106.5 95t-39 161q0 30 4 67.5t13 74.5l116 555h280l-110 -521l-9 -54t-4 -46q0 -61 30.5 -90.5t88.5 -29.5q63 0 123.5 21t115.5 49l143 671h281l-309 -1462h-281z" />
    <glyph glyph-name="uni0428" unicode="&#x428;" horiz-adv-x="1792" 
d="M25 0l309 1462h285l-260 -1220h322l260 1220h286l-260 -1220h321l259 1220h285l-309 -1462h-1498z" />
    <glyph glyph-name="uni0429" unicode="&#x429;" horiz-adv-x="1861" 
d="M1334 -425l92 425h-1401l309 1462h285l-260 -1220h322l260 1220h286l-260 -1220h321l260 1220h285l-261 -1226h179l-141 -661h-276z" />
    <glyph glyph-name="uni042A" unicode="&#x42a;" horiz-adv-x="1240" 
d="M202 0l257 1219h-298l51 243h581l-120 -563h58q144 0 237 -44.5t138.5 -128.5t45.5 -202q0 -116 -36.5 -212t-108.5 -165.5t-178.5 -108t-246.5 -38.5h-380zM534 239h82q88 0 143 35t81.5 96t26.5 137q0 79 -43 116.5t-126 37.5h-74z" />
    <glyph glyph-name="uni042B" unicode="&#x42b;" horiz-adv-x="1603" 
d="M25 0l309 1462h281l-120 -563h44q144 0 237 -44.5t138.5 -128.5t45.5 -201q0 -114 -36 -210t-108 -166.5t-179 -109.5t-249 -39h-363zM355 239h66q67 0 115 21t78 58t44.5 85.5t14.5 103.5q0 79 -43 116.5t-128 37.5h-57zM1045 0l310 1462h285l-311 -1462h-284z" />
    <glyph glyph-name="uni042C" unicode="&#x42c;" horiz-adv-x="1063" 
d="M25 0l309 1462h281l-120 -563h59q145 0 238 -45t138 -128.5t45 -200.5q0 -114 -36 -210t-108 -166.5t-178.5 -109.5t-248.5 -39h-379zM355 239h81q68 0 115.5 21t78 58t45 85.5t14.5 103.5q0 80 -43.5 117t-127.5 37h-73z" />
    <glyph glyph-name="uni042D" unicode="&#x42d;" horiz-adv-x="1091" 
d="M337 -20q-103 0 -182.5 17t-145.5 55v253q54 -31 107.5 -49t104 -25.5t96.5 -7.5q97 0 172.5 45.5t131 135.5t91.5 222h-459l50 239h449q4 19 5 41t1 42q0 97 -23.5 162t-70.5 98.5t-117 33.5q-73 0 -132.5 -18.5t-137.5 -53.5l-72 222q88 44 184 68t198 24
q147 0 249.5 -61.5t155.5 -182t53 -295.5q0 -130 -26 -266t-80.5 -260.5t-138 -223.5t-199 -157t-264.5 -58z" />
    <glyph glyph-name="uni042E" unicode="&#x42e;" horiz-adv-x="1770" 
d="M1068 -20q-142 0 -237.5 58.5t-144 171t-48.5 274.5q0 35 3 74.5t8 80.5h-208l-136 -639h-280l309 1462h281l-123 -580h199q32 117 84.5 225.5t128 193.5t175 134.5t225.5 49.5q208 0 317 -128t109 -368q0 -108 -17 -224t-51 -229t-87.5 -213t-127 -177.5t-168 -121.5
t-211.5 -44zM1084 225q55 0 102.5 34.5t87 95t70.5 137.5t52.5 163t33 172t11.5 163q0 120 -41.5 186t-123.5 66q-55 0 -103 -34.5t-88 -95t-71 -137.5t-52.5 -162t-32.5 -170t-11 -160q0 -91 19.5 -148t57 -83.5t89.5 -26.5z" />
    <glyph glyph-name="uni042F" unicode="&#x42f;" horiz-adv-x="1103" 
d="M-125 0l464 649q-74 49 -115.5 121t-41.5 184q0 111 35 204t105 161t175 105.5t244 37.5h399l-309 -1462h-281l120 567h-86l-385 -567h-324zM640 800h79l90 426h-95q-60 0 -105.5 -20t-75.5 -56.5t-45.5 -84.5t-15.5 -105q0 -82 48.5 -121t119.5 -39z" />
    <glyph glyph-name="uni0430" unicode="&#x430;" horiz-adv-x="1075" 
d="M335 -20q-75 0 -136.5 39.5t-97.5 120t-36 204.5q0 100 20 209.5t59.5 213.5t97.5 187.5t134.5 133.5t169.5 50q58 0 103 -18.5t78.5 -54t54.5 -88.5h7l53 140h222l-237 -1117h-212l8 145h-7q-38 -49 -79.5 -86t-90.5 -58t-111 -21zM446 206q58 0 104.5 50t79.5 127.5
t50 157.5q15 68 21 119t6 99q0 68 -30 109t-83 41q-44 0 -82 -35t-68.5 -93.5t-53 -129.5t-34.5 -145t-12 -138q0 -80 26.5 -121t75.5 -41z" />
    <glyph glyph-name="uni0431" unicode="&#x431;" horiz-adv-x="1051" 
d="M441 -20q-108 0 -190 45t-128 141t-46 251q0 114 17.5 241t56 253t101 238t152.5 196.5t211 127.5q42 16 100 30.5t125.5 26.5t138.5 22t140 18l16 -242q-61 -7 -126.5 -16t-129.5 -19.5t-122 -24.5q-88 -21 -152.5 -69t-108.5 -124t-72 -184l7 -1q48 63 119 106.5
t160 43.5q85 0 145 -39t91.5 -116t31.5 -192q0 -126 -34 -252t-101.5 -230.5t-168 -167.5t-233.5 -63zM462 208q42 0 78.5 30t65.5 80.5t49.5 112.5t31.5 126t11 120q0 64 -21.5 107t-76.5 43q-39 0 -80.5 -26t-76.5 -65t-59 -77q-14 -67 -22.5 -133t-8.5 -121
q0 -62 11.5 -106.5t35.5 -67.5t62 -23z" />
    <glyph glyph-name="uni0432" unicode="&#x432;" horiz-adv-x="1059" 
d="M476 -20q-124 0 -216 46.5t-142.5 137.5t-50.5 225q0 106 21 213t65.5 203.5t114 171t165.5 118t220 43.5q108 0 189 -33t126.5 -96.5t45.5 -155.5q0 -77 -29.5 -132.5t-84 -91t-132.5 -54.5l-1 -8q69 -16 118.5 -71t49.5 -156q0 -94 -50 -176t-151.5 -133t-257.5 -51z
M495 179q50 0 87 22t58 59.5t21 84.5q0 43 -18 73t-56.5 45.5t-99.5 15.5h-139q-3 -26 -5 -49.5t-2 -50.5q0 -110 43.5 -155t110.5 -45zM389 674h165q59 0 99.5 18.5t62 54t21.5 85.5q0 49 -27.5 76t-76.5 27q-58 0 -104 -34t-81 -93t-59 -134z" />
    <glyph glyph-name="uni0433" unicode="&#x433;" horiz-adv-x="863" 
d="M366 -20q-96 0 -175.5 28t-127.5 93t-50 173q0 83 27 143.5t73 104.5t104.5 77t121.5 60q80 33 125.5 60t65 56t19.5 68t-26.5 59t-76.5 20q-61 0 -114.5 -19.5t-106.5 -47.5l-67 197q72 39 157 62.5t179 23.5q100 0 175 -31.5t116.5 -95t41.5 -161.5q0 -81 -25.5 -140
t-71 -102t-105.5 -76t-128 -62q-72 -32 -116 -58.5t-64.5 -55t-20.5 -67.5q0 -44 31.5 -68.5t94.5 -24.5q46 0 93.5 10.5t93.5 28.5t89 39v-218q-74 -38 -153.5 -57t-178.5 -19z" />
    <glyph glyph-name="uni0434" unicode="&#x434;" horiz-adv-x="1084" 
d="M449 -20q-128 0 -213 50t-126.5 138.5t-41.5 205.5q0 97 19 194t56 183.5t93 153.5t129.5 105.5t164.5 38.5q56 0 100.5 -17.5t78 -47t54.5 -65.5h6q4 28 4.5 57t0.5 50q0 169 -48.5 245t-155.5 76q-47 0 -98.5 -14t-100.5 -39l-58 216q66 31 145 46.5t157 15.5
q150 0 246 -68t142.5 -192.5t46.5 -296.5q0 -109 -13.5 -227.5t-42.5 -234.5t-75.5 -219t-113 -183t-155 -125.5t-201.5 -45.5zM462 203q48 0 87.5 32.5t70 87t53 121.5t37.5 137t23 133q-11 34 -32.5 60.5t-51 42.5t-66.5 16q-46 0 -84 -28t-67 -75t-49 -107t-30 -125.5
t-10 -128.5q0 -81 30.5 -123.5t88.5 -42.5z" />
    <glyph glyph-name="uni0435" unicode="&#x435;" horiz-adv-x="1003" 
d="M453 -20q-117 0 -203.5 45t-134.5 133.5t-48 216.5q0 144 37 280.5t109.5 245t180 172.5t248.5 64q156 0 240.5 -77t84.5 -206q0 -92 -38 -165.5t-113 -124t-184.5 -77t-251.5 -26.5h-34q-3 -20 -5 -39t-2 -38q0 -94 44.5 -142t128.5 -48q77 0 140 18t148 62v-209
q-80 -45 -163.5 -65t-183.5 -20zM380 651h26q110 0 176.5 25.5t96.5 68.5t30 95q0 44 -24 67.5t-69 23.5q-49 0 -95.5 -34.5t-83 -97t-57.5 -148.5z" />
    <glyph glyph-name="uni0436" unicode="&#x436;" horiz-adv-x="1731" 
d="M66 -19q-34 0 -63.5 3.5t-54.5 8.5l53 223q15 -3 29.5 -5t34.5 -2q56 0 100 34t76.5 90.5t54 125.5t32 139.5t10.5 131.5q0 90 -31 134.5t-89 44.5q-23 0 -45 -5.5t-45 -13.5v224q28 10 65 16.5t83 6.5q153 0 242.5 -99.5t89.5 -287.5q0 -21 -1 -43.5t-5 -44.5h148
l98 455h263l-97 -455h138q25 99 68.5 185t106 151.5t145.5 102t186 36.5q34 0 63 -3t54 -9l-56 -224q-14 4 -28.5 6t-33.5 2q-53 0 -96.5 -32.5t-76.5 -87t-55.5 -122t-33.5 -140t-11 -140.5q0 -88 31 -133t88 -45q25 0 46.5 5.5t45.5 13.5v-225q-28 -8 -65.5 -15t-83.5 -7
q-102 0 -176.5 43.5t-115.5 129.5t-41 211q0 24 2 49t4 46h-149l-97 -460h-263l97 460h-136q-29 -113 -75.5 -202t-110 -150.5t-143.5 -94t-176 -32.5z" />
    <glyph glyph-name="uni0437" unicode="&#x437;" horiz-adv-x="906" 
d="M321 -20q-96 0 -181.5 19t-144.5 50v238q66 -39 145 -62t162 -23q65 0 114 17.5t76.5 52.5t27.5 89q0 60 -38.5 90.5t-117.5 30.5h-135l42 198h103q68 0 117 15.5t75 47t26 79.5q0 51 -29 76t-94 25q-54 0 -116 -18t-127 -48l-67 198q90 44 179.5 63.5t187.5 19.5
q103 0 179.5 -29t119 -89t42.5 -152q0 -76 -30.5 -131t-83.5 -91t-124 -57l-1 -8q78 -21 123.5 -79t45.5 -150q0 -107 -53.5 -191t-159 -132.5t-263.5 -48.5z" />
    <glyph glyph-name="uni0438" unicode="&#x438;" horiz-adv-x="1082" 
d="M331 -20q-84 0 -140 34t-84.5 97t-28.5 149q0 37 6.5 89.5t16.5 104.5l141 663h272l-138 -658q-9 -40 -14 -76.5t-5 -65.5q0 -52 21.5 -78.5t66.5 -26.5q58 0 103.5 50t80 136t56.5 195l113 524h272l-236 -1117h-213l14 171h-8q-38 -57 -82.5 -100t-97.5 -67t-116 -24z
" />
    <glyph glyph-name="uni0439" unicode="&#x439;" horiz-adv-x="1082" 
d="M331 -20q-84 0 -140 34t-84.5 97t-28.5 149q0 37 6.5 89.5t16.5 104.5l141 663h272l-138 -658q-9 -40 -14 -76.5t-5 -65.5q0 -52 21.5 -78.5t66.5 -26.5q58 0 103.5 50t80 136t56.5 195l113 524h272l-236 -1117h-213l14 171h-8q-38 -57 -82.5 -100t-97.5 -67t-116 -24z
M679 1238q-132 0 -206.5 38t-105.5 101.5t-31 140.5q0 15 2 33.5t4 34.5h232q-2 -19 -3.5 -35t-1.5 -30q0 -61 33 -91t96 -30q74 0 120.5 44t69.5 142h235q-26 -113 -80 -190.5t-143 -117.5t-221 -40z" />
    <glyph glyph-name="uni043A" unicode="&#x43a;" horiz-adv-x="1031" 
d="M13 0l238 1117h274l-112 -522l392 522h307l-429 -553l222 -564h-301l-200 550l-118 -550h-273z" />
    <glyph glyph-name="uni043B" unicode="&#x43b;" horiz-adv-x="1091" 
d="M51 -18q-40 0 -68 6t-58 18v231q18 -11 37 -14.5t39 -3.5q34 0 61.5 23t51.5 69.5t46.5 117t46.5 165.5q38 138 82 239.5t106 168.5t153.5 100t224.5 33q91 0 167 -12t141 -27l-230 -1096h-273l190 899q-11 3 -24 4t-27 1q-71 0 -116 -44t-79 -135t-72 -232
q-29 -106 -61 -198.5t-76 -162.5t-107 -110t-155 -40z" />
    <glyph glyph-name="uni043C" unicode="&#x43c;" horiz-adv-x="1385" 
d="M16 0l236 1117h373l21 -747h5l351 747h385l-238 -1117h-256l117 540q16 67 31 129.5t28 112.5h-4l-373 -782h-237l-28 782h-3q-10 -66 -20 -123t-22 -116l-112 -543h-254z" />
    <glyph glyph-name="uni043D" unicode="&#x43d;" horiz-adv-x="1098" 
d="M12 0l239 1117h275l-94 -433h289l91 433h274l-238 -1117h-272l98 465h-289l-98 -465h-275z" />
    <glyph glyph-name="uni043E" unicode="&#x43e;" horiz-adv-x="1054" 
d="M436 -20q-112 0 -195 47.5t-128.5 136.5t-45.5 212q0 103 20.5 210t62.5 206t108 177t156.5 123.5t207.5 45.5q113 0 195 -48t126 -138.5t44 -217.5q0 -106 -20.5 -213t-63 -204.5t-107.5 -173t-155 -119.5t-205 -44zM463 207q47 0 86 32.5t69 88.5t51 125t32 142t11 140
q0 53 -11.5 92.5t-37.5 61.5t-69 22q-50 0 -90.5 -36.5t-71 -96t-50.5 -130.5t-30 -142.5t-10 -130.5q0 -81 30 -124.5t91 -43.5z" />
    <glyph glyph-name="uni043F" unicode="&#x43f;" horiz-adv-x="1082" 
d="M12 0l237 1117h213l-15 -173h7q37 59 82 102.5t98.5 67.5t116.5 24q77 0 135 -31t89.5 -93t31.5 -156q0 -37 -6.5 -83.5t-17.5 -99.5l-142 -675h-273l138 654q8 41 14 79t6 68q0 52 -21.5 77.5t-67.5 25.5q-58 0 -103.5 -49.5t-79.5 -135t-58 -193.5l-110 -526h-274z" />
    </font>
</defs>
</svg>
