<?xml version="1.0" standalone="no"?>
<!DOCTYPE svg PUBLIC "-//W3C//DTD SVG 1.1//EN" "http://www.w3.org/Graphics/SVG/1.1/DTD/svg11.dtd" >
<svg xmlns="http://www.w3.org/2000/svg" xmlns:xlink="http://www.w3.org/1999/xlink" version="1.1">
<metadata>
Created by FontForge 20170731 at Wed Feb 10 17:54:38 2021
 By Aleksey,,,
Copyright 2020 The Open Sans Project Authors (https://github.com/googlefonts/opensans)
</metadata>
<defs>
<font id="OpenSansSemiCondensed-ExtraBold" horiz-adv-x="0" >
  <font-face 
    font-family="Open Sans SemiCondensed ExtraBold"
    font-weight="800"
    font-stretch="semi-condensed"
    units-per-em="2048"
    panose-1="0 0 0 0 0 0 0 0 0 0"
    ascent="1638"
    descent="-410"
    x-height="1133"
    cap-height="1462"
    bbox="-1324 -684 2578 2294"
    underline-thickness="50"
    underline-position="-175"
    unicode-range="U+000D-FFFD"
  />
<missing-glyph horiz-adv-x="1229" 
 />
    <glyph glyph-name="f_f" unicode="ff" horiz-adv-x="1516" 
d="M741 850h-212v-850h-362v850h-137v184l141 94v19q0 149 37 241.5t114.5 135.5t200.5 43q78 0 140.5 -13t139.5 -41l-75 -248q-28 9 -59 14.5t-64 5.5q-40 0 -58 -27.5t-18 -88.5v-36h212v-283zM1499 850h-212v-850h-362v850h-137v184l141 94v19q0 149 37 241.5
t114.5 135.5t200.5 43q78 0 140.5 -13t139.5 -41l-75 -248q-28 9 -59 14.5t-64 5.5q-40 0 -58 -27.5t-18 -88.5v-36h212v-283z" />
    <glyph glyph-name="fi" unicode="fi" horiz-adv-x="1362" 
d="M741 850h-212v-850h-362v850h-137v184l141 94v19q0 149 37 241.5t114.5 135.5t200.5 43q78 0 140.5 -13t139.5 -41l-75 -248q-28 9 -59 14.5t-64 5.5q-40 0 -58 -27.5t-18 -88.5v-36h212v-283zM1240 1133v-1133h-361v1133h361zM1060 1589q88 0 140.5 -39.5t52.5 -134.5
q0 -93 -53.5 -132.5t-139.5 -39.5t-138.5 39.5t-52.5 132.5q0 96 51 135t140 39z" />
    <glyph glyph-name="fl" unicode="fl" horiz-adv-x="1358" 
d="M741 850h-212v-850h-362v850h-137v184l141 94v19q0 149 37 241.5t114.5 135.5t200.5 43q78 0 140.5 -13t139.5 -41l-75 -248q-28 9 -59 14.5t-64 5.5q-40 0 -58 -27.5t-18 -88.5v-36h212v-283zM1238 0h-361v1556h361v-1556z" />
    <glyph glyph-name="f_f_i" unicode="ffi" horiz-adv-x="2120" 
d="M741 850h-212v-850h-362v850h-137v184l141 94v19q0 149 37 241.5t114.5 135.5t200.5 43q78 0 140.5 -13t139.5 -41l-75 -248q-28 9 -59 14.5t-64 5.5q-40 0 -58 -27.5t-18 -88.5v-36h212v-283zM1499 850h-212v-850h-362v850h-137v184l141 94v19q0 149 37 241.5
t114.5 135.5t200.5 43q78 0 140.5 -13t139.5 -41l-75 -248q-28 9 -59 14.5t-64 5.5q-40 0 -58 -27.5t-18 -88.5v-36h212v-283zM1998 1133v-1133h-361v1133h361zM1818 1589q88 0 140.5 -39.5t52.5 -134.5q0 -93 -53.5 -132.5t-139.5 -39.5t-138.5 39.5t-52.5 132.5
q0 96 51 135t140 39z" />
    <glyph glyph-name="f_f_l" unicode="ffl" horiz-adv-x="2116" 
d="M741 850h-212v-850h-362v850h-137v184l141 94v19q0 149 37 241.5t114.5 135.5t200.5 43q78 0 140.5 -13t139.5 -41l-75 -248q-28 9 -59 14.5t-64 5.5q-40 0 -58 -27.5t-18 -88.5v-36h212v-283zM1499 850h-212v-850h-362v850h-137v184l141 94v19q0 149 37 241.5
t114.5 135.5t200.5 43q78 0 140.5 -13t139.5 -41l-75 -248q-28 9 -59 14.5t-64 5.5q-40 0 -58 -27.5t-18 -88.5v-36h212v-283zM1996 0h-361v1556h361v-1556z" />
    <glyph glyph-name=".notdef" horiz-adv-x="1229" 
 />
    <glyph glyph-name=".null" 
 />
    <glyph glyph-name="nonmarkingreturn" horiz-adv-x="682" 
 />
    <glyph glyph-name="NULL" 
 />
    <glyph glyph-name="NULL" 
 />
    <glyph glyph-name="CR" unicode="&#xd;" horiz-adv-x="446" 
 />
    <glyph glyph-name="space" unicode=" " horiz-adv-x="446" 
 />
    <glyph glyph-name="exclam" unicode="!" horiz-adv-x="575" 
d="M443 516h-309l-50 946h408zM87 166q0 99 55.5 145.5t145.5 46.5q87 0 141.5 -46.5t54.5 -145.5q0 -96 -55 -143.5t-141 -47.5q-87 0 -144 47.5t-57 143.5z" />
    <glyph glyph-name="quotedbl" unicode="&#x22;" horiz-adv-x="1032" 
d="M457 1462l-41 -528h-274l-41 528h356zM932 1462l-41 -528h-274l-41 528h356z" />
    <glyph glyph-name="numbersign" unicode="#" horiz-adv-x="1236" 
d="M963 824l-31 -189h216v-244h-255l-65 -391h-254l65 391h-148l-64 -391h-252l64 391h-199v244h240l31 189h-213v249h253l65 389h253l-66 -389h147l63 389h254l-65 -389h203v-249h-242zM532 635h146l31 189h-147z" />
    <glyph glyph-name="dollar" unicode="$" horiz-adv-x="1098" 
d="M470 -119v176q-107 4 -199.5 26.5t-175.5 59.5v304q86 -47 187 -80t188 -38v284q-121 42 -210 96t-138 133t-49 194q0 118 50 198t139.5 125t207.5 56v140h167v-138q100 -6 190.5 -31.5t169.5 -63.5l-79 -261q-66 34 -139 54t-142 27v-269q130 -43 217 -93t131.5 -122.5
t44.5 -183.5q0 -159 -98 -271t-295 -140v-182h-167zM637 341q51 13 74 40t23 67q0 25 -10 44.5t-31 35.5t-56 30v-217zM470 931v209q-35 -5 -57 -18.5t-32 -34t-10 -47.5q0 -23 10 -42.5t32 -35t57 -31.5z" />
    <glyph glyph-name="percent" unicode="%" horiz-adv-x="1831" 
d="M391 1483q160 0 257 -122t97 -335q0 -218 -91.5 -339.5t-262.5 -121.5q-159 0 -253.5 123.5t-94.5 337.5q0 219 91 338t257 119zM395 1246q-39 0 -56.5 -57.5t-17.5 -166.5t17.5 -166.5t56.5 -57.5t55.5 57t16.5 167t-16.5 167t-55.5 57zM1400 1462l-705 -1462h-272
l706 1462h271zM1433 901q160 0 256.5 -122t96.5 -335q0 -217 -91.5 -338.5t-261.5 -121.5q-159 0 -253 123.5t-94 336.5q0 219 90 338t257 119zM1436 665q-39 0 -56 -58t-17 -167q0 -108 17 -166t56 -58q42 0 57.5 61t15.5 163q0 105 -15.5 165t-57.5 60z" />
    <glyph glyph-name="ampersand" unicode="&#x26;" horiz-adv-x="1477" 
d="M620 1481q130 0 222.5 -41.5t141 -119.5t48.5 -187q0 -119 -66.5 -210t-175.5 -164l168 -180q27 47 47.5 108.5t34.5 133.5h378q-27 -140 -83 -274.5t-130 -239.5l282 -307h-466l-80 94q-53 -34 -109 -60t-127 -40t-172 -14q-155 0 -260.5 55t-159.5 151t-54 220
q0 88 29.5 162t87 134t143.5 105q-41 48 -69 98t-42.5 106t-14.5 122q0 102 50.5 180.5t146 123t230.5 44.5zM505 597q-25 -20 -41.5 -46t-24.5 -56t-8 -65q0 -60 40 -104t108 -44q51 0 88.5 14.5t64.5 36.5zM616 1232q-37 0 -64.5 -25t-27.5 -79q0 -42 22 -82t57 -78
q49 32 75.5 78.5t26.5 93.5q0 48 -25.5 70t-63.5 22z" />
    <glyph glyph-name="quotesingle" unicode="'" horiz-adv-x="557" 
d="M457 1462l-41 -528h-274l-41 528h356z" />
    <glyph glyph-name="parenleft" unicode="(" horiz-adv-x="702" 
d="M81 582q0 181 31.5 346.5t93.5 311t151 263.5h315q-135 -195 -198 -429.5t-63 -489.5q0 -165 28.5 -322t86.5 -304t145 -282h-314q-91 119 -152.5 261.5t-92.5 304.5t-31 340z" />
    <glyph glyph-name="parenright" unicode=")" horiz-adv-x="702" 
d="M621 582q0 -178 -30.5 -340t-92.5 -304.5t-155 -261.5h-312q87 135 144.5 282t86 304t28.5 322q0 170 -27.5 331t-85 309.5t-147.5 278.5h313q91 -118 153 -263.5t93.5 -311t31.5 -346.5z" />
    <glyph glyph-name="asterisk" unicode="*" horiz-adv-x="1037" 
d="M670 1560l-39 -330l318 107l54 -291l-298 -29l210 -252l-252 -157l-147 278l-135 -277l-258 156l210 252l-298 31l58 289l314 -107l-39 330h302z" />
    <glyph glyph-name="plus" unicode="+" horiz-adv-x="1112" 
d="M691 856h339v-268h-339v-361h-271v361h-339v268h339v367h271v-367z" />
    <glyph glyph-name="comma" unicode="," horiz-adv-x="596" 
d="M480 299l12 -23q-17 -92 -41 -193.5t-53 -196.5t-61 -171h-277q18 87 35 192.5t31 209t21 182.5h333z" />
    <glyph glyph-name="hyphen" unicode="-" horiz-adv-x="659" 
d="M51 393v312h556v-312h-556z" />
    <glyph glyph-name="period" unicode="." horiz-adv-x="576" 
d="M89 166q0 99 56 145.5t146 46.5q86 0 140.5 -46.5t54.5 -145.5q0 -96 -55 -143.5t-140 -47.5q-88 0 -145 47.5t-57 143.5z" />
    <glyph glyph-name="slash" unicode="/" horiz-adv-x="888" 
d="M884 1483l-558 -1503h-318l559 1503h317z" />
    <glyph glyph-name="zero" unicode="0" horiz-adv-x="1107" 
d="M1035 729q0 -167 -23.5 -304.5t-78.5 -237t-148 -153.5t-232 -54q-163 0 -270 87t-159 254t-52 408q0 249 49 416.5t155 252.5t277 85q164 0 270.5 -87t159 -255t52.5 -412zM440 729q0 -149 8.5 -247t33 -146t71.5 -48q48 0 72.5 48t33.5 145.5t9 247.5q0 149 -9 247.5
t-33.5 148.5t-72.5 50q-46 0 -70.5 -50t-33.5 -148.5t-9 -247.5z" />
    <glyph glyph-name="one" unicode="1" horiz-adv-x="1107" 
d="M881 0h-372v747q0 33 0.5 82t1.5 102.5t3 98.5q-19 -26 -39 -48.5t-41 -44.5l-147 -137l-206 225l468 437h332v-1462z" />
    <glyph glyph-name="two" unicode="2" horiz-adv-x="1107" 
d="M1014 0h-957v252l317 366q102 120 155.5 194t73.5 125.5t20 102.5q0 63 -35 95.5t-93 32.5q-61 0 -121.5 -36.5t-138.5 -120.5l-192 238q66 73 136 125.5t157 80.5t202 28q134 0 236 -51.5t159 -142.5t57 -211q0 -106 -33.5 -196.5t-107.5 -187.5t-195 -222l-138 -149
v-10h498v-313z" />
    <glyph glyph-name="three" unicode="3" horiz-adv-x="1107" 
d="M984 1124q0 -89 -37 -159t-101.5 -119t-148.5 -76v-6q159 -26 242 -111.5t83 -234.5q0 -128 -62.5 -227t-186.5 -155t-309 -56q-121 0 -211 18.5t-187 58.5v322q87 -49 177 -72.5t165 -23.5q124 0 174 39.5t50 114.5q0 57 -25.5 93.5t-87 54.5t-171.5 18h-81v291h83
q98 0 158 19.5t88.5 56.5t28.5 88q0 61 -40.5 90t-113.5 29q-50 0 -97.5 -14.5t-88.5 -35.5t-73 -43l-144 257q94 68 202.5 105t268.5 37q207 0 326 -92t119 -267z" />
    <glyph glyph-name="four" unicode="4" horiz-adv-x="1107" 
d="M1078 283h-152v-283h-363v283h-529v282l546 897h346v-891h152v-288zM563 571v184q0 16 1 50t2 71.5t2.5 64.5t2.5 29h-10q-16 -44 -31.5 -76.5t-36.5 -68.5l-152 -254h222z" />
    <glyph glyph-name="five" unicode="5" horiz-adv-x="1107" 
d="M618 958q112 0 202 -57t143 -162.5t53 -251.5q0 -163 -60 -276.5t-181.5 -172t-306.5 -58.5q-110 0 -202.5 19t-167.5 58v318q74 -37 168 -64.5t174 -27.5q65 0 110.5 21.5t69 64.5t23.5 106q0 88 -54 137.5t-163 49.5q-46 0 -91.5 -10t-87.5 -25l-127 72l49 763h761
v-315h-448l-17 -207q38 9 71.5 13.5t81.5 4.5z" />
    <glyph glyph-name="six" unicode="6" horiz-adv-x="1107" 
d="M68 618q0 129 17 254.5t60.5 235.5t121 194.5t197 132.5t290.5 48q48 0 105 -4.5t104 -12.5v-298q-42 8 -89.5 13t-107.5 5q-126 0 -204 -42.5t-115 -127t-42 -211.5h10q25 53 60 91t84.5 58.5t115.5 20.5q115 0 198 -56t127 -162t44 -257q0 -161 -56.5 -277.5
t-162 -179.5t-253.5 -63q-112 0 -204.5 40.5t-159.5 121t-103.5 200t-36.5 276.5zM563 284q53 0 86.5 50.5t33.5 158.5q0 90 -27.5 138t-89.5 48q-39 0 -68 -23t-44.5 -60.5t-15.5 -81.5q0 -45 7.5 -86.5t23.5 -74t39.5 -51t54.5 -18.5z" />
    <glyph glyph-name="seven" unicode="7" horiz-adv-x="1107" 
d="M192 0l460 1148h-575v314h960v-233l-459 -1229h-386z" />
    <glyph glyph-name="eight" unicode="8" horiz-adv-x="1107" 
d="M556 1483q138 0 238 -40t154.5 -120t54.5 -197q0 -82 -26.5 -148t-76.5 -117t-122 -91q78 -50 137.5 -106.5t93.5 -123.5t34 -151q0 -123 -55 -215t-164 -143t-272 -51t-271.5 49t-162 140t-53.5 216q0 90 28.5 159t83 122.5t132.5 97.5q-63 47 -109 101.5t-70.5 119.5
t-24.5 143q0 116 56 195t158 119.5t237 40.5zM408 396q0 -63 36.5 -101t104.5 -38q77 0 114 34t37 97q0 39 -17.5 72.5t-46 63.5t-63.5 56l-24 16q-44 -28 -75.5 -58.5t-48.5 -65.5t-17 -76zM555 1205q-44 0 -74 -29.5t-30 -78.5q0 -31 12 -59t34.5 -52t53.5 -46
q33 24 56.5 46.5t37 49t13.5 61.5q0 50 -30.5 79t-72.5 29z" />
    <glyph glyph-name="nine" unicode="9" horiz-adv-x="1107" 
d="M1039 834q0 -148 -23 -278t-73 -235.5t-130 -182t-193.5 -117.5t-264.5 -41q-50 0 -105.5 3.5t-101.5 10.5v301q42 -9 85.5 -13.5t95.5 -4.5q135 0 215.5 43.5t117 128.5t41.5 208h-11q-25 -52 -60 -90.5t-84.5 -59t-118.5 -20.5q-113 0 -195.5 57t-127 163.5
t-44.5 256.5q0 162 57 278t163.5 178.5t254.5 62.5q110 0 202 -41t159 -122.5t104 -203t37 -282.5zM545 1178q-56 0 -89 -50t-33 -159q0 -89 30 -137.5t89 -48.5q42 0 70.5 26.5t43 65t14.5 73.5q0 32 -6 71.5t-20 75.5t-38 59.5t-61 23.5z" />
    <glyph glyph-name="colon" unicode=":" horiz-adv-x="583" 
d="M93 166q0 99 55.5 145.5t146.5 46.5q86 0 140 -46.5t54 -145.5q0 -96 -54.5 -143.5t-139.5 -47.5q-88 0 -145 47.5t-57 143.5zM93 956q0 99 55.5 145.5t146.5 46.5q86 0 140 -46.5t54 -145.5q0 -96 -54.5 -143.5t-139.5 -47.5q-88 0 -145 47.5t-57 143.5z" />
    <glyph glyph-name="semicolon" unicode=";" horiz-adv-x="591" 
d="M480 299l12 -23q-17 -92 -41.5 -193.5t-53 -196.5t-60.5 -171h-278q19 88 36 193t30.5 208t21.5 183h333zM96 956q0 99 55 145.5t146 46.5q86 0 140.5 -46.5t54.5 -145.5q0 -96 -55 -143.5t-140 -47.5q-88 0 -144.5 47.5t-56.5 143.5z" />
    <glyph glyph-name="less" unicode="&#x3c;" horiz-adv-x="1112" 
d="M1029 204l-953 436v172l953 464v-297l-562 -247l562 -233v-295z" />
    <glyph glyph-name="equal" unicode="=" horiz-adv-x="1112" 
d="M81 815v268h950v-268h-950zM81 358v271h950v-271h-950z" />
    <glyph glyph-name="greater" unicode="&#x3e;" horiz-adv-x="1112" 
d="M81 499l562 233l-562 247v297l954 -464v-172l-954 -436v295z" />
    <glyph glyph-name="question" unicode="?" horiz-adv-x="929" 
d="M257 516v86q0 65 15 115t50 94t96 89q54 40 82.5 70t39 57.5t10.5 60.5q0 44 -33 69t-94 25q-64 0 -139.5 -27t-160.5 -80l-123 266q105 68 217.5 105t236.5 37q213 0 327.5 -99.5t114.5 -265.5q0 -83 -23 -147.5t-70.5 -119.5t-120.5 -110q-55 -42 -83.5 -69
t-38.5 -50.5t-10 -54.5v-51h-293zM211 166q0 99 55.5 145.5t145.5 46.5q86 0 141 -46.5t55 -145.5q0 -96 -55 -143.5t-141 -47.5q-88 0 -144.5 47.5t-56.5 143.5z" />
    <glyph glyph-name="at" unicode="@" horiz-adv-x="1704" 
d="M1628 756q0 -105 -24.5 -199t-70.5 -167t-111.5 -115t-146.5 -42q-76 0 -137 33.5t-92 96.5h-15q-43 -60 -101.5 -95t-131.5 -35q-168 0 -254.5 109.5t-86.5 296.5q0 138 54 245t156 168.5t247 61.5q84 0 170.5 -17.5t151.5 -43.5l-18 -422q-1 -20 -2 -49t-1 -57
q0 -45 14 -65.5t38 -20.5q34 0 59.5 36.5t40 108t14.5 174.5q0 154 -54.5 269.5t-163 180t-271.5 64.5q-136 0 -241.5 -47.5t-176.5 -135.5t-107.5 -209t-36.5 -268q0 -171 58.5 -295t175 -191t289.5 -67q106 0 231 26t238 70v-219q-100 -44 -216.5 -67t-243.5 -23
q-249 0 -425 92t-268.5 263.5t-92.5 408.5q0 193 58 352t165.5 275.5t257.5 180t333 63.5q222 0 388 -89t258 -251.5t92 -384.5zM720 639q0 -105 30.5 -152.5t80.5 -47.5q65 0 93.5 66.5t38.5 230.5l9 164q-17 4 -29.5 6t-27.5 2q-64 0 -107.5 -34.5t-65.5 -95t-22 -139.5z
" />
    <glyph glyph-name="A" unicode="A" horiz-adv-x="1332" 
d="M929 0l-63 280h-396l-64 -280h-406l417 1465h493l422 -1465h-403zM798 591l-61 284q-10 47 -24 109t-26.5 124.5t-19.5 108.5q-7 -45 -18.5 -105t-24.5 -122t-25 -113l-62 -286h261z" />
    <glyph glyph-name="B" unicode="B" horiz-adv-x="1262" 
d="M140 1462h467q282 0 409.5 -91t127.5 -273q0 -88 -29.5 -155t-77 -109t-103.5 -58v-10q68 -19 121.5 -59t84.5 -108t31 -171q0 -132 -62.5 -228t-177.5 -148t-274 -52h-517v1462zM511 897h98q81 0 118.5 39.5t37.5 105.5q0 64 -40 97t-123 33h-91v-275zM511 617v-320h115
q87 0 125 43t38 119q0 46 -17 81.5t-54.5 56t-97.5 20.5h-109z" />
    <glyph glyph-name="C" unicode="C" horiz-adv-x="1184" 
d="M732 1172q-60 0 -107.5 -30.5t-80.5 -88.5t-50.5 -140.5t-17.5 -187.5q0 -143 30.5 -239.5t91.5 -145t154 -48.5q84 0 162 27t157 65v-323q-83 -42 -174.5 -61.5t-194.5 -19.5q-206 0 -341.5 90.5t-202 258t-66.5 398.5q0 168 42 306.5t122.5 239t197 155.5t265.5 55
q102 0 205.5 -24.5t203.5 -78.5l-107 -298q-69 39 -139.5 64.5t-149.5 25.5z" />
    <glyph glyph-name="D" unicode="D" horiz-adv-x="1353" 
d="M1261 762q0 -249 -84.5 -418.5t-240 -256.5t-371.5 -87h-425v1462h453q214 0 363 -81t227 -237t78 -382zM876 748q0 141 -31.5 230t-94.5 131.5t-158 42.5h-81v-838h58q159 0 233 106t74 328z" />
    <glyph glyph-name="E" unicode="E" horiz-adv-x="1016" 
d="M926 0h-786v1462h786v-306h-415v-247h384v-306h-384v-292h415v-311z" />
    <glyph glyph-name="F" unicode="F" horiz-adv-x="999" 
d="M508 0h-368v1462h782v-306h-414v-296h382v-306h-382v-554z" />
    <glyph glyph-name="G" unicode="G" horiz-adv-x="1365" 
d="M675 856h570v-788q-113 -42 -244.5 -65t-273.5 -23q-195 0 -337.5 85t-220 253.5t-77.5 416.5q0 233 81.5 400t238 257.5t380.5 90.5q125 0 235 -26t192 -66l-111 -297q-69 38 -146 58t-163 20q-112 0 -183 -56.5t-105 -156.5t-34 -234q0 -140 32 -236t94 -146t151 -50
q31 0 70 5t65 12v248h-214v298z" />
    <glyph glyph-name="H" unicode="H" horiz-adv-x="1408" 
d="M1269 0h-373v603h-384v-603h-372v1462h372v-547h384v547h373v-1462z" />
    <glyph glyph-name="I" unicode="I" horiz-adv-x="652" 
d="M140 0v1462h372v-1462h-372z" />
    <glyph glyph-name="J" unicode="J" horiz-adv-x="658" 
d="M44 -459q-55 0 -102 6t-85 15v301q28 -8 60 -14.5t69 -6.5q62 0 97 26.5t49.5 83.5t14.5 151v1359h371v-1334q0 -220 -58 -348.5t-164.5 -183.5t-251.5 -55z" />
    <glyph glyph-name="K" unicode="K" horiz-adv-x="1269" 
d="M1278 0h-415l-251 552l-100 -63v-489h-372v1462h372v-635q17 46 43.5 93t55.5 94l271 448h403l-406 -655z" />
    <glyph glyph-name="L" unicode="L" horiz-adv-x="1035" 
d="M140 0v1462h371v-1153h472v-309h-843z" />
    <glyph glyph-name="M" unicode="M" horiz-adv-x="1817" 
d="M743 0l-276 1018h-8q4 -53 8 -119t7 -134t3 -130v-635h-337v1462h501l266 -958h7l264 958h500v-1462h-349v641q0 62 2.5 129t5.5 131.5t7 115.5h-9l-275 -1017h-317z" />
    <glyph glyph-name="N" unicode="N" horiz-adv-x="1526" 
d="M1387 0h-462l-458 970h-8q5 -64 9 -131t6 -129t2 -111v-599h-336v1462h459l456 -950h7q-4 61 -7 125t-5 123.5t-2 106.5v595h339v-1462z" />
    <glyph glyph-name="O" unicode="O" horiz-adv-x="1452" 
d="M1359 733q0 -176 -38 -315.5t-116 -237.5t-197.5 -149t-281.5 -51q-159 0 -278.5 51.5t-198.5 149t-118 237.5t-39 317q0 236 69.5 404t211 257t354.5 89q216 0 356 -89t208 -257t68 -406zM481 733q0 -140 26 -237.5t80.5 -148t138.5 -50.5q88 0 141.5 49.5t78 147
t24.5 239.5q0 215 -57 328t-186 113q-85 0 -139.5 -51.5t-80.5 -149.5t-26 -240z" />
    <glyph glyph-name="P" unicode="P" horiz-adv-x="1180" 
d="M610 1462q252 0 378 -121t126 -344q0 -104 -28.5 -197t-89.5 -163.5t-159 -111t-236 -40.5h-90v-485h-371v1462h470zM589 1155h-78v-361h55q49 0 89 19.5t63 63t23 114.5q0 78 -37.5 121t-114.5 43z" />
    <glyph glyph-name="Q" unicode="Q" horiz-adv-x="1452" 
d="M1359 733q0 -159 -30.5 -289t-94 -226t-161.5 -156l304 -410h-442l-211 329h-7h-7q-156 0 -272 53.5t-193 153t-115 238t-38 309.5q0 236 69.5 404t211 257t354.5 89q216 0 356 -89t208 -257t68 -406zM481 733q0 -140 26 -237.5t80.5 -148t138.5 -50.5q88 0 141.5 49.5
t78 147t24.5 239.5q0 215 -57 328t-186 113q-85 0 -139.5 -51.5t-80.5 -149.5t-26 -240z" />
    <glyph glyph-name="R" unicode="R" horiz-adv-x="1251" 
d="M575 1462q184 0 306.5 -48t184 -144t61.5 -240q0 -87 -26 -159.5t-76 -130.5t-122 -103l366 -637h-416l-269 541h-73v-541h-371v1462h435zM570 1167h-59v-343h56q84 0 132.5 44t48.5 144q0 76 -43 115.5t-135 39.5z" />
    <glyph glyph-name="S" unicode="S" horiz-adv-x="1056" 
d="M997 444q0 -127 -58.5 -232.5t-173 -168.5t-284.5 -63q-82 0 -149.5 9t-129.5 29t-128 54v352q102 -59 208 -91t192 -32q51 0 83.5 14t48.5 38.5t16 56.5q0 35 -19 62t-67 58.5t-135 77.5q-73 40 -131.5 80.5t-100 91t-64 117.5t-22.5 158q0 136 60.5 231.5t172 146
t265.5 50.5q117 0 220 -29t196 -76l-107 -305q-85 46 -163 70t-145 24q-44 0 -72 -12.5t-41.5 -33.5t-13.5 -48q0 -36 20 -63.5t71.5 -59t146.5 -82.5q98 -51 165.5 -108.5t103 -133.5t35.5 -182z" />
    <glyph glyph-name="T" unicode="T" horiz-adv-x="1076" 
d="M724 0h-370v1150h-311v312h990v-312h-309v-1150z" />
    <glyph glyph-name="U" unicode="U" horiz-adv-x="1377" 
d="M1247 1462v-923q0 -176 -63.5 -301.5t-188.5 -191.5t-311 -66q-267 0 -409 140.5t-142 409.5v932h372v-908q0 -137 46.5 -197t137.5 -60q65 0 106 26t60.5 83t19.5 150v906h372z" />
    <glyph glyph-name="V" unicode="V" horiz-adv-x="1284" 
d="M1284 1462l-426 -1462h-435l-423 1462h405l173 -731q10 -45 23.5 -112.5t25 -134.5t14.5 -110q5 43 16 109t24 133t24 112l176 734h403z" />
    <glyph glyph-name="W" unicode="W" horiz-adv-x="1894" 
d="M1878 1462l-318 -1462h-433l-120 592q-7 33 -15 79t-16.5 98.5t-16 105t-11.5 96.5q-3 -39 -10 -91t-16 -106t-17.5 -101.5t-14.5 -79.5l-122 -593h-431l-321 1462h360l132 -685q6 -32 15 -81.5t18 -107t17.5 -113.5t13.5 -100q7 59 17.5 127.5t23.5 137t24.5 127.5
t20.5 98l129 597h323l121 -597q9 -41 21 -101.5t24.5 -129.5t23 -136.5t16.5 -122.5q5 53 16.5 126.5t24 147t22.5 126.5l135 687h364z" />
    <glyph glyph-name="X" unicode="X" horiz-adv-x="1273" 
d="M1272 0h-416l-224 440l-225 -440h-407l410 740l-385 722h399l204 -428l193 428h410l-383 -732z" />
    <glyph glyph-name="Y" unicode="Y" horiz-adv-x="1219" 
d="M611 925l215 537h393l-423 -896v-566h-373v554l-423 908h396z" />
    <glyph glyph-name="Z" unicode="Z" horiz-adv-x="1108" 
d="M1061 0h-1009v244l561 911h-548v307h982v-243l-560 -910h574v-309z" />
    <glyph glyph-name="bracketleft" unicode="[" horiz-adv-x="643" 
d="M601 -344h-500v1847h500v-254h-188v-1339h188v-254z" />
    <glyph glyph-name="backslash" unicode="\" horiz-adv-x="888" 
d="M324 1483l557 -1503h-318l-558 1503h319z" />
    <glyph glyph-name="bracketright" unicode="]" horiz-adv-x="643" 
d="M42 -90h187v1339h-187v254h500v-1847h-500v254z" />
    <glyph glyph-name="asciicircum" unicode="^" horiz-adv-x="1092" 
d="M-2 499l449 966h170l482 -966h-297l-265 548l-246 -548h-293z" />
    <glyph glyph-name="underscore" unicode="_" horiz-adv-x="1024" 
d="M1028 -379h-1032v246h1032v-246z" />
    <glyph glyph-name="grave" unicode="`" horiz-adv-x="776" 
d="M484 1569q26 -43 65.5 -100t79.5 -111t65 -88v-29h-251q-34 25 -83 65.5t-102.5 86t-100 87.5t-75.5 68v21h402z" />
    <glyph glyph-name="a" unicode="a" horiz-adv-x="1144" 
d="M617 1153q192 0 301.5 -103.5t109.5 -306.5v-743h-255l-65 150h-7q-42 -58 -87.5 -96t-104 -56t-140.5 -18q-98 0 -166.5 46.5t-104 129t-35.5 190.5q0 182 111.5 271t324.5 98l168 6v23q0 72 -32 105.5t-91 33.5q-58 0 -129 -22t-151 -62l-99 252q90 50 203 76t249 26z
M668 506l-76 -4q-87 -3 -126 -37.5t-39 -99.5q0 -58 25.5 -86.5t71.5 -28.5q60 0 102 45t42 117v94z" />
    <glyph glyph-name="b" unicode="b" horiz-adv-x="1195" 
d="M480 1556v-352q0 -46 -3 -100t-9 -117h12q46 79 112 122.5t162 43.5q164 0 264.5 -153t100.5 -431q0 -187 -46 -318.5t-130 -201t-199 -69.5q-98 0 -155 34t-109 97h-20l-55 -111h-286v1556h361zM622 857q-49 0 -80.5 -26t-46.5 -81t-15 -141v-60q0 -142 33 -207.5
t112 -65.5q61 0 94 74.5t33 222.5q0 142 -32 213t-98 71z" />
    <glyph glyph-name="c" unicode="c" horiz-adv-x="996" 
d="M586 -20q-162 0 -276 61.5t-174 190.5t-60 329q0 186 62.5 318.5t181 203t284.5 70.5q99 0 184 -22t159 -64l-102 -276q-60 32 -115.5 49.5t-113.5 17.5q-52 0 -91 -33.5t-61 -99t-22 -163.5t22 -161.5t62 -93.5t95 -30q75 0 149 26t143 74v-297q-66 -48 -146 -74
t-181 -26z" />
    <glyph glyph-name="d" unicode="d" horiz-adv-x="1195" 
d="M445 -20q-168 0 -268.5 154t-100.5 433q0 281 102 433.5t270 152.5q64 0 113.5 -19.5t88.5 -56.5t69 -90h9q-5 60 -9.5 125t-4.5 117v327h363v-1556h-281l-66 127h-16q-32 -46 -69 -79t-85 -50.5t-115 -17.5zM580 273q81 0 115 63.5t35 200.5v48q0 134 -33.5 201
t-117.5 67q-63 0 -100.5 -70.5t-37.5 -216.5q0 -151 38 -222t101 -71z" />
    <glyph glyph-name="e" unicode="e" horiz-adv-x="1127" 
d="M575 1152q150 0 258 -58.5t165.5 -173.5t57.5 -285v-174h-620q3 -101 57.5 -155.5t163.5 -54.5q92 0 169.5 20.5t163.5 66.5v-276q-77 -43 -167.5 -62.5t-213.5 -19.5q-168 0 -287 64t-182.5 193t-63.5 323q0 197 60 328.5t171.5 197.5t267.5 66zM586 891
q-61 0 -101.5 -44t-44.5 -146h285q0 61 -16.5 103.5t-47.5 64.5t-75 22z" />
    <glyph glyph-name="f" unicode="f" horiz-adv-x="758" 
d="M741 850h-212v-850h-362v850h-137v184l141 94v19q0 149 37 241.5t114.5 135.5t200.5 43q78 0 140.5 -13t139.5 -41l-75 -248q-28 9 -59 14.5t-64 5.5q-40 0 -58 -27.5t-18 -88.5v-36h212v-283z" />
    <glyph glyph-name="g" unicode="g" horiz-adv-x="1131" 
d="M476 -492q-221 0 -341 82t-120 234q0 95 61 162.5t173 96.5q-52 20 -88 66.5t-36 99.5q0 60 29.5 100t100.5 91q-75 41 -120 126.5t-45 196.5q0 124 52 210.5t152 132t245 45.5q31 0 67.5 -4t69.5 -9t52 -10h375v-191l-140 -46q15 -32 21.5 -64.5t6.5 -73.5
q0 -184 -117.5 -285t-342.5 -101q-61 0 -93 9q-8 -11 -15.5 -25t-7.5 -31q0 -22 19.5 -35.5t52.5 -19t71 -5.5h195q165 0 250 -78.5t85 -238.5q0 -208 -158 -321.5t-454 -113.5zM497 -249q74 0 134.5 14.5t96.5 43.5t36 73q0 33 -19 50t-56 23t-91 6h-153q-32 0 -57.5 -13.5
t-40 -37t-14.5 -54.5q0 -49 44.5 -77t119.5 -28zM542 590q48 0 73.5 42.5t25.5 126.5q0 88 -24.5 130t-74.5 42q-51 0 -76 -42t-25 -128t24.5 -128.5t76.5 -42.5z" />
    <glyph glyph-name="h" unicode="h" horiz-adv-x="1228" 
d="M480 1556v-252q0 -98 -5.5 -176t-15.5 -135h18q30 57 70.5 92t93 51.5t115.5 16.5q105 0 185 -46t125.5 -138t45.5 -232v-737h-362v625q0 113 -27.5 170t-84.5 57q-62 0 -96.5 -38t-48 -114.5t-13.5 -191.5v-508h-361v1556h361z" />
    <glyph glyph-name="i" unicode="i" horiz-adv-x="605" 
d="M482 1133v-1133h-361v1133h361zM302 1589q88 0 140.5 -39.5t52.5 -134.5q0 -93 -53.5 -132.5t-139.5 -39.5t-138.5 39.5t-52.5 132.5q0 96 51 135t140 39z" />
    <glyph glyph-name="j" unicode="j" horiz-adv-x="604" 
d="M100 -492q-44 0 -97 7t-94 18v293q29 -9 54 -13.5t52 -4.5q48 0 76.5 34t28.5 120v1171h361v-1225q0 -119 -40.5 -209t-124.5 -140t-216 -51zM110 1415q0 96 51 135t140 39q88 0 140.5 -39.5t52.5 -134.5q0 -93 -53.5 -132.5t-139.5 -39.5t-138.5 39.5t-52.5 132.5z" />
    <glyph glyph-name="k" unicode="k" horiz-adv-x="1209" 
d="M481 1556v-615q0 -73 -4 -153.5t-14 -152.5h7q23 41 51.5 89.5t52.5 81.5l225 327h396l-349 -482l368 -651h-406l-215 409l-112 -89v-320h-362v1556h362z" />
    <glyph glyph-name="l" unicode="l" horiz-adv-x="601" 
d="M480 0h-361v1556h361v-1556z" />
    <glyph glyph-name="m" unicode="m" horiz-adv-x="1832" 
d="M1365 1153q173 0 262.5 -100.5t89.5 -315.5v-737h-362v623q0 121 -28 175t-85 54q-83 0 -113.5 -79.5t-30.5 -237.5v-535h-362v623q0 79 -12 129.5t-36 75t-61 24.5q-57 0 -89 -38t-45 -115.5t-13 -196.5v-502h-361v1133h277l47 -140h15q26 50 69.5 85.5t103.5 55
t134 19.5q113 0 183 -42t108 -111h17q47 73 120.5 113t171.5 40z" />
    <glyph glyph-name="n" unicode="n" horiz-adv-x="1228" 
d="M758 1153q161 0 257.5 -104t96.5 -312v-737h-361v625q0 112 -25.5 169.5t-92.5 57.5q-90 0 -121.5 -82t-31.5 -263v-507h-361v1133h277l45 -145h17q31 54 74 91t99.5 55.5t126.5 18.5z" />
    <glyph glyph-name="o" unicode="o" horiz-adv-x="1181" 
d="M1103 569q0 -125 -31 -232.5t-95 -187.5t-161 -124.5t-228 -44.5q-122 0 -216.5 44t-160.5 123.5t-100.5 187t-34.5 234.5q0 176 58 307t173 204t286 73q150 0 265 -68t180 -198t65 -318zM442 567q0 -99 15.5 -166.5t48 -102.5t85.5 -35q54 0 85.5 34.5t45.5 103
t14 168.5q0 101 -14 167.5t-46 100t-86 33.5q-78 0 -113 -75t-35 -228z" />
    <glyph glyph-name="p" unicode="p" horiz-adv-x="1195" 
d="M750 1153q173 0 271 -154t98 -433q0 -187 -47 -318t-130.5 -199.5t-193.5 -68.5q-66 0 -116 18.5t-87 52t-65 77.5h-11q5 -57 8 -107t3 -96v-417h-361v1625h292l52 -145h17q33 57 71 93.5t86.5 54t112.5 17.5zM621 862q-51 0 -81.5 -28t-44.5 -87t-15 -151v-48
q0 -90 13.5 -149.5t44.5 -89t83 -29.5q43 0 72 30t44 93.5t15 162.5q0 155 -33.5 225.5t-97.5 70.5z" />
    <glyph glyph-name="q" unicode="q" horiz-adv-x="1195" 
d="M715 -492v445q0 37 3 85t8 106h-11q-43 -77 -109 -120.5t-163 -43.5q-167 0 -267 152.5t-100 428.5q0 189 46 321.5t130.5 201.5t198.5 69q99 0 162.5 -40.5t109.5 -120.5h13l28 141h313v-1625h-362zM583 274q54 0 86 27t46.5 82.5t14.5 140.5v54q0 142 -32.5 211.5
t-118.5 69.5q-67 0 -102 -75.5t-35 -227.5q0 -146 35.5 -214t105.5 -68z" />
    <glyph glyph-name="r" unicode="r" horiz-adv-x="865" 
d="M739 1153q26 0 54 -3t52 -9l-31 -363q-19 6 -46.5 9.5t-70.5 3.5t-82 -11t-69 -36.5t-47.5 -69.5t-17.5 -111v-563h-361v1133h272l55 -181h17q26 51 67 97t94.5 75t113.5 29z" />
    <glyph glyph-name="s" unicode="s" horiz-adv-x="935" 
d="M870 348q0 -115 -47 -197.5t-143 -126.5t-243 -44q-102 0 -190 13.5t-176 49.5v313q84 -43 177 -67.5t163 -24.5q56 0 82.5 15t26.5 47q0 22 -15 39.5t-59 41.5t-131 63q-82 37 -136.5 85.5t-82 113t-27.5 150.5q0 162 112 248t306 86q100 0 188.5 -24.5t181.5 -71.5
l-94 -252q-67 36 -138.5 60t-126.5 24q-41 0 -62 -12.5t-21 -37.5q0 -19 13.5 -34.5t55 -37.5t124.5 -62q84 -39 142.5 -86.5t89 -112t30.5 -158.5z" />
    <glyph glyph-name="t" unicode="t" horiz-adv-x="834" 
d="M617 278q42 0 82 10.5t85 28.5v-274q-60 -29 -126 -46t-156 -17q-111 0 -187.5 38.5t-115.5 125t-39 229.5v477h-126v168l159 104l89 238h241v-227h245v-283h-245v-462q0 -55 24 -82.5t70 -27.5z" />
    <glyph glyph-name="u" unicode="u" horiz-adv-x="1228" 
d="M1109 1133v-1133h-276l-44 140h-20q-31 -55 -75.5 -90.5t-100.5 -52.5t-122 -17q-105 0 -185 46t-124.5 138.5t-44.5 230.5v738h361v-624q0 -112 25.5 -169.5t86.5 -57.5q67 0 100.5 38.5t45.5 111t12 173.5v528h361z" />
    <glyph glyph-name="v" unicode="v" horiz-adv-x="1129" 
d="M379 0l-377 1133h376l154 -610q7 -34 15.5 -80.5t9.5 -94.5h8q1 44 8.5 88.5t16.5 84.5l161 612h375l-375 -1133h-372z" />
    <glyph glyph-name="w" unicode="w" horiz-adv-x="1686" 
d="M995 0l-101 498q-7 38 -14.5 83t-14.5 90.5t-12 86.5t-9 71h-7q-4 -32 -10 -74.5t-13 -89t-15 -91.5t-15 -82l-101 -492h-393l-272 1133h358l75 -395q10 -52 19.5 -118.5t16.5 -135t10 -128.5h7q3 40 8.5 88t13 97.5t15.5 94.5t15 80l85 417h408l80 -423
q10 -56 20.5 -120t19 -125.5t12.5 -108.5h7q4 59 11 127.5t17 135.5t20 119l81 395h351l-274 -1133h-399z" />
    <glyph glyph-name="x" unicode="x" horiz-adv-x="1132" 
d="M324 578l-301 555h402l141 -307l141 307h402l-303 -555l316 -578h-403l-157 332l-153 -332h-399z" />
    <glyph glyph-name="y" unicode="y" horiz-adv-x="1128" 
d="M1 1133h380l156 -571q6 -24 11.5 -52t9.5 -54.5t5 -49.5h8q4 37 11 74.5t18 78.5l154 574h371l-395 -1205q-48 -146 -110.5 -239t-150.5 -137t-214 -44q-47 0 -84 5.5t-68 11.5v299q21 -5 48 -8.5t54 -3.5q53 0 85.5 19.5t55 61.5t44.5 108l5 15z" />
    <glyph glyph-name="z" unicode="z" horiz-adv-x="926" 
d="M883 0h-842v212l414 633h-390v288h799v-231l-396 -614h415v-288z" />
    <glyph glyph-name="braceleft" unicode="{" horiz-adv-x="820" 
d="M766 -344q-194 0 -302 31.5t-151 107t-43 205.5v257q0 58 -29 95.5t-80 56t-117 18.5v283q68 0 119 18.5t79 56t28 95.5v263q0 122 39.5 196.5t146.5 109t310 34.5v-271q-46 -2 -86.5 -8t-65.5 -27.5t-25 -71.5v-278q0 -118 -53 -176.5t-159 -75.5v-12q108 -18 160 -75.5
t52 -170.5v-282q0 -44 22.5 -66.5t62.5 -31t92 -10.5v-271z" />
    <glyph glyph-name="bar" unicode="|" horiz-adv-x="950" 
d="M336 1568h278v-2025h-278v2025z" />
    <glyph glyph-name="braceright" unicode="}" horiz-adv-x="820" 
d="M54 -344v271q51 3 91 10.5t63 29.5t23 68v282q0 113 51.5 170.5t159.5 75.5v12q-106 17 -158.5 75.5t-52.5 176.5v278q0 50 -26.5 72t-67.5 27.5t-83 7.5v271q196 0 303.5 -32.5t149 -106.5t41.5 -201v-263q0 -58 29 -95.5t80 -56t118 -18.5v-283q-65 0 -116.5 -18.5
t-81 -56t-29.5 -95.5v-257q0 -124 -39 -199.5t-146 -110t-309 -34.5z" />
    <glyph glyph-name="asciitilde" unicode="~" horiz-adv-x="1112" 
d="M519 592q-66 30 -120.5 42.5t-102.5 12.5q-54 0 -110.5 -32.5t-110.5 -88.5v281q50 54 112 81t139 27q63 0 124.5 -14.5t141.5 -48.5q67 -30 122.5 -42.5t102.5 -12.5q51 0 109.5 33.5t110.5 87.5v-281q-50 -54 -112.5 -81.5t-138.5 -27.5q-62 0 -123 15t-144 49z" />
    <glyph glyph-name="uni00A0" unicode="&#xa0;" horiz-adv-x="446" 
 />
    <glyph glyph-name="exclamdown" unicode="&#xa1;" horiz-adv-x="575" 
d="M134 612h309l49 -963h-408zM490 963q0 -99 -56 -146t-145 -47q-87 0 -141.5 47t-54.5 146q0 95 55 142.5t141 47.5q87 0 144 -47t57 -143z" />
    <glyph glyph-name="cent" unicode="&#xa2;" horiz-adv-x="1107" 
d="M706 1483v-155q74 -5 147.5 -26.5t136.5 -56.5l-101 -276q-59 32 -115.5 50t-110.5 18t-94 -30t-61.5 -95.5t-21.5 -171.5q0 -104 20.5 -167t59.5 -90.5t95 -27.5q73 0 150.5 26.5t144.5 73.5v-297q-51 -36 -114.5 -61t-135.5 -34v-183h-192v186q-129 17 -217 88
t-132.5 193t-44.5 292q0 167 47 289.5t135 197t212 93.5v164h192z" />
    <glyph glyph-name="sterling" unicode="&#xa3;" horiz-adv-x="1107" 
d="M665 1484q95 0 186 -21.5t172 -60.5l-97 -282q-67 29 -123.5 42.5t-99.5 13.5q-46 0 -72.5 -30.5t-26.5 -107.5v-135h303v-264h-303v-99q0 -58 -20 -101t-53 -74t-74 -52h598v-313h-958v300q51 32 83 60.5t47.5 69.5t15.5 108v101h-147v264h147v140q0 150 52 247.5
t146.5 145.5t223.5 48z" />
    <glyph glyph-name="currency" unicode="&#xa4;" horiz-adv-x="1136" 
d="M167 723q0 49 12.5 96.5t35.5 91.5l-128 124l165 165l125 -126q43 24 91 35.5t95 11.5q51 0 97.5 -12t90.5 -38l125 129l168 -159l-129 -128q23 -42 35 -90t12 -100q0 -53 -12 -99.5t-35 -89.5l124 -122l-163 -163l-125 123q-42 -21 -90 -33t-98 -12q-52 0 -99.5 11
t-89.5 33l-122 -120l-163 163l126 123q-24 43 -36 89t-12 97zM401 723q0 -45 22 -82t59 -59t81 -22q47 0 85 22t61 59t23 82q0 46 -23 83t-61 59.5t-85 22.5q-44 0 -81 -22t-59 -59.5t-22 -83.5z" />
    <glyph glyph-name="yen" unicode="&#xa5;" horiz-adv-x="1107" 
d="M554 960l169 502h380l-325 -711h198v-211h-247v-118h247v-210h-247v-212h-350v212h-250v210h250v118h-250v211h194l-319 711h379z" />
    <glyph glyph-name="brokenbar" unicode="&#xa6;" horiz-adv-x="950" 
d="M336 1554h278v-825h-278v825zM336 367h278v-825h-278v825z" />
    <glyph glyph-name="section" unicode="&#xa7;" horiz-adv-x="959" 
d="M92 793q0 75 45.5 135.5t110.5 101.5q-66 50 -100 110.5t-34 134.5q0 132 103 212.5t281 80.5q95 0 183.5 -23t166.5 -63l-90 -224q-64 38 -131.5 62.5t-122.5 24.5q-50 0 -75.5 -18t-25.5 -55q0 -24 16 -46t51.5 -44.5t93.5 -48.5q109 -47 176 -97t98.5 -107.5
t31.5 -128.5q0 -95 -39 -154.5t-101 -107.5q56 -44 87 -105t31 -138q0 -143 -106.5 -234.5t-306.5 -91.5q-96 0 -179 22t-153 65v247q50 -29 110.5 -54t118 -40t99.5 -15q69 0 99 24t30 67q0 28 -11 48.5t-44.5 42.5t-101.5 54q-102 49 -171 98t-104.5 111.5t-35.5 153.5z
M368 828q0 -32 14.5 -58.5t47.5 -52t86 -55.5l40 -23q17 19 28 44.5t11 61.5q0 37 -16.5 68.5t-54 60.5t-102.5 57q-24 -14 -39 -40t-15 -63z" />
    <glyph glyph-name="dieresis" unicode="&#xa8;" horiz-adv-x="1088" 
d="M174 1413q0 79 44.5 118.5t113.5 39.5t115 -40.5t46 -117.5q0 -74 -46 -115t-115 -41t-113.5 40t-44.5 116zM611 1413q0 79 45 118.5t115 39.5q71 0 116 -40.5t45 -117.5q0 -74 -45 -115t-116 -41t-115.5 40.5t-44.5 115.5z" />
    <glyph glyph-name="copyright" unicode="&#xa9;" horiz-adv-x="1688" 
d="M845 -20q-168 0 -306.5 57.5t-238.5 159.5t-154 239.5t-54 296.5q0 165 56 302t157.5 237.5t238.5 155.5t299 55q164 0 301.5 -55.5t238.5 -157t156.5 -239.5t55.5 -303q0 -163 -54.5 -299.5t-155 -237t-237.5 -156t-303 -55.5zM848 262q-216 0 -330 126.5t-114 345.5
q0 144 49.5 248t146.5 160t238 56q88 0 167 -20t154 -58l-92 -194q-53 28 -104 41.5t-104 13.5q-88 0 -137.5 -63t-49.5 -192q0 -128 47 -187.5t147 -59.5q63 0 128.5 17t125.5 51v-221q-63 -32 -129 -48t-143 -16zM846 137q128 0 232.5 44.5t180.5 124.5t117 189t41 237
q0 132 -42.5 241t-120 187.5t-182.5 121.5t-230 43q-128 0 -233.5 -44.5t-181.5 -124.5t-117.5 -189t-41.5 -238q0 -132 43 -240.5t121 -187.5t183.5 -121.5t230.5 -42.5z" />
    <glyph glyph-name="ordfeminine" unicode="&#xaa;" horiz-adv-x="764" 
d="M409 1479q126 0 201.5 -74t75.5 -215v-449h-162l-42 122q-35 -63 -86.5 -98.5t-135.5 -35.5q-65 0 -113.5 30.5t-75 84t-26.5 123.5q0 89 40 138.5t112.5 71t170.5 25.5l78 4v6q0 42 -22 60.5t-69 18.5q-53 0 -98 -15.5t-101 -42.5l-71 166q74 38 146.5 59t177.5 21z
M446 1069l-70 -6q-51 -4 -70.5 -27t-19.5 -57q0 -32 17 -50t49 -18q45 0 69.5 40.5t24.5 95.5v22z" />
    <glyph glyph-name="guillemotleft" unicode="&#xab;" horiz-adv-x="1271" 
d="M60 588l353 479l260 -138l-240 -355l240 -354l-260 -137l-353 477v28zM592 588l352 479l262 -138l-240 -355l240 -354l-262 -137l-352 477v28z" />
    <glyph glyph-name="logicalnot" unicode="&#xac;" horiz-adv-x="1112" 
d="M1025 856v-618h-272v350h-672v268h944z" />
    <glyph glyph-name="uni00AD" unicode="&#xad;" horiz-adv-x="659" 
d="M51 393v312h556v-312h-556z" />
    <glyph glyph-name="registered" unicode="&#xae;" horiz-adv-x="1688" 
d="M514 313v875h291q199 0 290 -69t91 -201q0 -95 -37 -152t-104 -90l184 -363h-274l-137 320h-44v-320h-260zM774 809h23q58 0 91.5 21.5t33.5 76.5q0 51 -30 68.5t-93 17.5h-25v-184zM845 -20q-168 0 -306.5 57.5t-238.5 159.5t-154 239.5t-54 296.5q0 165 56 302
t157.5 237.5t238.5 155.5t299 55q164 0 301.5 -55.5t238.5 -157t156.5 -239.5t55.5 -303q0 -163 -54.5 -299.5t-155 -237t-237.5 -156t-303 -55.5zM846 137q128 0 232.5 44.5t180.5 124.5t117 189t41 237q0 132 -42.5 241t-120 187.5t-182.5 121.5t-230 43
q-128 0 -233.5 -44.5t-181.5 -124.5t-117.5 -189t-41.5 -238q0 -132 43 -240.5t121 -187.5t183.5 -121.5t230.5 -42.5z" />
    <glyph glyph-name="overscore" unicode="&#xaf;" horiz-adv-x="1019" 
d="M1024 1556h-1029v246h1029v-246z" />
    <glyph glyph-name="degree" unicode="&#xb0;" horiz-adv-x="800" 
d="M400 801q-100 0 -178.5 43t-124 119.5t-45.5 177.5q0 100 45.5 177t124 121t178.5 44t178.5 -44t124 -121t45.5 -177q0 -101 -45.5 -177.5t-124 -119.5t-178.5 -43zM400 1016q59 0 92.5 33.5t33.5 91.5t-33.5 93t-92.5 35t-92.5 -35t-33.5 -93t33.5 -91.5t92.5 -33.5z
" />
    <glyph glyph-name="plusminus" unicode="&#xb1;" horiz-adv-x="1112" 
d="M81 0v268h949v-268h-949zM691 962h339v-268h-339v-361h-271v361h-339v268h339v367h271v-367z" />
    <glyph glyph-name="uni00B2" unicode="&#xb2;" horiz-adv-x="765" 
d="M695 852h-625v207l201 213q52 57 81 95t41.5 65t12.5 51q0 28 -17.5 44t-50.5 16q-35 0 -72.5 -19t-83.5 -69l-126 161q52 58 133.5 96.5t195.5 38.5q140 0 213 -67t73 -171q0 -76 -31 -139t-91.5 -128t-149.5 -149l-33 -30h329v-215z" />
    <glyph glyph-name="uni00B3" unicode="&#xb3;" horiz-adv-x="765" 
d="M371 1747q137 0 218 -58t81 -157q0 -77 -35.5 -132t-112.5 -87v-8q86 -25 130 -77t44 -138q0 -121 -95.5 -187.5t-253.5 -66.5q-82 0 -152 17t-126 52v229q56 -43 125 -62.5t145 -19.5q50 0 78 16t28 51q0 38 -25 59t-100 21h-97v189h74q73 0 101.5 22t28.5 58
q0 31 -19 52t-66 21q-46 0 -86 -16.5t-89 -56.5l-108 161q63 54 141 86t171 32z" />
    <glyph glyph-name="acute" unicode="&#xb4;" horiz-adv-x="776" 
d="M694 1569v-21q-28 -27 -73 -66.5t-96 -83t-101 -85t-90 -72.5h-252v29q34 46 72.5 98t75.5 104t64 97h400z" />
    <glyph glyph-name="uni00B5" unicode="&#xb5;" horiz-adv-x="1230" 
d="M1111 1133v-1133h-275l-46 147h-14q-19 -55 -47 -92t-61.5 -56t-70.5 -19q-46 0 -73 20t-51 63h-4q3 -28 5.5 -67.5t3.5 -82.5t1 -85v-320h-361v1625h361v-622q0 -114 26.5 -171.5t90.5 -57.5t96.5 43.5t44.5 121t12 179.5v507h362z" />
    <glyph glyph-name="paragraph" unicode="&#xb6;" horiz-adv-x="1181" 
d="M1065 -260h-181v1622h-138v-1622h-182v819q-25 -9 -49.5 -13.5t-60.5 -4.5q-118 0 -201 51.5t-126 162t-43 287.5q0 183 46.5 296.5t135.5 165.5t216 52h583v-1816z" />
    <glyph glyph-name="periodcentered" unicode="&#xb7;" horiz-adv-x="576" 
d="M89 722q0 99 56 145.5t146 46.5q86 0 140.5 -46.5t54.5 -145.5q0 -96 -55 -143.5t-140 -47.5q-88 0 -145 47.5t-57 143.5z" />
    <glyph glyph-name="cedilla" unicode="&#xb8;" horiz-adv-x="442" 
d="M454 -255q0 -108 -71 -172.5t-198 -64.5q-60 0 -111 8t-88 19v189q34 -9 64 -14.5t59 -5.5q37 0 58 15t21 43q0 35 -35 55t-105 29l65 154h175l-24 -65q51 -9 94 -31.5t69.5 -61t26.5 -97.5z" />
    <glyph glyph-name="uni00B9" unicode="&#xb9;" horiz-adv-x="765" 
d="M585 1729v-877h-262v356q0 30 1 71.5t3 82.5t5 69q-11 -17 -26.5 -32t-27.5 -26l-86 -73l-130 162l317 267h206z" />
    <glyph glyph-name="ordmasculine" unicode="&#xba;" horiz-adv-x="752" 
d="M706 1104q0 -176 -89 -275.5t-243 -99.5q-147 0 -237.5 102t-90.5 273q0 178 89 276.5t242 98.5q95 0 169 -45t117 -128.5t43 -201.5zM288 1104q0 -89 21.5 -133t66.5 -44q44 0 65.5 44t21.5 133t-21.5 134t-65.5 45q-45 0 -66.5 -45t-21.5 -134z" />
    <glyph glyph-name="guillemotright" unicode="&#xbb;" horiz-adv-x="1271" 
d="M1212 560l-353 -477l-262 137l241 354l-241 355l262 138l353 -479v-28zM679 560l-352 -477l-261 137l238 354l-238 355l261 138l352 -479v-28z" />
    <glyph glyph-name="onequarter" unicode="&#xbc;" horiz-adv-x="1779" 
d="M382 0l730 1462h281l-730 -1462h-281zM288 586v356q0 29 0.5 65.5t2.5 77t6 79.5q-9 -12 -23 -27t-29 -29l-88 -74l-130 162l317 266h206v-876h-262zM1387 0v139h-348v184l323 557h280v-545h116v-196h-116v-139h-255zM1239 335h148v168q0 35 1.5 69t4.5 66
q-18 -51 -33 -83.5t-25 -49.5z" />
    <glyph glyph-name="onehalf" unicode="&#xbd;" horiz-adv-x="1819" 
d="M377 0l730 1462h281l-730 -1462h-281zM288 586v356q0 19 0.5 49t2 63.5t3 63t3.5 46.5q-9 -12 -24.5 -28.5t-30.5 -29.5l-85 -72l-130 162l317 266h206v-876h-262zM1124 0v207l200 209q54 55 83.5 92.5t42 65t12.5 53.5q0 31 -18.5 47.5t-51.5 16.5q-39 0 -77.5 -21.5
t-79.5 -66.5l-125 161q58 64 140.5 99.5t188.5 35.5q137 0 211 -65.5t74 -171.5q0 -64 -19 -115t-50 -92.5t-67 -78.5l-168 -161h328v-215h-624z" />
    <glyph glyph-name="threequarters" unicode="&#xbe;" horiz-adv-x="1815" 
d="M431 0l731 1462h280l-730 -1462h-281zM357 569q-83 0 -152.5 17.5t-125.5 52.5v228q53 -40 120.5 -60.5t149.5 -20.5q54 0 80 16.5t26 50.5q0 44 -30 62t-95 18h-97v188h74q67 0 98.5 20t31.5 61q0 30 -18.5 51.5t-66.5 21.5q-46 0 -86 -16.5t-88 -57.5l-108 162
q69 59 146.5 88.5t164.5 29.5q135 0 217 -57t82 -158q0 -79 -35.5 -133t-111.5 -86v-9q85 -24 129 -76.5t44 -138.5q0 -120 -94.5 -187t-254.5 -67zM1422 0v139h-347v184l323 557h280v-545h116v-196h-116v-139h-256zM1275 335h147v168q0 35 2 69t5 66q-18 -51 -33 -83.5
t-25 -49.5z" />
    <glyph glyph-name="questiondown" unicode="&#xbf;" horiz-adv-x="929" 
d="M672 612v-86q0 -63 -15 -113.5t-50 -95t-96 -89.5q-54 -40 -82.5 -69.5t-39 -57t-10.5 -60.5q0 -45 33 -70t94 -25q64 0 139.5 27.5t160.5 79.5l123 -266q-105 -67 -217.5 -104.5t-236.5 -37.5q-213 0 -327.5 100t-114.5 265q0 84 23 148.5t70.5 120t120.5 108.5
q56 43 84 69.5t38 50t10 54.5v51h293zM718 962q0 -99 -55.5 -145.5t-145.5 -46.5q-86 0 -141 46.5t-55 145.5q0 96 55 143.5t141 47.5q88 0 144.5 -47.5t56.5 -143.5z" />
    <glyph glyph-name="Agrave" unicode="&#xc0;" horiz-adv-x="1332" 
d="M929 0l-63 280h-396l-64 -280h-406l417 1465h493l422 -1465h-403zM798 591l-61 284q-10 47 -24 109t-26.5 124.5t-19.5 108.5q-7 -45 -18.5 -105t-24.5 -122t-25 -113l-62 -286h261zM684 1899q26 -43 65.5 -100t79.5 -111t65 -88v-29h-251q-34 25 -83 65.5t-102.5 86
t-100 87.5t-75.5 68v21h402z" />
    <glyph glyph-name="Aacute" unicode="&#xc1;" horiz-adv-x="1332" 
d="M929 0l-63 280h-396l-64 -280h-406l417 1465h493l422 -1465h-403zM798 591l-61 284q-10 47 -24 109t-26.5 124.5t-19.5 108.5q-7 -45 -18.5 -105t-24.5 -122t-25 -113l-62 -286h261zM1091 1899v-21q-28 -27 -73 -66.5t-96 -83t-101 -85t-90 -72.5h-252v29q34 46 72.5 98
t75.5 104t64 97h400z" />
    <glyph glyph-name="Acircumflex" unicode="&#xc2;" horiz-adv-x="1332" 
d="M929 0l-63 280h-396l-64 -280h-406l417 1465h493l422 -1465h-403zM798 591l-61 284q-10 47 -24 109t-26.5 124.5t-19.5 108.5q-7 -45 -18.5 -105t-24.5 -122t-25 -113l-62 -286h261zM844 1899q28 -46 66 -98.5t79.5 -104t79.5 -96.5v-29h-229q-42 28 -83 65t-88 85
q-49 -49 -88 -85.5t-79 -64.5h-233v29q34 36 78 90.5t85 111t65 97.5h347z" />
    <glyph glyph-name="Atilde" unicode="&#xc3;" horiz-adv-x="1332" 
d="M929 0l-63 280h-396l-64 -280h-406l417 1465h493l422 -1465h-403zM798 591l-61 284q-10 47 -24 109t-26.5 124.5t-19.5 108.5q-7 -45 -18.5 -105t-24.5 -122t-25 -113l-62 -286h261zM277 1567q3 71 15.5 133t37.5 109t65.5 73.5t98.5 26.5q41 0 82 -14.5t81 -33.5
t78.5 -33.5t75.5 -14.5q22 0 39 21.5t26 76.5h178q-7 -175 -67.5 -258.5t-149.5 -83.5q-42 0 -85.5 14.5t-85 33.5t-78.5 33.5t-69 14.5q-18 0 -37.5 -18.5t-28.5 -79.5h-176z" />
    <glyph glyph-name="Adieresis" unicode="&#xc4;" horiz-adv-x="1332" 
d="M929 0l-63 280h-396l-64 -280h-406l417 1465h493l422 -1465h-403zM798 591l-61 284q-10 47 -24 109t-26.5 124.5t-19.5 108.5q-7 -45 -18.5 -105t-24.5 -122t-25 -113l-62 -286h261zM288 1743q0 79 44.5 118.5t113.5 39.5t115 -40.5t46 -117.5q0 -74 -46 -115t-115 -41
t-113.5 40t-44.5 116zM725 1743q0 79 45 118.5t115 39.5q71 0 116 -40.5t45 -117.5q0 -74 -45 -115t-116 -41t-115.5 40.5t-44.5 115.5z" />
    <glyph glyph-name="Aring" unicode="&#xc5;" horiz-adv-x="1332" 
d="M929 0l-63 280h-396l-64 -280h-406l417 1465h493l422 -1465h-403zM798 591l-61 284q-10 47 -24 109t-26.5 124.5t-19.5 108.5q-7 -45 -18.5 -105t-24.5 -122t-25 -113l-62 -286h261zM664 1300q-116 0 -187.5 69.5t-71.5 182.5q0 115 71.5 184.5t187.5 69.5q113 0 188 -70
t75 -182t-74.5 -183t-188.5 -71zM664 1469q35 0 59.5 23.5t24.5 60.5q0 38 -24.5 61t-59.5 23t-59.5 -23t-24.5 -61q0 -37 21.5 -60.5t62.5 -23.5z" />
    <glyph glyph-name="AE" unicode="&#xc6;" horiz-adv-x="1728" 
d="M1638 0h-786v280h-360l-90 -280h-412l540 1462h1108v-306h-416v-247h384v-306h-384v-292h416v-311zM592 593h260v555h-81z" />
    <glyph glyph-name="Ccedilla" unicode="&#xc7;" horiz-adv-x="1184" 
d="M732 1172q-60 0 -107.5 -30.5t-80.5 -88.5t-50.5 -140.5t-17.5 -187.5q0 -143 30.5 -239.5t91.5 -145t154 -48.5q84 0 162 27t157 65v-323q-83 -42 -174.5 -61.5t-194.5 -19.5q-206 0 -341.5 90.5t-202 258t-66.5 398.5q0 168 42 306.5t122.5 239t197 155.5t265.5 55
q102 0 205.5 -24.5t203.5 -78.5l-107 -298q-69 39 -139.5 64.5t-149.5 25.5zM906 -255q0 -108 -71 -172.5t-198 -64.5q-60 0 -111 8t-88 19v189q34 -9 64 -14.5t59 -5.5q37 0 58 15t21 43q0 35 -35 55t-105 29l65 154h175l-24 -65q51 -9 94 -31.5t69.5 -61t26.5 -97.5z" />
    <glyph glyph-name="Egrave" unicode="&#xc8;" horiz-adv-x="1016" 
d="M926 0h-786v1462h786v-306h-415v-247h384v-306h-384v-292h415v-311zM548 1899q26 -43 65.5 -100t79.5 -111t65 -88v-29h-251q-34 25 -83 65.5t-102.5 86t-100 87.5t-75.5 68v21h402z" />
    <glyph glyph-name="Eacute" unicode="&#xc9;" horiz-adv-x="1016" 
d="M926 0h-786v1462h786v-306h-415v-247h384v-306h-384v-292h415v-311zM954 1899v-21q-28 -27 -73 -66.5t-96 -83t-101 -85t-90 -72.5h-252v29q34 46 72.5 98t75.5 104t64 97h400z" />
    <glyph glyph-name="Ecircumflex" unicode="&#xca;" horiz-adv-x="1016" 
d="M926 0h-786v1462h786v-306h-415v-247h384v-306h-384v-292h415v-311zM707 1899q28 -46 66 -98.5t79.5 -104t79.5 -96.5v-29h-229q-42 28 -83 65t-88 85q-49 -49 -88 -85.5t-79 -64.5h-233v29q34 36 78 90.5t85 111t65 97.5h347z" />
    <glyph glyph-name="Edieresis" unicode="&#xcb;" horiz-adv-x="1016" 
d="M926 0h-786v1462h786v-306h-415v-247h384v-306h-384v-292h415v-311zM152 1743q0 79 44.5 118.5t113.5 39.5t115 -40.5t46 -117.5q0 -74 -46 -115t-115 -41t-113.5 40t-44.5 116zM589 1743q0 79 45 118.5t115 39.5q71 0 116 -40.5t45 -117.5q0 -74 -45 -115t-116 -41
t-115.5 40.5t-44.5 115.5z" />
    <glyph glyph-name="Igrave" unicode="&#xcc;" horiz-adv-x="652" 
d="M140 0v1462h372v-1462h-372zM319 1899q26 -43 65.5 -100t79.5 -111t65 -88v-29h-251q-34 25 -83 65.5t-102.5 86t-100 87.5t-75.5 68v21h402z" />
    <glyph glyph-name="Iacute" unicode="&#xcd;" horiz-adv-x="652" 
d="M140 0v1462h372v-1462h-372zM734 1899v-21q-28 -27 -73 -66.5t-96 -83t-101 -85t-90 -72.5h-252v29q34 46 72.5 98t75.5 104t64 97h400z" />
    <glyph glyph-name="Icircumflex" unicode="&#xce;" horiz-adv-x="652" 
d="M140 0v1462h372v-1462h-372zM502 1899q28 -46 66 -98.5t79.5 -104t79.5 -96.5v-29h-229q-42 28 -83 65t-88 85q-49 -49 -88 -85.5t-79 -64.5h-233v29q34 36 78 90.5t85 111t65 97.5h347z" />
    <glyph glyph-name="Idieresis" unicode="&#xcf;" horiz-adv-x="652" 
d="M140 0v1462h372v-1462h-372zM-53 1743q0 79 44.5 118.5t113.5 39.5t115 -40.5t46 -117.5q0 -74 -46 -115t-115 -41t-113.5 40t-44.5 116zM384 1743q0 79 45 118.5t115 39.5q71 0 116 -40.5t45 -117.5q0 -74 -45 -115t-116 -41t-115.5 40.5t-44.5 115.5z" />
    <glyph glyph-name="Eth" unicode="&#xd0;" horiz-adv-x="1353" 
d="M593 1462q214 0 363 -81t227 -237t78 -382q0 -249 -84.5 -418.5t-240 -256.5t-371.5 -87h-425v597h-124v288h124v577h453zM592 1152h-81v-267h175v-288h-175v-283h58q159 0 233 106t74 328q0 141 -31.5 230t-94.5 131.5t-158 42.5z" />
    <glyph glyph-name="Ntilde" unicode="&#xd1;" horiz-adv-x="1526" 
d="M1387 0h-462l-458 970h-8q5 -64 9 -131t6 -129t2 -111v-599h-336v1462h459l456 -950h7q-4 61 -7 125t-5 123.5t-2 106.5v595h339v-1462zM373 1567q3 71 15.5 133t37.5 109t65.5 73.5t98.5 26.5q41 0 82 -14.5t81 -33.5t78.5 -33.5t75.5 -14.5q22 0 39 21.5t26 76.5h178
q-7 -175 -67.5 -258.5t-149.5 -83.5q-42 0 -85.5 14.5t-85 33.5t-78.5 33.5t-69 14.5q-18 0 -37.5 -18.5t-28.5 -79.5h-176z" />
    <glyph glyph-name="Ograve" unicode="&#xd2;" horiz-adv-x="1452" 
d="M1359 733q0 -176 -38 -315.5t-116 -237.5t-197.5 -149t-281.5 -51q-159 0 -278.5 51.5t-198.5 149t-118 237.5t-39 317q0 236 69.5 404t211 257t354.5 89q216 0 356 -89t208 -257t68 -406zM481 733q0 -140 26 -237.5t80.5 -148t138.5 -50.5q88 0 141.5 49.5t78 147
t24.5 239.5q0 215 -57 328t-186 113q-85 0 -139.5 -51.5t-80.5 -149.5t-26 -240zM744 1899q26 -43 65.5 -100t79.5 -111t65 -88v-29h-251q-34 25 -83 65.5t-102.5 86t-100 87.5t-75.5 68v21h402z" />
    <glyph glyph-name="Oacute" unicode="&#xd3;" horiz-adv-x="1452" 
d="M1359 733q0 -176 -38 -315.5t-116 -237.5t-197.5 -149t-281.5 -51q-159 0 -278.5 51.5t-198.5 149t-118 237.5t-39 317q0 236 69.5 404t211 257t354.5 89q216 0 356 -89t208 -257t68 -406zM481 733q0 -140 26 -237.5t80.5 -148t138.5 -50.5q88 0 141.5 49.5t78 147
t24.5 239.5q0 215 -57 328t-186 113q-85 0 -139.5 -51.5t-80.5 -149.5t-26 -240zM1151 1899v-21q-28 -27 -73 -66.5t-96 -83t-101 -85t-90 -72.5h-252v29q34 46 72.5 98t75.5 104t64 97h400z" />
    <glyph glyph-name="Ocircumflex" unicode="&#xd4;" horiz-adv-x="1452" 
d="M1359 733q0 -176 -38 -315.5t-116 -237.5t-197.5 -149t-281.5 -51q-159 0 -278.5 51.5t-198.5 149t-118 237.5t-39 317q0 236 69.5 404t211 257t354.5 89q216 0 356 -89t208 -257t68 -406zM481 733q0 -140 26 -237.5t80.5 -148t138.5 -50.5q88 0 141.5 49.5t78 147
t24.5 239.5q0 215 -57 328t-186 113q-85 0 -139.5 -51.5t-80.5 -149.5t-26 -240zM904 1899q28 -46 66 -98.5t79.5 -104t79.5 -96.5v-29h-229q-42 28 -83 65t-88 85q-49 -49 -88 -85.5t-79 -64.5h-233v29q34 36 78 90.5t85 111t65 97.5h347z" />
    <glyph glyph-name="Otilde" unicode="&#xd5;" horiz-adv-x="1452" 
d="M1359 733q0 -176 -38 -315.5t-116 -237.5t-197.5 -149t-281.5 -51q-159 0 -278.5 51.5t-198.5 149t-118 237.5t-39 317q0 236 69.5 404t211 257t354.5 89q216 0 356 -89t208 -257t68 -406zM481 733q0 -140 26 -237.5t80.5 -148t138.5 -50.5q88 0 141.5 49.5t78 147
t24.5 239.5q0 215 -57 328t-186 113q-85 0 -139.5 -51.5t-80.5 -149.5t-26 -240zM337 1567q3 71 15.5 133t37.5 109t65.5 73.5t98.5 26.5q41 0 82 -14.5t81 -33.5t78.5 -33.5t75.5 -14.5q22 0 39 21.5t26 76.5h178q-7 -175 -67.5 -258.5t-149.5 -83.5q-42 0 -85.5 14.5
t-85 33.5t-78.5 33.5t-69 14.5q-18 0 -37.5 -18.5t-28.5 -79.5h-176z" />
    <glyph glyph-name="Odieresis" unicode="&#xd6;" horiz-adv-x="1452" 
d="M1359 733q0 -176 -38 -315.5t-116 -237.5t-197.5 -149t-281.5 -51q-159 0 -278.5 51.5t-198.5 149t-118 237.5t-39 317q0 236 69.5 404t211 257t354.5 89q216 0 356 -89t208 -257t68 -406zM481 733q0 -140 26 -237.5t80.5 -148t138.5 -50.5q88 0 141.5 49.5t78 147
t24.5 239.5q0 215 -57 328t-186 113q-85 0 -139.5 -51.5t-80.5 -149.5t-26 -240zM348 1743q0 79 44.5 118.5t113.5 39.5t115 -40.5t46 -117.5q0 -74 -46 -115t-115 -41t-113.5 40t-44.5 116zM785 1743q0 79 45 118.5t115 39.5q71 0 116 -40.5t45 -117.5q0 -74 -45 -115
t-116 -41t-115.5 40.5t-44.5 115.5z" />
    <glyph glyph-name="multiply" unicode="&#xd7;" horiz-adv-x="1112" 
d="M815 1170l189 -183l-265 -264l261 -262l-185 -184l-264 260l-261 -258l-179 186l254 258l-256 258l181 189l261 -257z" />
    <glyph glyph-name="Oslash" unicode="&#xd8;" horiz-adv-x="1452" 
d="M1359 733q0 -176 -38 -315.5t-116 -237.5t-197.5 -149t-281.5 -51q-78 0 -146.5 11.5t-127.5 34.5l-75 -135l-177 101l84 147q-103 111 -147.5 259.5t-44.5 336.5q0 236 69.5 404t211 257t354.5 89q84 0 157 -13.5t133 -40.5l67 117l176 -94l-79 -140
q91 -96 134.5 -243.5t43.5 -337.5zM975 733q0 59 -3.5 109.5t-11.5 93.5l-348 -616q24 -15 53 -22.5t61 -7.5q89 0 143.5 51.5t80 150.5t25.5 241zM476 733q0 -66 5 -123t17 -105l355 631q-26 20 -58 31t-68 11q-87 0 -143 -52t-82 -151t-26 -242z" />
    <glyph glyph-name="Ugrave" unicode="&#xd9;" horiz-adv-x="1377" 
d="M1247 1462v-923q0 -176 -63.5 -301.5t-188.5 -191.5t-311 -66q-267 0 -409 140.5t-142 409.5v932h372v-908q0 -137 46.5 -197t137.5 -60q65 0 106 26t60.5 83t19.5 150v906h372zM706 1899q26 -43 65.5 -100t79.5 -111t65 -88v-29h-251q-34 25 -83 65.5t-102.5 86
t-100 87.5t-75.5 68v21h402z" />
    <glyph glyph-name="Uacute" unicode="&#xda;" horiz-adv-x="1377" 
d="M1247 1462v-923q0 -176 -63.5 -301.5t-188.5 -191.5t-311 -66q-267 0 -409 140.5t-142 409.5v932h372v-908q0 -137 46.5 -197t137.5 -60q65 0 106 26t60.5 83t19.5 150v906h372zM1113 1899v-21q-28 -27 -73 -66.5t-96 -83t-101 -85t-90 -72.5h-252v29q34 46 72.5 98
t75.5 104t64 97h400z" />
    <glyph glyph-name="Ucircumflex" unicode="&#xdb;" horiz-adv-x="1377" 
d="M1247 1462v-923q0 -176 -63.5 -301.5t-188.5 -191.5t-311 -66q-267 0 -409 140.5t-142 409.5v932h372v-908q0 -137 46.5 -197t137.5 -60q65 0 106 26t60.5 83t19.5 150v906h372zM866 1899q28 -46 66 -98.5t79.5 -104t79.5 -96.5v-29h-229q-42 28 -83 65t-88 85
q-49 -49 -88 -85.5t-79 -64.5h-233v29q34 36 78 90.5t85 111t65 97.5h347z" />
    <glyph glyph-name="Udieresis" unicode="&#xdc;" horiz-adv-x="1377" 
d="M1247 1462v-923q0 -176 -63.5 -301.5t-188.5 -191.5t-311 -66q-267 0 -409 140.5t-142 409.5v932h372v-908q0 -137 46.5 -197t137.5 -60q65 0 106 26t60.5 83t19.5 150v906h372zM310 1743q0 79 44.5 118.5t113.5 39.5t115 -40.5t46 -117.5q0 -74 -46 -115t-115 -41
t-113.5 40t-44.5 116zM747 1743q0 79 45 118.5t115 39.5q71 0 116 -40.5t45 -117.5q0 -74 -45 -115t-116 -41t-115.5 40.5t-44.5 115.5z" />
    <glyph glyph-name="Yacute" unicode="&#xdd;" horiz-adv-x="1219" 
d="M611 925l215 537h393l-423 -896v-566h-373v554l-423 908h396zM1033 1899v-21q-28 -27 -73 -66.5t-96 -83t-101 -85t-90 -72.5h-252v29q34 46 72.5 98t75.5 104t64 97h400z" />
    <glyph glyph-name="Thorn" unicode="&#xde;" horiz-adv-x="1154" 
d="M1103 784q0 -102 -27 -194.5t-86 -164t-154.5 -112.5t-232.5 -41h-92v-272h-371v1462h371v-213h97q248 0 371.5 -121t123.5 -344zM511 580h55q46 0 84 20.5t59.5 65.5t21.5 116q0 78 -34 119t-106 41h-80v-362z" />
    <glyph glyph-name="germandbls" unicode="&#xdf;" horiz-adv-x="1368" 
d="M1196 1193q0 -74 -23.5 -127t-58.5 -91.5t-70 -66.5t-58.5 -51.5t-23.5 -48.5q0 -20 17 -39t52 -42.5t87 -58.5q64 -43 107.5 -88t66 -102.5t22.5 -136.5q0 -118 -47.5 -198.5t-139.5 -121.5t-226 -41q-99 0 -175 12.5t-141 46.5v299q34 -22 77.5 -40.5t88 -29.5
t80.5 -11q52 0 81.5 19.5t29.5 52.5q0 25 -10.5 44.5t-44.5 45.5t-104 68q-78 48 -120 93t-58.5 91.5t-16.5 96.5q0 62 24 105t60.5 76.5t72.5 63.5t60.5 65t24.5 84q0 47 -41.5 82t-122.5 35q-62 0 -103.5 -25t-62 -74t-20.5 -121v-1059h-361v1100q0 147 69 251.5
t192.5 160t285.5 55.5q155 0 274.5 -43t187.5 -126.5t68 -204.5z" />
    <glyph glyph-name="agrave" unicode="&#xe0;" horiz-adv-x="1144" 
d="M617 1153q192 0 301.5 -103.5t109.5 -306.5v-743h-255l-65 150h-7q-42 -58 -87.5 -96t-104 -56t-140.5 -18q-98 0 -166.5 46.5t-104 129t-35.5 190.5q0 182 111.5 271t324.5 98l168 6v23q0 72 -32 105.5t-91 33.5q-58 0 -129 -22t-151 -62l-99 252q90 50 203 76t249 26z
M668 506l-76 -4q-87 -3 -126 -37.5t-39 -99.5q0 -58 25.5 -86.5t71.5 -28.5q60 0 102 45t42 117v94zM600 1569q26 -43 65.5 -100t79.5 -111t65 -88v-29h-251q-34 25 -83 65.5t-102.5 86t-100 87.5t-75.5 68v21h402z" />
    <glyph glyph-name="aacute" unicode="&#xe1;" horiz-adv-x="1144" 
d="M617 1153q192 0 301.5 -103.5t109.5 -306.5v-743h-255l-65 150h-7q-42 -58 -87.5 -96t-104 -56t-140.5 -18q-98 0 -166.5 46.5t-104 129t-35.5 190.5q0 182 111.5 271t324.5 98l168 6v23q0 72 -32 105.5t-91 33.5q-58 0 -129 -22t-151 -62l-99 252q90 50 203 76t249 26z
M668 506l-76 -4q-87 -3 -126 -37.5t-39 -99.5q0 -58 25.5 -86.5t71.5 -28.5q60 0 102 45t42 117v94zM1006 1569v-21q-28 -27 -73 -66.5t-96 -83t-101 -85t-90 -72.5h-252v29q34 46 72.5 98t75.5 104t64 97h400z" />
    <glyph glyph-name="acircumflex" unicode="&#xe2;" horiz-adv-x="1144" 
d="M617 1153q192 0 301.5 -103.5t109.5 -306.5v-743h-255l-65 150h-7q-42 -58 -87.5 -96t-104 -56t-140.5 -18q-98 0 -166.5 46.5t-104 129t-35.5 190.5q0 182 111.5 271t324.5 98l168 6v23q0 72 -32 105.5t-91 33.5q-58 0 -129 -22t-151 -62l-99 252q90 50 203 76t249 26z
M668 506l-76 -4q-87 -3 -126 -37.5t-39 -99.5q0 -58 25.5 -86.5t71.5 -28.5q60 0 102 45t42 117v94zM759 1569q28 -46 66 -98.5t79.5 -104t79.5 -96.5v-29h-229q-42 28 -83 65t-88 85q-49 -49 -88 -85.5t-79 -64.5h-233v29q34 36 78 90.5t85 111t65 97.5h347z" />
    <glyph glyph-name="atilde" unicode="&#xe3;" horiz-adv-x="1144" 
d="M617 1153q192 0 301.5 -103.5t109.5 -306.5v-743h-255l-65 150h-7q-42 -58 -87.5 -96t-104 -56t-140.5 -18q-98 0 -166.5 46.5t-104 129t-35.5 190.5q0 182 111.5 271t324.5 98l168 6v23q0 72 -32 105.5t-91 33.5q-58 0 -129 -22t-151 -62l-99 252q90 50 203 76t249 26z
M668 506l-76 -4q-87 -3 -126 -37.5t-39 -99.5q0 -58 25.5 -86.5t71.5 -28.5q60 0 102 45t42 117v94zM193 1237q3 71 15.5 133t37.5 109t65.5 73.5t98.5 26.5q41 0 82 -14.5t81 -33.5t78.5 -33.5t75.5 -14.5q22 0 39 21.5t26 76.5h178q-7 -175 -67.5 -258.5t-149.5 -83.5
q-42 0 -85.5 14.5t-85 33.5t-78.5 33.5t-69 14.5q-18 0 -37.5 -18.5t-28.5 -79.5h-176z" />
    <glyph glyph-name="adieresis" unicode="&#xe4;" horiz-adv-x="1144" 
d="M617 1153q192 0 301.5 -103.5t109.5 -306.5v-743h-255l-65 150h-7q-42 -58 -87.5 -96t-104 -56t-140.5 -18q-98 0 -166.5 46.5t-104 129t-35.5 190.5q0 182 111.5 271t324.5 98l168 6v23q0 72 -32 105.5t-91 33.5q-58 0 -129 -22t-151 -62l-99 252q90 50 203 76t249 26z
M668 506l-76 -4q-87 -3 -126 -37.5t-39 -99.5q0 -58 25.5 -86.5t71.5 -28.5q60 0 102 45t42 117v94zM204 1413q0 79 44.5 118.5t113.5 39.5t115 -40.5t46 -117.5q0 -74 -46 -115t-115 -41t-113.5 40t-44.5 116zM641 1413q0 79 45 118.5t115 39.5q71 0 116 -40.5t45 -117.5
q0 -74 -45 -115t-116 -41t-115.5 40.5t-44.5 115.5z" />
    <glyph glyph-name="aring" unicode="&#xe5;" horiz-adv-x="1144" 
d="M617 1153q192 0 301.5 -103.5t109.5 -306.5v-743h-255l-65 150h-7q-42 -58 -87.5 -96t-104 -56t-140.5 -18q-98 0 -166.5 46.5t-104 129t-35.5 190.5q0 182 111.5 271t324.5 98l168 6v23q0 72 -32 105.5t-91 33.5q-58 0 -129 -22t-151 -62l-99 252q90 50 203 76t249 26z
M668 506l-76 -4q-87 -3 -126 -37.5t-39 -99.5q0 -58 25.5 -86.5t71.5 -28.5q60 0 102 45t42 117v94zM583 1237q-116 0 -187.5 69.5t-71.5 182.5q0 115 71.5 184.5t187.5 69.5q113 0 188 -70t75 -182t-74.5 -183t-188.5 -71zM583 1406q35 0 59.5 23.5t24.5 60.5
q0 38 -24.5 61t-59.5 23t-59.5 -23t-24.5 -61q0 -37 21.5 -60.5t62.5 -23.5z" />
    <glyph glyph-name="ae" unicode="&#xe6;" horiz-adv-x="1700" 
d="M1173 1152q140 0 242 -58.5t157.5 -174t55.5 -285.5v-173h-617q3 -98 58 -154t167 -56q79 0 160 19.5t168 67.5v-276q-77 -43 -164 -62.5t-209 -19.5q-81 0 -155.5 19.5t-136.5 60t-106 103.5q-57 -65 -113 -105.5t-124.5 -59t-162.5 -18.5q-101 0 -175 46.5t-114.5 130
t-40.5 192.5q0 124 52.5 203t151 118.5t235.5 44.5l165 6v24q0 75 -33.5 106.5t-88.5 31.5q-58 0 -129.5 -21t-149.5 -61l-98 251q89 50 194.5 75.5t214.5 25.5q91 0 164 -24t128 -72q59 48 131 71.5t173 23.5zM668 506l-73 -4q-91 -3 -129 -40t-38 -104q0 -56 25.5 -82
t71.5 -26q39 0 71.5 20.5t52 57t19.5 84.5v94zM1162 891q-62 0 -103 -42.5t-45 -147.5h287q-1 60 -17.5 103t-47.5 65t-74 22z" />
    <glyph glyph-name="ccedilla" unicode="&#xe7;" horiz-adv-x="996" 
d="M586 -20q-162 0 -276 61.5t-174 190.5t-60 329q0 186 62.5 318.5t181 203t284.5 70.5q99 0 184 -22t159 -64l-102 -276q-60 32 -115.5 49.5t-113.5 17.5q-52 0 -91 -33.5t-61 -99t-22 -163.5t22 -161.5t62 -93.5t95 -30q75 0 149 26t143 74v-297q-66 -48 -146 -74
t-181 -26zM811 -255q0 -108 -71 -172.5t-198 -64.5q-60 0 -111 8t-88 19v189q34 -9 64 -14.5t59 -5.5q37 0 58 15t21 43q0 35 -35 55t-105 29l65 154h175l-24 -65q51 -9 94 -31.5t69.5 -61t26.5 -97.5z" />
    <glyph glyph-name="egrave" unicode="&#xe8;" horiz-adv-x="1127" 
d="M575 1152q150 0 258 -58.5t165.5 -173.5t57.5 -285v-174h-620q3 -101 57.5 -155.5t163.5 -54.5q92 0 169.5 20.5t163.5 66.5v-276q-77 -43 -167.5 -62.5t-213.5 -19.5q-168 0 -287 64t-182.5 193t-63.5 323q0 197 60 328.5t171.5 197.5t267.5 66zM586 891
q-61 0 -101.5 -44t-44.5 -146h285q0 61 -16.5 103.5t-47.5 64.5t-75 22zM586 1569q26 -43 65.5 -100t79.5 -111t65 -88v-29h-251q-34 25 -83 65.5t-102.5 86t-100 87.5t-75.5 68v21h402z" />
    <glyph glyph-name="eacute" unicode="&#xe9;" horiz-adv-x="1127" 
d="M575 1152q150 0 258 -58.5t165.5 -173.5t57.5 -285v-174h-620q3 -101 57.5 -155.5t163.5 -54.5q92 0 169.5 20.5t163.5 66.5v-276q-77 -43 -167.5 -62.5t-213.5 -19.5q-168 0 -287 64t-182.5 193t-63.5 323q0 197 60 328.5t171.5 197.5t267.5 66zM586 891
q-61 0 -101.5 -44t-44.5 -146h285q0 61 -16.5 103.5t-47.5 64.5t-75 22zM992 1569v-21q-28 -27 -73 -66.5t-96 -83t-101 -85t-90 -72.5h-252v29q34 46 72.5 98t75.5 104t64 97h400z" />
    <glyph glyph-name="ecircumflex" unicode="&#xea;" horiz-adv-x="1127" 
d="M575 1152q150 0 258 -58.5t165.5 -173.5t57.5 -285v-174h-620q3 -101 57.5 -155.5t163.5 -54.5q92 0 169.5 20.5t163.5 66.5v-276q-77 -43 -167.5 -62.5t-213.5 -19.5q-168 0 -287 64t-182.5 193t-63.5 323q0 197 60 328.5t171.5 197.5t267.5 66zM586 891
q-61 0 -101.5 -44t-44.5 -146h285q0 61 -16.5 103.5t-47.5 64.5t-75 22zM745 1569q28 -46 66 -98.5t79.5 -104t79.5 -96.5v-29h-229q-42 28 -83 65t-88 85q-49 -49 -88 -85.5t-79 -64.5h-233v29q34 36 78 90.5t85 111t65 97.5h347z" />
    <glyph glyph-name="edieresis" unicode="&#xeb;" horiz-adv-x="1127" 
d="M575 1152q150 0 258 -58.5t165.5 -173.5t57.5 -285v-174h-620q3 -101 57.5 -155.5t163.5 -54.5q92 0 169.5 20.5t163.5 66.5v-276q-77 -43 -167.5 -62.5t-213.5 -19.5q-168 0 -287 64t-182.5 193t-63.5 323q0 197 60 328.5t171.5 197.5t267.5 66zM586 891
q-61 0 -101.5 -44t-44.5 -146h285q0 61 -16.5 103.5t-47.5 64.5t-75 22zM190 1413q0 79 44.5 118.5t113.5 39.5t115 -40.5t46 -117.5q0 -74 -46 -115t-115 -41t-113.5 40t-44.5 116zM627 1413q0 79 45 118.5t115 39.5q71 0 116 -40.5t45 -117.5q0 -74 -45 -115t-116 -41
t-115.5 40.5t-44.5 115.5z" />
    <glyph glyph-name="igrave" unicode="&#xec;" horiz-adv-x="605" 
d="M482 0h-361v1133h361v-1133zM319 1569q26 -43 65.5 -100t79.5 -111t65 -88v-29h-251q-34 25 -83 65.5t-102.5 86t-100 87.5t-75.5 68v21h402z" />
    <glyph glyph-name="iacute" unicode="&#xed;" horiz-adv-x="605" 
d="M482 0h-361v1133h361v-1133zM726 1569v-21q-28 -27 -73 -66.5t-96 -83t-101 -85t-90 -72.5h-252v29q34 46 72.5 98t75.5 104t64 97h400z" />
    <glyph glyph-name="icircumflex" unicode="&#xee;" horiz-adv-x="605" 
d="M482 0h-361v1133h361v-1133zM479 1569q28 -46 66 -98.5t79.5 -104t79.5 -96.5v-29h-229q-42 28 -83 65t-88 85q-49 -49 -88 -85.5t-79 -64.5h-233v29q34 36 78 90.5t85 111t65 97.5h347z" />
    <glyph glyph-name="idieresis" unicode="&#xef;" horiz-adv-x="605" 
d="M482 0h-361v1133h361v-1133zM-77 1413q0 79 44.5 118.5t113.5 39.5t115 -40.5t46 -117.5q0 -74 -46 -115t-115 -41t-113.5 40t-44.5 116zM360 1413q0 79 45 118.5t115 39.5q71 0 116 -40.5t45 -117.5q0 -74 -45 -115t-116 -41t-115.5 40.5t-44.5 115.5z" />
    <glyph glyph-name="eth" unicode="&#xf0;" horiz-adv-x="1185" 
d="M453 1573q59 -27 113 -56.5t104 -65.5l170 124l120 -168l-129 -95q86 -92 147 -197t93 -236.5t32 -303.5q0 -184 -62 -317.5t-177.5 -205.5t-275.5 -72q-152 0 -267 61.5t-179.5 177.5t-64.5 280q0 166 60 281t161 174.5t223 59.5q45 0 79.5 -5.5t60 -17t42.5 -29.5l6 4
q-20 45 -46.5 89t-65.5 88l-149 -110l-121 168l132 97q-30 23 -63.5 47t-68.5 46zM591 734q-53 0 -85 -25t-46.5 -77t-14.5 -134q0 -75 15 -129t47 -83t84 -29q80 0 112 66t32 199q0 47 -8 86t-25.5 67.5t-45 43.5t-65.5 15z" />
    <glyph glyph-name="ntilde" unicode="&#xf1;" horiz-adv-x="1228" 
d="M758 1153q161 0 257.5 -104t96.5 -312v-737h-361v625q0 112 -25.5 169.5t-92.5 57.5q-90 0 -121.5 -82t-31.5 -263v-507h-361v1133h277l45 -145h17q31 54 74 91t99.5 55.5t126.5 18.5zM235 1237q3 71 15.5 133t37.5 109t65.5 73.5t98.5 26.5q41 0 82 -14.5t81 -33.5
t78.5 -33.5t75.5 -14.5q22 0 39 21.5t26 76.5h178q-7 -175 -67.5 -258.5t-149.5 -83.5q-42 0 -85.5 14.5t-85 33.5t-78.5 33.5t-69 14.5q-18 0 -37.5 -18.5t-28.5 -79.5h-176z" />
    <glyph glyph-name="ograve" unicode="&#xf2;" horiz-adv-x="1181" 
d="M1103 569q0 -125 -31 -232.5t-95 -187.5t-161 -124.5t-228 -44.5q-122 0 -216.5 44t-160.5 123.5t-100.5 187t-34.5 234.5q0 176 58 307t173 204t286 73q150 0 265 -68t180 -198t65 -318zM442 567q0 -99 15.5 -166.5t48 -102.5t85.5 -35q54 0 85.5 34.5t45.5 103
t14 168.5q0 101 -14 167.5t-46 100t-86 33.5q-78 0 -113 -75t-35 -228zM608 1569q26 -43 65.5 -100t79.5 -111t65 -88v-29h-251q-34 25 -83 65.5t-102.5 86t-100 87.5t-75.5 68v21h402z" />
    <glyph glyph-name="oacute" unicode="&#xf3;" horiz-adv-x="1181" 
d="M1103 569q0 -125 -31 -232.5t-95 -187.5t-161 -124.5t-228 -44.5q-122 0 -216.5 44t-160.5 123.5t-100.5 187t-34.5 234.5q0 176 58 307t173 204t286 73q150 0 265 -68t180 -198t65 -318zM442 567q0 -99 15.5 -166.5t48 -102.5t85.5 -35q54 0 85.5 34.5t45.5 103
t14 168.5q0 101 -14 167.5t-46 100t-86 33.5q-78 0 -113 -75t-35 -228zM1015 1569v-21q-28 -27 -73 -66.5t-96 -83t-101 -85t-90 -72.5h-252v29q34 46 72.5 98t75.5 104t64 97h400z" />
    <glyph glyph-name="ocircumflex" unicode="&#xf4;" horiz-adv-x="1181" 
d="M1103 569q0 -125 -31 -232.5t-95 -187.5t-161 -124.5t-228 -44.5q-122 0 -216.5 44t-160.5 123.5t-100.5 187t-34.5 234.5q0 176 58 307t173 204t286 73q150 0 265 -68t180 -198t65 -318zM442 567q0 -99 15.5 -166.5t48 -102.5t85.5 -35q54 0 85.5 34.5t45.5 103
t14 168.5q0 101 -14 167.5t-46 100t-86 33.5q-78 0 -113 -75t-35 -228zM768 1569q28 -46 66 -98.5t79.5 -104t79.5 -96.5v-29h-229q-42 28 -83 65t-88 85q-49 -49 -88 -85.5t-79 -64.5h-233v29q34 36 78 90.5t85 111t65 97.5h347z" />
    <glyph glyph-name="otilde" unicode="&#xf5;" horiz-adv-x="1181" 
d="M1103 569q0 -125 -31 -232.5t-95 -187.5t-161 -124.5t-228 -44.5q-122 0 -216.5 44t-160.5 123.5t-100.5 187t-34.5 234.5q0 176 58 307t173 204t286 73q150 0 265 -68t180 -198t65 -318zM442 567q0 -99 15.5 -166.5t48 -102.5t85.5 -35q54 0 85.5 34.5t45.5 103
t14 168.5q0 101 -14 167.5t-46 100t-86 33.5q-78 0 -113 -75t-35 -228zM201 1237q3 71 15.5 133t37.5 109t65.5 73.5t98.5 26.5q41 0 82 -14.5t81 -33.5t78.5 -33.5t75.5 -14.5q22 0 39 21.5t26 76.5h178q-7 -175 -67.5 -258.5t-149.5 -83.5q-42 0 -85.5 14.5t-85 33.5
t-78.5 33.5t-69 14.5q-18 0 -37.5 -18.5t-28.5 -79.5h-176z" />
    <glyph glyph-name="odieresis" unicode="&#xf6;" horiz-adv-x="1181" 
d="M1103 569q0 -125 -31 -232.5t-95 -187.5t-161 -124.5t-228 -44.5q-122 0 -216.5 44t-160.5 123.5t-100.5 187t-34.5 234.5q0 176 58 307t173 204t286 73q150 0 265 -68t180 -198t65 -318zM442 567q0 -99 15.5 -166.5t48 -102.5t85.5 -35q54 0 85.5 34.5t45.5 103
t14 168.5q0 101 -14 167.5t-46 100t-86 33.5q-78 0 -113 -75t-35 -228zM212 1413q0 79 44.5 118.5t113.5 39.5t115 -40.5t46 -117.5q0 -74 -46 -115t-115 -41t-113.5 40t-44.5 116zM649 1413q0 79 45 118.5t115 39.5q71 0 116 -40.5t45 -117.5q0 -74 -45 -115t-116 -41
t-115.5 40.5t-44.5 115.5z" />
    <glyph glyph-name="divide" unicode="&#xf7;" horiz-adv-x="1112" 
d="M81 588v268h949v-268h-949zM556 152q-69 0 -114.5 43t-45.5 130q0 90 44.5 131.5t115.5 41.5q70 0 114.5 -41.5t44.5 -131.5q0 -86 -45 -129.5t-114 -43.5zM556 946q-69 0 -114.5 43.5t-45.5 129.5q0 90 44.5 132t115.5 42q70 0 114.5 -42t44.5 -132q0 -85 -45 -129
t-114 -44z" />
    <glyph glyph-name="oslash" unicode="&#xf8;" horiz-adv-x="1210" 
d="M1132 569q0 -186 -63 -317.5t-181.5 -201.5t-285.5 -70q-55 0 -106 9t-97 25l-74 -131l-164 90l81 142q-83 86 -124.5 198.5t-41.5 255.5q0 279 141 431.5t390 152.5q57 0 108.5 -9.5t97.5 -28.5l63 110l162 -88l-68 -122q77 -75 119.5 -188.5t42.5 -257.5zM422 567
q0 -38 1.5 -71.5t6.5 -62.5l251 437q-16 11 -35 15t-42 4q-98 0 -140 -80.5t-42 -241.5zM787 569q0 34 -1.5 65.5t-5.5 57.5l-247 -433q15 -8 33.5 -12t38.5 -4q69 0 108.5 37t56.5 110t17 179z" />
    <glyph glyph-name="ugrave" unicode="&#xf9;" horiz-adv-x="1228" 
d="M1109 1133v-1133h-276l-44 140h-20q-31 -55 -75.5 -90.5t-100.5 -52.5t-122 -17q-105 0 -185 46t-124.5 138.5t-44.5 230.5v738h361v-624q0 -112 25.5 -169.5t86.5 -57.5q67 0 100.5 38.5t45.5 111t12 173.5v528h361zM632 1569q26 -43 65.5 -100t79.5 -111t65 -88v-29
h-251q-34 25 -83 65.5t-102.5 86t-100 87.5t-75.5 68v21h402z" />
    <glyph glyph-name="uacute" unicode="&#xfa;" horiz-adv-x="1228" 
d="M1109 1133v-1133h-276l-44 140h-20q-31 -55 -75.5 -90.5t-100.5 -52.5t-122 -17q-105 0 -185 46t-124.5 138.5t-44.5 230.5v738h361v-624q0 -112 25.5 -169.5t86.5 -57.5q67 0 100.5 38.5t45.5 111t12 173.5v528h361zM1038 1569v-21q-28 -27 -73 -66.5t-96 -83t-101 -85
t-90 -72.5h-252v29q34 46 72.5 98t75.5 104t64 97h400z" />
    <glyph glyph-name="ucircumflex" unicode="&#xfb;" horiz-adv-x="1228" 
d="M1109 1133v-1133h-276l-44 140h-20q-31 -55 -75.5 -90.5t-100.5 -52.5t-122 -17q-105 0 -185 46t-124.5 138.5t-44.5 230.5v738h361v-624q0 -112 25.5 -169.5t86.5 -57.5q67 0 100.5 38.5t45.5 111t12 173.5v528h361zM792 1569q28 -46 66 -98.5t79.5 -104t79.5 -96.5v-29
h-229q-42 28 -83 65t-88 85q-49 -49 -88 -85.5t-79 -64.5h-233v29q34 36 78 90.5t85 111t65 97.5h347z" />
    <glyph glyph-name="udieresis" unicode="&#xfc;" horiz-adv-x="1228" 
d="M1109 1133v-1133h-276l-44 140h-20q-31 -55 -75.5 -90.5t-100.5 -52.5t-122 -17q-105 0 -185 46t-124.5 138.5t-44.5 230.5v738h361v-624q0 -112 25.5 -169.5t86.5 -57.5q67 0 100.5 38.5t45.5 111t12 173.5v528h361zM236 1413q0 79 44.5 118.5t113.5 39.5t115 -40.5
t46 -117.5q0 -74 -46 -115t-115 -41t-113.5 40t-44.5 116zM673 1413q0 79 45 118.5t115 39.5q71 0 116 -40.5t45 -117.5q0 -74 -45 -115t-116 -41t-115.5 40.5t-44.5 115.5z" />
    <glyph glyph-name="yacute" unicode="&#xfd;" horiz-adv-x="1128" 
d="M1 1133h380l156 -571q6 -24 11.5 -52t9.5 -54.5t5 -49.5h8q4 37 11 74.5t18 78.5l154 574h371l-395 -1205q-48 -146 -110.5 -239t-150.5 -137t-214 -44q-47 0 -84 5.5t-68 11.5v299q21 -5 48 -8.5t54 -3.5q53 0 85.5 19.5t55 61.5t44.5 108l5 15zM988 1569v-21
q-28 -27 -73 -66.5t-96 -83t-101 -85t-90 -72.5h-252v29q34 46 72.5 98t75.5 104t64 97h400z" />
    <glyph glyph-name="thorn" unicode="&#xfe;" horiz-adv-x="1195" 
d="M1119 566q0 -187 -47 -318t-131 -199.5t-194 -68.5q-61 0 -110 18t-88 51t-69 78h-12q4 -35 6.5 -69.5t4 -63.5t1.5 -51v-435h-361v2048h361v-341q0 -70 -4 -127t-10 -101h14q32 58 71 94.5t88 54t111 17.5q167 0 268 -153t101 -434zM752 566q0 148 -31 222t-99 74
q-76 0 -108 -64t-34 -203v-47q0 -135 32.5 -201.5t111.5 -66.5q46 0 74 32t41 96t13 158z" />
    <glyph glyph-name="ydieresis" unicode="&#xff;" horiz-adv-x="1128" 
d="M1 1133h380l156 -571q6 -24 11.5 -52t9.5 -54.5t5 -49.5h8q4 37 11 74.5t18 78.5l154 574h371l-395 -1205q-48 -146 -110.5 -239t-150.5 -137t-214 -44q-47 0 -84 5.5t-68 11.5v299q21 -5 48 -8.5t54 -3.5q53 0 85.5 19.5t55 61.5t44.5 108l5 15zM186 1413
q0 79 44.5 118.5t113.5 39.5t115 -40.5t46 -117.5q0 -74 -46 -115t-115 -41t-113.5 40t-44.5 116zM623 1413q0 79 45 118.5t115 39.5q71 0 116 -40.5t45 -117.5q0 -74 -45 -115t-116 -41t-115.5 40.5t-44.5 115.5z" />
    <glyph glyph-name="Amacron" unicode="&#x100;" horiz-adv-x="1332" 
d="M929 0l-63 280h-396l-64 -280h-406l417 1465h493l422 -1465h-403zM798 591l-61 284q-10 47 -24 109t-26.5 124.5t-19.5 108.5q-7 -45 -18.5 -105t-24.5 -122t-25 -113l-62 -286h261zM1004 1822v-235h-668v235h668z" />
    <glyph glyph-name="amacron" unicode="&#x101;" horiz-adv-x="1144" 
d="M617 1153q192 0 301.5 -103.5t109.5 -306.5v-743h-255l-65 150h-7q-42 -58 -87.5 -96t-104 -56t-140.5 -18q-98 0 -166.5 46.5t-104 129t-35.5 190.5q0 182 111.5 271t324.5 98l168 6v23q0 72 -32 105.5t-91 33.5q-58 0 -129 -22t-151 -62l-99 252q90 50 203 76t249 26z
M668 506l-76 -4q-87 -3 -126 -37.5t-39 -99.5q0 -58 25.5 -86.5t71.5 -28.5q60 0 102 45t42 117v94zM920 1492v-235h-668v235h668z" />
    <glyph glyph-name="Abreve" unicode="&#x102;" horiz-adv-x="1332" 
d="M929 0l-63 280h-396l-64 -280h-406l417 1465h493l422 -1465h-403zM798 591l-61 284q-10 47 -24 109t-26.5 124.5t-19.5 108.5q-7 -45 -18.5 -105t-24.5 -122t-25 -113l-62 -286h261zM1034 1942q-3 -112 -50 -195.5t-128.5 -129.5t-188.5 -46q-169 0 -264 97t-99 274h203
q9 -53 27.5 -82.5t51 -41.5t81.5 -12q42 0 75.5 12t55.5 42t30 82h206z" />
    <glyph glyph-name="abreve" unicode="&#x103;" horiz-adv-x="1144" 
d="M617 1153q192 0 301.5 -103.5t109.5 -306.5v-743h-255l-65 150h-7q-42 -58 -87.5 -96t-104 -56t-140.5 -18q-98 0 -166.5 46.5t-104 129t-35.5 190.5q0 182 111.5 271t324.5 98l168 6v23q0 72 -32 105.5t-91 33.5q-58 0 -129 -22t-151 -62l-99 252q90 50 203 76t249 26z
M668 506l-76 -4q-87 -3 -126 -37.5t-39 -99.5q0 -58 25.5 -86.5t71.5 -28.5q60 0 102 45t42 117v94zM951 1612q-3 -112 -50 -195.5t-128.5 -129.5t-188.5 -46q-169 0 -264 97t-99 274h203q9 -53 27.5 -82.5t51 -41.5t81.5 -12q42 0 75.5 12t55.5 42t30 82h206z" />
    <glyph glyph-name="Aogonek" unicode="&#x104;" horiz-adv-x="1332" 
d="M929 0l-63 280h-396l-64 -280h-406l417 1465h493l422 -1465h-403zM798 591l-61 284q-10 47 -24 109t-26.5 124.5t-19.5 108.5q-7 -45 -18.5 -105t-24.5 -122t-25 -113l-62 -286h261zM1088 -194q0 -36 22 -55.5t59 -19.5q27 0 54 6.5t45 15.5v-216q-29 -10 -69.5 -19.5
t-94.5 -9.5q-123 0 -195.5 62t-72.5 168q0 46 18.5 95.5t64 102t125.5 107.5l162 -43q-66 -66 -92 -107.5t-26 -86.5z" />
    <glyph glyph-name="aogonek" unicode="&#x105;" horiz-adv-x="1144" 
d="M617 1153q192 0 301.5 -103.5t109.5 -306.5v-743h-255l-65 150h-7q-42 -58 -87.5 -96t-104 -56t-140.5 -18q-98 0 -166.5 46.5t-104 129t-35.5 190.5q0 182 111.5 271t324.5 98l168 6v23q0 72 -32 105.5t-91 33.5q-58 0 -129 -22t-151 -62l-99 252q90 50 203 76t249 26z
M668 506l-76 -4q-87 -3 -126 -37.5t-39 -99.5q0 -58 25.5 -86.5t71.5 -28.5q60 0 102 45t42 117v94zM870 -194q0 -36 22 -55.5t59 -19.5q27 0 54 6.5t45 15.5v-216q-29 -10 -69.5 -19.5t-94.5 -9.5q-123 0 -195.5 62t-72.5 168q0 46 18.5 95.5t64 102t125.5 107.5l162 -43
q-66 -66 -92 -107.5t-26 -86.5z" />
    <glyph glyph-name="Cacute" unicode="&#x106;" horiz-adv-x="1184" 
d="M732 1172q-60 0 -107.5 -30.5t-80.5 -88.5t-50.5 -140.5t-17.5 -187.5q0 -143 30.5 -239.5t91.5 -145t154 -48.5q84 0 162 27t157 65v-323q-83 -42 -174.5 -61.5t-194.5 -19.5q-206 0 -341.5 90.5t-202 258t-66.5 398.5q0 168 42 306.5t122.5 239t197 155.5t265.5 55
q102 0 205.5 -24.5t203.5 -78.5l-107 -298q-69 39 -139.5 64.5t-149.5 25.5zM1098 1899v-21q-28 -27 -73 -66.5t-96 -83t-101 -85t-90 -72.5h-252v29q34 46 72.5 98t75.5 104t64 97h400z" />
    <glyph glyph-name="cacute" unicode="&#x107;" horiz-adv-x="996" 
d="M586 -20q-162 0 -276 61.5t-174 190.5t-60 329q0 186 62.5 318.5t181 203t284.5 70.5q99 0 184 -22t159 -64l-102 -276q-60 32 -115.5 49.5t-113.5 17.5q-52 0 -91 -33.5t-61 -99t-22 -163.5t22 -161.5t62 -93.5t95 -30q75 0 149 26t143 74v-297q-66 -48 -146 -74
t-181 -26zM977 1569v-21q-28 -27 -73 -66.5t-96 -83t-101 -85t-90 -72.5h-252v29q34 46 72.5 98t75.5 104t64 97h400z" />
    <glyph glyph-name="Ccircumflex" unicode="&#x108;" horiz-adv-x="1184" 
d="M732 1172q-60 0 -107.5 -30.5t-80.5 -88.5t-50.5 -140.5t-17.5 -187.5q0 -143 30.5 -239.5t91.5 -145t154 -48.5q84 0 162 27t157 65v-323q-83 -42 -174.5 -61.5t-194.5 -19.5q-206 0 -341.5 90.5t-202 258t-66.5 398.5q0 168 42 306.5t122.5 239t197 155.5t265.5 55
q102 0 205.5 -24.5t203.5 -78.5l-107 -298q-69 39 -139.5 64.5t-149.5 25.5zM851 1899q28 -46 66 -98.5t79.5 -104t79.5 -96.5v-29h-229q-42 28 -83 65t-88 85q-49 -49 -88 -85.5t-79 -64.5h-233v29q34 36 78 90.5t85 111t65 97.5h347z" />
    <glyph glyph-name="ccircumflex" unicode="&#x109;" horiz-adv-x="996" 
d="M586 -20q-162 0 -276 61.5t-174 190.5t-60 329q0 186 62.5 318.5t181 203t284.5 70.5q99 0 184 -22t159 -64l-102 -276q-60 32 -115.5 49.5t-113.5 17.5q-52 0 -91 -33.5t-61 -99t-22 -163.5t22 -161.5t62 -93.5t95 -30q75 0 149 26t143 74v-297q-66 -48 -146 -74
t-181 -26zM730 1569q28 -46 66 -98.5t79.5 -104t79.5 -96.5v-29h-229q-42 28 -83 65t-88 85q-49 -49 -88 -85.5t-79 -64.5h-233v29q34 36 78 90.5t85 111t65 97.5h347z" />
    <glyph glyph-name="Cdot" unicode="&#x10a;" horiz-adv-x="1184" 
d="M732 1172q-60 0 -107.5 -30.5t-80.5 -88.5t-50.5 -140.5t-17.5 -187.5q0 -143 30.5 -239.5t91.5 -145t154 -48.5q84 0 162 27t157 65v-323q-83 -42 -174.5 -61.5t-194.5 -19.5q-206 0 -341.5 90.5t-202 258t-66.5 398.5q0 168 42 306.5t122.5 239t197 155.5t265.5 55
q102 0 205.5 -24.5t203.5 -78.5l-107 -298q-69 39 -139.5 64.5t-149.5 25.5zM684 1919q88 0 140 -39.5t52 -134.5q0 -93 -53 -132.5t-139 -39.5q-87 0 -139.5 39.5t-52.5 132.5q0 96 51.5 135t140.5 39z" />
    <glyph glyph-name="cdot" unicode="&#x10b;" horiz-adv-x="996" 
d="M586 -20q-162 0 -276 61.5t-174 190.5t-60 329q0 186 62.5 318.5t181 203t284.5 70.5q99 0 184 -22t159 -64l-102 -276q-60 32 -115.5 49.5t-113.5 17.5q-52 0 -91 -33.5t-61 -99t-22 -163.5t22 -161.5t62 -93.5t95 -30q75 0 149 26t143 74v-297q-66 -48 -146 -74
t-181 -26zM563 1589q88 0 140 -39.5t52 -134.5q0 -93 -53 -132.5t-139 -39.5q-87 0 -139.5 39.5t-52.5 132.5q0 96 51.5 135t140.5 39z" />
    <glyph glyph-name="Ccaron" unicode="&#x10c;" horiz-adv-x="1184" 
d="M732 1172q-60 0 -107.5 -30.5t-80.5 -88.5t-50.5 -140.5t-17.5 -187.5q0 -143 30.5 -239.5t91.5 -145t154 -48.5q84 0 162 27t157 65v-323q-83 -42 -174.5 -61.5t-194.5 -19.5q-206 0 -341.5 90.5t-202 258t-66.5 398.5q0 168 42 306.5t122.5 239t197 155.5t265.5 55
q102 0 205.5 -24.5t203.5 -78.5l-107 -298q-69 39 -139.5 64.5t-149.5 25.5zM504 1571q-24 42 -65.5 98.5t-85.5 111t-77 89.5v29h233q42 -30 81 -65.5t86 -84.5q47 49 88 85.5t83 64.5h229v-29q-31 -37 -74 -90.5t-83.5 -109t-67.5 -99.5h-347z" />
    <glyph glyph-name="ccaron" unicode="&#x10d;" horiz-adv-x="996" 
d="M586 -20q-162 0 -276 61.5t-174 190.5t-60 329q0 186 62.5 318.5t181 203t284.5 70.5q99 0 184 -22t159 -64l-102 -276q-60 32 -115.5 49.5t-113.5 17.5q-52 0 -91 -33.5t-61 -99t-22 -163.5t22 -161.5t62 -93.5t95 -30q75 0 149 26t143 74v-297q-66 -48 -146 -74
t-181 -26zM383 1241q-24 42 -65.5 98.5t-85.5 111t-77 89.5v29h233q42 -30 81 -65.5t86 -84.5q47 49 88 85.5t83 64.5h229v-29q-31 -37 -74 -90.5t-83.5 -109t-67.5 -99.5h-347z" />
    <glyph glyph-name="Dcaron" unicode="&#x10e;" horiz-adv-x="1353" 
d="M1261 762q0 -249 -84.5 -418.5t-240 -256.5t-371.5 -87h-425v1462h453q214 0 363 -81t227 -237t78 -382zM876 748q0 141 -31.5 230t-94.5 131.5t-158 42.5h-81v-838h58q159 0 233 106t74 328zM503 1571q-24 42 -65.5 98.5t-85.5 111t-77 89.5v29h233q42 -30 81 -65.5
t86 -84.5q47 49 88 85.5t83 64.5h229v-29q-31 -37 -74 -90.5t-83.5 -109t-67.5 -99.5h-347z" />
    <glyph glyph-name="dcaron" unicode="&#x10f;" horiz-adv-x="1195" 
d="M445 -20q-168 0 -268.5 154t-100.5 433q0 281 102 433.5t270 152.5q64 0 113.5 -19.5t88.5 -56.5t69 -90h9q-5 60 -9.5 125t-4.5 117v327h363v-1556h-281l-66 127h-16q-32 -46 -69 -79t-85 -50.5t-115 -17.5zM580 273q81 0 115 63.5t35 200.5v48q0 134 -33.5 201
t-117.5 67q-63 0 -100.5 -70.5t-37.5 -216.5q0 -151 38 -222t101 -71zM1525 1556v-22q-22 -52 -45 -102t-49.5 -99.5t-59.5 -103.5h-228v28q7 28 14 66.5t14 80t12 81.5t7 71h335z" />
    <glyph glyph-name="Dcroat" unicode="&#x110;" horiz-adv-x="1353" 
d="M593 1462q214 0 363 -81t227 -237t78 -382q0 -249 -84.5 -418.5t-240 -256.5t-371.5 -87h-425v597h-124v288h124v577h453zM592 1152h-81v-267h175v-288h-175v-283h58q159 0 233 106t74 328q0 141 -31.5 230t-94.5 131.5t-158 42.5z" />
    <glyph glyph-name="dcroat" unicode="&#x111;" horiz-adv-x="1216" 
d="M437 -20q-164 0 -262.5 146t-98.5 406q0 268 103.5 408t271.5 140q65 0 115.5 -19.5t90 -56.5t68.5 -89h9q-5 51 -12.5 115.5t-7.5 126.5v15h-196v237h196v147h363v-147h139v-237h-139v-1172h-293l-68 127h-16q-33 -46 -69.5 -79t-83 -50.5t-110.5 -17.5zM590 273
q76 0 107.5 55.5t32.5 175.5v43q0 117 -36.5 174.5t-105.5 57.5q-58 0 -93 -58.5t-35 -190.5q0 -118 32.5 -187.5t97.5 -69.5z" />
    <glyph glyph-name="Emacron" unicode="&#x112;" horiz-adv-x="1016" 
d="M926 0h-786v1462h786v-306h-415v-247h384v-306h-384v-292h415v-311zM868 1822v-235h-668v235h668z" />
    <glyph glyph-name="emacron" unicode="&#x113;" horiz-adv-x="1127" 
d="M575 1152q150 0 258 -58.5t165.5 -173.5t57.5 -285v-174h-620q3 -101 57.5 -155.5t163.5 -54.5q92 0 169.5 20.5t163.5 66.5v-276q-77 -43 -167.5 -62.5t-213.5 -19.5q-168 0 -287 64t-182.5 193t-63.5 323q0 197 60 328.5t171.5 197.5t267.5 66zM586 891
q-61 0 -101.5 -44t-44.5 -146h285q0 61 -16.5 103.5t-47.5 64.5t-75 22zM906 1492v-235h-668v235h668z" />
    <glyph glyph-name="Ebreve" unicode="&#x114;" horiz-adv-x="1016" 
d="M926 0h-786v1462h786v-306h-415v-247h384v-306h-384v-292h415v-311zM898 1942q-3 -112 -50 -195.5t-128.5 -129.5t-188.5 -46q-169 0 -264 97t-99 274h203q9 -53 27.5 -82.5t51 -41.5t81.5 -12q42 0 75.5 12t55.5 42t30 82h206z" />
    <glyph glyph-name="ebreve" unicode="&#x115;" horiz-adv-x="1127" 
d="M575 1152q150 0 258 -58.5t165.5 -173.5t57.5 -285v-174h-620q3 -101 57.5 -155.5t163.5 -54.5q92 0 169.5 20.5t163.5 66.5v-276q-77 -43 -167.5 -62.5t-213.5 -19.5q-168 0 -287 64t-182.5 193t-63.5 323q0 197 60 328.5t171.5 197.5t267.5 66zM586 891
q-61 0 -101.5 -44t-44.5 -146h285q0 61 -16.5 103.5t-47.5 64.5t-75 22zM936 1612q-3 -112 -50 -195.5t-128.5 -129.5t-188.5 -46q-169 0 -264 97t-99 274h203q9 -53 27.5 -82.5t51 -41.5t81.5 -12q42 0 75.5 12t55.5 42t30 82h206z" />
    <glyph glyph-name="Edotaccent" unicode="&#x116;" horiz-adv-x="1016" 
d="M926 0h-786v1462h786v-306h-415v-247h384v-306h-384v-292h415v-311zM540 1919q88 0 140 -39.5t52 -134.5q0 -93 -53 -132.5t-139 -39.5q-87 0 -139.5 39.5t-52.5 132.5q0 96 51.5 135t140.5 39z" />
    <glyph glyph-name="edotaccent" unicode="&#x117;" horiz-adv-x="1127" 
d="M575 1152q150 0 258 -58.5t165.5 -173.5t57.5 -285v-174h-620q3 -101 57.5 -155.5t163.5 -54.5q92 0 169.5 20.5t163.5 66.5v-276q-77 -43 -167.5 -62.5t-213.5 -19.5q-168 0 -287 64t-182.5 193t-63.5 323q0 197 60 328.5t171.5 197.5t267.5 66zM586 891
q-61 0 -101.5 -44t-44.5 -146h285q0 61 -16.5 103.5t-47.5 64.5t-75 22zM578 1589q88 0 140 -39.5t52 -134.5q0 -93 -53 -132.5t-139 -39.5q-87 0 -139.5 39.5t-52.5 132.5q0 96 51.5 135t140.5 39z" />
    <glyph glyph-name="Eogonek" unicode="&#x118;" horiz-adv-x="1016" 
d="M926 0h-786v1462h786v-306h-415v-247h384v-306h-384v-292h415v-311zM755 -194q0 -36 22 -55.5t59 -19.5q27 0 54 6.5t45 15.5v-216q-29 -10 -69.5 -19.5t-94.5 -9.5q-123 0 -195.5 62t-72.5 168q0 46 18.5 95.5t64 102t125.5 107.5l162 -43q-66 -66 -92 -107.5t-26 -86.5
z" />
    <glyph glyph-name="eogonek" unicode="&#x119;" horiz-adv-x="1127" 
d="M818 -192q0 -37 22.5 -55.5t54.5 -18.5q26 0 57 6.5t50 15.5v-221q-36 -11 -81 -19t-93 -8q-124 0 -193 63t-69 169q0 46 18 92t60.5 93.5t116.5 100.5l229 36q-73 -67 -110 -113t-49.5 -79t-12.5 -62zM575 1152q150 0 258 -58.5t165.5 -173.5t57.5 -285v-174h-620
q3 -101 57.5 -155.5t163.5 -54.5q92 0 169.5 20.5t163.5 66.5v-276q-77 -43 -167.5 -62.5t-213.5 -19.5q-168 0 -287 64t-182.5 193t-63.5 323q0 197 60 328.5t171.5 197.5t267.5 66zM586 891q-61 0 -101.5 -44t-44.5 -146h285q0 61 -16.5 103.5t-47.5 64.5t-75 22z" />
    <glyph glyph-name="Ecaron" unicode="&#x11a;" horiz-adv-x="1016" 
d="M926 0h-786v1462h786v-306h-415v-247h384v-306h-384v-292h415v-311zM360 1571q-24 42 -65.5 98.5t-85.5 111t-77 89.5v29h233q42 -30 81 -65.5t86 -84.5q47 49 88 85.5t83 64.5h229v-29q-31 -37 -74 -90.5t-83.5 -109t-67.5 -99.5h-347z" />
    <glyph glyph-name="ecaron" unicode="&#x11b;" horiz-adv-x="1127" 
d="M575 1152q150 0 258 -58.5t165.5 -173.5t57.5 -285v-174h-620q3 -101 57.5 -155.5t163.5 -54.5q92 0 169.5 20.5t163.5 66.5v-276q-77 -43 -167.5 -62.5t-213.5 -19.5q-168 0 -287 64t-182.5 193t-63.5 323q0 197 60 328.5t171.5 197.5t267.5 66zM586 891
q-61 0 -101.5 -44t-44.5 -146h285q0 61 -16.5 103.5t-47.5 64.5t-75 22zM398 1241q-24 42 -65.5 98.5t-85.5 111t-77 89.5v29h233q42 -30 81 -65.5t86 -84.5q47 49 88 85.5t83 64.5h229v-29q-31 -37 -74 -90.5t-83.5 -109t-67.5 -99.5h-347z" />
    <glyph glyph-name="Gcircumflex" unicode="&#x11c;" horiz-adv-x="1365" 
d="M675 856h570v-788q-113 -42 -244.5 -65t-273.5 -23q-195 0 -337.5 85t-220 253.5t-77.5 416.5q0 233 81.5 400t238 257.5t380.5 90.5q125 0 235 -26t192 -66l-111 -297q-69 38 -146 58t-163 20q-112 0 -183 -56.5t-105 -156.5t-34 -234q0 -140 32 -236t94 -146t151 -50
q31 0 70 5t65 12v248h-214v298zM925 1899q28 -46 66 -98.5t79.5 -104t79.5 -96.5v-29h-229q-42 28 -83 65t-88 85q-49 -49 -88 -85.5t-79 -64.5h-233v29q34 36 78 90.5t85 111t65 97.5h347z" />
    <glyph glyph-name="gcircumflex" unicode="&#x11d;" horiz-adv-x="1131" 
d="M476 -492q-221 0 -341 82t-120 234q0 95 61 162.5t173 96.5q-52 20 -88 66.5t-36 99.5q0 60 29.5 100t100.5 91q-75 41 -120 126.5t-45 196.5q0 124 52 210.5t152 132t245 45.5q31 0 67.5 -4t69.5 -9t52 -10h375v-191l-140 -46q15 -32 21.5 -64.5t6.5 -73.5
q0 -184 -117.5 -285t-342.5 -101q-61 0 -93 9q-8 -11 -15.5 -25t-7.5 -31q0 -22 19.5 -35.5t52.5 -19t71 -5.5h195q165 0 250 -78.5t85 -238.5q0 -208 -158 -321.5t-454 -113.5zM497 -249q74 0 134.5 14.5t96.5 43.5t36 73q0 33 -19 50t-56 23t-91 6h-153q-32 0 -57.5 -13.5
t-40 -37t-14.5 -54.5q0 -49 44.5 -77t119.5 -28zM542 590q48 0 73.5 42.5t25.5 126.5q0 88 -24.5 130t-74.5 42q-51 0 -76 -42t-25 -128t24.5 -128.5t76.5 -42.5zM735 1569q28 -46 66 -98.5t79.5 -104t79.5 -96.5v-29h-229q-42 28 -83 65t-88 85q-49 -49 -88 -85.5
t-79 -64.5h-233v29q34 36 78 90.5t85 111t65 97.5h347z" />
    <glyph glyph-name="Gbreve" unicode="&#x11e;" horiz-adv-x="1365" 
d="M675 856h570v-788q-113 -42 -244.5 -65t-273.5 -23q-195 0 -337.5 85t-220 253.5t-77.5 416.5q0 233 81.5 400t238 257.5t380.5 90.5q125 0 235 -26t192 -66l-111 -297q-69 38 -146 58t-163 20q-112 0 -183 -56.5t-105 -156.5t-34 -234q0 -140 32 -236t94 -146t151 -50
q31 0 70 5t65 12v248h-214v298zM1115 1942q-3 -112 -50 -195.5t-128.5 -129.5t-188.5 -46q-169 0 -264 97t-99 274h203q9 -53 27.5 -82.5t51 -41.5t81.5 -12q42 0 75.5 12t55.5 42t30 82h206z" />
    <glyph glyph-name="gbreve" unicode="&#x11f;" horiz-adv-x="1131" 
d="M476 -492q-221 0 -341 82t-120 234q0 95 61 162.5t173 96.5q-52 20 -88 66.5t-36 99.5q0 60 29.5 100t100.5 91q-75 41 -120 126.5t-45 196.5q0 124 52 210.5t152 132t245 45.5q31 0 67.5 -4t69.5 -9t52 -10h375v-191l-140 -46q15 -32 21.5 -64.5t6.5 -73.5
q0 -184 -117.5 -285t-342.5 -101q-61 0 -93 9q-8 -11 -15.5 -25t-7.5 -31q0 -22 19.5 -35.5t52.5 -19t71 -5.5h195q165 0 250 -78.5t85 -238.5q0 -208 -158 -321.5t-454 -113.5zM497 -249q74 0 134.5 14.5t96.5 43.5t36 73q0 33 -19 50t-56 23t-91 6h-153q-32 0 -57.5 -13.5
t-40 -37t-14.5 -54.5q0 -49 44.5 -77t119.5 -28zM542 590q48 0 73.5 42.5t25.5 126.5q0 88 -24.5 130t-74.5 42q-51 0 -76 -42t-25 -128t24.5 -128.5t76.5 -42.5zM924 1612q-3 -112 -50 -195.5t-128.5 -129.5t-188.5 -46q-169 0 -264 97t-99 274h203q9 -53 27.5 -82.5
t51 -41.5t81.5 -12q42 0 75.5 12t55.5 42t30 82h206z" />
    <glyph glyph-name="Gdot" unicode="&#x120;" horiz-adv-x="1365" 
d="M675 856h570v-788q-113 -42 -244.5 -65t-273.5 -23q-195 0 -337.5 85t-220 253.5t-77.5 416.5q0 233 81.5 400t238 257.5t380.5 90.5q125 0 235 -26t192 -66l-111 -297q-69 38 -146 58t-163 20q-112 0 -183 -56.5t-105 -156.5t-34 -234q0 -140 32 -236t94 -146t151 -50
q31 0 70 5t65 12v248h-214v298zM758 1919q88 0 140 -39.5t52 -134.5q0 -93 -53 -132.5t-139 -39.5q-87 0 -139.5 39.5t-52.5 132.5q0 96 51.5 135t140.5 39z" />
    <glyph glyph-name="gdot" unicode="&#x121;" horiz-adv-x="1131" 
d="M476 -492q-221 0 -341 82t-120 234q0 95 61 162.5t173 96.5q-52 20 -88 66.5t-36 99.5q0 60 29.5 100t100.5 91q-75 41 -120 126.5t-45 196.5q0 124 52 210.5t152 132t245 45.5q31 0 67.5 -4t69.5 -9t52 -10h375v-191l-140 -46q15 -32 21.5 -64.5t6.5 -73.5
q0 -184 -117.5 -285t-342.5 -101q-61 0 -93 9q-8 -11 -15.5 -25t-7.5 -31q0 -22 19.5 -35.5t52.5 -19t71 -5.5h195q165 0 250 -78.5t85 -238.5q0 -208 -158 -321.5t-454 -113.5zM497 -249q74 0 134.5 14.5t96.5 43.5t36 73q0 33 -19 50t-56 23t-91 6h-153q-32 0 -57.5 -13.5
t-40 -37t-14.5 -54.5q0 -49 44.5 -77t119.5 -28zM542 590q48 0 73.5 42.5t25.5 126.5q0 88 -24.5 130t-74.5 42q-51 0 -76 -42t-25 -128t24.5 -128.5t76.5 -42.5zM560 1589q88 0 140 -39.5t52 -134.5q0 -93 -53 -132.5t-139 -39.5q-87 0 -139.5 39.5t-52.5 132.5
q0 96 51.5 135t140.5 39z" />
    <glyph glyph-name="uni0122" unicode="&#x122;" horiz-adv-x="1365" 
d="M675 856h570v-788q-113 -42 -244.5 -65t-273.5 -23q-195 0 -337.5 85t-220 253.5t-77.5 416.5q0 233 81.5 400t238 257.5t380.5 90.5q125 0 235 -26t192 -66l-111 -297q-69 38 -146 58t-163 20q-112 0 -183 -56.5t-105 -156.5t-34 -234q0 -140 32 -236t94 -146t151 -50
q31 0 70 5t65 12v248h-214v298zM911 -125v-22q-19 -54 -41 -105t-48 -100t-59 -101h-229v29q10 39 19 94t15.5 110t7.5 95h335z" />
    <glyph glyph-name="uni0123" unicode="&#x123;" horiz-adv-x="1131" 
d="M738 1564v-29q-9 -52 -17.5 -105t-14 -102.5t-8.5 -91.5h-337v23q22 51 44.5 100t48.5 99.5t57 105.5h227zM476 -492q-221 0 -341 82t-120 234q0 95 61 162.5t173 96.5q-52 20 -88 66.5t-36 99.5q0 60 29.5 100t100.5 91q-75 41 -120 126.5t-45 196.5q0 124 52 210.5
t152 132t245 45.5q31 0 67.5 -4t69.5 -9t52 -10h375v-191l-140 -46q15 -32 21.5 -64.5t6.5 -73.5q0 -184 -117.5 -285t-342.5 -101q-61 0 -93 9q-8 -11 -15.5 -25t-7.5 -31q0 -22 19.5 -35.5t52.5 -19t71 -5.5h195q165 0 250 -78.5t85 -238.5q0 -208 -158 -321.5
t-454 -113.5zM497 -249q74 0 134.5 14.5t96.5 43.5t36 73q0 33 -19 50t-56 23t-91 6h-153q-32 0 -57.5 -13.5t-40 -37t-14.5 -54.5q0 -49 44.5 -77t119.5 -28zM542 590q48 0 73.5 42.5t25.5 126.5q0 88 -24.5 130t-74.5 42q-51 0 -76 -42t-25 -128t24.5 -128.5t76.5 -42.5z
" />
    <glyph glyph-name="Hcircumflex" unicode="&#x124;" horiz-adv-x="1408" 
d="M1269 0h-373v603h-384v-603h-372v1462h372v-547h384v547h373v-1462zM881 1899q28 -46 66 -98.5t79.5 -104t79.5 -96.5v-29h-229q-42 28 -83 65t-88 85q-49 -49 -88 -85.5t-79 -64.5h-233v29q34 36 78 90.5t85 111t65 97.5h347z" />
    <glyph glyph-name="hcircumflex" unicode="&#x125;" horiz-adv-x="1228" 
d="M480 1556v-252q0 -98 -5.5 -176t-15.5 -135h18q30 57 70.5 92t93 51.5t115.5 16.5q105 0 185 -46t125.5 -138t45.5 -232v-737h-362v625q0 113 -27.5 170t-84.5 57q-62 0 -96.5 -38t-48 -114.5t-13.5 -191.5v-508h-361v1556h361zM479 1993q28 -46 66 -98.5t79.5 -104
t79.5 -96.5v-29h-229q-42 28 -83 65t-88 85q-49 -49 -88 -85.5t-79 -64.5h-233v29q34 36 78 90.5t85 111t65 97.5h347z" />
    <glyph glyph-name="Hbar" unicode="&#x126;" horiz-adv-x="1425" 
d="M148 0v1067h-153v233h153v162h371v-162h385v162h373v-162h153v-233h-153v-1067h-373v603h-385v-603h-371zM519 915h385v152h-385v-152z" />
    <glyph glyph-name="hbar" unicode="&#x127;" horiz-adv-x="1238" 
d="M492 1556v-147h206v-237h-207v-28q0 -43 -6 -105t-16 -119h21q30 56 69.5 91t91.5 52t116 17q106 0 186 -46.5t125 -138.5t45 -230v-665h-363v551q0 113 -27.5 170t-84.5 57q-60 0 -94.5 -35.5t-48.5 -111.5t-14 -198v-433h-362v1172h-136v237h136v147h363z" />
    <glyph glyph-name="Itilde" unicode="&#x128;" horiz-adv-x="652" 
d="M140 0v1462h372v-1462h-372zM-62 1567q3 71 15.5 133t37.5 109t65.5 73.5t98.5 26.5q41 0 82 -14.5t81 -33.5t78.5 -33.5t75.5 -14.5q22 0 39 21.5t26 76.5h178q-7 -175 -67.5 -258.5t-149.5 -83.5q-42 0 -85.5 14.5t-85 33.5t-78.5 33.5t-69 14.5q-18 0 -37.5 -18.5
t-28.5 -79.5h-176z" />
    <glyph glyph-name="itilde" unicode="&#x129;" horiz-adv-x="605" 
d="M482 0h-361v1133h361v-1133zM-88 1237q3 71 15.5 133t37.5 109t65.5 73.5t98.5 26.5q41 0 82 -14.5t81 -33.5t78.5 -33.5t75.5 -14.5q22 0 39 21.5t26 76.5h178q-7 -175 -67.5 -258.5t-149.5 -83.5q-42 0 -85.5 14.5t-85 33.5t-78.5 33.5t-69 14.5q-18 0 -37.5 -18.5
t-28.5 -79.5h-176z" />
    <glyph glyph-name="Imacron" unicode="&#x12a;" horiz-adv-x="652" 
d="M140 0v1462h372v-1462h-372zM661 1822v-235h-668v235h668z" />
    <glyph glyph-name="imacron" unicode="&#x12b;" horiz-adv-x="605" 
d="M482 0h-361v1133h361v-1133zM640 1492v-235h-668v235h668z" />
    <glyph glyph-name="Ibreve" unicode="&#x12c;" horiz-adv-x="652" 
d="M140 0v1462h372v-1462h-372zM690 1942q-3 -112 -50 -195.5t-128.5 -129.5t-188.5 -46q-169 0 -264 97t-99 274h203q9 -53 27.5 -82.5t51 -41.5t81.5 -12q42 0 75.5 12t55.5 42t30 82h206z" />
    <glyph glyph-name="ibreve" unicode="&#x12d;" horiz-adv-x="605" 
d="M482 0h-361v1133h361v-1133zM670 1612q-3 -112 -50 -195.5t-128.5 -129.5t-188.5 -46q-169 0 -264 97t-99 274h203q9 -53 27.5 -82.5t51 -41.5t81.5 -12q42 0 75.5 12t55.5 42t30 82h206z" />
    <glyph glyph-name="Iogonek" unicode="&#x12e;" horiz-adv-x="652" 
d="M140 0v1462h372v-1462h-372zM362 -194q0 -36 22 -55.5t59 -19.5q27 0 54 6.5t45 15.5v-216q-29 -10 -69.5 -19.5t-94.5 -9.5q-123 0 -195.5 62t-72.5 168q0 46 18.5 95.5t64 102t125.5 107.5l162 -43q-66 -66 -92 -107.5t-26 -86.5z" />
    <glyph glyph-name="iogonek" unicode="&#x12f;" horiz-adv-x="605" 
d="M482 1133v-1133h-361v1133h361zM302 1589q88 0 140.5 -39.5t52.5 -134.5q0 -93 -53.5 -132.5t-139.5 -39.5t-138.5 39.5t-52.5 132.5q0 96 51 135t140 39zM322 -194q0 -36 22 -55.5t59 -19.5q27 0 54 6.5t45 15.5v-216q-29 -10 -69.5 -19.5t-94.5 -9.5q-123 0 -195.5 62
t-72.5 168q0 46 18.5 95.5t64 102t125.5 107.5l162 -43q-66 -66 -92 -107.5t-26 -86.5z" />
    <glyph glyph-name="Idotaccent" unicode="&#x130;" horiz-adv-x="652" 
d="M140 0v1462h372v-1462h-372zM326 1919q88 0 140 -39.5t52 -134.5q0 -93 -53 -132.5t-139 -39.5q-87 0 -139.5 39.5t-52.5 132.5q0 96 51.5 135t140.5 39z" />
    <glyph glyph-name="dotlessi" unicode="&#x131;" horiz-adv-x="605" 
d="M482 0h-361v1133h361v-1133z" />
    <glyph glyph-name="IJ" unicode="&#x132;" horiz-adv-x="1309" 
d="M140 0v1462h372v-1462h-372zM696 -459q-55 0 -102 6t-85 15v301q28 -8 60 -14.5t69 -6.5q62 0 97 26.5t49.5 83.5t14.5 151v1359h371v-1334q0 -220 -58 -348.5t-164.5 -183.5t-251.5 -55z" />
    <glyph glyph-name="ij" unicode="&#x133;" horiz-adv-x="1207" 
d="M482 1133v-1133h-361v1133h361zM302 1589q88 0 140.5 -39.5t52.5 -134.5q0 -93 -53.5 -132.5t-139.5 -39.5t-138.5 39.5t-52.5 132.5q0 96 51 135t140 39zM705 -492q-44 0 -97 7t-94 18v293q29 -9 54 -13.5t52 -4.5q48 0 76.5 34t28.5 120v1171h361v-1225
q0 -119 -40.5 -209t-124.5 -140t-216 -51zM715 1415q0 96 51 135t140 39q88 0 140.5 -39.5t52.5 -134.5q0 -93 -53.5 -132.5t-139.5 -39.5t-138.5 39.5t-52.5 132.5z" />
    <glyph glyph-name="Jcircumflex" unicode="&#x134;" horiz-adv-x="658" 
d="M44 -459q-55 0 -102 6t-85 15v301q28 -8 60 -14.5t69 -6.5q62 0 97 26.5t49.5 83.5t14.5 151v1359h371v-1334q0 -220 -58 -348.5t-164.5 -183.5t-251.5 -55zM508 1899q28 -46 66 -98.5t79.5 -104t79.5 -96.5v-29h-229q-42 28 -83 65t-88 85q-49 -49 -88 -85.5t-79 -64.5
h-233v29q34 36 78 90.5t85 111t65 97.5h347z" />
    <glyph glyph-name="jcircumflex" unicode="&#x135;" horiz-adv-x="604" 
d="M100 -492q-42 0 -99.5 8t-91.5 17v293q29 -9 54 -13.5t52 -4.5q48 0 76.5 33t28.5 116v1176h361v-1225q0 -113 -40 -203.5t-124 -143.5t-217 -53zM478 1569q28 -46 66 -98.5t79.5 -104t79.5 -96.5v-29h-229q-42 28 -83 65t-88 85q-49 -49 -88 -85.5t-79 -64.5h-233v29
q34 36 78 90.5t85 111t65 97.5h347z" />
    <glyph glyph-name="uni0136" unicode="&#x136;" horiz-adv-x="1269" 
d="M1278 0h-415l-251 552l-100 -63v-489h-372v1462h372v-635q17 46 43.5 93t55.5 94l271 448h403l-406 -655zM861 -125v-22q-19 -54 -41 -105t-48 -100t-59 -101h-229v29q10 39 19 94t15.5 110t7.5 95h335z" />
    <glyph glyph-name="uni0137" unicode="&#x137;" horiz-adv-x="1209" 
d="M481 1556v-615q0 -73 -4 -153.5t-14 -152.5h7q23 41 51.5 89.5t52.5 81.5l225 327h396l-349 -482l368 -651h-406l-215 409l-112 -89v-320h-362v1556h362zM806 -125v-22q-19 -54 -41 -105t-48 -100t-59 -101h-229v29q10 39 19 94t15.5 110t7.5 95h335z" />
    <glyph glyph-name="kgreenlandic" unicode="&#x138;" horiz-adv-x="1209" 
d="M1198 1133l-355 -489l371 -644h-403l-217 406l-113 -90v-316h-362v1133h362v-220q0 -82 -3 -150.5t-9 -124.5h7q21 37 47.5 82t56.5 88l221 325h397z" />
    <glyph glyph-name="Lacute" unicode="&#x139;" horiz-adv-x="1034" 
d="M140 0v1462h371v-1153h472v-309h-843zM747 1899v-21q-28 -27 -73 -66.5t-96 -83t-101 -85t-90 -72.5h-252v29q34 46 72.5 98t75.5 104t64 97h400z" />
    <glyph glyph-name="lacute" unicode="&#x13a;" horiz-adv-x="601" 
d="M480 0h-361v1556h361v-1556zM725 1992v-21q-28 -27 -73 -66.5t-96 -83t-101 -85t-90 -72.5h-252v29q34 46 72.5 98t75.5 104t64 97h400z" />
    <glyph glyph-name="uni013B" unicode="&#x13b;" horiz-adv-x="1034" 
d="M140 0v1462h371v-1153h472v-309h-843zM748 -125v-22q-19 -54 -41 -105t-48 -100t-59 -101h-229v29q10 39 19 94t15.5 110t7.5 95h335z" />
    <glyph glyph-name="uni013C" unicode="&#x13c;" horiz-adv-x="601" 
d="M480 0h-361v1556h361v-1556zM489 -125v-22q-19 -54 -41 -105t-48 -100t-59 -101h-229v29q10 39 19 94t15.5 110t7.5 95h335z" />
    <glyph glyph-name="Lcaron" unicode="&#x13d;" horiz-adv-x="1034" 
d="M140 0v1462h371v-1153h472v-309h-843zM1070 1462v-22q-22 -52 -45 -102t-49.5 -99.5t-59.5 -103.5h-228v28q7 28 14 66.5t14 80t12 81.5t7 71h335z" />
    <glyph glyph-name="lcaron" unicode="&#x13e;" horiz-adv-x="601" 
d="M480 0h-361v1556h361v-1556zM927 1556v-22q-22 -52 -45 -102t-49.5 -99.5t-59.5 -103.5h-228v28q7 28 14 66.5t14 80t12 81.5t7 71h335z" />
    <glyph glyph-name="Ldot" unicode="&#x13f;" horiz-adv-x="1034" 
d="M140 0v1462h371v-1153h472v-309h-843zM826 980q88 0 140 -39.5t52 -134.5q0 -93 -53 -132.5t-139 -39.5q-87 0 -139.5 39.5t-52.5 132.5q0 96 51.5 135t140.5 39z" />
    <glyph glyph-name="ldot" unicode="&#x140;" horiz-adv-x="837" 
d="M480 0h-361v1556h361v-1556zM720 952q88 0 140 -39.5t52 -134.5q0 -93 -53 -132.5t-139 -39.5q-87 0 -139.5 39.5t-52.5 132.5q0 96 51.5 135t140.5 39z" />
    <glyph glyph-name="Lslash" unicode="&#x141;" horiz-adv-x="1088" 
d="M192 0v484l-83 -52l-152 225l235 162v643h371v-391l171 119l155 -223l-326 -230v-428h472v-309h-843z" />
    <glyph glyph-name="lslash" unicode="&#x142;" horiz-adv-x="756" 
d="M199 0v443l-92 -58l-151 226l243 165v780h362v-538l86 58l154 -224l-240 -167v-685h-362z" />
    <glyph glyph-name="Nacute" unicode="&#x143;" horiz-adv-x="1526" 
d="M1387 0h-462l-458 970h-8q5 -64 9 -131t6 -129t2 -111v-599h-336v1462h459l456 -950h7q-4 61 -7 125t-5 123.5t-2 106.5v595h339v-1462zM1187 1899v-21q-28 -27 -73 -66.5t-96 -83t-101 -85t-90 -72.5h-252v29q34 46 72.5 98t75.5 104t64 97h400z" />
    <glyph glyph-name="nacute" unicode="&#x144;" horiz-adv-x="1228" 
d="M758 1153q161 0 257.5 -104t96.5 -312v-737h-361v625q0 112 -25.5 169.5t-92.5 57.5q-90 0 -121.5 -82t-31.5 -263v-507h-361v1133h277l45 -145h17q31 54 74 91t99.5 55.5t126.5 18.5zM1048 1569v-21q-28 -27 -73 -66.5t-96 -83t-101 -85t-90 -72.5h-252v29
q34 46 72.5 98t75.5 104t64 97h400z" />
    <glyph glyph-name="uni0145" unicode="&#x145;" horiz-adv-x="1526" 
d="M1387 0h-462l-458 970h-8q5 -64 9 -131t6 -129t2 -111v-599h-336v1462h459l456 -950h7q-4 61 -7 125t-5 123.5t-2 106.5v595h339v-1462zM951 -125v-22q-19 -54 -41 -105t-48 -100t-59 -101h-229v29q10 39 19 94t15.5 110t7.5 95h335z" />
    <glyph glyph-name="uni0146" unicode="&#x146;" horiz-adv-x="1228" 
d="M758 1153q161 0 257.5 -104t96.5 -312v-737h-361v625q0 112 -25.5 169.5t-92.5 57.5q-90 0 -121.5 -82t-31.5 -263v-507h-361v1133h277l45 -145h17q31 54 74 91t99.5 55.5t126.5 18.5zM802 -125v-22q-19 -54 -41 -105t-48 -100t-59 -101h-229v29q10 39 19 94t15.5 110
t7.5 95h335z" />
    <glyph glyph-name="Ncaron" unicode="&#x147;" horiz-adv-x="1526" 
d="M1387 0h-462l-458 970h-8q5 -64 9 -131t6 -129t2 -111v-599h-336v1462h459l456 -950h7q-4 61 -7 125t-5 123.5t-2 106.5v595h339v-1462zM593 1571q-24 42 -65.5 98.5t-85.5 111t-77 89.5v29h233q42 -30 81 -65.5t86 -84.5q47 49 88 85.5t83 64.5h229v-29
q-31 -37 -74 -90.5t-83.5 -109t-67.5 -99.5h-347z" />
    <glyph glyph-name="ncaron" unicode="&#x148;" horiz-adv-x="1228" 
d="M758 1153q161 0 257.5 -104t96.5 -312v-737h-361v625q0 112 -25.5 169.5t-92.5 57.5q-90 0 -121.5 -82t-31.5 -263v-507h-361v1133h277l45 -145h17q31 54 74 91t99.5 55.5t126.5 18.5zM455 1241q-24 42 -65.5 98.5t-85.5 111t-77 89.5v29h233q42 -30 81 -65.5t86 -84.5
q47 49 88 85.5t83 64.5h229v-29q-31 -37 -74 -90.5t-83.5 -109t-67.5 -99.5h-347z" />
    <glyph glyph-name="napostrophe" unicode="&#x149;" horiz-adv-x="1545" 
d="M1075 1153q161 0 257.5 -104t96.5 -312v-737h-361v625q0 112 -25.5 169.5t-92.5 57.5q-90 0 -121.5 -82t-31.5 -263v-507h-361v1133h277l45 -145h17q31 54 74 91t99.5 55.5t126.5 18.5zM421 1461l13 -22q-17 -93 -41 -194.5t-53 -196t-61 -170.5h-276q13 62 26 139
t24.5 158t21 155.5t13.5 130.5h333z" />
    <glyph glyph-name="Eng" unicode="&#x14a;" horiz-adv-x="1526" 
d="M923 -474q-59 0 -108.5 6t-88.5 16v301q32 -9 66.5 -15.5t76.5 -6.5q64 0 104.5 20.5t61 60t22.5 97.5l-591 989h-7q5 -60 8.5 -128.5t5.5 -137t2 -127.5v-601h-335v1462h439l476 -792h7q-4 56 -7 125t-5 138t-2 126v403h339v-1426q0 -169 -54.5 -282.5t-158 -170.5
t-251.5 -57z" />
    <glyph glyph-name="eng" unicode="&#x14b;" horiz-adv-x="1228" 
d="M735 -492q-43 0 -96.5 7t-94.5 18v293q30 -9 53.5 -13.5t50.5 -4.5q46 0 74 34t28 120v681q0 103 -27 156t-85 53t-92.5 -32.5t-50 -108t-15.5 -204.5v-507h-361v1133h277l43 -140h22q31 56 76 91.5t102 52t120 16.5q104 0 183.5 -46t124.5 -138.5t45 -231.5v-829
q0 -103 -37 -194.5t-120 -148.5t-220 -57z" />
    <glyph glyph-name="Omacron" unicode="&#x14c;" horiz-adv-x="1452" 
d="M1359 733q0 -176 -38 -315.5t-116 -237.5t-197.5 -149t-281.5 -51q-159 0 -278.5 51.5t-198.5 149t-118 237.5t-39 317q0 236 69.5 404t211 257t354.5 89q216 0 356 -89t208 -257t68 -406zM481 733q0 -140 26 -237.5t80.5 -148t138.5 -50.5q88 0 141.5 49.5t78 147
t24.5 239.5q0 215 -57 328t-186 113q-85 0 -139.5 -51.5t-80.5 -149.5t-26 -240zM1065 1822v-235h-668v235h668z" />
    <glyph glyph-name="omacron" unicode="&#x14d;" horiz-adv-x="1181" 
d="M1103 569q0 -125 -31 -232.5t-95 -187.5t-161 -124.5t-228 -44.5q-122 0 -216.5 44t-160.5 123.5t-100.5 187t-34.5 234.5q0 176 58 307t173 204t286 73q150 0 265 -68t180 -198t65 -318zM442 567q0 -99 15.5 -166.5t48 -102.5t85.5 -35q54 0 85.5 34.5t45.5 103
t14 168.5q0 101 -14 167.5t-46 100t-86 33.5q-78 0 -113 -75t-35 -228zM928 1492v-235h-668v235h668z" />
    <glyph glyph-name="Obreve" unicode="&#x14e;" horiz-adv-x="1452" 
d="M1359 733q0 -176 -38 -315.5t-116 -237.5t-197.5 -149t-281.5 -51q-159 0 -278.5 51.5t-198.5 149t-118 237.5t-39 317q0 236 69.5 404t211 257t354.5 89q216 0 356 -89t208 -257t68 -406zM481 733q0 -140 26 -237.5t80.5 -148t138.5 -50.5q88 0 141.5 49.5t78 147
t24.5 239.5q0 215 -57 328t-186 113q-85 0 -139.5 -51.5t-80.5 -149.5t-26 -240zM1095 1942q-3 -112 -50 -195.5t-128.5 -129.5t-188.5 -46q-169 0 -264 97t-99 274h203q9 -53 27.5 -82.5t51 -41.5t81.5 -12q42 0 75.5 12t55.5 42t30 82h206z" />
    <glyph glyph-name="obreve" unicode="&#x14f;" horiz-adv-x="1181" 
d="M1103 569q0 -125 -31 -232.5t-95 -187.5t-161 -124.5t-228 -44.5q-122 0 -216.5 44t-160.5 123.5t-100.5 187t-34.5 234.5q0 176 58 307t173 204t286 73q150 0 265 -68t180 -198t65 -318zM442 567q0 -99 15.5 -166.5t48 -102.5t85.5 -35q54 0 85.5 34.5t45.5 103
t14 168.5q0 101 -14 167.5t-46 100t-86 33.5q-78 0 -113 -75t-35 -228zM959 1612q-3 -112 -50 -195.5t-128.5 -129.5t-188.5 -46q-169 0 -264 97t-99 274h203q9 -53 27.5 -82.5t51 -41.5t81.5 -12q42 0 75.5 12t55.5 42t30 82h206z" />
    <glyph glyph-name="Ohungarumlaut" unicode="&#x150;" horiz-adv-x="1452" 
d="M1359 733q0 -176 -38 -315.5t-116 -237.5t-197.5 -149t-281.5 -51q-159 0 -278.5 51.5t-198.5 149t-118 237.5t-39 317q0 236 69.5 404t211 257t354.5 89q216 0 356 -89t208 -257t68 -406zM481 733q0 -140 26 -237.5t80.5 -148t138.5 -50.5q88 0 141.5 49.5t78 147
t24.5 239.5q0 215 -57 328t-186 113q-85 0 -139.5 -51.5t-80.5 -149.5t-26 -240zM1296 1899v-21q-14 -28 -52 -68t-87 -84t-98.5 -84.5t-87.5 -70.5h-186v29q33 57 66.5 112t62.5 103.5t46 83.5h336zM881 1899v-21q-15 -29 -52.5 -68.5t-86 -82.5t-99 -84t-91.5 -72h-180v29
q33 57 66 112.5t62 103.5t47 83h334z" />
    <glyph glyph-name="ohungarumlaut" unicode="&#x151;" horiz-adv-x="1181" 
d="M1103 569q0 -125 -31 -232.5t-95 -187.5t-161 -124.5t-228 -44.5q-122 0 -216.5 44t-160.5 123.5t-100.5 187t-34.5 234.5q0 176 58 307t173 204t286 73q150 0 265 -68t180 -198t65 -318zM442 567q0 -99 15.5 -166.5t48 -102.5t85.5 -35q54 0 85.5 34.5t45.5 103
t14 168.5q0 101 -14 167.5t-46 100t-86 33.5q-78 0 -113 -75t-35 -228zM1160 1569v-21q-14 -28 -52 -68t-87 -84t-98.5 -84.5t-87.5 -70.5h-186v29q33 57 66.5 112t62.5 103.5t46 83.5h336zM745 1569v-21q-15 -29 -52.5 -68.5t-86 -82.5t-99 -84t-91.5 -72h-180v29
q33 57 66 112.5t62 103.5t47 83h334z" />
    <glyph glyph-name="OE" unicode="&#x152;" horiz-adv-x="1748" 
d="M694 1485q51 0 107 -6t92 -17h765v-306h-414v-247h382v-306h-382v-292h414v-311h-769q-35 -9 -90 -14.5t-104 -5.5q-204 0 -338 96.5t-199.5 267t-65.5 391.5q0 223 65.5 392t198.5 263.5t338 94.5zM708 1174q-57 0 -99.5 -29t-71 -85.5t-42.5 -138.5t-14 -188
q0 -140 25 -237.5t75 -148t126 -50.5q50 0 95 7.5t75 21.5v809q-29 18 -74 28.5t-95 10.5z" />
    <glyph glyph-name="oe" unicode="&#x153;" horiz-adv-x="1787" 
d="M1260 1152q140 0 242 -58.5t157.5 -174t55.5 -285.5v-173h-617q3 -98 58 -154t167 -56q79 0 160 19.5t168 67.5v-276q-77 -43 -164 -62.5t-209 -19.5q-107 0 -193 32t-152 99q-62 -65 -148.5 -98t-196.5 -33q-157 0 -272 73t-177.5 205.5t-62.5 310.5q0 179 59.5 310
t174.5 202.5t283 71.5q100 0 183 -30.5t145 -92.5q41 40 91 67t111.5 41t136.5 14zM590 870q-78 0 -112.5 -75t-34.5 -228q0 -99 15 -166.5t47.5 -102.5t85.5 -35q54 0 85.5 34.5t45.5 103t14 168.5q0 101 -14 167.5t-46 100t-86 33.5zM1249 891q-62 0 -103 -42.5
t-45 -147.5h287q-1 60 -17.5 103t-47.5 65t-74 22z" />
    <glyph glyph-name="Racute" unicode="&#x154;" horiz-adv-x="1251" 
d="M575 1462q184 0 306.5 -48t184 -144t61.5 -240q0 -87 -26 -159.5t-76 -130.5t-122 -103l366 -637h-416l-269 541h-73v-541h-371v1462h435zM570 1167h-59v-343h56q84 0 132.5 44t48.5 144q0 76 -43 115.5t-135 39.5zM1058 1899v-21q-28 -27 -73 -66.5t-96 -83t-101 -85
t-90 -72.5h-252v29q34 46 72.5 98t75.5 104t64 97h400z" />
    <glyph glyph-name="racute" unicode="&#x155;" horiz-adv-x="865" 
d="M739 1153q26 0 54 -3t52 -9l-31 -363q-19 6 -46.5 9.5t-70.5 3.5t-82 -11t-69 -36.5t-47.5 -69.5t-17.5 -111v-563h-361v1133h272l55 -181h17q26 51 67 97t94.5 75t113.5 29zM891 1569v-21q-28 -27 -73 -66.5t-96 -83t-101 -85t-90 -72.5h-252v29q34 46 72.5 98t75.5 104
t64 97h400z" />
    <glyph glyph-name="uni0156" unicode="&#x156;" horiz-adv-x="1251" 
d="M575 1462q184 0 306.5 -48t184 -144t61.5 -240q0 -87 -26 -159.5t-76 -130.5t-122 -103l366 -637h-416l-269 541h-73v-541h-371v1462h435zM570 1167h-59v-343h56q84 0 132.5 44t48.5 144q0 76 -43 115.5t-135 39.5zM840 -125v-22q-19 -54 -41 -105t-48 -100t-59 -101
h-229v29q10 39 19 94t15.5 110t7.5 95h335z" />
    <glyph glyph-name="uni0157" unicode="&#x157;" horiz-adv-x="865" 
d="M739 1153q26 0 54 -3t52 -9l-31 -363q-19 6 -46.5 9.5t-70.5 3.5t-82 -11t-69 -36.5t-47.5 -69.5t-17.5 -111v-563h-361v1133h272l55 -181h17q26 51 67 97t94.5 75t113.5 29zM499 -125v-22q-19 -54 -41 -105t-48 -100t-59 -101h-229v29q10 39 19 94t15.5 110t7.5 95h335z
" />
    <glyph glyph-name="Rcaron" unicode="&#x158;" horiz-adv-x="1251" 
d="M575 1462q184 0 306.5 -48t184 -144t61.5 -240q0 -87 -26 -159.5t-76 -130.5t-122 -103l366 -637h-416l-269 541h-73v-541h-371v1462h435zM570 1167h-59v-343h56q84 0 132.5 44t48.5 144q0 76 -43 115.5t-135 39.5zM464 1571q-24 42 -65.5 98.5t-85.5 111t-77 89.5v29
h233q42 -30 81 -65.5t86 -84.5q47 49 88 85.5t83 64.5h229v-29q-31 -37 -74 -90.5t-83.5 -109t-67.5 -99.5h-347z" />
    <glyph glyph-name="rcaron" unicode="&#x159;" horiz-adv-x="865" 
d="M739 1153q26 0 54 -3t52 -9l-31 -363q-19 6 -46.5 9.5t-70.5 3.5t-82 -11t-69 -36.5t-47.5 -69.5t-17.5 -111v-563h-361v1133h272l55 -181h17q26 51 67 97t94.5 75t113.5 29zM297 1241q-24 42 -65.5 98.5t-85.5 111t-77 89.5v29h233q42 -30 81 -65.5t86 -84.5
q47 49 88 85.5t83 64.5h229v-29q-31 -37 -74 -90.5t-83.5 -109t-67.5 -99.5h-347z" />
    <glyph glyph-name="Sacute" unicode="&#x15a;" horiz-adv-x="1056" 
d="M997 444q0 -127 -58.5 -232.5t-173 -168.5t-284.5 -63q-82 0 -149.5 9t-129.5 29t-128 54v352q102 -59 208 -91t192 -32q51 0 83.5 14t48.5 38.5t16 56.5q0 35 -19 62t-67 58.5t-135 77.5q-73 40 -131.5 80.5t-100 91t-64 117.5t-22.5 158q0 136 60.5 231.5t172 146
t265.5 50.5q117 0 220 -29t196 -76l-107 -305q-85 46 -163 70t-145 24q-44 0 -72 -12.5t-41.5 -33.5t-13.5 -48q0 -36 20 -63.5t71.5 -59t146.5 -82.5q98 -51 165.5 -108.5t103 -133.5t35.5 -182zM968 1899v-21q-28 -27 -73 -66.5t-96 -83t-101 -85t-90 -72.5h-252v29
q34 46 72.5 98t75.5 104t64 97h400z" />
    <glyph glyph-name="sacute" unicode="&#x15b;" horiz-adv-x="935" 
d="M870 348q0 -115 -47 -197.5t-143 -126.5t-243 -44q-102 0 -190 13.5t-176 49.5v313q84 -43 177 -67.5t163 -24.5q56 0 82.5 15t26.5 47q0 22 -15 39.5t-59 41.5t-131 63q-82 37 -136.5 85.5t-82 113t-27.5 150.5q0 162 112 248t306 86q100 0 188.5 -24.5t181.5 -71.5
l-94 -252q-67 36 -138.5 60t-126.5 24q-41 0 -62 -12.5t-21 -37.5q0 -19 13.5 -34.5t55 -37.5t124.5 -62q84 -39 142.5 -86.5t89 -112t30.5 -158.5zM890 1569v-21q-28 -27 -73 -66.5t-96 -83t-101 -85t-90 -72.5h-252v29q34 46 72.5 98t75.5 104t64 97h400z" />
    <glyph glyph-name="Scircumflex" unicode="&#x15c;" horiz-adv-x="1056" 
d="M997 444q0 -127 -58.5 -232.5t-173 -168.5t-284.5 -63q-82 0 -149.5 9t-129.5 29t-128 54v352q102 -59 208 -91t192 -32q51 0 83.5 14t48.5 38.5t16 56.5q0 35 -19 62t-67 58.5t-135 77.5q-73 40 -131.5 80.5t-100 91t-64 117.5t-22.5 158q0 136 60.5 231.5t172 146
t265.5 50.5q117 0 220 -29t196 -76l-107 -305q-85 46 -163 70t-145 24q-44 0 -72 -12.5t-41.5 -33.5t-13.5 -48q0 -36 20 -63.5t71.5 -59t146.5 -82.5q98 -51 165.5 -108.5t103 -133.5t35.5 -182zM721 1899q28 -46 66 -98.5t79.5 -104t79.5 -96.5v-29h-229q-42 28 -83 65
t-88 85q-49 -49 -88 -85.5t-79 -64.5h-233v29q34 36 78 90.5t85 111t65 97.5h347z" />
    <glyph glyph-name="scircumflex" unicode="&#x15d;" horiz-adv-x="935" 
d="M870 348q0 -115 -47 -197.5t-143 -126.5t-243 -44q-102 0 -190 13.5t-176 49.5v313q84 -43 177 -67.5t163 -24.5q56 0 82.5 15t26.5 47q0 22 -15 39.5t-59 41.5t-131 63q-82 37 -136.5 85.5t-82 113t-27.5 150.5q0 162 112 248t306 86q100 0 188.5 -24.5t181.5 -71.5
l-94 -252q-67 36 -138.5 60t-126.5 24q-41 0 -62 -12.5t-21 -37.5q0 -19 13.5 -34.5t55 -37.5t124.5 -62q84 -39 142.5 -86.5t89 -112t30.5 -158.5zM643 1569q28 -46 66 -98.5t79.5 -104t79.5 -96.5v-29h-229q-42 28 -83 65t-88 85q-49 -49 -88 -85.5t-79 -64.5h-233v29
q34 36 78 90.5t85 111t65 97.5h347z" />
    <glyph glyph-name="Scedilla" unicode="&#x15e;" horiz-adv-x="1056" 
d="M997 444q0 -127 -58.5 -232.5t-173 -168.5t-284.5 -63q-82 0 -149.5 9t-129.5 29t-128 54v352q102 -59 208 -91t192 -32q51 0 83.5 14t48.5 38.5t16 56.5q0 35 -19 62t-67 58.5t-135 77.5q-73 40 -131.5 80.5t-100 91t-64 117.5t-22.5 158q0 136 60.5 231.5t172 146
t265.5 50.5q117 0 220 -29t196 -76l-107 -305q-85 46 -163 70t-145 24q-44 0 -72 -12.5t-41.5 -33.5t-13.5 -48q0 -36 20 -63.5t71.5 -59t146.5 -82.5q98 -51 165.5 -108.5t103 -133.5t35.5 -182zM742 -255q0 -108 -71 -172.5t-198 -64.5q-60 0 -111 8t-88 19v189
q34 -9 64 -14.5t59 -5.5q37 0 58 15t21 43q0 35 -35 55t-105 29l65 154h175l-24 -65q51 -9 94 -31.5t69.5 -61t26.5 -97.5z" />
    <glyph glyph-name="scedilla" unicode="&#x15f;" horiz-adv-x="935" 
d="M870 348q0 -115 -47 -197.5t-143 -126.5t-243 -44q-102 0 -190 13.5t-176 49.5v313q84 -43 177 -67.5t163 -24.5q56 0 82.5 15t26.5 47q0 22 -15 39.5t-59 41.5t-131 63q-82 37 -136.5 85.5t-82 113t-27.5 150.5q0 162 112 248t306 86q100 0 188.5 -24.5t181.5 -71.5
l-94 -252q-67 36 -138.5 60t-126.5 24q-41 0 -62 -12.5t-21 -37.5q0 -19 13.5 -34.5t55 -37.5t124.5 -62q84 -39 142.5 -86.5t89 -112t30.5 -158.5zM673 -255q0 -108 -71 -172.5t-198 -64.5q-60 0 -111 8t-88 19v189q34 -9 64 -14.5t59 -5.5q37 0 58 15t21 43q0 35 -35 55
t-105 29l65 154h175l-24 -65q51 -9 94 -31.5t69.5 -61t26.5 -97.5z" />
    <glyph glyph-name="Scaron" unicode="&#x160;" horiz-adv-x="1056" 
d="M997 444q0 -127 -58.5 -232.5t-173 -168.5t-284.5 -63q-82 0 -149.5 9t-129.5 29t-128 54v352q102 -59 208 -91t192 -32q51 0 83.5 14t48.5 38.5t16 56.5q0 35 -19 62t-67 58.5t-135 77.5q-73 40 -131.5 80.5t-100 91t-64 117.5t-22.5 158q0 136 60.5 231.5t172 146
t265.5 50.5q117 0 220 -29t196 -76l-107 -305q-85 46 -163 70t-145 24q-44 0 -72 -12.5t-41.5 -33.5t-13.5 -48q0 -36 20 -63.5t71.5 -59t146.5 -82.5q98 -51 165.5 -108.5t103 -133.5t35.5 -182zM374 1571q-24 42 -65.5 98.5t-85.5 111t-77 89.5v29h233q42 -30 81 -65.5
t86 -84.5q47 49 88 85.5t83 64.5h229v-29q-31 -37 -74 -90.5t-83.5 -109t-67.5 -99.5h-347z" />
    <glyph glyph-name="scaron" unicode="&#x161;" horiz-adv-x="935" 
d="M870 348q0 -115 -47 -197.5t-143 -126.5t-243 -44q-102 0 -190 13.5t-176 49.5v313q84 -43 177 -67.5t163 -24.5q56 0 82.5 15t26.5 47q0 22 -15 39.5t-59 41.5t-131 63q-82 37 -136.5 85.5t-82 113t-27.5 150.5q0 162 112 248t306 86q100 0 188.5 -24.5t181.5 -71.5
l-94 -252q-67 36 -138.5 60t-126.5 24q-41 0 -62 -12.5t-21 -37.5q0 -19 13.5 -34.5t55 -37.5t124.5 -62q84 -39 142.5 -86.5t89 -112t30.5 -158.5zM296 1241q-24 42 -65.5 98.5t-85.5 111t-77 89.5v29h233q42 -30 81 -65.5t86 -84.5q47 49 88 85.5t83 64.5h229v-29
q-31 -37 -74 -90.5t-83.5 -109t-67.5 -99.5h-347z" />
    <glyph glyph-name="uni0162" unicode="&#x162;" horiz-adv-x="1076" 
d="M724 0h-370v1150h-311v312h990v-312h-309v-1150zM767 -255q0 -108 -71 -172.5t-198 -64.5q-60 0 -111 8t-88 19v189q34 -9 64 -14.5t59 -5.5q37 0 58 15t21 43q0 35 -35 55t-105 29l65 154h175l-24 -65q51 -9 94 -31.5t69.5 -61t26.5 -97.5z" />
    <glyph glyph-name="uni0163" unicode="&#x163;" horiz-adv-x="834" 
d="M617 278q42 0 82 10.5t85 28.5v-274q-60 -29 -126 -46t-156 -17q-111 0 -187.5 38.5t-115.5 125t-39 229.5v477h-126v168l159 104l89 238h241v-227h245v-283h-245v-462q0 -55 24 -82.5t70 -27.5zM712 -255q0 -108 -71 -172.5t-198 -64.5q-60 0 -111 8t-88 19v189
q34 -9 64 -14.5t59 -5.5q37 0 58 15t21 43q0 35 -35 55t-105 29l65 154h175l-24 -65q51 -9 94 -31.5t69.5 -61t26.5 -97.5z" />
    <glyph glyph-name="Tcaron" unicode="&#x164;" horiz-adv-x="1076" 
d="M724 0h-370v1150h-311v312h990v-312h-309v-1150zM369 1571q-24 42 -65.5 98.5t-85.5 111t-77 89.5v29h233q42 -30 81 -65.5t86 -84.5q47 49 88 85.5t83 64.5h229v-29q-31 -37 -74 -90.5t-83.5 -109t-67.5 -99.5h-347z" />
    <glyph glyph-name="tcaron" unicode="&#x165;" horiz-adv-x="834" 
d="M617 278q42 0 82 10.5t85 28.5v-274q-60 -29 -126 -46t-156 -17q-111 0 -187.5 38.5t-115.5 125t-39 229.5v477h-126v168l159 104l89 238h241v-227h245v-283h-245v-462q0 -55 24 -82.5t70 -27.5zM1171 1556v-22q-22 -52 -45 -102t-49.5 -99.5t-59.5 -103.5h-228v28
q7 28 14 66.5t14 80t12 81.5t7 71h335z" />
    <glyph glyph-name="Tbar" unicode="&#x166;" horiz-adv-x="1076" 
d="M354 0v565h-187v290h187v295h-311v312h990v-312h-309v-295h189v-290h-189v-565h-370z" />
    <glyph glyph-name="tbar" unicode="&#x167;" horiz-adv-x="854" 
d="M50 448v237h689v-237h-689zM617 278q42 0 82 10.5t85 28.5v-274q-60 -29 -126 -46t-156 -17q-111 0 -187.5 38.5t-115.5 125t-39 229.5v477h-126v168l159 104l89 238h241v-227h245v-283h-245v-462q0 -55 24 -82.5t70 -27.5z" />
    <glyph glyph-name="Utilde" unicode="&#x168;" horiz-adv-x="1377" 
d="M1247 1462v-923q0 -176 -63.5 -301.5t-188.5 -191.5t-311 -66q-267 0 -409 140.5t-142 409.5v932h372v-908q0 -137 46.5 -197t137.5 -60q65 0 106 26t60.5 83t19.5 150v906h372zM299 1567q3 71 15.5 133t37.5 109t65.5 73.5t98.5 26.5q41 0 82 -14.5t81 -33.5t78.5 -33.5
t75.5 -14.5q22 0 39 21.5t26 76.5h178q-7 -175 -67.5 -258.5t-149.5 -83.5q-42 0 -85.5 14.5t-85 33.5t-78.5 33.5t-69 14.5q-18 0 -37.5 -18.5t-28.5 -79.5h-176z" />
    <glyph glyph-name="utilde" unicode="&#x169;" horiz-adv-x="1228" 
d="M1109 1133v-1133h-276l-44 140h-20q-31 -55 -75.5 -90.5t-100.5 -52.5t-122 -17q-105 0 -185 46t-124.5 138.5t-44.5 230.5v738h361v-624q0 -112 25.5 -169.5t86.5 -57.5q67 0 100.5 38.5t45.5 111t12 173.5v528h361zM224 1237q3 71 15.5 133t37.5 109t65.5 73.5
t98.5 26.5q41 0 82 -14.5t81 -33.5t78.5 -33.5t75.5 -14.5q22 0 39 21.5t26 76.5h178q-7 -175 -67.5 -258.5t-149.5 -83.5q-42 0 -85.5 14.5t-85 33.5t-78.5 33.5t-69 14.5q-18 0 -37.5 -18.5t-28.5 -79.5h-176z" />
    <glyph glyph-name="Umacron" unicode="&#x16a;" horiz-adv-x="1377" 
d="M1247 1462v-923q0 -176 -63.5 -301.5t-188.5 -191.5t-311 -66q-267 0 -409 140.5t-142 409.5v932h372v-908q0 -137 46.5 -197t137.5 -60q65 0 106 26t60.5 83t19.5 150v906h372zM1027 1822v-235h-668v235h668z" />
    <glyph glyph-name="umacron" unicode="&#x16b;" horiz-adv-x="1228" 
d="M1109 1133v-1133h-276l-44 140h-20q-31 -55 -75.5 -90.5t-100.5 -52.5t-122 -17q-105 0 -185 46t-124.5 138.5t-44.5 230.5v738h361v-624q0 -112 25.5 -169.5t86.5 -57.5q67 0 100.5 38.5t45.5 111t12 173.5v528h361zM952 1492v-235h-668v235h668z" />
    <glyph glyph-name="Ubreve" unicode="&#x16c;" horiz-adv-x="1377" 
d="M1247 1462v-923q0 -176 -63.5 -301.5t-188.5 -191.5t-311 -66q-267 0 -409 140.5t-142 409.5v932h372v-908q0 -137 46.5 -197t137.5 -60q65 0 106 26t60.5 83t19.5 150v906h372zM1057 1942q-3 -112 -50 -195.5t-128.5 -129.5t-188.5 -46q-169 0 -264 97t-99 274h203
q9 -53 27.5 -82.5t51 -41.5t81.5 -12q42 0 75.5 12t55.5 42t30 82h206z" />
    <glyph glyph-name="ubreve" unicode="&#x16d;" horiz-adv-x="1228" 
d="M1109 1133v-1133h-276l-44 140h-20q-31 -55 -75.5 -90.5t-100.5 -52.5t-122 -17q-105 0 -185 46t-124.5 138.5t-44.5 230.5v738h361v-624q0 -112 25.5 -169.5t86.5 -57.5q67 0 100.5 38.5t45.5 111t12 173.5v528h361zM982 1612q-3 -112 -50 -195.5t-128.5 -129.5
t-188.5 -46q-169 0 -264 97t-99 274h203q9 -53 27.5 -82.5t51 -41.5t81.5 -12q42 0 75.5 12t55.5 42t30 82h206z" />
    <glyph glyph-name="Uring" unicode="&#x16e;" horiz-adv-x="1377" 
d="M1247 1462v-923q0 -176 -63.5 -301.5t-188.5 -191.5t-311 -66q-267 0 -409 140.5t-142 409.5v932h372v-908q0 -137 46.5 -197t137.5 -60q65 0 106 26t60.5 83t19.5 150v906h372zM689 1567q-116 0 -187.5 69.5t-71.5 182.5q0 115 71.5 184.5t187.5 69.5q113 0 188 -70
t75 -182t-74.5 -183t-188.5 -71zM689 1736q35 0 59.5 23.5t24.5 60.5q0 38 -24.5 61t-59.5 23t-59.5 -23t-24.5 -61q0 -37 21.5 -60.5t62.5 -23.5z" />
    <glyph glyph-name="uring" unicode="&#x16f;" horiz-adv-x="1228" 
d="M1109 1133v-1133h-276l-44 140h-20q-31 -55 -75.5 -90.5t-100.5 -52.5t-122 -17q-105 0 -185 46t-124.5 138.5t-44.5 230.5v738h361v-624q0 -112 25.5 -169.5t86.5 -57.5q67 0 100.5 38.5t45.5 111t12 173.5v528h361zM615 1237q-116 0 -187.5 69.5t-71.5 182.5
q0 115 71.5 184.5t187.5 69.5q113 0 188 -70t75 -182t-74.5 -183t-188.5 -71zM615 1406q35 0 59.5 23.5t24.5 60.5q0 38 -24.5 61t-59.5 23t-59.5 -23t-24.5 -61q0 -37 21.5 -60.5t62.5 -23.5z" />
    <glyph glyph-name="Uhungarumlaut" unicode="&#x170;" horiz-adv-x="1377" 
d="M1247 1462v-923q0 -176 -63.5 -301.5t-188.5 -191.5t-311 -66q-267 0 -409 140.5t-142 409.5v932h372v-908q0 -137 46.5 -197t137.5 -60q65 0 106 26t60.5 83t19.5 150v906h372zM1258 1899v-21q-14 -28 -52 -68t-87 -84t-98.5 -84.5t-87.5 -70.5h-186v29q33 57 66.5 112
t62.5 103.5t46 83.5h336zM843 1899v-21q-15 -29 -52.5 -68.5t-86 -82.5t-99 -84t-91.5 -72h-180v29q33 57 66 112.5t62 103.5t47 83h334z" />
    <glyph glyph-name="uhungarumlaut" unicode="&#x171;" horiz-adv-x="1228" 
d="M1109 1133v-1133h-276l-44 140h-20q-31 -55 -75.5 -90.5t-100.5 -52.5t-122 -17q-105 0 -185 46t-124.5 138.5t-44.5 230.5v738h361v-624q0 -112 25.5 -169.5t86.5 -57.5q67 0 100.5 38.5t45.5 111t12 173.5v528h361zM1184 1569v-21q-14 -28 -52 -68t-87 -84t-98.5 -84.5
t-87.5 -70.5h-186v29q33 57 66.5 112t62.5 103.5t46 83.5h336zM769 1569v-21q-15 -29 -52.5 -68.5t-86 -82.5t-99 -84t-91.5 -72h-180v29q33 57 66 112.5t62 103.5t47 83h334z" />
    <glyph glyph-name="Uogonek" unicode="&#x172;" horiz-adv-x="1377" 
d="M906 -189q0 -43 20.5 -60t52.5 -17q23 0 57 6.5t53 15.5v-221q-35 -11 -80.5 -19t-94.5 -8q-123 0 -192 64t-69 177q0 49 18 99t60.5 103t116.5 110l258 72q-67 -71 -111.5 -126.5t-66.5 -102t-22 -93.5zM1247 1462v-923q0 -176 -63.5 -301.5t-188.5 -191.5t-311 -66
q-267 0 -409 140.5t-142 409.5v932h372v-908q0 -137 46.5 -197t137.5 -60q65 0 106 26t60.5 83t19.5 150v906h372z" />
    <glyph glyph-name="uogonek" unicode="&#x173;" horiz-adv-x="1228" 
d="M1109 1133v-1133h-276l-44 140h-20q-31 -55 -75.5 -90.5t-100.5 -52.5t-122 -17q-105 0 -185 46t-124.5 138.5t-44.5 230.5v738h361v-624q0 -112 25.5 -169.5t86.5 -57.5q67 0 100.5 38.5t45.5 111t12 173.5v528h361zM926 -194q0 -36 22 -55.5t59 -19.5q27 0 54 6.5
t45 15.5v-216q-29 -10 -69.5 -19.5t-94.5 -9.5q-123 0 -195.5 62t-72.5 168q0 46 18.5 95.5t64 102t125.5 107.5l162 -43q-66 -66 -92 -107.5t-26 -86.5z" />
    <glyph glyph-name="Wcircumflex" unicode="&#x174;" horiz-adv-x="1894" 
d="M1878 1462l-318 -1462h-433l-120 592q-7 33 -15 79t-16.5 98.5t-16 105t-11.5 96.5q-3 -39 -10 -91t-16 -106t-17.5 -101.5t-14.5 -79.5l-122 -593h-431l-321 1462h360l132 -685q6 -32 15 -81.5t18 -107t17.5 -113.5t13.5 -100q7 59 17.5 127.5t23.5 137t24.5 127.5
t20.5 98l129 597h323l121 -597q9 -41 21 -101.5t24.5 -129.5t23 -136.5t16.5 -122.5q5 53 16.5 126.5t24 147t22.5 126.5l135 687h364zM1124 1899q28 -46 66 -98.5t79.5 -104t79.5 -96.5v-29h-229q-42 28 -83 65t-88 85q-49 -49 -88 -85.5t-79 -64.5h-233v29q34 36 78 90.5
t85 111t65 97.5h347z" />
    <glyph glyph-name="wcircumflex" unicode="&#x175;" horiz-adv-x="1686" 
d="M995 0l-101 498q-7 38 -14.5 83t-14.5 90.5t-12 86.5t-9 71h-7q-4 -32 -10 -74.5t-13 -89t-15 -91.5t-15 -82l-101 -492h-393l-272 1133h358l75 -395q10 -52 19.5 -118.5t16.5 -135t10 -128.5h7q3 40 8.5 88t13 97.5t15.5 94.5t15 80l85 417h408l80 -423
q10 -56 20.5 -120t19 -125.5t12.5 -108.5h7q4 59 11 127.5t17 135.5t20 119l81 395h351l-274 -1133h-399zM1020 1569q28 -46 66 -98.5t79.5 -104t79.5 -96.5v-29h-229q-42 28 -83 65t-88 85q-49 -49 -88 -85.5t-79 -64.5h-233v29q34 36 78 90.5t85 111t65 97.5h347z" />
    <glyph glyph-name="Ycircumflex" unicode="&#x176;" horiz-adv-x="1219" 
d="M611 925l215 537h393l-423 -896v-566h-373v554l-423 908h396zM786 1899q28 -46 66 -98.5t79.5 -104t79.5 -96.5v-29h-229q-42 28 -83 65t-88 85q-49 -49 -88 -85.5t-79 -64.5h-233v29q34 36 78 90.5t85 111t65 97.5h347z" />
    <glyph glyph-name="ycircumflex" unicode="&#x177;" horiz-adv-x="1128" 
d="M1 1133h380l156 -571q6 -24 11.5 -52t9.5 -54.5t5 -49.5h8q4 37 11 74.5t18 78.5l154 574h371l-395 -1205q-48 -146 -110.5 -239t-150.5 -137t-214 -44q-47 0 -84 5.5t-68 11.5v299q21 -5 48 -8.5t54 -3.5q53 0 85.5 19.5t55 61.5t44.5 108l5 15zM741 1569
q28 -46 66 -98.5t79.5 -104t79.5 -96.5v-29h-229q-42 28 -83 65t-88 85q-49 -49 -88 -85.5t-79 -64.5h-233v29q34 36 78 90.5t85 111t65 97.5h347z" />
    <glyph glyph-name="Ydieresis" unicode="&#x178;" horiz-adv-x="1219" 
d="M611 925l215 537h393l-423 -896v-566h-373v554l-423 908h396zM231 1743q0 79 44.5 118.5t113.5 39.5t115 -40.5t46 -117.5q0 -74 -46 -115t-115 -41t-113.5 40t-44.5 116zM668 1743q0 79 45 118.5t115 39.5q71 0 116 -40.5t45 -117.5q0 -74 -45 -115t-116 -41
t-115.5 40.5t-44.5 115.5z" />
    <glyph glyph-name="Zacute" unicode="&#x179;" horiz-adv-x="1108" 
d="M1061 0h-1009v244l561 911h-548v307h982v-243l-560 -910h574v-309zM988 1899v-21q-28 -27 -73 -66.5t-96 -83t-101 -85t-90 -72.5h-252v29q34 46 72.5 98t75.5 104t64 97h400z" />
    <glyph glyph-name="zacute" unicode="&#x17a;" horiz-adv-x="926" 
d="M883 0h-842v212l414 633h-390v288h799v-231l-396 -614h415v-288zM893 1569v-21q-28 -27 -73 -66.5t-96 -83t-101 -85t-90 -72.5h-252v29q34 46 72.5 98t75.5 104t64 97h400z" />
    <glyph glyph-name="Zdotaccent" unicode="&#x17b;" horiz-adv-x="1108" 
d="M1061 0h-1009v244l561 911h-548v307h982v-243l-560 -910h574v-309zM574 1919q88 0 140 -39.5t52 -134.5q0 -93 -53 -132.5t-139 -39.5q-87 0 -139.5 39.5t-52.5 132.5q0 96 51.5 135t140.5 39z" />
    <glyph glyph-name="zdotaccent" unicode="&#x17c;" horiz-adv-x="926" 
d="M883 0h-842v212l414 633h-390v288h799v-231l-396 -614h415v-288zM479 1589q88 0 140 -39.5t52 -134.5q0 -93 -53 -132.5t-139 -39.5q-87 0 -139.5 39.5t-52.5 132.5q0 96 51.5 135t140.5 39z" />
    <glyph glyph-name="Zcaron" unicode="&#x17d;" horiz-adv-x="1108" 
d="M1061 0h-1009v244l561 911h-548v307h982v-243l-560 -910h574v-309zM394 1571q-24 42 -65.5 98.5t-85.5 111t-77 89.5v29h233q42 -30 81 -65.5t86 -84.5q47 49 88 85.5t83 64.5h229v-29q-31 -37 -74 -90.5t-83.5 -109t-67.5 -99.5h-347z" />
    <glyph glyph-name="zcaron" unicode="&#x17e;" horiz-adv-x="926" 
d="M883 0h-842v212l414 633h-390v288h799v-231l-396 -614h415v-288zM299 1241q-24 42 -65.5 98.5t-85.5 111t-77 89.5v29h233q42 -30 81 -65.5t86 -84.5q47 49 88 85.5t83 64.5h229v-29q-31 -37 -74 -90.5t-83.5 -109t-67.5 -99.5h-347z" />
    <glyph glyph-name="longs" unicode="&#x17f;" horiz-adv-x="735" 
d="M584 1288q-50 0 -68 -32t-18 -100v-1156h-363v1146q0 164 43 255.5t125.5 128.5t199.5 37q86 0 153 -14t130 -40l-70 -251q-32 10 -64 18t-68 8z" />
    <glyph glyph-name="florin" unicode="&#x192;" horiz-adv-x="1003" 
d="M646 1525q76 0 147 -13.5t141 -39.5l-69 -251q-32 10 -62.5 16t-61.5 6q-43 0 -62.5 -30t-19.5 -99v-26h220v-283h-220v-883q0 -138 -38.5 -230.5t-115.5 -138t-194 -45.5q-58 0 -111 9t-89 20v285q29 -10 54.5 -14.5t54.5 -4.5q41 0 59 32t18 98v872h-137v184l141 94v31
q0 149 37 239t113.5 131t194.5 41z" />
    <glyph glyph-name="Ohorn" unicode="&#x1a0;" horiz-adv-x="1527" 
d="M1360 733q0 -176 -38 -315.5t-116.5 -237.5t-198 -149t-281.5 -51q-159 0 -278 51.5t-198 149t-118.5 237.5t-39.5 317q0 236 70 404t212 257t355 89q158 0 276 -47.5t195 -139.5q18 39 29.5 78t18 82.5t6.5 97.5h342l12 -22q-31 -199 -100 -303.5t-188 -162.5
q20 -72 30 -155.5t10 -179.5zM481 733q0 -140 26 -237.5t80.5 -148t138.5 -50.5q87 0 141 49.5t79 147t25 239.5q0 216 -57.5 328.5t-186.5 112.5q-84 0 -138.5 -51t-81 -149.5t-26.5 -240.5z" />
    <glyph glyph-name="ohorn" unicode="&#x1a1;" horiz-adv-x="1339" 
d="M1103 569q0 -186 -61.5 -317.5t-176.5 -201.5t-277 -70q-152 0 -267.5 70.5t-180 202.5t-64.5 316q0 279 137.5 431.5t379.5 152.5q108 0 203 -35.5t162 -106.5q37 14 59.5 56t33 103.5t10.5 129.5h342l12 -22q-17 -132 -55 -227.5t-107.5 -155.5t-180.5 -89
q16 -53 23.5 -111.5t7.5 -125.5zM443 567q0 -96 15.5 -161.5t48 -98.5t84.5 -33q53 0 84.5 32.5t46 98.5t14.5 164q0 99 -14.5 163t-46 96t-85.5 32q-78 0 -112.5 -71.5t-34.5 -221.5z" />
    <glyph glyph-name="Uhorn" unicode="&#x1af;" horiz-adv-x="1650" 
d="M1247 1462v-204q50 14 78.5 59.5t40 109t11.5 129.5h342l12 -22q-17 -115 -49 -203.5t-87.5 -151t-140.5 -98t-207 -45.5v-497q0 -171 -65 -296.5t-191.5 -194t-311.5 -68.5q-265 0 -405.5 145.5t-140.5 411.5v925h372v-895q0 -154 46 -212t136 -58q64 0 105.5 26t62 86
t20.5 160v893h372z" />
    <glyph glyph-name="uhorn" unicode="&#x1b0;" horiz-adv-x="1494" 
d="M1560 1298l11 -22q-16 -116 -47 -204t-84.5 -149.5t-134.5 -97.5t-196 -49v-776h-276l-44 140h-22q-31 -55 -76 -90.5t-100.5 -52.5t-120.5 -17q-104 0 -184 46t-124.5 138.5t-44.5 230.5v738h361v-624q0 -112 25.5 -169.5t86.5 -57.5q91 0 124 81t33 263v507h362v-134
q39 15 63 59t35 107.5t11 132.5h342z" />
    <glyph glyph-name="uni01EA" unicode="&#x1ea;" horiz-adv-x="1452" 
d="M1359 733q0 -176 -38 -315.5t-116 -237.5t-197.5 -149t-281.5 -51q-159 0 -278.5 51.5t-198.5 149t-118 237.5t-39 317q0 236 69.5 404t211 257t354.5 89q216 0 356 -89t208 -257t68 -406zM481 733q0 -140 26 -237.5t80.5 -148t138.5 -50.5q88 0 141.5 49.5t78 147
t24.5 239.5q0 215 -57 328t-186 113q-85 0 -139.5 -51.5t-80.5 -149.5t-26 -240zM761 -194q0 -36 22 -55.5t59 -19.5q27 0 54 6.5t45 15.5v-216q-29 -10 -69.5 -19.5t-94.5 -9.5q-123 0 -195.5 62t-72.5 168q0 46 18.5 95.5t64 102t125.5 107.5l162 -43q-66 -66 -92 -107.5
t-26 -86.5z" />
    <glyph glyph-name="uni01EB" unicode="&#x1eb;" horiz-adv-x="1181" 
d="M1103 569q0 -125 -31 -232.5t-95 -187.5t-161 -124.5t-228 -44.5q-122 0 -216.5 44t-160.5 123.5t-100.5 187t-34.5 234.5q0 176 58 307t173 204t286 73q150 0 265 -68t180 -198t65 -318zM442 567q0 -99 15.5 -166.5t48 -102.5t85.5 -35q54 0 85.5 34.5t45.5 103
t14 168.5q0 101 -14 167.5t-46 100t-86 33.5q-78 0 -113 -75t-35 -228zM618 -194q0 -36 22 -55.5t59 -19.5q27 0 54 6.5t45 15.5v-216q-29 -10 -69.5 -19.5t-94.5 -9.5q-123 0 -195.5 62t-72.5 168q0 46 18.5 95.5t64 102t125.5 107.5l162 -43q-66 -66 -92 -107.5t-26 -86.5
z" />
    <glyph glyph-name="uni01EC" unicode="&#x1ec;" horiz-adv-x="1452" 
d="M1359 733q0 -176 -38 -315.5t-116 -237.5t-197.5 -149t-281.5 -51q-159 0 -278.5 51.5t-198.5 149t-118 237.5t-39 317q0 236 69.5 404t211 257t354.5 89q216 0 356 -89t208 -257t68 -406zM481 733q0 -140 26 -237.5t80.5 -148t138.5 -50.5q88 0 141.5 49.5t78 147
t24.5 239.5q0 215 -57 328t-186 113q-85 0 -139.5 -51.5t-80.5 -149.5t-26 -240zM1071 1826v-235h-668v235h668zM759 -194q0 -36 22 -55.5t59 -19.5q27 0 54 6.5t45 15.5v-216q-29 -10 -69.5 -19.5t-94.5 -9.5q-123 0 -195.5 62t-72.5 168q0 46 18.5 95.5t64 102
t125.5 107.5l162 -43q-66 -66 -92 -107.5t-26 -86.5z" />
    <glyph glyph-name="uni01ED" unicode="&#x1ed;" horiz-adv-x="1181" 
d="M1103 569q0 -125 -31 -232.5t-95 -187.5t-161 -124.5t-228 -44.5q-122 0 -216.5 44t-160.5 123.5t-100.5 187t-34.5 234.5q0 176 58 307t173 204t286 73q150 0 265 -68t180 -198t65 -318zM442 567q0 -99 15.5 -166.5t48 -102.5t85.5 -35q54 0 85.5 34.5t45.5 103
t14 168.5q0 101 -14 167.5t-46 100t-86 33.5q-78 0 -113 -75t-35 -228zM927 1492v-235h-668v235h668zM621 -194q0 -36 22 -55.5t59 -19.5q27 0 54 6.5t45 15.5v-216q-29 -10 -69.5 -19.5t-94.5 -9.5q-123 0 -195.5 62t-72.5 168q0 46 18.5 95.5t64 102t125.5 107.5l162 -43
q-66 -66 -92 -107.5t-26 -86.5z" />
    <glyph glyph-name="uni01F0" unicode="&#x1f0;" horiz-adv-x="604" 
d="M100 -492q-42 0 -99.5 8t-91.5 17v293q29 -9 54 -13.5t52 -4.5q48 0 76.5 33t28.5 116v1176h361v-1225q0 -113 -40 -203.5t-124 -143.5t-217 -53zM131 1241q-24 42 -65.5 98.5t-85.5 111t-77 89.5v29h233q42 -30 81 -65.5t86 -84.5q47 49 88 85.5t83 64.5h229v-29
q-31 -37 -74 -90.5t-83.5 -109t-67.5 -99.5h-347z" />
    <glyph glyph-name="Aringacute" unicode="&#x1fa;" horiz-adv-x="1330" 
d="M0 0l417 1387q-6 20 -9 41.5t-3 44.5q0 114 71 184t188 70q112 0 187.5 -70.5t75.5 -181.5q0 -24 -3.5 -47t-12.5 -43l421 -1385h-403l-66 280h-393l-64 -280h-406zM540 593h255l-62 258q-10 44 -23.5 103.5t-25 118.5t-18.5 100q-5 -31 -12.5 -71t-16.5 -83.5t-18 -86
t-18 -79.5zM664 1390q35 0 59.5 23.5t24.5 60.5q0 38 -24.5 61t-59.5 23t-59.5 -23t-24.5 -61q0 -37 21 -60.5t63 -23.5zM497 1790v21q42 42 70 68.5t47.5 47t35.5 41.5h414v-16q-18 -15 -56 -38t-84 -47t-88.5 -45t-69.5 -32h-269z" />
    <glyph glyph-name="aringacute" unicode="&#x1fb;" horiz-adv-x="1144" 
d="M617 1153q192 0 301.5 -103.5t109.5 -306.5v-743h-255l-65 150h-7q-42 -58 -87.5 -96t-104 -56t-140.5 -18q-98 0 -166.5 46.5t-104 130t-35.5 192.5q0 186 109.5 272.5t326.5 93.5l168 6v23q0 72 -32 105.5t-91 33.5q-58 0 -129 -22t-151 -62l-99 252q90 50 203 76
t249 26zM668 506l-76 -4q-87 -3 -125.5 -40t-38.5 -102q0 -58 25 -84t71 -26q60 0 102 45t42 117v94zM584 1542q-35 0 -59.5 -23t-24.5 -61q0 -37 21.5 -60.5t62.5 -23.5q35 0 59.5 23.5t24.5 60.5q0 38 -24.5 61t-59.5 23zM584 1711q74 0 134.5 -31.5t96.5 -88t36 -131.5
q0 -112 -76 -183t-191 -71q-117 0 -188 70t-71 182q0 115 71.5 184t187.5 69zM963 1974v-12q-24 -24 -78 -63t-112 -76.5t-93 -58.5h-267v18q43 50 71 83t48 58.5t36 50.5h395z" />
    <glyph glyph-name="AEacute" unicode="&#x1fc;" horiz-adv-x="1728" 
d="M1638 0h-786v280h-360l-90 -280h-412l540 1462h1108v-306h-416v-247h384v-306h-384v-292h416v-311zM592 593h260v555h-81zM1343 1899v-21q-28 -27 -73 -66.5t-96 -83t-101 -85t-90 -72.5h-252v29q34 46 72.5 98t75.5 104t64 97h400z" />
    <glyph glyph-name="aeacute" unicode="&#x1fd;" horiz-adv-x="1700" 
d="M1173 1152q140 0 242 -58.5t157.5 -174t55.5 -285.5v-173h-617q3 -98 58 -154t167 -56q79 0 160 19.5t168 67.5v-276q-77 -43 -164 -62.5t-209 -19.5q-81 0 -155.5 19.5t-136.5 60t-106 103.5q-57 -65 -113 -105.5t-124.5 -59t-162.5 -18.5q-101 0 -175 46.5t-114.5 130
t-40.5 192.5q0 124 52.5 203t151 118.5t235.5 44.5l165 6v24q0 75 -33.5 106.5t-88.5 31.5q-58 0 -129.5 -21t-149.5 -61l-98 251q89 50 194.5 75.5t214.5 25.5q91 0 164 -24t128 -72q59 48 131 71.5t173 23.5zM668 506l-73 -4q-91 -3 -129 -40t-38 -104q0 -56 25.5 -82
t71.5 -26q39 0 71.5 20.5t52 57t19.5 84.5v94zM1162 891q-62 0 -103 -42.5t-45 -147.5h287q-1 60 -17.5 103t-47.5 65t-74 22zM1294 1569v-21q-28 -27 -73 -66.5t-96 -83t-101 -85t-90 -72.5h-252v29q34 46 72.5 98t75.5 104t64 97h400z" />
    <glyph glyph-name="Oslashacute" unicode="&#x1fe;" horiz-adv-x="1452" 
d="M1359 733q0 -176 -38 -315.5t-116 -237.5t-197.5 -149t-281.5 -51q-78 0 -146.5 11.5t-127.5 34.5l-75 -135l-177 101l84 147q-103 111 -147.5 259.5t-44.5 336.5q0 236 69.5 404t211 257t354.5 89q84 0 157 -13.5t133 -40.5l67 117l176 -94l-79 -140
q91 -96 134.5 -243.5t43.5 -337.5zM975 733q0 59 -3.5 109.5t-11.5 93.5l-348 -616q24 -15 53 -22.5t61 -7.5q89 0 143.5 51.5t80 150.5t25.5 241zM476 733q0 -66 5 -123t17 -105l355 631q-26 20 -58 31t-68 11q-87 0 -143 -52t-82 -151t-26 -242zM1155 1899v-21
q-28 -27 -73 -66.5t-96 -83t-101 -85t-90 -72.5h-252v29q34 46 72.5 98t75.5 104t64 97h400z" />
    <glyph glyph-name="oslashacute" unicode="&#x1ff;" horiz-adv-x="1210" 
d="M1132 569q0 -186 -63 -317.5t-181.5 -201.5t-285.5 -70q-55 0 -106 9t-97 25l-74 -131l-164 90l81 142q-83 86 -124.5 198.5t-41.5 255.5q0 279 141 431.5t390 152.5q57 0 108.5 -9.5t97.5 -28.5l63 110l162 -88l-68 -122q77 -75 119.5 -188.5t42.5 -257.5zM422 567
q0 -38 1.5 -71.5t6.5 -62.5l251 437q-16 11 -35 15t-42 4q-98 0 -140 -80.5t-42 -241.5zM787 569q0 34 -1.5 65.5t-5.5 57.5l-247 -433q15 -8 33.5 -12t38.5 -4q69 0 108.5 37t56.5 110t17 179zM1031 1569v-21q-28 -27 -73 -66.5t-96 -83t-101 -85t-90 -72.5h-252v29
q34 46 72.5 98t75.5 104t64 97h400z" />
    <glyph glyph-name="uni0218" unicode="&#x218;" horiz-adv-x="1056" 
d="M997 444q0 -127 -58.5 -232.5t-173 -168.5t-284.5 -63q-82 0 -149.5 9t-129.5 29t-128 54v352q102 -59 208 -91t192 -32q51 0 83.5 14t48.5 38.5t16 56.5q0 35 -19 62t-67 58.5t-135 77.5q-73 40 -131.5 80.5t-100 91t-64 117.5t-22.5 158q0 136 60.5 231.5t172 146
t265.5 50.5q117 0 220 -29t196 -76l-107 -305q-85 46 -163 70t-145 24q-44 0 -72 -12.5t-41.5 -33.5t-13.5 -48q0 -36 20 -63.5t71.5 -59t146.5 -82.5q98 -51 165.5 -108.5t103 -133.5t35.5 -182zM702 -125v-22q-19 -54 -41 -105t-48 -100t-59 -101h-229v29q10 39 19 94
t15.5 110t7.5 95h335z" />
    <glyph glyph-name="uni0219" unicode="&#x219;" horiz-adv-x="935" 
d="M870 348q0 -115 -47 -197.5t-143 -126.5t-243 -44q-102 0 -190 13.5t-176 49.5v313q84 -43 177 -67.5t163 -24.5q56 0 82.5 15t26.5 47q0 22 -15 39.5t-59 41.5t-131 63q-82 37 -136.5 85.5t-82 113t-27.5 150.5q0 162 112 248t306 86q100 0 188.5 -24.5t181.5 -71.5
l-94 -252q-67 36 -138.5 60t-126.5 24q-41 0 -62 -12.5t-21 -37.5q0 -19 13.5 -34.5t55 -37.5t124.5 -62q84 -39 142.5 -86.5t89 -112t30.5 -158.5zM633 -125v-22q-19 -54 -41 -105t-48 -100t-59 -101h-229v29q10 39 19 94t15.5 110t7.5 95h335z" />
    <glyph glyph-name="uni021A" unicode="&#x21a;" horiz-adv-x="1076" 
d="M724 0h-370v1150h-311v312h990v-312h-309v-1150zM726 -125v-22q-19 -54 -41 -105t-48 -100t-59 -101h-229v29q10 39 19 94t15.5 110t7.5 95h335z" />
    <glyph glyph-name="uni021B" unicode="&#x21b;" horiz-adv-x="834" 
d="M617 278q42 0 82 10.5t85 28.5v-274q-60 -29 -126 -46t-156 -17q-111 0 -187.5 38.5t-115.5 125t-39 229.5v477h-126v168l159 104l89 238h241v-227h245v-283h-245v-462q0 -55 24 -82.5t70 -27.5zM671 -125v-22q-19 -54 -41 -105t-48 -100t-59 -101h-229v29q10 39 19 94
t15.5 110t7.5 95h335z" />
    <glyph glyph-name="uni0237" unicode="&#x237;" horiz-adv-x="604" 
d="M100 -492q-42 0 -99.5 8t-91.5 17v293q29 -9 54 -13.5t52 -4.5q48 0 76.5 33t28.5 116v1176h361v-1225q0 -113 -40 -203.5t-124 -143.5t-217 -53z" />
    <glyph glyph-name="uni0259" unicode="&#x259;" horiz-adv-x="1127" 
d="M519 1152q167 0 286.5 -64t182.5 -192.5t63 -324.5t-60 -327.5t-171.5 -197.5t-267.5 -66q-150 0 -257.5 59t-165.5 174t-58 284v174h619q-2 101 -56.5 155.5t-163.5 54.5q-92 0 -169.5 -20.5t-163.5 -66.5v275q77 39 168 61t214 22zM686 431h-285q1 -60 18 -103t48 -65
t74 -22q61 0 101.5 44t43.5 146z" />
    <glyph glyph-name="uni02BC" unicode="&#x2bc;" horiz-adv-x="536" 
d="M469 1461l13 -22q-17 -93 -41 -194.5t-53 -196t-61 -170.5h-276q13 62 26 139t24.5 158t21 155.5t13.5 130.5h333z" />
    <glyph glyph-name="circumflex" unicode="&#x2c6;" horiz-adv-x="964" 
d="M657 1569q28 -46 66 -98.5t79.5 -104t79.5 -96.5v-29h-229q-42 28 -83 65t-88 85q-49 -49 -88 -85.5t-79 -64.5h-233v29q34 36 78 90.5t85 111t65 97.5h347z" />
    <glyph glyph-name="caron" unicode="&#x2c7;" horiz-adv-x="964" 
d="M310 1241q-24 42 -65.5 98.5t-85.5 111t-77 89.5v29h233q42 -30 81 -65.5t86 -84.5q47 49 88 85.5t83 64.5h229v-29q-31 -37 -74 -90.5t-83.5 -109t-67.5 -99.5h-347z" />
    <glyph glyph-name="macron" unicode="&#x2c9;" horiz-adv-x="832" 
d="M750 1492v-235h-668v235h668z" />
    <glyph glyph-name="breve" unicode="&#x2d8;" horiz-adv-x="894" 
d="M812 1612q-3 -112 -50 -195.5t-128.5 -129.5t-188.5 -46q-169 0 -264 97t-99 274h203q9 -53 27.5 -82.5t51 -41.5t81.5 -12q42 0 75.5 12t55.5 42t30 82h206z" />
    <glyph glyph-name="dotaccent" unicode="&#x2d9;" horiz-adv-x="548" 
d="M274 1589q88 0 140 -39.5t52 -134.5q0 -93 -53 -132.5t-139 -39.5q-87 0 -139.5 39.5t-52.5 132.5q0 96 51.5 135t140.5 39z" />
    <glyph glyph-name="ring" unicode="&#x2da;" horiz-adv-x="686" 
d="M341 1237q-116 0 -187.5 69.5t-71.5 182.5q0 115 71.5 184.5t187.5 69.5q113 0 188 -70t75 -182t-74.5 -183t-188.5 -71zM341 1406q35 0 59.5 23.5t24.5 60.5q0 38 -24.5 61t-59.5 23t-59.5 -23t-24.5 -61q0 -37 21.5 -60.5t62.5 -23.5z" />
    <glyph glyph-name="ogonek" unicode="&#x2db;" horiz-adv-x="596" 
d="M334 -194q0 -36 22 -55.5t59 -19.5q27 0 54 6.5t45 15.5v-216q-29 -10 -69.5 -19.5t-94.5 -9.5q-123 0 -195.5 62t-72.5 168q0 46 18.5 95.5t64 102t125.5 107.5l162 -43q-66 -66 -92 -107.5t-26 -86.5z" />
    <glyph glyph-name="tilde" unicode="&#x2dc;" horiz-adv-x="940" 
d="M82 1237q3 71 15.5 133t37.5 109t65.5 73.5t98.5 26.5q41 0 82 -14.5t81 -33.5t78.5 -33.5t75.5 -14.5q22 0 39 21.5t26 76.5h178q-7 -175 -67.5 -258.5t-149.5 -83.5q-42 0 -85.5 14.5t-85 33.5t-78.5 33.5t-69 14.5q-18 0 -37.5 -18.5t-28.5 -79.5h-176z" />
    <glyph glyph-name="hungarumlaut" unicode="&#x2dd;" horiz-adv-x="1088" 
d="M1006 1569v-21q-14 -28 -52 -68t-87 -84t-98.5 -84.5t-87.5 -70.5h-186v29q33 57 66.5 112t62.5 103.5t46 83.5h336zM591 1569v-21q-15 -29 -52.5 -68.5t-86 -82.5t-99 -84t-91.5 -72h-180v29q33 57 66 112.5t62 103.5t47 83h334z" />
    <glyph glyph-name="uni02F3" unicode="&#x2f3;" horiz-adv-x="763" 
d="M378 -601q-116 0 -187.5 69t-71.5 183q0 113 71 183t188 70q113 0 187.5 -71t74.5 -180q0 -113 -73.5 -183.5t-188.5 -70.5zM379 -433q35 0 59.5 23.5t24.5 60.5q0 38 -24 61t-60 23q-35 0 -59 -23t-24 -61q0 -37 21 -60.5t62 -23.5z" />
    <glyph glyph-name="gravecomb" unicode="&#x300;" 
d="M-592 1569q26 -43 65.5 -100t79.5 -111t65 -88v-29h-251q-34 25 -83 65.5t-102.5 86t-100 87.5t-75.5 68v21h402z" />
    <glyph glyph-name="acutecomb" unicode="&#x301;" 
d="M-156 1569v-21q-28 -27 -73 -66.5t-96 -83t-101 -85t-90 -72.5h-252v29q34 46 72.5 98t75.5 104t64 97h400z" />
    <glyph glyph-name="uni0302" unicode="&#x302;" 
d="M170 1569q28 -46 66 -98.5t79.5 -104t79.5 -96.5v-29h-229q-42 28 -83 65t-88 85q-49 -49 -88 -85.5t-79 -64.5h-233v29q34 36 78 90.5t85 111t65 97.5h347z" />
    <glyph glyph-name="tildecomb" unicode="&#x303;" 
d="M-1051 1237q3 71 15.5 133t37.5 109t65.5 73.5t98.5 26.5q41 0 82 -14.5t81 -33.5t78.5 -33.5t75.5 -14.5q22 0 39 21.5t26 76.5h178q-7 -175 -67.5 -258.5t-149.5 -83.5q-42 0 -85.5 14.5t-85 33.5t-78.5 33.5t-69 14.5q-18 0 -37.5 -18.5t-28.5 -79.5h-176z" />
    <glyph glyph-name="uni0304" unicode="&#x304;" 
d="M334 1492v-235h-668v235h668z" />
    <glyph glyph-name="uni0306" unicode="&#x306;" 
d="M366 1612q-3 -112 -50 -195.5t-128.5 -129.5t-188.5 -46q-169 0 -264 97t-99 274h203q9 -53 27.5 -82.5t51 -41.5t81.5 -12q42 0 75.5 12t55.5 42t30 82h206z" />
    <glyph glyph-name="uni0307" unicode="&#x307;" 
d="M1 1589q88 0 140 -39.5t52 -134.5q0 -93 -53 -132.5t-139 -39.5q-87 0 -139.5 39.5t-52.5 132.5q0 96 51.5 135t140.5 39z" />
    <glyph glyph-name="uni0308" unicode="&#x308;" 
d="M-380 1413q0 79 44.5 118.5t113.5 39.5t115 -40.5t46 -117.5q0 -74 -46 -115t-115 -41t-113.5 40t-44.5 116zM57 1413q0 79 45 118.5t115 39.5q71 0 116 -40.5t45 -117.5q0 -74 -45 -115t-116 -41t-115.5 40.5t-44.5 115.5z" />
    <glyph glyph-name="hookabovecomb" unicode="&#x309;" 
d="M-352 1483q0 -78 -39.5 -133t-120.5 -78l-12 -47h-180l-25 129q59 9 78.5 30t19.5 58q0 29 -17 46t-50 17q-30 0 -56 -6t-60 -19v201q35 15 88 23t106 8q134 0 201 -61t67 -168z" />
    <glyph glyph-name="uni030A" unicode="&#x30a;" 
d="M-16 1237q-116 0 -187.5 69.5t-71.5 182.5q0 115 71.5 184.5t187.5 69.5q113 0 188 -70t75 -182t-74.5 -183t-188.5 -71zM-16 1406q35 0 59.5 23.5t24.5 60.5q0 38 -24.5 61t-59.5 23t-59.5 -23t-24.5 -61q0 -37 21.5 -60.5t62.5 -23.5z" />
    <glyph glyph-name="uni030B" unicode="&#x30b;" 
d="M594 1569v-21q-14 -28 -52 -68t-87 -84t-98.5 -84.5t-87.5 -70.5h-186v29q33 57 66.5 112t62.5 103.5t46 83.5h336zM179 1569v-21q-15 -29 -52.5 -68.5t-86 -82.5t-99 -84t-91.5 -72h-180v29q33 57 66 112.5t62 103.5t47 83h334z" />
    <glyph glyph-name="uni030C" unicode="&#x30c;" 
d="M-177 1241q-24 42 -65.5 98.5t-85.5 111t-77 89.5v29h233q42 -30 81 -65.5t86 -84.5q47 49 88 85.5t83 64.5h229v-29q-31 -37 -74 -90.5t-83.5 -109t-67.5 -99.5h-347z" />
    <glyph glyph-name="uni030F" unicode="&#x30f;" 
d="M-437 1569q16 -35 40.5 -83t55 -103.5t63.5 -112.5v-29h-180q-40 32 -86 73t-89 84.5t-76 82.5t-47 67v21h319zM-830 1569q17 -35 41 -83.5t54 -103.5t62 -112v-29h-186q-33 28 -77.5 69.5t-88.5 86.5t-78 85t-48 66v21h321z" />
    <glyph glyph-name="uni0312" unicode="&#x312;" 
d="M-182 878l-13 22q18 93 42 194t53.5 197t60.5 170h276q-18 -89 -35 -194.5t-30.5 -207.5t-20.5 -181h-333z" />
    <glyph glyph-name="dotbelowcomb" unicode="&#x323;" 
d="M-658 -479q-87 0 -139 39.5t-52 132.5q0 96 51 135t140 39q88 0 140 -39.5t52 -134.5q0 -93 -53 -132.5t-139 -39.5z" />
    <glyph glyph-name="uni0326" unicode="&#x326;" 
d="M190 -125v-22q-19 -54 -41 -105t-48 -100t-59 -101h-229v29q10 39 19 94t15.5 110t7.5 95h335z" />
    <glyph glyph-name="uni0327" unicode="&#x327;" 
d="M235 -255q0 -108 -71 -172.5t-198 -64.5q-60 0 -111 8t-88 19v189q34 -9 64 -14.5t59 -5.5q37 0 58 15t21 43q0 35 -35 55t-105 29l65 154h175l-24 -65q51 -9 94 -31.5t69.5 -61t26.5 -97.5z" />
    <glyph glyph-name="uni0328" unicode="&#x328;" 
d="M25 -194q0 -36 22 -55.5t59 -19.5q27 0 54 6.5t45 15.5v-216q-29 -10 -69.5 -19.5t-94.5 -9.5q-123 0 -195.5 62t-72.5 168q0 46 18.5 95.5t64 102t125.5 107.5l162 -43q-66 -66 -92 -107.5t-26 -86.5z" />
    <glyph glyph-name="tonos" unicode="&#x384;" horiz-adv-x="978" 
d="M351 1241v33q7 27 17 70t19.5 90.5t17.5 91.5t12 72h318v-27q-23 -53 -49.5 -107t-56 -109t-64.5 -114h-214z" />
    <glyph glyph-name="dieresistonos" unicode="&#x385;" horiz-adv-x="1021" 
d="M718 1716v-20q-16 -41 -38.5 -87t-51.5 -97t-63 -108h-164v29q8 49 15.5 101t12.5 99.5t6 82.5h283zM219 1571q67 0 107.5 -40.5t40.5 -117.5q0 -74 -40.5 -115t-107.5 -41t-106 40t-39 116q0 79 39 118.5t106 39.5zM799 1574q69 0 108.5 -40.5t39.5 -120.5
q0 -72 -39.5 -112.5t-108.5 -40.5q-68 0 -108 40t-40 115q0 79 40 119t108 40z" />
    <glyph glyph-name="Alphatonos" unicode="&#x386;" horiz-adv-x="1398" 
d="M996 0l-63 280h-396l-64 -280h-406l417 1465h493l422 -1465h-403zM865 591l-61 284q-10 47 -24 109t-26.5 124.5t-19.5 108.5q-7 -45 -18.5 -105t-24.5 -122t-25 -113l-62 -286h261zM1 1189v33q7 27 17 70t19.5 90.5t17.5 91.5t12 72h318v-27q-23 -53 -49.5 -107
t-56 -109t-64.5 -114h-214z" />
    <glyph glyph-name="anoteleia" unicode="&#x387;" horiz-adv-x="576" 
d="M89 956q0 99 56 145.5t146 46.5q86 0 140.5 -46.5t54.5 -145.5q0 -96 -55 -143.5t-140 -47.5q-88 0 -145 47.5t-57 143.5z" />
    <glyph glyph-name="Epsilontonos" unicode="&#x388;" horiz-adv-x="1288" 
d="M1199 0h-786v1462h786v-306h-415v-247h384v-306h-384v-292h415v-311zM-15 1177v33q7 27 17 70t19.5 90.5t17.5 91.5t12 72h318v-27q-23 -53 -49.5 -107t-56 -109t-64.5 -114h-214z" />
    <glyph glyph-name="Etatonos" unicode="&#x389;" horiz-adv-x="1683" 
d="M1545 0h-373v603h-384v-603h-372v1462h372v-547h384v547h373v-1462zM-15 1177v33q7 27 17 70t19.5 90.5t17.5 91.5t12 72h318v-27q-23 -53 -49.5 -107t-56 -109t-64.5 -114h-214z" />
    <glyph glyph-name="Iotatonos" unicode="&#x38a;" horiz-adv-x="939" 
d="M428 0v1462h372v-1462h-372zM-15 1177v33q7 27 17 70t19.5 90.5t17.5 91.5t12 72h318v-27q-23 -53 -49.5 -107t-56 -109t-64.5 -114h-214z" />
    <glyph glyph-name="Omicrontonos" unicode="&#x38c;" horiz-adv-x="1592" 
d="M1499 733q0 -176 -38 -315.5t-116 -237.5t-197.5 -149t-281.5 -51q-159 0 -278.5 51.5t-198.5 149t-118 237.5t-39 317q0 236 69.5 404t211 257t354.5 89q216 0 356 -89t208 -257t68 -406zM621 733q0 -140 26 -237.5t80.5 -148t138.5 -50.5q88 0 141.5 49.5t78 147
t24.5 239.5q0 215 -57 328t-186 113q-85 0 -139.5 -51.5t-80.5 -149.5t-26 -240zM-15 1177v33q7 27 17 70t19.5 90.5t17.5 91.5t12 72h318v-27q-23 -53 -49.5 -107t-56 -109t-64.5 -114h-214z" />
    <glyph glyph-name="Upsilontonos" unicode="&#x38e;" horiz-adv-x="1605" 
d="M997 925l215 537h393l-423 -896v-566h-373v554l-423 908h396zM-15 1177v33q7 27 17 70t19.5 90.5t17.5 91.5t12 72h318v-27q-23 -53 -49.5 -107t-56 -109t-64.5 -114h-214z" />
    <glyph glyph-name="Omegatonos" unicode="&#x38f;" horiz-adv-x="1613" 
d="M887 1174q-77 0 -135 -40.5t-90 -122.5t-32 -207q0 -112 17.5 -196t56.5 -146.5t103 -107.5v-354h-603v312h329q-91 50 -154 134t-95.5 191.5t-32.5 226.5q0 198 78 337t220.5 211.5t337.5 72.5q188 0 330.5 -72t223 -210t80.5 -337q0 -121 -31.5 -226.5t-95.5 -188.5
t-162 -139h337v-312h-608v354q68 47 108 110.5t57 148.5t17 195q0 124 -32 205.5t-89.5 121t-134.5 39.5zM-15 1177v33q7 27 17 70t19.5 90.5t17.5 91.5t12 72h318v-27q-23 -53 -49.5 -107t-56 -109t-64.5 -114h-214z" />
    <glyph glyph-name="iotadieresistonos" unicode="&#x390;" horiz-adv-x="787" 
d="M479 1133v-756q0 -56 28.5 -78t69.5 -22q46 0 84.5 10.5t88.5 32.5v-277q-54 -30 -121.5 -46.5t-150.5 -16.5q-111 0 -192 36t-124.5 120.5t-43.5 229.5v767h361zM533 1716v-20q-16 -41 -38.5 -87t-51.5 -97t-63 -108h-164v29q8 49 15.5 101t12.5 99.5t6 82.5h283z
M34 1571q67 0 107.5 -40.5t40.5 -117.5q0 -74 -40.5 -115t-107.5 -41t-106 40t-39 116q0 79 39 118.5t106 39.5zM614 1574q69 0 108.5 -40.5t39.5 -120.5q0 -72 -39.5 -112.5t-108.5 -40.5q-68 0 -108 40t-40 115q0 79 40 119t108 40z" />
    <glyph glyph-name="Alpha" unicode="&#x391;" horiz-adv-x="1332" 
d="M929 0l-63 280h-396l-64 -280h-406l417 1465h493l422 -1465h-403zM798 591l-61 284q-10 47 -24 109t-26.5 124.5t-19.5 108.5q-7 -45 -18.5 -105t-24.5 -122t-25 -113l-62 -286h261z" />
    <glyph glyph-name="Beta" unicode="&#x392;" horiz-adv-x="1262" 
d="M140 1462h467q282 0 409.5 -91t127.5 -273q0 -88 -29.5 -155t-77 -109t-103.5 -58v-10q68 -19 121.5 -59t84.5 -108t31 -171q0 -132 -62.5 -228t-177.5 -148t-274 -52h-517v1462zM511 897h98q81 0 118.5 39.5t37.5 105.5q0 64 -40 97t-123 33h-91v-275zM511 617v-320h115
q87 0 125 43t38 119q0 46 -17 81.5t-54.5 56t-97.5 20.5h-109z" />
    <glyph glyph-name="Gamma" unicode="&#x393;" horiz-adv-x="1044" 
d="M1005 1462v-310h-493v-1152h-372v1462h865z" />
    <glyph glyph-name="uni0394" unicode="&#x394;" horiz-adv-x="1309" 
d="M888 1468l392 -1259v-209h-1251v211l395 1257h464zM871 312l-189 706q-5 19 -10 41.5t-9 48.5t-7 53q-3 -26 -7.5 -52t-9.5 -48.5t-9 -42.5l-190 -706h431z" />
    <glyph glyph-name="Epsilon" unicode="&#x395;" horiz-adv-x="1016" 
d="M926 0h-786v1462h786v-306h-415v-247h384v-306h-384v-292h415v-311z" />
    <glyph glyph-name="Zeta" unicode="&#x396;" horiz-adv-x="1108" 
d="M1061 0h-1009v244l561 911h-548v307h982v-243l-560 -910h574v-309z" />
    <glyph glyph-name="Eta" unicode="&#x397;" horiz-adv-x="1408" 
d="M1269 0h-373v603h-384v-603h-372v1462h372v-547h384v547h373v-1462z" />
    <glyph glyph-name="Theta" unicode="&#x398;" horiz-adv-x="1452" 
d="M896 887v-288h-341v288h341zM1359 733q0 -176 -38 -315.5t-116 -237.5t-197.5 -149t-281.5 -51q-159 0 -278.5 51.5t-198.5 149t-118 237.5t-39 317q0 236 69.5 404t211 257t354.5 89q216 0 356 -89t208 -257t68 -406zM481 733q0 -140 26 -237.5t80.5 -148t138.5 -50.5
q88 0 141.5 49.5t78 147t24.5 239.5q0 215 -57 328t-186 113q-85 0 -139.5 -51.5t-80.5 -149.5t-26 -240z" />
    <glyph glyph-name="Iota" unicode="&#x399;" horiz-adv-x="652" 
d="M140 0v1462h372v-1462h-372z" />
    <glyph glyph-name="Kappa" unicode="&#x39a;" horiz-adv-x="1269" 
d="M1278 0h-415l-251 552l-100 -63v-489h-372v1462h372v-635q17 46 43.5 93t55.5 94l271 448h403l-406 -655z" />
    <glyph glyph-name="Lambda" unicode="&#x39b;" horiz-adv-x="1284" 
d="M860 1462l424 -1462h-407l-175 731q-13 62 -26 127t-22.5 122t-11.5 93q-4 -48 -13 -108t-20.5 -120t-24.5 -110l-178 -735h-406l425 1462h435z" />
    <glyph glyph-name="Mu" unicode="&#x39c;" horiz-adv-x="1817" 
d="M743 0l-276 1018h-8q4 -53 8 -119t7 -134t3 -130v-635h-337v1462h501l266 -958h7l264 958h500v-1462h-349v641q0 62 2.5 129t5.5 131.5t7 115.5h-9l-275 -1017h-317z" />
    <glyph glyph-name="Nu" unicode="&#x39d;" horiz-adv-x="1526" 
d="M1387 0h-462l-458 970h-8q5 -64 9 -131t6 -129t2 -111v-599h-336v1462h459l456 -950h7q-4 61 -7 125t-5 123.5t-2 106.5v595h339v-1462z" />
    <glyph glyph-name="Xi" unicode="&#x39e;" horiz-adv-x="1059" 
d="M69 0v311h922v-311h-922zM178 608v306h704v-306h-704zM105 1156v306h850v-306h-850z" />
    <glyph glyph-name="Omicron" unicode="&#x39f;" horiz-adv-x="1452" 
d="M1359 733q0 -176 -38 -315.5t-116 -237.5t-197.5 -149t-281.5 -51q-159 0 -278.5 51.5t-198.5 149t-118 237.5t-39 317q0 236 69.5 404t211 257t354.5 89q216 0 356 -89t208 -257t68 -406zM481 733q0 -140 26 -237.5t80.5 -148t138.5 -50.5q88 0 141.5 49.5t78 147
t24.5 239.5q0 215 -57 328t-186 113q-85 0 -139.5 -51.5t-80.5 -149.5t-26 -240z" />
    <glyph glyph-name="Pi" unicode="&#x3a0;" horiz-adv-x="1365" 
d="M140 0v1462h1087v-1462h-373v1150h-342v-1150h-372z" />
    <glyph glyph-name="Rho" unicode="&#x3a1;" horiz-adv-x="1180" 
d="M610 1462q252 0 378 -121t126 -344q0 -104 -28.5 -197t-89.5 -163.5t-159 -111t-236 -40.5h-90v-485h-371v1462h470zM589 1155h-78v-361h55q49 0 89 19.5t63 63t23 114.5q0 78 -37.5 121t-114.5 43z" />
    <glyph glyph-name="Sigma" unicode="&#x3a3;" horiz-adv-x="1110" 
d="M67 0v296l380 472l-364 409v285h905v-306h-279q-41 0 -77 1t-68.5 3t-62.5 7l352 -397l-380 -472q61 7 113 10t111 3h341v-311h-971z" />
    <glyph glyph-name="Tau" unicode="&#x3a4;" horiz-adv-x="1076" 
d="M724 0h-370v1150h-311v312h990v-312h-309v-1150z" />
    <glyph glyph-name="Upsilon" unicode="&#x3a5;" horiz-adv-x="1219" 
d="M611 925l215 537h393l-423 -896v-566h-373v554l-423 908h396z" />
    <glyph glyph-name="Phi" unicode="&#x3a6;" horiz-adv-x="1682" 
d="M1020 1483v-180q202 0 332.5 -74t194 -198t63.5 -275q0 -117 -34.5 -217.5t-106.5 -175t-183.5 -116.5t-265.5 -42v-225h-358v225q-157 0 -269 40.5t-183 114.5t-104.5 175.5t-33.5 222.5q0 107 31 205t99.5 174.5t182 121t277.5 44.5v180h358zM662 1009
q-86 0 -135.5 -31.5t-70 -87t-20.5 -131.5q0 -86 20 -144t69.5 -87.5t136.5 -29.5v511zM1020 1009v-511q87 0 136.5 31t69.5 89.5t20 140.5q0 74 -22 130t-71.5 88t-132.5 32z" />
    <glyph glyph-name="Chi" unicode="&#x3a7;" horiz-adv-x="1273" 
d="M1272 0h-416l-224 440l-225 -440h-407l410 740l-385 722h399l204 -428l193 428h410l-383 -732z" />
    <glyph glyph-name="Psi" unicode="&#x3a8;" horiz-adv-x="1746" 
d="M1641 1462v-487q0 -151 -33 -259.5t-104 -178.5t-182.5 -103.5t-268.5 -36.5v-397h-358v397q-159 3 -271 34t-182 96t-102.5 169t-32.5 252v514h369v-516q0 -91 22 -142.5t70.5 -72.5t126.5 -21v752h358v-752q71 0 120 23.5t74 74.5t25 132v522h369z" />
    <glyph glyph-name="uni03A9" unicode="&#x3a9;" horiz-adv-x="1453" 
d="M727 1174q-77 0 -135 -40.5t-90 -122.5t-32 -207q0 -112 17.5 -196t56.5 -146.5t103 -107.5v-354h-603v312h329q-91 50 -154 134t-95.5 191.5t-32.5 226.5q0 198 78 337t220.5 211.5t337.5 72.5q188 0 330.5 -72t223 -210t80.5 -337q0 -121 -31.5 -226.5t-95.5 -188.5
t-162 -139h337v-312h-608v354q68 47 108 110.5t57 148.5t17 195q0 124 -32 205.5t-89.5 121t-134.5 39.5z" />
    <glyph glyph-name="Iotadieresis" unicode="&#x3aa;" horiz-adv-x="652" 
d="M140 0v1462h372v-1462h-372zM-53 1743q0 79 44.5 118.5t113.5 39.5t115 -40.5t46 -117.5q0 -74 -46 -115t-115 -41t-113.5 40t-44.5 116zM384 1743q0 79 45 118.5t115 39.5q71 0 116 -40.5t45 -117.5q0 -74 -45 -115t-116 -41t-115.5 40.5t-44.5 115.5z" />
    <glyph glyph-name="Upsilondieresis" unicode="&#x3ab;" horiz-adv-x="1219" 
d="M611 925l215 537h393l-423 -896v-566h-373v554l-423 908h396zM231 1743q0 79 44.5 118.5t113.5 39.5t115 -40.5t46 -117.5q0 -74 -46 -115t-115 -41t-113.5 40t-44.5 116zM668 1743q0 79 45 118.5t115 39.5q71 0 116 -40.5t45 -117.5q0 -74 -45 -115t-116 -41
t-115.5 40.5t-44.5 115.5z" />
    <glyph glyph-name="alphatonos" unicode="&#x3ac;" horiz-adv-x="1258" 
d="M587 270q54 0 87 29.5t48.5 92.5t15.5 161v10q0 147 -35 220.5t-119 73.5q-70 0 -106 -77t-36 -221q0 -143 36.5 -216t108.5 -73zM462 -20q-177 0 -281.5 152.5t-104.5 428.5q0 285 111 437.5t300 152.5q104 0 170.5 -42t108.5 -128h14q12 44 28.5 84.5t39.5 67.5h312
q-17 -56 -34.5 -131.5t-29 -162t-11.5 -175.5v-266q0 -67 21.5 -94t54.5 -27q14 0 30 3t25 7v-281q-9 -6 -36.5 -12t-58 -10t-50.5 -4q-121 0 -189.5 38t-111.5 129h-22q-30 -50 -71 -87.5t-94.5 -58.5t-120.5 -21zM523 1241v33q7 27 17 70t19.5 90.5t17.5 91.5t12 72h318
v-27q-23 -53 -49.5 -107t-56 -109t-64.5 -114h-214z" />
    <glyph glyph-name="epsilontonos" unicode="&#x3ad;" horiz-adv-x="1019" 
d="M762 709v-248h-125q-85 0 -130.5 -12t-63 -34.5t-17.5 -54.5q0 -25 15 -47t54.5 -36t110.5 -14q99 0 188.5 25.5t159.5 62.5v-292q-86 -41 -179.5 -60t-227.5 -19q-263 0 -374 91.5t-111 250.5q0 101 64.5 174.5t183.5 91.5v10q-87 25 -137.5 91t-50.5 157q0 103 58 171
t158.5 102t228.5 34q107 0 200 -20.5t192 -68.5l-109 -257q-66 35 -128.5 53.5t-126.5 18.5q-66 0 -97.5 -19.5t-31.5 -55.5q0 -53 44 -74t149 -21h103zM445 1241v33q7 27 17 70t19.5 90.5t17.5 91.5t12 72h318v-27q-23 -53 -49.5 -107t-56 -109t-64.5 -114h-214z" />
    <glyph glyph-name="etatonos" unicode="&#x3ae;" horiz-adv-x="1228" 
d="M758 1153q105 0 184.5 -46t124.5 -138.5t45 -231.5v-1229h-361v1130q0 102 -25.5 158t-87.5 56q-61 0 -95.5 -36t-48.5 -112t-14 -197v-507h-361v1133h277l43 -140h21q31 56 76 91.5t101.5 52t120.5 16.5zM517 1241v33q7 27 17 70t19.5 90.5t17.5 91.5t12 72h318v-27
q-23 -53 -49.5 -107t-56 -109t-64.5 -114h-214z" />
    <glyph glyph-name="iotatonos" unicode="&#x3af;" horiz-adv-x="787" 
d="M479 1133v-756q0 -56 28.5 -78t69.5 -22q46 0 84.5 10.5t88.5 32.5v-277q-54 -30 -121.5 -46.5t-150.5 -16.5q-111 0 -192 36t-124.5 120.5t-43.5 229.5v767h361zM195 1241v33q7 27 17 70t19.5 90.5t17.5 91.5t12 72h318v-27q-23 -53 -49.5 -107t-56 -109t-64.5 -114
h-214z" />
    <glyph glyph-name="upsilondieresistonos" unicode="&#x3b0;" horiz-adv-x="1226" 
d="M606 -16q-183 0 -290 64.5t-153.5 184t-46.5 285.5v615h361v-643q0 -114 33 -160.5t105 -46.5q79 0 117 72t38 258q0 122 -17.5 248.5t-50.5 271.5h362q25 -101 40 -186t21.5 -166t6.5 -171q0 -319 -134.5 -472.5t-391.5 -153.5zM819 1716v-20q-16 -41 -38.5 -87
t-51.5 -97t-63 -108h-164v29q8 49 15.5 101t12.5 99.5t6 82.5h283zM320 1571q67 0 107.5 -40.5t40.5 -117.5q0 -74 -40.5 -115t-107.5 -41t-106 40t-39 116q0 79 39 118.5t106 39.5zM900 1574q69 0 108.5 -40.5t39.5 -120.5q0 -72 -39.5 -112.5t-108.5 -40.5q-68 0 -108 40
t-40 115q0 79 40 119t108 40z" />
    <glyph glyph-name="alpha" unicode="&#x3b1;" horiz-adv-x="1258" 
d="M587 270q54 0 87 29.5t48.5 92.5t15.5 161v10q0 147 -35 220.5t-119 73.5q-70 0 -106 -77t-36 -221q0 -143 36.5 -216t108.5 -73zM462 -20q-177 0 -281.5 152.5t-104.5 428.5q0 285 111 437.5t300 152.5q104 0 170.5 -42t108.5 -128h14q12 44 28.5 84.5t39.5 67.5h312
q-17 -56 -34.5 -131.5t-29 -162t-11.5 -175.5v-266q0 -67 21.5 -94t54.5 -27q14 0 30 3t25 7v-281q-9 -6 -36.5 -12t-58 -10t-50.5 -4q-121 0 -189.5 38t-111.5 129h-22q-30 -50 -71 -87.5t-94.5 -58.5t-120.5 -21z" />
    <glyph glyph-name="beta" unicode="&#x3b2;" horiz-adv-x="1257" 
d="M630 1567q143 0 250 -45.5t166.5 -133.5t59.5 -217q0 -147 -64 -232.5t-183 -107.5v-8q157 -22 241.5 -112.5t84.5 -266.5q0 -142 -53.5 -246.5t-150 -161t-225.5 -56.5q-81 0 -153 16t-123 43v-531h-361v1588q0 158 65 262.5t180 156.5t266 52zM619 1283q-42 0 -73 -21
t-48.5 -69t-17.5 -129v-733q25 -21 74 -37.5t89 -16.5q81 0 128.5 50.5t47.5 150.5q0 62 -24.5 101t-64.5 58t-87 19h-49v285h33q60 0 89.5 49t29.5 126q0 80 -35 123.5t-92 43.5z" />
    <glyph glyph-name="gamma" unicode="&#x3b3;" horiz-adv-x="1125" 
d="M1125 1133l-369 -1119q-26 -78 -45.5 -168t-30 -177.5t-10.5 -160.5h-384q0 58 12 147.5t32 185t42 171.5l-371 1121h382l98 -348q17 -59 33 -121.5t28 -125t17 -122.5h7q5 39 16 92t27.5 118t37.5 140l103 367h375z" />
    <glyph glyph-name="delta" unicode="&#x3b4;" horiz-adv-x="1171" 
d="M644 1575q123 0 235 -29t217 -86l-129 -275q-92 52 -171.5 79t-139.5 27q-57 0 -83.5 -16.5t-26.5 -49.5q0 -25 16.5 -47t63 -54.5t136.5 -89.5q115 -73 189 -155t109 -182.5t35 -228.5q0 -155 -62.5 -264t-178.5 -166.5t-275 -57.5q-155 0 -268.5 53.5t-175 156
t-61.5 248.5q0 111 34.5 199.5t106 154.5t183.5 107q-66 45 -111 98t-67 113t-22 125q0 158 112.5 249t333.5 91zM587 750q-34 -13 -68 -52t-56.5 -99t-22.5 -138q0 -61 17 -105.5t48.5 -68.5t76.5 -24t78 24.5t50.5 72t17.5 113.5q0 92 -38 161t-103 116z" />
    <glyph glyph-name="epsilon" unicode="&#x3b5;" horiz-adv-x="1019" 
d="M762 709v-248h-125q-85 0 -130.5 -12t-63 -34.5t-17.5 -54.5q0 -25 15 -47t54.5 -36t110.5 -14q99 0 188.5 25.5t159.5 62.5v-292q-86 -41 -179.5 -60t-227.5 -19q-263 0 -374 91.5t-111 250.5q0 101 64.5 174.5t183.5 91.5v10q-87 25 -137.5 91t-50.5 157q0 103 58 171
t158.5 102t228.5 34q107 0 200 -20.5t192 -68.5l-109 -257q-66 35 -128.5 53.5t-126.5 18.5q-66 0 -97.5 -19.5t-31.5 -55.5q0 -53 44 -74t149 -21h103z" />
    <glyph glyph-name="zeta" unicode="&#x3b6;" horiz-adv-x="963" 
d="M953 -18q0 -88 -32.5 -174t-90.5 -173h-367q40 50 70 103t46.5 96.5t16.5 63.5q0 27 -12.5 45.5t-56.5 37.5t-137 44q-124 34 -192 90t-95 143.5t-27 212.5q0 104 27.5 206.5t85 204t146 204.5t211.5 208q-21 -7 -47 -11.5t-52 -7t-51 -2.5h-272v283h808v-225
q-137 -126 -231 -237.5t-151 -213t-82.5 -198t-25.5 -193.5q0 -58 21 -94t74.5 -60.5t150.5 -49.5q97 -22 155 -64t84 -101.5t26 -137.5z" />
    <glyph glyph-name="eta" unicode="&#x3b7;" horiz-adv-x="1228" 
d="M758 1153q105 0 184.5 -46t124.5 -138.5t45 -231.5v-1229h-361v1130q0 102 -25.5 158t-87.5 56q-61 0 -95.5 -36t-48.5 -112t-14 -197v-507h-361v1133h277l43 -140h21q31 56 76 91.5t101.5 52t120.5 16.5z" />
    <glyph glyph-name="theta" unicode="&#x3b8;" horiz-adv-x="1193" 
d="M1118 780q0 -260 -55 -438.5t-170.5 -270t-298.5 -91.5q-262 0 -390 203t-128 597q0 262 53.5 440t168 268.5t296.5 90.5q262 0 393 -202.5t131 -596.5zM594 249q79 0 116.5 98.5t40.5 295.5h-309q3 -194 39 -294t113 -100zM598 1310q-75 0 -111 -97.5t-40 -300.5h306
q-6 203 -43 300.5t-112 97.5z" />
    <glyph glyph-name="iota" unicode="&#x3b9;" horiz-adv-x="787" 
d="M479 1133v-756q0 -56 28.5 -78t69.5 -22q46 0 84.5 10.5t88.5 32.5v-277q-54 -30 -121.5 -46.5t-150.5 -16.5q-111 0 -192 36t-124.5 120.5t-43.5 229.5v767h361z" />
    <glyph glyph-name="kappa" unicode="&#x3ba;" horiz-adv-x="1209" 
d="M1198 1133l-355 -489l371 -644h-403l-217 406l-113 -90v-316h-362v1133h362v-220q0 -82 -3 -150.5t-9 -124.5h7q21 37 47.5 82t56.5 88l221 325h397z" />
    <glyph glyph-name="lambda" unicode="&#x3bb;" horiz-adv-x="1224" 
d="M2 0l417 1061l-20 71q-25 74 -64 110.5t-102 36.5q-26 0 -54.5 -3.5t-54.5 -10.5v289q20 6 49 9.5t60 5.5t56 2q122 0 206 -37.5t143.5 -124t106.5 -232.5l233 -733q24 -71 46.5 -106t48 -46t58.5 -11q17 0 36 2.5t38 8.5v-286q-18 -7 -50 -13t-66 -9.5t-61 -3.5
q-101 0 -168 37.5t-111 109.5t-76 176l-58 176q-7 22 -12.5 42.5t-9.5 40t-7 37.5t-5 36h-7q-4 -43 -13.5 -85t-20.5 -71l-161 -479h-377z" />
    <glyph glyph-name="uni03BC" unicode="&#x3bc;" horiz-adv-x="1230" 
d="M1111 1133v-1133h-275l-46 147h-14q-19 -55 -47 -92t-61.5 -56t-70.5 -19q-46 0 -73 20t-51 63h-4q3 -28 5.5 -67.5t3.5 -82.5t1 -85v-320h-361v1625h361v-622q0 -114 26.5 -171.5t90.5 -57.5t96.5 43.5t44.5 121t12 179.5v507h362z" />
    <glyph glyph-name="nu" unicode="&#x3bd;" horiz-adv-x="1152" 
d="M2 1133h374l166 -639q5 -21 10.5 -45t10.5 -48.5t8 -48.5h8q51 106 83 220.5t47 251t15 309.5h363q0 -218 -40.5 -409t-130 -368.5t-238.5 -355.5h-319z" />
    <glyph glyph-name="xi" unicode="&#x3be;" horiz-adv-x="967" 
d="M76 426q0 94 27.5 166t84 125.5t143.5 91.5v8q-66 16 -110 48t-66 80t-22 110q0 52 22.5 98.5t67 81.5t107.5 49q-29 -3 -54 -5.5t-51.5 -4t-60.5 -1.5h-59v283h797v-283h-139q-59 0 -109 -10.5t-86.5 -33t-56 -58.5t-19.5 -88q0 -68 47 -103t161 -35h136v-281h-134
q-99 0 -155.5 -23.5t-80.5 -66t-24 -101.5q0 -50 17.5 -83.5t68 -57.5t150.5 -48q96 -22 155 -65.5t86 -104t27 -135.5q0 -88 -32.5 -173.5t-89.5 -170.5h-368q41 50 71 103t46.5 96.5t16.5 63.5q0 29 -12.5 49t-48 36t-105.5 33q-121 31 -198 87t-113.5 137t-36.5 186z" />
    <glyph glyph-name="omicron" unicode="&#x3bf;" horiz-adv-x="1181" 
d="M1103 569q0 -125 -31 -232.5t-95 -187.5t-161 -124.5t-228 -44.5q-122 0 -216.5 44t-160.5 123.5t-100.5 187t-34.5 234.5q0 176 58 307t173 204t286 73q150 0 265 -68t180 -198t65 -318zM442 567q0 -99 15.5 -166.5t48 -102.5t85.5 -35q54 0 85.5 34.5t45.5 103
t14 168.5q0 101 -14 167.5t-46 100t-86 33.5q-78 0 -113 -75t-35 -228z" />
    <glyph glyph-name="pi" unicode="&#x3c0;" horiz-adv-x="1443" 
d="M1245 278q30 0 68.5 9.5t67.5 25.5v-262q-46 -32 -118.5 -51.5t-148.5 -19.5q-160 0 -233.5 93.5t-73.5 278.5v497h-221v-849h-362v849h-207v159l176 125h1188v-284h-213v-471q0 -53 22 -76.5t55 -23.5z" />
    <glyph glyph-name="rho" unicode="&#x3c1;" horiz-adv-x="1199" 
d="M1123 565q0 -171 -44.5 -303.5t-135.5 -207t-230 -74.5q-68 0 -128.5 20t-105.5 51h-21q8 -62 12.5 -136t4.5 -134v-273h-361v1051q0 177 54 311t166.5 208.5t289.5 74.5q151 0 263 -68t174 -199t62 -321zM619 870q-71 0 -107.5 -58.5t-36.5 -185.5v-295
q27 -30 65.5 -45.5t75.5 -15.5q72 0 106.5 64t34.5 231q0 169 -33.5 237t-104.5 68z" />
    <glyph glyph-name="uni03C2" unicode="&#x3c2;" horiz-adv-x="996" 
d="M605 1153q87 0 175.5 -22.5t177.5 -67.5l-100 -275q-63 34 -125.5 52t-121.5 18q-86 0 -127.5 -80t-41.5 -231q0 -82 19 -130.5t71.5 -77.5t151.5 -55q98 -23 156.5 -66.5t85 -103.5t26.5 -135q0 -88 -33 -173.5t-91 -170.5h-367q41 50 70.5 103t46 96.5t16.5 63.5
q0 29 -11.5 49.5t-52 39.5t-127.5 41q-78 21 -139 54.5t-102.5 90.5t-63.5 146.5t-22 222.5q0 202 61 338t179.5 204.5t288.5 68.5z" />
    <glyph glyph-name="sigma" unicode="&#x3c3;" horiz-adv-x="1265" 
d="M1131 477q0 -147 -63 -259t-181 -175t-285 -63q-165 0 -282.5 65t-180.5 186.5t-63 292.5q0 204 67 339t207.5 202.5t362.5 67.5h503v-284h-246q80 -67 120.5 -159.5t40.5 -212.5zM443 526q0 -80 18.5 -136.5t54.5 -86t90 -29.5q81 0 119.5 68t38.5 195q0 68 -10.5 120.5
t-30.5 98t-50 93.5h-19q-111 0 -161 -75.5t-50 -247.5z" />
    <glyph glyph-name="tau" unicode="&#x3c4;" horiz-adv-x="967" 
d="M913 1133v-284h-296v-463q0 -53 23 -81t68 -28q40 0 79.5 10.5t84.5 28.5v-274q-54 -28 -122.5 -44.5t-153.5 -16.5q-109 0 -185.5 36.5t-116 121.5t-39.5 229v481h-238v159l173 125h723z" />
    <glyph glyph-name="upsilon" unicode="&#x3c5;" horiz-adv-x="1226" 
d="M606 -16q-183 0 -290 64.5t-153.5 184t-46.5 285.5v615h361v-643q0 -114 33 -160.5t105 -46.5q79 0 117 72t38 258q0 122 -17.5 248.5t-50.5 271.5h362q25 -101 40 -186t21.5 -166t6.5 -171q0 -319 -134.5 -472.5t-391.5 -153.5z" />
    <glyph glyph-name="phi" unicode="&#x3c6;" horiz-adv-x="1577" 
d="M288 1162l271 -160q-58 -93 -91.5 -214.5t-33.5 -238.5q0 -77 20 -132t57.5 -89.5t91.5 -51.5v412q0 233 102 346t315 113q148 0 256 -64.5t167 -186t59 -292.5q0 -181 -68.5 -312t-192.5 -206.5t-292 -93.5v-484h-346v484q-162 13 -280.5 82t-182.5 190.5t-64 290.5
q0 175 54 322.5t158 284.5zM1023 863q-42 0 -58 -36t-16 -120v-431q68 7 109.5 51t61 115.5t19.5 159.5q0 84 -13 142t-38.5 88.5t-64.5 30.5z" />
    <glyph glyph-name="chi" unicode="&#x3c7;" horiz-adv-x="1179" 
d="M234 1152q101 0 169.5 -29.5t115 -95.5t83.5 -178l29 -91l161 375h372l-383 -769l138 -393q22 -68 41.5 -105.5t43.5 -51t59 -13.5q20 0 42 2.5t53 10.5v-277q-45 -14 -91 -21.5t-115 -7.5q-93 0 -159.5 32.5t-113.5 105.5t-83 194l-49 156l-200 -488h-394l448 884
l-116 337q-27 80 -59 106t-70 26q-23 0 -49.5 -4.5t-57.5 -15.5v283q36 12 83 20t102 8z" />
    <glyph glyph-name="psi" unicode="&#x3c8;" horiz-adv-x="1674" 
d="M1013 1554v-1271q75 9 121 38t67.5 91t21.5 168q0 132 -20 270t-60 283h350q48 -164 67 -295t19 -265q0 -195 -70 -322.5t-197 -192t-299 -74.5v-476h-347v476q-171 6 -294.5 62t-189.5 175t-66 316v596h356v-594q0 -91 21 -145t64 -79.5t109 -31.5v1271h347z" />
    <glyph glyph-name="omega" unicode="&#x3c9;" horiz-adv-x="1712" 
d="M1520 1133q35 -103 56.5 -195t31.5 -185.5t10 -201.5q0 -171 -51 -299.5t-151 -200t-245 -71.5q-125 0 -200 54.5t-110 167.5h-10q-35 -111 -108.5 -166.5t-202.5 -55.5q-145 0 -244.5 72t-150.5 200.5t-51 298.5q0 110 10 201.5t32 183t57 197.5h367q-55 -126 -82 -270
t-27 -296q0 -157 29 -220.5t94 -63.5q41 0 64.5 20t33.5 72.5t10 150.5v275h348v-275q1 -99 10 -151t32 -71t67 -21q47 0 74 35t38 97t11 146q0 144 -26.5 293.5t-84.5 278.5h369z" />
    <glyph glyph-name="iotadieresis" unicode="&#x3ca;" horiz-adv-x="787" 
d="M479 1133v-756q0 -56 28.5 -78t69.5 -22q46 0 84.5 10.5t88.5 32.5v-277q-54 -30 -121.5 -46.5t-150.5 -16.5q-111 0 -192 36t-124.5 120.5t-43.5 229.5v767h361zM-56 1413q0 79 44.5 118.5t113.5 39.5t115 -40.5t46 -117.5q0 -74 -46 -115t-115 -41t-113.5 40t-44.5 116
zM381 1413q0 79 45 118.5t115 39.5q71 0 116 -40.5t45 -117.5q0 -74 -45 -115t-116 -41t-115.5 40.5t-44.5 115.5z" />
    <glyph glyph-name="upsilondieresis" unicode="&#x3cb;" horiz-adv-x="1226" 
d="M606 -16q-183 0 -290 64.5t-153.5 184t-46.5 285.5v615h361v-643q0 -114 33 -160.5t105 -46.5q79 0 117 72t38 258q0 122 -17.5 248.5t-50.5 271.5h362q25 -101 40 -186t21.5 -166t6.5 -171q0 -319 -134.5 -472.5t-391.5 -153.5zM229 1413q0 79 44.5 118.5t113.5 39.5
t115 -40.5t46 -117.5q0 -74 -46 -115t-115 -41t-113.5 40t-44.5 116zM666 1413q0 79 45 118.5t115 39.5q71 0 116 -40.5t45 -117.5q0 -74 -45 -115t-116 -41t-115.5 40.5t-44.5 115.5z" />
    <glyph glyph-name="omicrontonos" unicode="&#x3cc;" horiz-adv-x="1181" 
d="M1103 569q0 -125 -31 -232.5t-95 -187.5t-161 -124.5t-228 -44.5q-122 0 -216.5 44t-160.5 123.5t-100.5 187t-34.5 234.5q0 176 58 307t173 204t286 73q150 0 265 -68t180 -198t65 -318zM442 567q0 -99 15.5 -166.5t48 -102.5t85.5 -35q54 0 85.5 34.5t45.5 103
t14 168.5q0 101 -14 167.5t-46 100t-86 33.5q-78 0 -113 -75t-35 -228zM464 1241v33q7 27 17 70t19.5 90.5t17.5 91.5t12 72h318v-27q-23 -53 -49.5 -107t-56 -109t-64.5 -114h-214z" />
    <glyph glyph-name="upsilontonos" unicode="&#x3cd;" horiz-adv-x="1226" 
d="M606 -16q-183 0 -290 64.5t-153.5 184t-46.5 285.5v615h361v-643q0 -114 33 -160.5t105 -46.5q79 0 117 72t38 258q0 122 -17.5 248.5t-50.5 271.5h362q25 -101 40 -186t21.5 -166t6.5 -171q0 -319 -134.5 -472.5t-391.5 -153.5zM481 1241v33q7 27 17 70t19.5 90.5
t17.5 91.5t12 72h318v-27q-23 -53 -49.5 -107t-56 -109t-64.5 -114h-214z" />
    <glyph glyph-name="omegatonos" unicode="&#x3ce;" horiz-adv-x="1712" 
d="M1520 1133q35 -103 56.5 -195t31.5 -185.5t10 -201.5q0 -171 -51 -299.5t-151 -200t-245 -71.5q-125 0 -200 54.5t-110 167.5h-10q-35 -111 -108.5 -166.5t-202.5 -55.5q-145 0 -244.5 72t-150.5 200.5t-51 298.5q0 110 10 201.5t32 183t57 197.5h367q-55 -126 -82 -270
t-27 -296q0 -157 29 -220.5t94 -63.5q41 0 64.5 20t33.5 72.5t10 150.5v275h348v-275q1 -99 10 -151t32 -71t67 -21q47 0 74 35t38 97t11 146q0 144 -26.5 293.5t-84.5 278.5h369zM730 1241v33q7 27 17 70t19.5 90.5t17.5 91.5t12 72h318v-27q-23 -53 -49.5 -107t-56 -109
t-64.5 -114h-214z" />
    <glyph glyph-name="uni03D1" unicode="&#x3d1;" horiz-adv-x="1323" 
d="M648 1577q128 0 223 -43t160.5 -122.5t103 -188t50.5 -239.5h118v-273h-106v-15.5v-15.5q-3 -147 -35.5 -274t-100 -222.5t-176 -149.5t-263.5 -54q-123 0 -208 29.5t-136.5 80t-75 114.5t-23.5 132q0 18 1.5 35t3 33t1.5 27q0 32 -11.5 49t-38.5 17q-14 0 -32.5 -6
t-31.5 -13l-67 237q51 28 122 49.5t163 21.5q96 0 166.5 -57.5t70.5 -167.5q0 -34 -2.5 -60t-5 -51t-2.5 -54q0 -65 31.5 -102t95.5 -37q58 0 100 37.5t66.5 128t27.5 249.5v22.5t-1 23.5q-197 12 -335 73.5t-210 166t-72 243.5q0 107 43 192t138 134.5t248 49.5zM656 1300
q-42 0 -63 -27t-21 -76q0 -51 26.5 -95.5t83 -73t146.5 -31.5q-8 76 -23 133t-36.5 94.5t-50 56.5t-62.5 19z" />
    <glyph glyph-name="uni03D2" unicode="&#x3d2;" horiz-adv-x="1231" 
d="M610 944q20 48 38.5 92t38 86t41 85t46.5 88q33 62 70 102t87 59t120 19q47 0 93 -8.5t85 -26.5v-283q-12 5 -31 10t-37 5q-35 0 -68.5 -32.5t-75.5 -108.5q-26 -41 -53.5 -92.5t-56 -111.5t-56 -126.5t-52.5 -137.5v-563h-373v554l-426 908h402z" />
    <glyph glyph-name="uni03D6" unicode="&#x3d6;" horiz-adv-x="1936" 
d="M1893 1133v-284h-209q14 -53 24.5 -107.5t16 -111t5.5 -115.5q0 -165 -51.5 -284.5t-151.5 -185t-245 -65.5q-126 0 -199.5 58t-108.5 164h-11q-37 -106 -109.5 -164t-202.5 -58q-217 0 -331 144.5t-114 390.5q0 61 5 116.5t16 109.5t26 108h-210v159l172 125h1678z
M1326 849h-719q-13 -45 -23 -97.5t-15.5 -107t-5.5 -107.5q0 -141 27.5 -197.5t94.5 -56.5q71 0 90 62t19 194v124h348v-124q0 -89 6 -145.5t29 -83.5t73 -27q63 0 93 56.5t30 190.5q0 51 -5.5 103.5t-15.5 107t-26 108.5z" />
    <glyph glyph-name="uni0400" unicode="&#x400;" horiz-adv-x="1016" 
d="M926 0h-786v1462h786v-306h-415v-247h384v-306h-384v-292h415v-311zM548 1899q26 -43 65.5 -100t79.5 -111t65 -88v-29h-251q-34 25 -83 65.5t-102.5 86t-100 87.5t-75.5 68v21h402z" />
    <glyph glyph-name="uni0401" unicode="&#x401;" horiz-adv-x="1016" 
d="M926 0h-786v1462h786v-306h-415v-247h384v-306h-384v-292h415v-311zM152 1743q0 79 44.5 118.5t113.5 39.5t115 -40.5t46 -117.5q0 -74 -46 -115t-115 -41t-113.5 40t-44.5 116zM589 1743q0 79 45 118.5t115 39.5q71 0 116 -40.5t45 -117.5q0 -74 -45 -115t-116 -41
t-115.5 40.5t-44.5 115.5z" />
    <glyph glyph-name="uni0402" unicode="&#x402;" horiz-adv-x="1489" 
d="M1013 -20q-43 0 -86 6t-78 18v298q21 -9 47 -16t48 -7q29 0 47 11t26.5 33.5t8.5 58.5v154q0 55 -26 81.5t-80 26.5h-198v-644h-372v1150h-307v312h1003v-312h-324v-194h230q218 0 331.5 -109.5t113.5 -301.5v-127q-1 -210 -93.5 -324t-290.5 -114z" />
    <glyph glyph-name="uni0403" unicode="&#x403;" horiz-adv-x="1044" 
d="M1005 1462v-310h-493v-1152h-372v1462h865zM1014 1899v-21q-28 -27 -73 -66.5t-96 -83t-101 -85t-90 -72.5h-252v29q34 46 72.5 98t75.5 104t64 97h400z" />
    <glyph glyph-name="uni0404" unicode="&#x404;" horiz-adv-x="1228" 
d="M757 1170q-62 0 -109 -19t-80.5 -55.5t-54.5 -89t-31 -119.5h486v-299h-488q5 -72 25.5 -127t57 -91.5t88 -55.5t117.5 -19q98 0 182.5 25.5t174.5 63.5v-319q-81 -40 -182 -62.5t-214 -22.5q-215 0 -356 89.5t-211 257t-70 400.5q0 167 43 305t126 239t205 156t279 55
q124 0 230.5 -29.5t196.5 -76.5l-110 -303q-73 43 -143.5 70t-161.5 27z" />
    <glyph glyph-name="uni0405" unicode="&#x405;" horiz-adv-x="1056" 
d="M997 444q0 -127 -58.5 -232.5t-173 -168.5t-284.5 -63q-82 0 -149.5 9t-129.5 29t-128 54v352q102 -59 208 -91t192 -32q51 0 83.5 14t48.5 38.5t16 56.5q0 35 -19 62t-67 58.5t-135 77.5q-73 40 -131.5 80.5t-100 91t-64 117.5t-22.5 158q0 136 60.5 231.5t172 146
t265.5 50.5q117 0 220 -29t196 -76l-107 -305q-85 46 -163 70t-145 24q-44 0 -72 -12.5t-41.5 -33.5t-13.5 -48q0 -36 20 -63.5t71.5 -59t146.5 -82.5q98 -51 165.5 -108.5t103 -133.5t35.5 -182z" />
    <glyph glyph-name="uni0406" unicode="&#x406;" horiz-adv-x="652" 
d="M140 0v1462h372v-1462h-372z" />
    <glyph glyph-name="uni0407" unicode="&#x407;" horiz-adv-x="652" 
d="M140 0v1462h372v-1462h-372zM-53 1743q0 79 44.5 118.5t113.5 39.5t115 -40.5t46 -117.5q0 -74 -46 -115t-115 -41t-113.5 40t-44.5 116zM384 1743q0 79 45 118.5t115 39.5q71 0 116 -40.5t45 -117.5q0 -74 -45 -115t-116 -41t-115.5 40.5t-44.5 115.5z" />
    <glyph glyph-name="uni0408" unicode="&#x408;" horiz-adv-x="658" 
d="M44 -459q-55 0 -102 6t-85 15v301q28 -8 60 -14.5t69 -6.5q62 0 97 26.5t49.5 83.5t14.5 151v1359h371v-1334q0 -220 -58 -348.5t-164.5 -183.5t-251.5 -55z" />
    <glyph glyph-name="uni0409" unicode="&#x409;" horiz-adv-x="1894" 
d="M177 -20q-47 0 -85.5 6t-68.5 16v298q23 -9 44 -14t42 -5q30 0 52 18.5t40.5 72.5t35.5 157q7 46 20 140.5t28.5 222.5t31.5 274.5t30 295.5h878v-518h77q178 0 297 -54t179 -155.5t60 -243.5q0 -233 -144.5 -362t-403.5 -129h-431v1139h-192q-6 -80 -15 -172t-20 -186
t-23 -182t-24.5 -161t-24.5 -120q-28 -112 -73 -187t-119 -112.5t-191 -38.5zM1225 304h59q92 0 137.5 43.5t45.5 128.5q0 55 -20.5 91t-60.5 54.5t-97 18.5h-64v-336z" />
    <glyph glyph-name="uni040A" unicode="&#x40a;" horiz-adv-x="1858" 
d="M140 0v1462h372v-527h308v527h366v-526h76q178 0 297.5 -53.5t179 -153.5t59.5 -238q0 -233 -144.5 -362t-403.5 -129h-430v629h-308v-629h-372zM1186 304h58q93 0 138 43.5t45 128.5q0 52 -21.5 86.5t-61.5 52t-95 17.5h-63v-328z" />
    <glyph glyph-name="uni040B" unicode="&#x40b;" horiz-adv-x="1496" 
d="M1046 1462v-312h-324v-194h230q217 0 331.5 -109.5t114.5 -301.5v-545h-372v536q0 55 -26 81.5t-80 26.5h-198v-644h-372v1150h-307v312h1003z" />
    <glyph glyph-name="uni040C" unicode="&#x40c;" horiz-adv-x="1279" 
d="M1293 0h-416l-365 751v-751h-372v1462h372v-697l365 697h404l-401 -696zM1109 1899v-21q-28 -27 -73 -66.5t-96 -83t-101 -85t-90 -72.5h-252v29q34 46 72.5 98t75.5 104t64 97h400z" />
    <glyph glyph-name="uni040D" unicode="&#x40d;" horiz-adv-x="1551" 
d="M140 1462h353v-596q0 -40 -1 -84t-3 -90.5t-5 -93t-7 -90.5h9l490 954h436v-1462h-353v581q0 36 1 81.5t3.5 96.5t6 103t7.5 102h-9l-492 -964h-436v1462zM816 1899q26 -43 65.5 -100t79.5 -111t65 -88v-29h-251q-34 25 -83 65.5t-102.5 86t-100 87.5t-75.5 68v21h402z
" />
    <glyph glyph-name="uni040E" unicode="&#x40e;" horiz-adv-x="1248" 
d="M1260 1462l-391 -1026q-56 -145 -123.5 -247t-172.5 -155.5t-275 -53.5q-52 0 -111.5 7.5t-113.5 22.5v316q45 -20 96 -28.5t95 -8.5q54 0 87.5 16.5t53.5 45.5t32 65l-422 1046h396l146 -412q15 -43 31 -92.5t30.5 -100t22.5 -96.5h12q11 52 26 105t31 102.5t27 87.5
l127 406h396zM1076 1942q-11 -117 -60 -201.5t-142 -129.5t-234 -45q-142 0 -235 42t-141 125.5t-57 208.5h291q3 -103 37.5 -146.5t104.5 -43.5q61 0 98.5 44.5t43.5 145.5h294z" />
    <glyph glyph-name="uni040F" unicode="&#x40f;" horiz-adv-x="1367" 
d="M1228 0h-365v-455h-361v455h-362v1462h372v-1150h344v1150h372v-1462z" />
    <glyph glyph-name="uni0410" unicode="&#x410;" horiz-adv-x="1332" 
d="M929 0l-63 280h-396l-64 -280h-406l417 1465h493l422 -1465h-403zM798 591l-61 284q-10 47 -24 109t-26.5 124.5t-19.5 108.5q-7 -45 -18.5 -105t-24.5 -122t-25 -113l-62 -286h261z" />
    <glyph glyph-name="uni0411" unicode="&#x411;" horiz-adv-x="1192" 
d="M140 0v1462h869v-309h-498v-209h76q178 0 297 -54t179 -155.5t60 -243.5q0 -233 -144 -362t-402 -129h-437zM511 304h59q93 0 137.5 43.5t44.5 128.5q0 55 -21.5 91t-61.5 54.5t-96 18.5h-62v-336z" />
    <glyph glyph-name="uni0412" unicode="&#x412;" horiz-adv-x="1262" 
d="M140 1462h467q282 0 409.5 -91t127.5 -273q0 -88 -29.5 -155t-77 -109t-103.5 -58v-10q68 -19 121.5 -59t84.5 -108t31 -171q0 -132 -62.5 -228t-177.5 -148t-274 -52h-517v1462zM511 897h98q81 0 118.5 39.5t37.5 105.5q0 64 -40 97t-123 33h-91v-275zM511 617v-320h115
q87 0 125 43t38 119q0 46 -17 81.5t-54.5 56t-97.5 20.5h-109z" />
    <glyph glyph-name="uni0413" unicode="&#x413;" horiz-adv-x="1044" 
d="M1005 1462v-310h-493v-1152h-372v1462h865z" />
    <glyph glyph-name="uni0414" unicode="&#x414;" horiz-adv-x="1501" 
d="M1292 1462v-1150h176v-767h-362v455h-735v-455h-362v767h107q59 119 106.5 252.5t83 278.5t58.5 300.5t33 318.5h895zM919 1155h-209q-9 -111 -26 -219t-42 -213.5t-57.5 -208t-73.5 -202.5h408v843z" />
    <glyph glyph-name="uni0415" unicode="&#x415;" horiz-adv-x="1016" 
d="M926 0h-786v1462h786v-306h-415v-247h384v-306h-384v-292h415v-311z" />
    <glyph glyph-name="uni0416" unicode="&#x416;" horiz-adv-x="1875" 
d="M383 764l-381 698h399l357 -703v703h358v-703l360 703h397l-384 -698l399 -764h-406l-366 747v-747h-358v747l-367 -747h-406z" />
    <glyph glyph-name="uni0417" unicode="&#x417;" horiz-adv-x="1212" 
d="M1072 1120q0 -144 -77 -231.5t-227 -116.5v-8q177 -17 265.5 -107.5t88.5 -238.5q0 -125 -62 -224t-189 -156.5t-323 -57.5q-153 0 -270.5 20t-202.5 56v332q51 -29 120.5 -50.5t141.5 -33.5t131 -12q148 0 210 37t62 123q0 79 -73 117.5t-219 38.5h-150v308h133
q106 0 164.5 13t81 43t22.5 81q0 58 -44 88.5t-140 30.5q-83 0 -158.5 -25.5t-142.5 -77.5l-146 265q76 55 151.5 87.5t165.5 47t208 14.5q147 0 254.5 -46t166 -127.5t58.5 -189.5z" />
    <glyph glyph-name="uni0418" unicode="&#x418;" horiz-adv-x="1551" 
d="M140 1462h353v-596q0 -40 -1 -84t-3 -90.5t-5 -93t-7 -90.5h9l490 954h436v-1462h-353v581q0 36 1 81.5t3.5 96.5t6 103t7.5 102h-9l-492 -964h-436v1462z" />
    <glyph glyph-name="uni0419" unicode="&#x419;" horiz-adv-x="1551" 
d="M140 1462h353v-596q0 -40 -1 -84t-3 -90.5t-5 -93t-7 -90.5h9l490 954h436v-1462h-353v581q0 36 1 81.5t3.5 96.5t6 103t7.5 102h-9l-492 -964h-436v1462zM1236 1942q-11 -117 -60 -201.5t-142 -129.5t-234 -45q-142 0 -235 42t-141 125.5t-57 208.5h291
q3 -103 37.5 -146.5t104.5 -43.5q61 0 98.5 44.5t43.5 145.5h294z" />
    <glyph glyph-name="uni041A" unicode="&#x41a;" horiz-adv-x="1279" 
d="M1293 0h-416l-365 751v-751h-372v1462h372v-697l365 697h404l-401 -696z" />
    <glyph glyph-name="uni041B" unicode="&#x41b;" horiz-adv-x="1404" 
d="M1266 0h-373v1139h-226q-7 -100 -19.5 -217t-27 -233t-30 -214t-30.5 -157q-28 -112 -73 -187t-119 -113t-191 -38q-47 0 -85.5 6t-68.5 16v298q23 -9 44 -14t42 -5q30 0 52 18.5t40.5 72.5t35.5 157q7 46 20 140.5t28.5 222.5t31.5 274.5t30 295.5h919v-1462z" />
    <glyph glyph-name="uni041C" unicode="&#x41c;" horiz-adv-x="1817" 
d="M743 0l-276 1018h-8q4 -53 8 -119t7 -134t3 -130v-635h-337v1462h501l266 -958h7l264 958h500v-1462h-349v641q0 62 2.5 129t5.5 131.5t7 115.5h-9l-275 -1017h-317z" />
    <glyph glyph-name="uni041D" unicode="&#x41d;" horiz-adv-x="1408" 
d="M1269 0h-373v603h-384v-603h-372v1462h372v-547h384v547h373v-1462z" />
    <glyph glyph-name="uni041E" unicode="&#x41e;" horiz-adv-x="1452" 
d="M1359 733q0 -176 -38 -315.5t-116 -237.5t-197.5 -149t-281.5 -51q-159 0 -278.5 51.5t-198.5 149t-118 237.5t-39 317q0 236 69.5 404t211 257t354.5 89q216 0 356 -89t208 -257t68 -406zM481 733q0 -140 26 -237.5t80.5 -148t138.5 -50.5q88 0 141.5 49.5t78 147
t24.5 239.5q0 215 -57 328t-186 113q-85 0 -139.5 -51.5t-80.5 -149.5t-26 -240z" />
    <glyph glyph-name="uni041F" unicode="&#x41f;" horiz-adv-x="1365" 
d="M140 0v1462h1087v-1462h-373v1150h-342v-1150h-372z" />
    <glyph glyph-name="uni0420" unicode="&#x420;" horiz-adv-x="1180" 
d="M610 1462q252 0 378 -121t126 -344q0 -104 -28.5 -197t-89.5 -163.5t-159 -111t-236 -40.5h-90v-485h-371v1462h470zM589 1155h-78v-361h55q49 0 89 19.5t63 63t23 114.5q0 78 -37.5 121t-114.5 43z" />
    <glyph glyph-name="uni0421" unicode="&#x421;" horiz-adv-x="1184" 
d="M732 1172q-60 0 -107.5 -30.5t-80.5 -88.5t-50.5 -140.5t-17.5 -187.5q0 -143 30.5 -239.5t91.5 -145t154 -48.5q84 0 162 27t157 65v-323q-83 -42 -174.5 -61.5t-194.5 -19.5q-206 0 -341.5 90.5t-202 258t-66.5 398.5q0 168 42 306.5t122.5 239t197 155.5t265.5 55
q102 0 205.5 -24.5t203.5 -78.5l-107 -298q-69 39 -139.5 64.5t-149.5 25.5z" />
    <glyph glyph-name="uni0422" unicode="&#x422;" horiz-adv-x="1076" 
d="M724 0h-370v1150h-311v312h990v-312h-309v-1150z" />
    <glyph glyph-name="uni0423" unicode="&#x423;" horiz-adv-x="1248" 
d="M1260 1462l-391 -1026q-56 -145 -123.5 -247t-172.5 -155.5t-275 -53.5q-52 0 -111.5 7.5t-113.5 22.5v316q45 -20 96 -28.5t95 -8.5q54 0 87.5 16.5t53.5 45.5t32 65l-422 1046h396l146 -412q15 -43 31 -92.5t30.5 -100t22.5 -96.5h12q11 52 26 105t31 102.5t27 87.5
l127 406h396z" />
    <glyph glyph-name="uni0424" unicode="&#x424;" horiz-adv-x="1682" 
d="M1020 1483v-180q202 0 332.5 -74t194 -198t63.5 -275q0 -117 -34.5 -217.5t-106.5 -175t-183.5 -116.5t-265.5 -42v-225h-358v225q-157 0 -269 40.5t-183 114.5t-104.5 175.5t-33.5 222.5q0 107 31 205t99.5 174.5t182 121t277.5 44.5v180h358zM662 1009
q-86 0 -135.5 -31.5t-70 -87t-20.5 -131.5q0 -86 20 -144t69.5 -87.5t136.5 -29.5v511zM1020 1009v-511q87 0 136.5 31t69.5 89.5t20 140.5q0 74 -22 130t-71.5 88t-132.5 32z" />
    <glyph glyph-name="uni0425" unicode="&#x425;" horiz-adv-x="1273" 
d="M1272 0h-416l-224 440l-225 -440h-407l410 740l-385 722h399l204 -428l193 428h410l-383 -732z" />
    <glyph glyph-name="uni0426" unicode="&#x426;" horiz-adv-x="1525" 
d="M1491 312v-767h-361v455h-990v1462h372v-1150h358v1150h372v-1150h249z" />
    <glyph glyph-name="uni0427" unicode="&#x427;" horiz-adv-x="1359" 
d="M1220 0h-373v536q-110 -42 -203.5 -62.5t-176.5 -20.5q-172 0 -270.5 103t-98.5 288v618h373v-498q0 -103 31 -151t106 -48q47 0 107.5 15.5t131.5 47.5v634h373v-1462z" />
    <glyph glyph-name="uni0428" unicode="&#x428;" horiz-adv-x="2025" 
d="M1886 0h-1746v1462h372v-1150h316v1150h368v-1150h317v1150h373v-1462z" />
    <glyph glyph-name="uni0429" unicode="&#x429;" horiz-adv-x="2167" 
d="M2134 312v-767h-361v455h-1633v1462h372v-1150h316v1150h368v-1150h317v1150h373v-1150h248z" />
    <glyph glyph-name="uni042A" unicode="&#x42a;" horiz-adv-x="1402" 
d="M355 0v1150h-312v312h682v-518h77q178 0 297.5 -54t179.5 -155.5t60 -243.5q0 -233 -144.5 -362t-402.5 -129h-437zM725 304h59q93 0 138 43.5t45 128.5q0 55 -21.5 91t-62 54.5t-95.5 18.5h-63v-336z" />
    <glyph glyph-name="uni042B" unicode="&#x42b;" horiz-adv-x="1745" 
d="M140 0v1462h371v-518h70q178 0 297 -54t179 -155.5t60 -243.5q0 -233 -144.5 -362t-402.5 -129h-430zM511 304h52q93 0 138 43.5t45 128.5q0 55 -22 91t-61.5 54.5t-96.5 18.5h-55v-336zM1234 0v1462h373v-1462h-373z" />
    <glyph glyph-name="uni042C" unicode="&#x42c;" horiz-adv-x="1187" 
d="M140 0v1462h371v-518h76q178 0 297 -54t179 -155.5t60 -243.5q0 -233 -144.5 -362t-402.5 -129h-436zM511 305h59q93 0 137.5 43.5t44.5 127.5q0 55 -21.5 91.5t-61.5 54.5t-96 18h-62v-335z" />
    <glyph glyph-name="uni042D" unicode="&#x42d;" horiz-adv-x="1228" 
d="M472 1170q-92 0 -164.5 -27t-146.5 -70l-102 299q89 49 200 79.5t243 30.5q151 0 269 -48t199.5 -141t123.5 -230t42 -315q0 -233 -71 -406t-213.5 -267.5t-358.5 -94.5q-112 0 -213 21t-182 57v326q90 -38 177 -63.5t184 -25.5q66 0 118 18.5t88 54.5t57 91t26 129h-488
v299h485q-9 62 -29.5 113.5t-54 89.5t-80.5 59t-109 21z" />
    <glyph glyph-name="uni042E" unicode="&#x42e;" horiz-adv-x="1977" 
d="M1882 733q0 -176 -36 -315.5t-109 -237.5t-185 -149t-265 -51q-180 0 -304 73.5t-193 213t-86 335.5h-192v-602h-372v1462h372v-548h197q22 181 92 309t191.5 195t295.5 67q204 0 335.5 -89t195 -257t63.5 -406zM1072 733q0 -140 22.5 -237.5t69 -148t119.5 -50.5
q75 0 121.5 49.5t68 147t21.5 239.5q0 144 -21.5 242t-68 148.5t-120.5 50.5t-120.5 -51.5t-69 -149.5t-22.5 -240z" />
    <glyph glyph-name="uni042F" unicode="&#x42f;" horiz-adv-x="1254" 
d="M659 541l-258 -541h-416l353 638q-63 40 -111.5 96t-75.5 130t-27 166q0 216 138 324t413 108h439v-1462h-371v541h-84zM743 1167h-62q-66 0 -105 -20.5t-56 -55.5t-17 -79q0 -100 49 -144t135 -44h56v343z" />
    <glyph glyph-name="uni0430" unicode="&#x430;" horiz-adv-x="1144" 
d="M617 1153q192 0 301.5 -103.5t109.5 -306.5v-743h-255l-65 150h-7q-42 -58 -87.5 -96t-104 -56t-140.5 -18q-98 0 -166.5 46.5t-104 129t-35.5 190.5q0 182 111.5 271t324.5 98l168 6v23q0 72 -32 105.5t-91 33.5q-58 0 -129 -22t-151 -62l-99 252q90 50 203 76t249 26z
M668 506l-76 -4q-87 -3 -126 -37.5t-39 -99.5q0 -58 25.5 -86.5t71.5 -28.5q60 0 102 45t42 117v94z" />
    <glyph glyph-name="uni0431" unicode="&#x431;" horiz-adv-x="1196" 
d="M77 678q0 235 54 406t183 279.5t353 154.5q75 15 181 30t234 27l33 -311l-100 -10t-125 -15t-122.5 -18.5t-93.5 -19.5q-93 -20 -143.5 -59.5t-71 -100.5t-25.5 -148h16q19 42 57 79.5t92.5 61t122.5 23.5q118 0 206.5 -53t137.5 -161t49 -274q0 -189 -64 -320.5
t-181 -200t-276 -68.5q-117 0 -212 41.5t-163 126.5t-105 217t-37 313zM609 263q44 0 75 27.5t48 86t17 149.5q0 121 -29.5 190t-98.5 69q-38 0 -75 -24t-64.5 -57t-38.5 -61q0 -75 9.5 -143.5t29.5 -122t51.5 -84t75.5 -30.5z" />
    <glyph glyph-name="uni0432" unicode="&#x432;" horiz-adv-x="1175" 
d="M1079 840q0 -93 -52 -160.5t-151 -85.5v-8q108 -14 170 -84t62 -178q0 -96 -45.5 -169t-148.5 -114t-276 -41h-519v1133h521q150 0 247 -32.5t144.5 -98t47.5 -162.5zM742 362q0 49 -28 75.5t-96 26.5h-138v-213h136q65 0 95.5 29.5t30.5 81.5zM718 788q0 47 -25.5 70.5
t-75.5 23.5h-137v-177h130q54 0 81 23.5t27 59.5z" />
    <glyph glyph-name="uni0433" unicode="&#x433;" horiz-adv-x="913" 
d="M873 1133v-284h-393v-849h-361v1133h754z" />
    <glyph glyph-name="uni0434" unicode="&#x434;" horiz-adv-x="1315" 
d="M1142 1133v-849h149v-700h-333v416h-601v-416h-332v700h99q51 104 92 239.5t69 291t41 318.5h816zM781 849h-166q-11 -100 -26 -188t-38.5 -178.5t-57.5 -198.5h288v565z" />
    <glyph glyph-name="uni0435" unicode="&#x435;" horiz-adv-x="1127" 
d="M575 1152q150 0 258 -58.5t165.5 -173.5t57.5 -285v-174h-620q3 -101 57.5 -155.5t163.5 -54.5q92 0 169.5 20.5t163.5 66.5v-276q-77 -43 -167.5 -62.5t-213.5 -19.5q-168 0 -287 64t-182.5 193t-63.5 323q0 197 60 328.5t171.5 197.5t267.5 66zM586 891
q-61 0 -101.5 -44t-44.5 -146h285q0 61 -16.5 103.5t-47.5 64.5t-75 22z" />
    <glyph glyph-name="uni0436" unicode="&#x436;" horiz-adv-x="1808" 
d="M1780 1133l-342 -541l374 -592h-395l-336 575v-575h-354v575l-335 -575h-396l374 592l-342 541h387l312 -549v549h354v-549l312 549h387z" />
    <glyph glyph-name="uni0437" unicode="&#x437;" horiz-adv-x="1009" 
d="M453 1153q128 0 228.5 -34t158.5 -102t58 -171q0 -91 -51 -157t-137 -91v-10q80 -11 132.5 -49t78.5 -93.5t26 -123.5q0 -105 -55 -182t-165.5 -118.5t-277.5 -41.5q-87 0 -152.5 7.5t-120 23.5t-110.5 40v292q69 -33 155.5 -56.5t186.5 -23.5q69 0 107 14t53 36t15 47
q0 32 -16 54.5t-59 34.5t-126 12h-126v248h104q106 0 149.5 21t43.5 74q0 36 -31 55.5t-98 19.5q-64 0 -126 -18.5t-129 -53.5l-108 257q100 50 192.5 69.5t199.5 19.5z" />
    <glyph glyph-name="uni0438" unicode="&#x438;" horiz-adv-x="1322" 
d="M456 1133v-387q0 -39 -1 -77.5t-3.5 -77t-5.5 -79t-7 -82.5l375 703h388v-1133h-335v383q0 54 2 109t5.5 109t8.5 104l-377 -705h-387v1133h337z" />
    <glyph glyph-name="uni0439" unicode="&#x439;" horiz-adv-x="1322" 
d="M456 1133v-387q0 -39 -1 -77.5t-3.5 -77t-5.5 -79t-7 -82.5l375 703h388v-1133h-335v383q0 54 2 109t5.5 109t8.5 104l-377 -705h-387v1133h337zM1101 1612q-11 -117 -60 -201.5t-142 -129.5t-234 -45q-142 0 -235 42t-141 125.5t-57 208.5h291q3 -103 37.5 -146.5
t104.5 -43.5q61 0 98.5 44.5t43.5 145.5h294z" />
    <glyph glyph-name="uni043A" unicode="&#x43a;" horiz-adv-x="1236" 
d="M819 1133h393l-363 -543l391 -590h-405l-355 575v-575h-361v1133h361v-549z" />
    <glyph glyph-name="uni043B" unicode="&#x43b;" horiz-adv-x="1262" 
d="M1143 0h-361v842h-187q-19 -241 -46 -406t-72 -265.5t-115 -145.5t-176 -45q-45 0 -89 8t-79 22v283q17 -10 36 -14t41 -4q26 0 47 23.5t38.5 80.5t33 155t29 245.5t25.5 353.5h875v-1133z" />
    <glyph glyph-name="uni043C" unicode="&#x43c;" horiz-adv-x="1593" 
d="M1475 1133v-1133h-331v507q0 77 4.5 155.5t10.5 146.5h-7l-232 -809h-247l-233 810h-7q7 -71 11 -146.5t4 -161.5v-502h-328v1133h499l179 -640l183 640h494z" />
    <glyph glyph-name="uni043D" unicode="&#x43d;" horiz-adv-x="1225" 
d="M480 1133v-411h264v411h361v-1133h-361v437h-264v-437h-361v1133h361z" />
    <glyph glyph-name="uni043E" unicode="&#x43e;" horiz-adv-x="1181" 
d="M1103 569q0 -125 -31 -232.5t-95 -187.5t-161 -124.5t-228 -44.5q-122 0 -216.5 44t-160.5 123.5t-100.5 187t-34.5 234.5q0 176 58 307t173 204t286 73q150 0 265 -68t180 -198t65 -318zM442 567q0 -99 15.5 -166.5t48 -102.5t85.5 -35q54 0 85.5 34.5t45.5 103
t14 168.5q0 101 -14 167.5t-46 100t-86 33.5q-78 0 -113 -75t-35 -228z" />
    <glyph glyph-name="uni043F" unicode="&#x43f;" horiz-adv-x="1217" 
d="M1097 1133v-1133h-362v849h-255v-849h-361v1133h978z" />
    <glyph glyph-name="uni0440" unicode="&#x440;" horiz-adv-x="1195" 
d="M750 1153q173 0 271 -154t98 -433q0 -187 -47 -318t-130.5 -199.5t-193.5 -68.5q-66 0 -116 18.5t-87 52t-65 77.5h-11q5 -57 8 -107t3 -96v-417h-361v1625h292l52 -145h17q33 57 71 93.5t86.5 54t112.5 17.5zM621 862q-51 0 -81.5 -28t-44.5 -87t-15 -151v-48
q0 -90 13.5 -149.5t44.5 -89t83 -29.5q43 0 72 30t44 93.5t15 162.5q0 155 -33.5 225.5t-97.5 70.5z" />
    <glyph glyph-name="uni0441" unicode="&#x441;" horiz-adv-x="996" 
d="M586 -20q-162 0 -276 61.5t-174 190.5t-60 329q0 186 62.5 318.5t181 203t284.5 70.5q99 0 184 -22t159 -64l-102 -276q-60 32 -115.5 49.5t-113.5 17.5q-52 0 -91 -33.5t-61 -99t-22 -163.5t22 -161.5t62 -93.5t95 -30q75 0 149 26t143 74v-297q-66 -48 -146 -74
t-181 -26z" />
    <glyph glyph-name="uni0442" unicode="&#x442;" horiz-adv-x="1082" 
d="M1042 849h-320v-849h-361v849h-321v284h1002v-284z" />
    <glyph glyph-name="uni0443" unicode="&#x443;" horiz-adv-x="1128" 
d="M1 1133h380l156 -571q6 -24 11.5 -52t9.5 -54.5t5 -49.5h8q4 37 11 74.5t18 78.5l154 574h371l-395 -1205q-48 -146 -110.5 -239t-150.5 -137t-214 -44q-47 0 -84 5.5t-68 11.5v299q21 -5 48 -8.5t54 -3.5q53 0 85.5 19.5t55 61.5t44.5 108l5 15z" />
    <glyph glyph-name="uni0444" unicode="&#x444;" horiz-adv-x="1617" 
d="M984 1556v-423q184 -15 308 -91t187 -198.5t63 -278.5q0 -159 -62.5 -280.5t-186 -194.5t-309.5 -90v-492h-344v492q-182 18 -308 94.5t-191 198t-65 272.5q0 164 59.5 287t183.5 195.5t317 85.5v423h348zM636 849q-53 -2 -98 -40t-73 -101.5t-28 -142.5q0 -81 25.5 -144
t70.5 -99t103 -38v565zM984 849v-565q58 2 102 38t69.5 99t25.5 144q0 121 -57 201t-140 83z" />
    <glyph glyph-name="uni0445" unicode="&#x445;" horiz-adv-x="1132" 
d="M324 578l-301 555h402l141 -307l141 307h402l-303 -555l316 -578h-403l-157 332l-153 -332h-399z" />
    <glyph glyph-name="uni0446" unicode="&#x446;" horiz-adv-x="1364" 
d="M1340 -416h-332v416h-889v1133h361v-849h301v849h361v-849h198v-700z" />
    <glyph glyph-name="uni0447" unicode="&#x447;" horiz-adv-x="1227" 
d="M440 1133v-404q0 -58 22.5 -88t68.5 -30t101 13.5t114 37.5v471h362v-1133h-362v412q-67 -34 -147 -59t-164 -25q-181 0 -268.5 94.5t-87.5 292.5v418h361z" />
    <glyph glyph-name="uni0448" unicode="&#x448;" horiz-adv-x="1846" 
d="M1728 1133v-1133h-1609v1133h361v-849h266v849h356v-849h263v849h363z" />
    <glyph glyph-name="uni0449" unicode="&#x449;" horiz-adv-x="1950" 
d="M1728 1133v-849h196v-700h-331v416h-1474v1133h361v-849h266v849h356v-849h263v849h363z" />
    <glyph glyph-name="uni044A" unicode="&#x44a;" horiz-adv-x="1300" 
d="M699 1133v-408h86q164 0 265 -38.5t147.5 -115.5t46.5 -195q0 -121 -48.5 -205t-150.5 -127.5t-264 -43.5h-444v842h-297v291h659zM755 474h-56v-223h60q62 0 92.5 28t30.5 79q0 56 -27 86t-100 30z" />
    <glyph glyph-name="uni044B" unicode="&#x44b;" horiz-adv-x="1624" 
d="M119 0v1133h361v-408h86q165 0 266 -38.5t147 -115.5t46 -195q0 -121 -48 -205t-150.5 -127.5t-265.5 -43.5h-442zM480 251h61q61 0 92 28t31 79q0 56 -27 86t-100 30h-57v-223zM1142 0v1133h361v-1133h-361z" />
    <glyph glyph-name="uni044C" unicode="&#x44c;" horiz-adv-x="1082" 
d="M480 725h86q165 0 266 -38.5t147 -115.5t46 -195q0 -121 -48 -205t-150.5 -127.5t-265.5 -43.5h-442v1133h361v-408zM664 358q0 56 -27 86t-100 30h-57v-223h61q61 0 92 28t31 79z" />
    <glyph glyph-name="uni044D" unicode="&#x44d;" horiz-adv-x="1009" 
d="M414 -20q-101 0 -184.5 21t-155.5 68v282q74 -44 151 -69.5t149 -25.5q47 0 88 19t68.5 59.5t32.5 105.5h-336v246h336q-9 97 -55 145.5t-116 48.5q-61 0 -124.5 -18t-118.5 -49l-100 251q74 39 167.5 64t200.5 25q160 0 275.5 -67t178 -196t62.5 -316q0 -184 -57 -317.5
t-172 -205t-290 -71.5z" />
    <glyph glyph-name="uni044E" unicode="&#x44e;" horiz-adv-x="1676" 
d="M1600 569q0 -186 -60 -318t-171.5 -201.5t-268.5 -69.5q-128 0 -229 47.5t-166.5 148.5t-88.5 261h-136v-437h-361v1133h361v-411h138q23 139 87.5 235t166.5 146t234 50q146 0 257 -70t174 -200.5t63 -313.5zM972 567q0 -99 13 -166.5t41.5 -102.5t76.5 -35
q47 0 75.5 34.5t41.5 103t13 168.5q0 101 -13 167.5t-42 100t-77 33.5q-46 0 -74.5 -33.5t-41.5 -100.5t-13 -169z" />
    <glyph glyph-name="uni044F" unicode="&#x44f;" horiz-adv-x="1120" 
d="M365 0h-382l259 435q-51 27 -89 74t-60 113t-22 148q0 177 116.5 270t320.5 93h494v-1133h-362v393h-84zM432 758q0 -47 30 -80.5t97 -33.5h81v238h-83q-63 0 -94 -35.5t-31 -88.5z" />
    <glyph glyph-name="uni0450" unicode="&#x450;" horiz-adv-x="1127" 
d="M575 1152q150 0 258 -58.5t165.5 -173.5t57.5 -285v-174h-620q3 -101 57.5 -155.5t163.5 -54.5q92 0 169.5 20.5t163.5 66.5v-276q-77 -43 -167.5 -62.5t-213.5 -19.5q-168 0 -287 64t-182.5 193t-63.5 323q0 197 60 328.5t171.5 197.5t267.5 66zM586 891
q-61 0 -101.5 -44t-44.5 -146h285q0 61 -16.5 103.5t-47.5 64.5t-75 22zM586 1569q26 -43 65.5 -100t79.5 -111t65 -88v-29h-251q-34 25 -83 65.5t-102.5 86t-100 87.5t-75.5 68v21h402z" />
    <glyph glyph-name="uni0451" unicode="&#x451;" horiz-adv-x="1127" 
d="M575 1152q150 0 258 -58.5t165.5 -173.5t57.5 -285v-174h-620q3 -101 57.5 -155.5t163.5 -54.5q92 0 169.5 20.5t163.5 66.5v-276q-77 -43 -167.5 -62.5t-213.5 -19.5q-168 0 -287 64t-182.5 193t-63.5 323q0 197 60 328.5t171.5 197.5t267.5 66zM586 891
q-61 0 -101.5 -44t-44.5 -146h285q0 61 -16.5 103.5t-47.5 64.5t-75 22zM190 1413q0 79 44.5 118.5t113.5 39.5t115 -40.5t46 -117.5q0 -74 -46 -115t-115 -41t-113.5 40t-44.5 116zM627 1413q0 79 45 118.5t115 39.5q71 0 116 -40.5t45 -117.5q0 -74 -45 -115t-116 -41
t-115.5 40.5t-44.5 115.5z" />
    <glyph glyph-name="uni0452" unicode="&#x452;" horiz-adv-x="1238" 
d="M743 -492q-42 0 -101 8t-94 17v292q30 -9 54.5 -13t53.5 -4q47 0 75.5 34t28.5 120v589q0 113 -27.5 170t-84.5 57q-58 0 -93 -35.5t-49.5 -111.5t-14.5 -198v-433h-362v1172h-136v237h136v147h363v-147h206v-237h-206v-28q0 -43 -6.5 -105t-16.5 -119h21q30 56 69.5 91
t91.5 52t116 17q106 0 186 -46.5t125 -138.5t45 -230v-757q0 -113 -40 -203.5t-124 -143.5t-216 -53z" />
    <glyph glyph-name="uni0453" unicode="&#x453;" horiz-adv-x="913" 
d="M873 1133v-284h-393v-849h-361v1133h754zM918 1569v-21q-28 -27 -73 -66.5t-96 -83t-101 -85t-90 -72.5h-252v29q34 46 72.5 98t75.5 104t64 97h400z" />
    <glyph glyph-name="uni0454" unicode="&#x454;" horiz-adv-x="1010" 
d="M594 -20q-165 0 -280.5 63.5t-176.5 192.5t-61 324t63.5 327.5t183.5 199t289 66.5q90 0 177 -21.5t171 -63.5l-100 -257q-65 35 -128.5 52t-124.5 17q-43 0 -76.5 -21t-55.5 -64t-29 -109h327v-246h-326q7 -63 30 -104t60.5 -60.5t86.5 -19.5q76 0 150 23.5t154 71.5
v-279q-72 -47 -153.5 -69.5t-180.5 -22.5z" />
    <glyph glyph-name="uni0455" unicode="&#x455;" horiz-adv-x="935" 
d="M870 348q0 -115 -47 -197.5t-143 -126.5t-243 -44q-102 0 -190 13.5t-176 49.5v313q84 -43 177 -67.5t163 -24.5q56 0 82.5 15t26.5 47q0 22 -15 39.5t-59 41.5t-131 63q-82 37 -136.5 85.5t-82 113t-27.5 150.5q0 162 112 248t306 86q100 0 188.5 -24.5t181.5 -71.5
l-94 -252q-67 36 -138.5 60t-126.5 24q-41 0 -62 -12.5t-21 -37.5q0 -19 13.5 -34.5t55 -37.5t124.5 -62q84 -39 142.5 -86.5t89 -112t30.5 -158.5z" />
    <glyph glyph-name="uni0456" unicode="&#x456;" horiz-adv-x="605" 
d="M482 1133v-1133h-361v1133h361zM302 1589q88 0 140.5 -39.5t52.5 -134.5q0 -93 -53.5 -132.5t-139.5 -39.5t-138.5 39.5t-52.5 132.5q0 96 51 135t140 39z" />
    <glyph glyph-name="uni0457" unicode="&#x457;" horiz-adv-x="605" 
d="M482 0h-361v1133h361v-1133zM-77 1413q0 79 44.5 118.5t113.5 39.5t115 -40.5t46 -117.5q0 -74 -46 -115t-115 -41t-113.5 40t-44.5 116zM360 1413q0 79 45 118.5t115 39.5q71 0 116 -40.5t45 -117.5q0 -74 -45 -115t-116 -41t-115.5 40.5t-44.5 115.5z" />
    <glyph glyph-name="uni0458" unicode="&#x458;" horiz-adv-x="604" 
d="M100 -492q-44 0 -97 7t-94 18v293q29 -9 54 -13.5t52 -4.5q48 0 76.5 34t28.5 120v1171h361v-1225q0 -119 -40.5 -209t-124.5 -140t-216 -51zM110 1415q0 96 51 135t140 39q88 0 140.5 -39.5t52.5 -134.5q0 -93 -53.5 -132.5t-139.5 -39.5t-138.5 39.5t-52.5 132.5z" />
    <glyph glyph-name="uni0459" unicode="&#x459;" horiz-adv-x="1720" 
d="M1118 1133v-408h39q180 0 291.5 -37.5t162.5 -115t51 -197.5q0 -122 -48 -205.5t-150 -126.5t-265 -43h-438v842h-166q-19 -241 -46 -406t-72 -265.5t-115 -145.5t-176 -45q-45 0 -89 8t-79 22v283q17 -10 36 -14t41 -4q26 0 47 23.5t38.5 80.5t33 155t29 245.5
t25.5 353.5h850zM1175 474h-57v-223h60q61 0 92 28t31 79q0 56 -27 86t-99 30z" />
    <glyph glyph-name="uni045A" unicode="&#x45a;" horiz-adv-x="1673" 
d="M1072 1133v-408h39q180 0 291 -37.5t162.5 -115t51.5 -197.5q0 -122 -48 -205.5t-150 -126.5t-265 -43h-439v442h-234v-442h-361v1133h361v-408h234v408h358zM1128 474h-56v-223h60q61 0 92 28t31 79q0 56 -27 86t-100 30z" />
    <glyph glyph-name="uni045B" unicode="&#x45b;" horiz-adv-x="1238" 
d="M492 1556v-147h206v-237h-207v-28q0 -43 -6 -105t-16 -119h21q30 56 69.5 91t91.5 52t116 17q106 0 186 -46.5t125 -138.5t45 -230v-665h-363v551q0 113 -27.5 170t-84.5 57q-60 0 -94.5 -35.5t-48.5 -111.5t-14 -198v-433h-362v1172h-136v237h136v147h363z" />
    <glyph glyph-name="uni045C" unicode="&#x45c;" horiz-adv-x="1236" 
d="M819 1133h393l-363 -543l391 -590h-405l-355 575v-575h-361v1133h361v-549zM1069 1569v-21q-28 -27 -73 -66.5t-96 -83t-101 -85t-90 -72.5h-252v29q34 46 72.5 98t75.5 104t64 97h400z" />
    <glyph glyph-name="uni045D" unicode="&#x45d;" horiz-adv-x="1322" 
d="M456 1133v-387q0 -39 -1 -77.5t-3.5 -77t-5.5 -79t-7 -82.5l375 703h388v-1133h-335v383q0 54 2 109t5.5 109t8.5 104l-377 -705h-387v1133h337zM681 1569q26 -43 65.5 -100t79.5 -111t65 -88v-29h-251q-34 25 -83 65.5t-102.5 86t-100 87.5t-75.5 68v21h402z" />
    <glyph glyph-name="uni045E" unicode="&#x45e;" horiz-adv-x="1128" 
d="M1 1133h380l156 -571q6 -24 11.5 -52t9.5 -54.5t5 -49.5h8q4 37 11 74.5t18 78.5l154 574h371l-395 -1205q-48 -146 -110.5 -239t-150.5 -137t-214 -44q-47 0 -84 5.5t-68 11.5v299q21 -5 48 -8.5t54 -3.5q53 0 85.5 19.5t55 61.5t44.5 108l5 15zM1001 1612
q-11 -117 -60 -201.5t-142 -129.5t-234 -45q-142 0 -235 42t-141 125.5t-57 208.5h291q3 -103 37.5 -146.5t104.5 -43.5q61 0 98.5 44.5t43.5 145.5h294z" />
    <glyph glyph-name="uni045F" unicode="&#x45f;" horiz-adv-x="1249" 
d="M459 0h-340v1133h361v-849h288v849h362v-1133h-339v-416h-332v416z" />
    <glyph glyph-name="uni0460" unicode="&#x460;" horiz-adv-x="1894" 
d="M402 0q-84 156 -152.5 333t-118 366.5t-76.5 382.5t-28 380h376q2 -148 15 -294t36.5 -283t55.5 -259.5t71 -224.5h8q16 76 38 154t44 151l98 332q-10 68 -19 138t-15 142.5t-7 144.5h373q2 -134 14 -272t36 -275t62 -269t91 -255h8q60 150 100 320t60.5 358.5
t20.5 391.5h372q-8 -260 -52 -511.5t-130.5 -490.5t-219.5 -460h-316q-30 57 -63.5 128t-65.5 147t-59.5 150.5t-45.5 138.5l-158 -564h-353z" />
    <glyph glyph-name="uni0461" unicode="&#x461;" horiz-adv-x="1689" 
d="M1643 1133q-8 -201 -47 -395.5t-108 -379t-168 -358.5h-323q-26 55 -59 133t-63.5 160.5t-51.5 149.5l-152 -443h-330q-67 121 -123.5 258.5t-98.5 284t-66 296t-25 294.5h346q5 -146 25.5 -290.5t53 -274t72.5 -232.5h6q9 29 21 63t24 67.5t22 59.5l105 263
q-15 83 -23 174t-7 170h339q1 -130 18 -272.5t50 -278t80 -244.5h7q38 100 67 227t45.5 271.5t15.5 296.5h348z" />
    <glyph glyph-name="uni0462" unicode="&#x462;" horiz-adv-x="1214" 
d="M166 0v1095h-170v256h170v158h372v-158h329v-256h-329v-179h76q177 0 296.5 -53t179.5 -151t60 -236q0 -220 -144.5 -348t-402.5 -128h-437zM538 305h58q93 0 137.5 41t44.5 117q0 47 -20.5 80.5t-60 51.5t-97.5 18h-62v-308z" />
    <glyph glyph-name="uni0463" unicode="&#x463;" horiz-adv-x="1245" 
d="M594 1357v-224h304v-245h-304v-167h91q258 0 381 -84t123 -264q0 -122 -50.5 -205t-155 -125.5t-267.5 -42.5h-483v888h-223v245h223v224h361zM691 470h-97v-219h100q62 0 98 27t36 78q0 56 -32 85t-105 29z" />
    <glyph glyph-name="uni0464" unicode="&#x464;" horiz-adv-x="1767" 
d="M1303 -20q-189 0 -321 72t-206.5 208.5t-94.5 327.5h-169v-588h-372v1462h372v-575h173q19 141 69 251t130 187t190 117t248 40q122 0 228 -29.5t195 -76.5l-109 -303q-74 43 -144.5 70t-162.5 27q-55 0 -100 -18t-79.5 -53.5t-57.5 -88.5t-34 -123h482v-299h-484
q7 -72 27 -126.5t55.5 -91.5t86.5 -56t117 -19q97 0 181.5 25.5t174.5 63.5v-319q-82 -40 -182.5 -62.5t-212.5 -22.5z" />
    <glyph glyph-name="uni0465" unicode="&#x465;" horiz-adv-x="1551" 
d="M1144 -20q-156 0 -264.5 50.5t-170.5 152t-81 254.5h-148v-437h-361v1133h361v-431h151q21 145 85 245.5t173 153t262 52.5q91 0 178.5 -21.5t170.5 -63.5l-100 -257q-64 35 -128 52t-124 17q-48 0 -80.5 -20t-52.5 -59.5t-28 -98.5h326v-265h-326q7 -63 28.5 -103
t57 -59t82.5 -19q79 0 154.5 23.5t155.5 71.5v-279q-72 -47 -151 -69.5t-170 -22.5z" />
    <glyph glyph-name="uni0466" unicode="&#x466;" horiz-adv-x="1588" 
d="M1030 1462l568 -1462h-390l-190 555h-56v-555h-336v555h-57l-189 -555h-390l565 1462h475zM793 1217q-4 -18 -10 -38.5t-13 -42t-14 -41.5t-13 -38l-74 -218h249l-76 222q-7 17 -13.5 37t-13 40.5t-12.5 40.5t-10 38z" />
    <glyph glyph-name="uni0467" unicode="&#x467;" horiz-adv-x="1314" 
d="M871 1133l454 -1133h-353l-121 373h-43v-373h-300v373h-42l-123 -373h-353l453 1133h428zM663 925h-7q-7 -29 -16 -59t-19 -58t-19 -52l-42 -125h198l-41 124q-10 27 -19.5 55t-18.5 57t-16 58z" />
    <glyph glyph-name="uni0468" unicode="&#x468;" horiz-adv-x="2176" 
d="M1619 1462l568 -1462h-388l-191 555h-56v-555h-336v555h-56l-190 -555h-387l231 602h-302v-602h-372v1462h372v-548h424l212 548h471zM1384 1217q-5 -18 -11 -38.5t-12.5 -42t-13.5 -41.5t-13 -38l-74 -218h249l-76 222q-7 17 -13.5 37t-13 40.5t-12.5 40.5t-10 38z" />
    <glyph glyph-name="uni0469" unicode="&#x469;" horiz-adv-x="1862" 
d="M1417 1133l454 -1133h-353l-121 373h-42v-373h-300v373h-43l-123 -373h-348l175 442h-246v-442h-351v1133h351v-408h359l162 408h426zM1207 925h-7q-7 -29 -16 -59t-18.5 -58t-18.5 -52l-41 -125h198l-41 124q-10 27 -20 55t-19 57t-17 58z" />
    <glyph glyph-name="uni046A" unicode="&#x46a;" horiz-adv-x="1608" 
d="M1438 1462v-174l-305 -432q81 -24 137 -66.5t100 -121.5t89 -215l152 -453h-387l-103 340q-27 97 -49 154t-43.5 83.5t-51.5 31.5v-609h-346v609q-29 -4 -50 -28t-42.5 -81t-51.5 -160l-103 -340h-387l153 453q35 104 65 173.5t64 113.5t79.5 71t109.5 45l-295 432v174
h1265zM974 1179h-343l169 -297z" />
    <glyph glyph-name="uni046B" unicode="&#x46b;" horiz-adv-x="1343" 
d="M1205 1133v-150l-244 -334q71 -18 123 -55.5t89 -97t62 -144.5l102 -352h-348l-78 334q-10 38 -23.5 62t-30 35t-34.5 12v-443h-302v442q-17 0 -33 -10t-29.5 -33.5t-24.5 -63.5l-80 -335h-349l96 352q24 87 63 148.5t93.5 99t122.5 51.5l-249 332v150h1074zM809 892
h-283l142 -211z" />
    <glyph glyph-name="uni046C" unicode="&#x46c;" horiz-adv-x="2190" 
d="M2021 1462v-174l-305 -432q81 -24 136.5 -66.5t100 -121.5t89.5 -215l152 -453h-387l-103 340q-27 97 -49 154t-44 83.5t-51 31.5v-609h-347v609q-28 -4 -49.5 -28t-42.5 -81t-52 -160l-102 -340h-382l143 421q16 49 34 93.5t39 87.5h-289v-602h-372v1462h372v-548h498
l-254 374v174h1265zM1557 1179h-343l169 -297z" />
    <glyph glyph-name="uni046D" unicode="&#x46d;" horiz-adv-x="1898" 
d="M1759 1133v-150l-243 -334q71 -18 122.5 -55.5t89 -97t62.5 -144.5l103 -352h-349l-78 334q-10 38 -24 62t-30 35t-36 12v-443h-300v442q-17 0 -33 -10t-30 -33.5t-26 -63.5l-79 -335h-344l100 363q5 20 12.5 40t18.5 39h-225v-442h-351v1133h351v-408h409l-193 258v150
h1073zM1364 892h-282l141 -211z" />
    <glyph glyph-name="uni046E" unicode="&#x46e;" horiz-adv-x="1203" 
d="M902 1794q44 0 74 -4.5t48 -11.5v-187q-10 6 -29 9.5t-42 3.5q-44 0 -82.5 -37t-80.5 -110q133 -39 207.5 -127.5t74.5 -209.5q0 -144 -77 -231.5t-227 -116.5v-8q177 -17 265.5 -107.5t88.5 -238.5q0 -100 -37 -180t-105 -137t-162 -88t-209 -33q-75 -1 -120.5 -9.5
t-66 -26.5t-20.5 -48q0 -41 29 -55.5t89 -14.5q58 0 108.5 2.5t92.5 5t73 2.5q58 0 99 -12t53 -31v-276q-16 18 -59 26t-102 8q-66 0 -120.5 -2t-110.5 -4t-129 -2q-132 0 -219.5 47.5t-130.5 129t-43 182.5q0 123 46.5 209.5t145 133t255.5 47.5q138 1 199.5 37.5
t61.5 122.5q0 79 -73 117.5t-219 38.5h-150v308h133q106 1 164 14t80.5 42.5t23.5 80.5q0 58 -44 88.5t-140 30.5q-83 0 -158.5 -25.5t-142.5 -77.5l-146 265q79 56 157.5 88.5t174.5 46.5q-27 40 -64 89t-74 95.5t-68 80.5v28h234q38 -30 81 -73.5t88 -99.5q49 74 93 118.5
t94.5 65.5t117.5 21z" />
    <glyph glyph-name="uni046F" unicode="&#x46f;" horiz-adv-x="1028" 
d="M787 1385q44 0 74 -5t48 -12v-177q-11 7 -33.5 10t-48.5 3q-36 0 -67.5 -23.5t-56.5 -63.5q100 -35 157 -103.5t57 -167.5q0 -91 -51 -157t-137 -91v-10q79 -11 131.5 -49t78.5 -93.5t26 -123.5q0 -106 -47.5 -181t-149.5 -116t-267 -45q-60 -1 -95.5 -10.5t-50.5 -27
t-15 -45.5q0 -45 31 -60.5t82 -15.5q46 0 86.5 2.5t79.5 5t80 2.5q53 0 87.5 -11t56.5 -32v-281q-15 19 -55.5 31t-82.5 12q-47 0 -95.5 -2.5t-96.5 -5t-96 -2.5q-142 0 -234.5 43.5t-137.5 124t-45 190.5q0 116 49.5 195t141 120.5t217.5 43.5q76 2 118 17t58.5 38t16.5 48
q0 32 -16 54.5t-59 34.5t-125 12h-125v248h103q106 0 149 21t43 74q0 36 -31 55.5t-99 19.5q-67 0 -130.5 -18.5t-131.5 -53.5l-109 257q46 21 87.5 37t81.5 25q-24 35 -51.5 71t-53.5 69t-49 58v28h226q34 -28 79.5 -71.5t92.5 -100.5q48 73 92.5 118t95.5 66t116 21z" />
    <glyph glyph-name="uni0470" unicode="&#x470;" horiz-adv-x="1746" 
d="M1641 1462v-487q0 -151 -33 -259.5t-104 -178.5t-182.5 -103.5t-268.5 -36.5v-397h-358v397q-159 3 -271 34t-182 96t-102.5 169t-32.5 252v514h369v-516q0 -91 22 -142.5t70.5 -72.5t126.5 -21v752h358v-752q71 0 120 23.5t74 74.5t25 132v522h369z" />
    <glyph glyph-name="uni0471" unicode="&#x471;" horiz-adv-x="1674" 
d="M1013 1554v-1271q75 9 121 38t67.5 91t21.5 168q0 132 -20 270t-60 283h350q48 -164 67 -295t19 -265q0 -195 -70 -322.5t-197 -192t-299 -74.5v-476h-347v476q-171 6 -294.5 62t-189.5 175t-66 316v596h356v-594q0 -91 21 -145t64 -79.5t109 -31.5v1271h347z" />
    <glyph glyph-name="uni0472" unicode="&#x472;" horiz-adv-x="1473" 
d="M1380 733q0 -176 -39 -315.5t-118.5 -237.5t-200.5 -149t-286 -51q-161 0 -282 51.5t-201.5 149t-120.5 237.5t-40 317q0 236 71 404t214.5 257t359.5 89q220 0 362 -89t211.5 -257t69.5 -406zM736 285q86 0 143.5 36.5t90 106.5t40.5 172h-548q9 -102 41.5 -172
t91 -106.5t141.5 -36.5zM737 1186q-80 0 -136.5 -34.5t-90 -101.5t-44.5 -166h540q-15 148 -80.5 225t-188.5 77z" />
    <glyph glyph-name="uni0473" unicode="&#x473;" horiz-adv-x="1207" 
d="M1130 569q0 -186 -63.5 -318t-182 -201.5t-284.5 -69.5q-155 0 -273 70.5t-184.5 202.5t-66.5 316q0 279 141 431.5t389 152.5q155 0 273 -69.5t184.5 -200t66.5 -314.5zM604 255q52 0 88.5 22.5t57.5 66.5t28 107h-350q7 -53 26.5 -97.5t56.5 -71.5t93 -27zM602 878
q-77 0 -121 -51.5t-54 -153.5h353q-5 56 -24 102.5t-56.5 74.5t-97.5 28z" />
    <glyph glyph-name="uni0474" unicode="&#x474;" horiz-adv-x="1370" 
d="M1274 1168q-27 0 -48 -12.5t-38 -45t-35 -93.5l-284 -1017h-435l-434 1462h405l184 -744q12 -48 24.5 -113.5t22.5 -130.5t13 -112q4 35 12 84.5t17.5 101.5t18.5 96.5t15 69.5l85 388q30 129 73.5 212.5t112.5 124t173 40.5q60 0 112 -11.5t85 -27.5v-290
q-15 7 -37 12.5t-42 5.5z" />
    <glyph glyph-name="uni0475" unicode="&#x475;" horiz-adv-x="1176" 
d="M986 1153q37 0 85.5 -7.5t84.5 -25.5v-271q-19 8 -36 11.5t-31 3.5q-22 0 -38.5 -9.5t-28.5 -31t-23 -56.5l-248 -767h-372l-377 1133h376l154 -610q7 -34 15 -80.5t9 -94.5h9q1 44 8.5 88.5t16.5 84.5l82 290q36 131 76 205.5t96.5 105.5t141.5 31z" />
    <glyph glyph-name="uni0476" unicode="&#x476;" horiz-adv-x="1370" 
d="M1274 1168q-27 0 -48 -12.5t-38 -45t-35 -93.5l-284 -1017h-435l-434 1462h405l184 -744q12 -48 24.5 -113.5t22.5 -130.5t13 -112q4 35 12 84.5t17.5 101.5t18.5 96.5t15 69.5l85 388q30 129 73.5 212.5t112.5 124t173 40.5q60 0 112 -11.5t85 -27.5v-290
q-15 7 -37 12.5t-42 5.5zM800 1899q16 -35 40.5 -83t55 -103.5t63.5 -112.5v-29h-180q-40 32 -86 73t-89 84.5t-76 82.5t-47 67v21h319zM407 1899q17 -35 41 -83.5t54 -103.5t62 -112v-29h-186q-33 28 -77.5 69.5t-88.5 86.5t-78 85t-48 66v21h321z" />
    <glyph glyph-name="uni0477" unicode="&#x477;" horiz-adv-x="1176" 
d="M986 1153q37 0 85.5 -7.5t84.5 -25.5v-271q-19 8 -36 11.5t-31 3.5q-22 0 -38.5 -9.5t-28.5 -31t-23 -56.5l-248 -767h-372l-377 1133h376l154 -610q7 -34 15 -80.5t9 -94.5h9q1 44 8.5 88.5t16.5 84.5l82 290q36 131 76 205.5t96.5 105.5t141.5 31zM720 1569
q16 -35 40.5 -83t55 -103.5t63.5 -112.5v-29h-180q-40 32 -86 73t-89 84.5t-76 82.5t-47 67v21h319zM327 1569q17 -35 41 -83.5t54 -103.5t62 -112v-29h-186q-33 28 -77.5 69.5t-88.5 86.5t-78 85t-48 66v21h321z" />
    <glyph glyph-name="uni0478" unicode="&#x478;" horiz-adv-x="2580" 
d="M1359 733q0 -176 -38 -315.5t-116 -237.5t-197.5 -149t-281.5 -51q-159 0 -278.5 51.5t-198.5 149t-118 237.5t-39 317q0 236 69.5 404t211 257t354.5 89q216 0 356 -89t208 -257t68 -406zM481 733q0 -140 26 -237.5t80.5 -148t138.5 -50.5q88 0 141.5 49.5t78 147
t24.5 239.5q0 144 -25 242t-78 148.5t-140 50.5q-85 0 -139.5 -51.5t-80.5 -149.5t-26 -240zM1453 1133h380l156 -571q6 -24 11.5 -52t9.5 -54.5t5 -49.5h8q4 37 11 74.5t19 78.5l153 574h372l-396 -1205q-48 -146 -110.5 -239t-150.5 -137t-214 -44q-46 0 -83.5 5.5
t-67.5 11.5v299q20 -5 47 -8.5t54 -3.5q53 0 85.5 19.5t55.5 61.5t45 108l5 15z" />
    <glyph glyph-name="uni0479" unicode="&#x479;" horiz-adv-x="2276" 
d="M1103 569q0 -125 -31 -232.5t-95 -187.5t-161 -124.5t-228 -44.5q-122 0 -216.5 44t-160.5 123.5t-100.5 187t-34.5 234.5q0 176 58 307t173 204t286 73q150 0 265 -68t180 -198t65 -318zM442 567q0 -99 15.5 -166.5t48 -102.5t85.5 -35q54 0 85.5 34.5t45.5 103
t14 168.5q0 101 -14 167.5t-46 100t-86 33.5q-78 0 -113 -75t-35 -228zM1149 1133h380l156 -571q6 -24 11.5 -52t9.5 -54.5t5 -49.5h8q4 37 11 74.5t18 78.5l154 574h371l-395 -1205q-48 -146 -110.5 -239t-150.5 -137t-214 -44q-47 0 -84 5.5t-68 11.5v299q21 -5 48 -8.5
t54 -3.5q53 0 85.5 19.5t55 61.5t44.5 108l5 15z" />
    </font>
</defs>
</svg>
