<?xml version="1.0" standalone="no"?>
<!DOCTYPE svg PUBLIC "-//W3C//DTD SVG 1.1//EN" "http://www.w3.org/Graphics/SVG/1.1/DTD/svg11.dtd" >
<svg xmlns="http://www.w3.org/2000/svg" xmlns:xlink="http://www.w3.org/1999/xlink" version="1.1">
<metadata>
Created by FontForge 20170731 at Wed Feb 10 17:54:37 2021
 By Aleksey,,,
Copyright 2020 The Open Sans Project Authors (https://github.com/googlefonts/opensans)
</metadata>
<defs>
<font id="OpenSansSemiCondensed-ExtraBoldItalic" horiz-adv-x="0" >
  <font-face 
    font-family="Open Sans SemiCondensed ExtraBold"
    font-weight="800"
    font-style="italic"
    font-stretch="semi-condensed"
    units-per-em="2048"
    panose-1="0 0 0 0 0 0 0 0 0 0"
    ascent="1638"
    descent="-410"
    x-height="1133"
    cap-height="1462"
    bbox="-952 -684 2483 2294"
    underline-thickness="50"
    underline-position="-175"
    slope="-12"
    unicode-range="U+000D-FFFD"
  />
<missing-glyph horiz-adv-x="1229" 
 />
    <glyph glyph-name="f_f" unicode="ff" horiz-adv-x="1392" 
d="M-38 -492q-45 0 -93 6.5t-86 18.5v294q23 -8 55 -13.5t55 -5.5q70 0 99 36.5t41 95.5l192 911h-138l39 180l160 94l16 72q17 76 45.5 142.5t74.5 118t112.5 80.5t159.5 29q69 0 137.5 -14.5t126.5 -43.5l-105 -254q-25 13 -54 20.5t-53 7.5q-36 0 -57 -22.5t-29 -57.5
l-17 -70h299l16 64q16 76 45 142.5t74.5 118t112.5 80.5t159 29q70 0 138 -14.5t126 -43.5l-104 -254q-26 13 -54.5 20.5t-53.5 7.5q-36 0 -57 -22.5t-29 -57.5l-16 -70h188l-60 -282h-188l-205 -955q-24 -118 -72 -205.5t-131 -135t-213 -47.5q-46 0 -93.5 6.5t-85.5 18.5
v294q23 -8 54.5 -13.5t54.5 -5.5q70 0 99 36.5t41 95.5l193 911h-297l-205 -955q-25 -118 -73 -205.5t-130.5 -135t-213.5 -47.5z" />
    <glyph glyph-name="fi" unicode="fi" horiz-adv-x="1322" 
d="M-38 -492q-45 0 -93 6.5t-86 18.5v294q23 -8 55 -13.5t55 -5.5q70 0 99 36.5t41 95.5l192 911h-138l39 180l160 94l16 72q17 76 45.5 142.5t74.5 118t112.5 80.5t159.5 29q69 0 137.5 -14.5t126.5 -43.5l-105 -254q-25 13 -54 20.5t-53 7.5q-36 0 -57 -22.5t-29 -57.5
l-17 -70h189l-61 -282h-187l-205 -955q-25 -118 -73 -205.5t-130.5 -135t-213.5 -47.5zM731 0l241 1133h357l-240 -1133h-358zM1188 1242q-79 0 -125 31.5t-46 101.5q0 59 24 108t72.5 78t120.5 29q75 0 123 -31t48 -102q0 -94 -56 -154.5t-161 -60.5z" />
    <glyph glyph-name="fl" unicode="fl" horiz-adv-x="1320" 
d="M-38 -492q-45 0 -93 6.5t-86 18.5v294q23 -8 55 -13.5t55 -5.5q70 0 99 36.5t41 95.5l192 911h-138l39 180l160 94l16 72q17 76 45.5 142.5t74.5 118t112.5 80.5t159.5 29q69 0 137.5 -14.5t126.5 -43.5l-105 -254q-25 13 -54 20.5t-53 7.5q-36 0 -57 -22.5t-29 -57.5
l-17 -70h189l-61 -282h-187l-205 -955q-25 -118 -73 -205.5t-130.5 -135t-213.5 -47.5zM730 0l331 1556h357l-329 -1556h-359z" />
    <glyph glyph-name="f_f_i" unicode="ffi" horiz-adv-x="1947" 
d="M-38 -492q-45 0 -93 6.5t-86 18.5v294q23 -8 55 -13.5t55 -5.5q70 0 99 36.5t41 95.5l192 911h-138l39 180l160 94l16 72q17 76 45.5 142.5t74.5 118t112.5 80.5t159.5 29q69 0 137.5 -14.5t126.5 -43.5l-105 -254q-25 13 -54 20.5t-53 7.5q-36 0 -57 -22.5t-29 -57.5
l-17 -70h299l16 64q16 76 45 142.5t74.5 118t112.5 80.5t159 29q70 0 138 -14.5t126 -43.5l-104 -254q-26 13 -54.5 20.5t-53.5 7.5q-36 0 -57 -22.5t-29 -57.5l-16 -70h188l-60 -282h-188l-205 -955q-24 -118 -72 -205.5t-131 -135t-213 -47.5q-46 0 -93.5 6.5t-85.5 18.5
v294q23 -8 54.5 -13.5t54.5 -5.5q70 0 99 36.5t41 95.5l193 911h-297l-205 -955q-25 -118 -73 -205.5t-130.5 -135t-213.5 -47.5zM1355 0l241 1133h357l-240 -1133h-358zM1812 1242q-79 0 -125 31.5t-46 101.5q0 59 24 108t72.5 78t120.5 29q75 0 123 -31t48 -102
q0 -94 -56.5 -154.5t-160.5 -60.5z" />
    <glyph glyph-name="f_f_l" unicode="ffl" horiz-adv-x="1943" 
d="M-38 -492q-45 0 -93 6.5t-86 18.5v294q23 -8 55 -13.5t55 -5.5q70 0 99 36.5t41 95.5l192 911h-138l39 180l160 94l16 72q17 76 45.5 142.5t74.5 118t112.5 80.5t159.5 29q69 0 137.5 -14.5t126.5 -43.5l-105 -254q-25 13 -54 20.5t-53 7.5q-36 0 -57 -22.5t-29 -57.5
l-17 -70h299l16 64q16 76 45 142.5t74.5 118t112.5 80.5t159 29q70 0 138 -14.5t126 -43.5l-104 -254q-26 13 -54.5 20.5t-53.5 7.5q-36 0 -57 -22.5t-29 -57.5l-16 -70h188l-60 -282h-188l-205 -955q-24 -118 -72 -205.5t-131 -135t-213 -47.5q-46 0 -93.5 6.5t-85.5 18.5
v294q23 -8 54.5 -13.5t54.5 -5.5q70 0 99 36.5t41 95.5l193 911h-297l-205 -955q-25 -118 -73 -205.5t-130.5 -135t-213.5 -47.5zM1352 0l331 1556h357l-329 -1556h-359z" />
    <glyph glyph-name=".notdef" horiz-adv-x="1229" 
 />
    <glyph glyph-name=".null" 
 />
    <glyph glyph-name="nonmarkingreturn" horiz-adv-x="682" 
 />
    <glyph glyph-name="NULL" 
 />
    <glyph glyph-name="NULL" 
 />
    <glyph glyph-name="CR" unicode="&#xd;" horiz-adv-x="442" 
 />
    <glyph glyph-name="space" unicode=" " horiz-adv-x="442" 
 />
    <glyph glyph-name="exclam" unicode="!" horiz-adv-x="577" 
d="M119 516l156 946h400l-250 -946h-306zM173 -25q-92 0 -132.5 41.5t-40.5 104.5q0 97 60.5 167.5t179.5 70.5q77 0 120 -38t43 -108q0 -113 -67 -175.5t-163 -62.5z" />
    <glyph glyph-name="quotedbl" unicode="&#x22;" horiz-adv-x="926" 
d="M620 934l74 528h345l-153 -528h-266zM185 934l74 528h344l-152 -528h-266z" />
    <glyph glyph-name="numbersign" unicode="#" horiz-adv-x="1202" 
d="M82 0l118 392h-189l32 236h227l63 205h-203l32 240h242l117 389h255l-118 -389h148l117 389h257l-118 -389h192l-33 -240h-230l-62 -205h208l-32 -236h-247l-118 -392h-254l118 392h-149l-118 -392h-255zM525 628h148l63 205h-148z" />
    <glyph glyph-name="dollar" unicode="$" horiz-adv-x="1080" 
d="M329 -121l41 192q-117 7 -195 33.5t-131 61.5l32 320q86 -54 178.5 -90t175.5 -45l57 274q-79 35 -146.5 83t-108 116t-40.5 163q0 142 62 235t168 141.5t234 55.5l29 136h137l-30 -138q95 -7 166 -31.5t135 -60.5l-123 -275q-54 36 -116 58.5t-121 30.5l-57 -263
q87 -43 152.5 -91t102 -112.5t36.5 -155.5q0 -140 -63.5 -236.5t-168.5 -149.5t-230 -62l-40 -189zM567 359q32 10 53 25.5t31.5 37t10.5 47.5q0 22 -6.5 38.5t-18 30.5t-27.5 25zM555 941l42 195q-33 -8 -53 -25t-28.5 -39t-8.5 -49q0 -18 6 -32.5t16.5 -26.5t25.5 -23z
" />
    <glyph glyph-name="percent" unicode="%" horiz-adv-x="1763" 
d="M299 0l956 1462h272l-952 -1462h-276zM399 565q-139 0 -212 81t-73 243q0 70 15 150.5t46.5 159t81 143t119.5 103t162 38.5q136 0 209.5 -81.5t73.5 -244.5q0 -67 -13.5 -146.5t-44 -157.5t-80 -143.5t-119.5 -105t-165 -39.5zM424 799q24 0 44 26t36.5 68.5t28.5 92.5
t18 98.5t6 85.5q0 40 -10 58.5t-34 18.5q-22 0 -42 -25.5t-37 -67t-29 -91t-19 -98t-7 -87.5q0 -40 11.5 -59.5t33.5 -19.5zM1298 -18q-140 0 -213 80.5t-73 243.5q0 80 16.5 164t49.5 160.5t83.5 137t118.5 96t155 35.5q136 0 210 -81t74 -245q0 -68 -14 -147.5t-44.5 -158
t-80 -143t-119.5 -103.5t-163 -39zM1322 216q24 0 44 25.5t36.5 67.5t28.5 91.5t18 98t6 87.5q0 40 -10.5 59t-34.5 19t-44.5 -27.5t-37 -71t-28 -94t-17.5 -97.5t-6 -80q0 -39 11 -58.5t34 -19.5z" />
    <glyph glyph-name="ampersand" unicode="&#x26;" horiz-adv-x="1363" 
d="M434 -20q-196 0 -312 96t-116 272q0 107 41 194.5t117.5 155t183.5 113.5q-34 53 -52 120t-18 130q0 125 56 220t159 148.5t242 53.5q99 0 182 -32.5t133.5 -98.5t50.5 -167q0 -90 -38.5 -166.5t-109.5 -142.5t-169 -126l103 -169q31 41 61 106t52 134h362
q-32 -101 -79.5 -199t-103.5 -184t-114 -152l174 -286h-426l-38 69q-78 -44 -159 -66.5t-182 -22.5zM501 280q25 0 47.5 4.5t43.5 13t41 20.5l-158 272q-35 -21 -57 -51.5t-32 -66.5t-10 -75q0 -33 13.5 -59.5t41.5 -42t70 -15.5zM650 965q25 14 46.5 33.5t38 43t26 50.5
t9.5 57t-15 55.5t-51 25.5q-29 0 -49.5 -19t-31 -48.5t-10.5 -61.5q0 -30 8 -66t29 -70z" />
    <glyph glyph-name="quotesingle" unicode="'" horiz-adv-x="491" 
d="M185 934l74 528h344l-152 -528h-266z" />
    <glyph glyph-name="parenleft" unicode="(" horiz-adv-x="672" 
d="M153 -324q-35 69 -59 164.5t-36 199t-12 193.5q0 168 33 342t96 341.5t152.5 317.5t201.5 269h300q-97 -118 -182.5 -263.5t-150.5 -310.5t-102 -341.5t-37 -356.5q0 -92 9 -187.5t27 -189t46 -178.5h-286z" />
    <glyph glyph-name="parenright" unicode=")" horiz-adv-x="672" 
d="M-149 -324q96 119 180.5 264.5t148.5 310t100.5 341t36.5 356.5q0 90 -9 187.5t-27 192t-46 175.5h288q39 -81 62.5 -173.5t33.5 -189.5t10 -194q0 -175 -33 -350.5t-95 -341.5t-150.5 -313t-198.5 -265h-301z" />
    <glyph glyph-name="asterisk" unicode="*" horiz-adv-x="1008" 
d="M666 585l-88 288l-161 -244l-231 201l238 214l-279 78l100 279l276 -152l16 325l303 -48l-93 -312l314 56l4 -299l-289 16l161 -278z" />
    <glyph glyph-name="plus" unicode="+" horiz-adv-x="1112" 
d="M702 856h339v-268h-339v-361h-272v361h-339v268h339v367h272v-367z" />
    <glyph glyph-name="comma" unicode="," horiz-adv-x="580" 
d="M-112 -274q34 85 68 180.5t65.5 189t55.5 173.5h334l6 -22q-34 -91 -74.5 -182.5t-84.5 -177t-90 -161.5h-280z" />
    <glyph glyph-name="hyphen" unicode="-" horiz-adv-x="652" 
d="M21 393l64 312h538l-66 -312h-536z" />
    <glyph glyph-name="period" unicode="." horiz-adv-x="580" 
d="M163 -25q-78 0 -122.5 36.5t-44.5 109.5q0 109 66.5 173.5t172.5 64.5q74 0 119 -36.5t45 -109.5q0 -122 -68 -180t-168 -58z" />
    <glyph glyph-name="slash" unicode="/" horiz-adv-x="885" 
d="M-103 -20l827 1503h324l-828 -1503h-323z" />
    <glyph glyph-name="zero" unicode="0" horiz-adv-x="1080" 
d="M437 -20q-182 0 -277 110.5t-95 338.5q0 103 15 220.5t46.5 236t81.5 225.5t119 191.5t160 133t204 48.5q100 0 171.5 -33.5t116.5 -95.5t66 -147.5t21 -188.5q0 -117 -17 -239t-51.5 -238.5t-86 -218t-121.5 -178.5t-158 -121t-195 -44zM477 288q31 0 60 38.5
t55.5 102.5t48.5 144t38.5 164t25.5 161.5t9 136.5q0 69 -14 105t-49 36q-29 0 -57.5 -40t-54.5 -106.5t-48.5 -148.5t-38.5 -167.5t-25.5 -162.5t-9.5 -133q0 -66 13 -98t47 -32z" />
    <glyph glyph-name="one" unicode="1" horiz-adv-x="1080" 
d="M356 0l167 785l20 84t22 81.5t24 75.5q-23 -23 -51.5 -49t-50.5 -43l-169 -127l-153 231l556 424h306l-309 -1462h-362z" />
    <glyph glyph-name="two" unicode="2" horiz-adv-x="1080" 
d="M-57 0l52 247l422 422q60 60 107 116t79.5 107.5t49.5 97.5t17 87q0 43 -20 67t-56 24q-40 0 -84.5 -22.5t-89.5 -59t-89 -78.5l-147 247q105 113 225.5 170.5t263.5 57.5q108 0 190.5 -42t129.5 -118t47 -180q0 -106 -38 -202.5t-116.5 -194.5t-200.5 -211l-223 -213v-9
h448l-66 -313h-901z" />
    <glyph glyph-name="three" unicode="3" horiz-adv-x="1080" 
d="M347 -20q-101 0 -185 18.5t-158 59.5v326q80 -56 172 -78.5t169 -22.5q53 0 97 11t76 34t49.5 59t17.5 85q0 42 -19.5 72t-70 45.5t-143.5 15.5h-81l56 288h80q64 0 115.5 12t88.5 36.5t57 60.5t20 85q0 39 -25 66t-85 27q-55 0 -120.5 -22.5t-136.5 -67.5l-110 254
q106 72 208.5 105.5t239.5 33.5q110 0 200 -34.5t143 -104.5t53 -178q0 -103 -43 -183t-118 -134t-174 -83v-7q119 -26 179.5 -105t60.5 -194t-46.5 -204t-130.5 -150.5t-195 -93.5t-241 -32z" />
    <glyph glyph-name="four" unicode="4" horiz-adv-x="1080" 
d="M416 0l60 283h-489l54 263l698 916h339l-188 -891h140l-60 -288h-141l-59 -283h-354zM344 571h192l57 248q7 25 16 57.5t17.5 62t12.5 43.5h-7q-22 -40 -42.5 -74.5t-39.5 -56.5z" />
    <glyph glyph-name="five" unicode="5" horiz-adv-x="1080" 
d="M382 -20q-69 0 -136 8t-123 24t-93 39v333q65 -46 155 -73.5t173 -27.5q56 0 99.5 17t74 47.5t46 72t15.5 90.5q0 67 -38.5 109.5t-117.5 42.5q-44 0 -91 -10t-86 -26l-107 85l206 751h731l-66 -312h-415l-59 -200q29 6 51 7t37 1q96 0 171 -45.5t118.5 -133.5t43.5 -215
q0 -119 -35.5 -224.5t-108 -186.5t-183.5 -127t-262 -46z" />
    <glyph glyph-name="six" unicode="6" horiz-adv-x="1080" 
d="M493 -20q-149 0 -241.5 61t-135.5 170.5t-43 256.5q0 106 19.5 220.5t57.5 226t95 209.5t131 169q72 69 148.5 111t166 60.5t198.5 18.5q66 0 122.5 -6.5t109.5 -18.5l-62 -298q-41 12 -88 18.5t-87 6.5q-121 0 -201 -40t-131.5 -119t-88.5 -197h6q28 41 65 74.5t86 53
t113 19.5q140 0 210 -98.5t70 -276.5q0 -113 -32.5 -223.5t-97.5 -200t-162.5 -143.5t-227.5 -54zM502 281q38 0 65 29.5t44 75.5t25 96t8 90q0 52 -16.5 80.5t-51.5 28.5q-22 0 -41 -10.5t-34.5 -29.5t-26.5 -46q-14 -22 -24 -55.5t-15 -69t-5 -65.5q0 -31 5 -54.5
t14.5 -38.5t23 -23t29.5 -8z" />
    <glyph glyph-name="seven" unicode="7" horiz-adv-x="1080" 
d="M45 0l669 1147h-520l66 314h920l-50 -228l-685 -1233h-400z" />
    <glyph glyph-name="eight" unicode="8" horiz-adv-x="1080" 
d="M472 -20q-141 0 -239 44t-148.5 121.5t-50.5 179.5q0 98 36 177.5t106.5 144t172.5 113.5q-38 37 -67.5 80.5t-46.5 96t-17 115.5q0 120 55.5 218t161.5 156t259 58q120 0 206 -38.5t131.5 -109.5t45.5 -168q0 -82 -32 -156t-94 -134.5t-150 -101.5q58 -48 95 -100.5
t55 -111.5t18 -128q0 -130 -62 -233t-174 -163t-261 -60zM482 256q44 0 76.5 22.5t51 60.5t18.5 84q0 34 -11 65.5t-31.5 60.5t-50.5 54q-43 -26 -78.5 -63t-56.5 -82t-21 -96t30.5 -78.5t72.5 -27.5zM620 934q40 23 66 53t39 64.5t13 69.5q0 45 -22.5 65.5t-54.5 20.5
q-30 0 -53.5 -19t-37.5 -51.5t-14 -74.5q0 -36 18.5 -71.5t45.5 -56.5z" />
    <glyph glyph-name="nine" unicode="9" horiz-adv-x="1080" 
d="M284 -20q-67 0 -119 8t-99 19v304q47 -18 98.5 -27t106.5 -7q79 2 141.5 25.5t110.5 68t82.5 110.5t57.5 153h-7q-27 -40 -64 -74.5t-85 -55t-112 -20.5q-93 0 -155 47t-93 129t-31 189q0 87 19.5 177t59.5 171.5t103 146t149.5 102t198.5 37.5q141 0 231.5 -60.5
t135 -170t44.5 -258.5q0 -72 -10.5 -154t-33 -166t-58.5 -166t-87 -155q-44 -74 -100.5 -141.5t-128.5 -119.5t-160 -82t-195 -30zM553 781q24 0 44.5 12.5t37 34t28.5 49.5q17 37 27 85.5t10 89.5q0 40 -8.5 69t-24.5 45t-39 16q-34 0 -60.5 -28.5t-45 -73t-28 -93
t-9.5 -89.5q0 -58 17 -87.5t51 -29.5z" />
    <glyph glyph-name="colon" unicode=":" horiz-adv-x="587" 
d="M349 764q-79 0 -123 36t-44 110q0 72 29.5 125.5t83 83t124.5 29.5q75 0 119.5 -36.5t44.5 -108.5q0 -123 -67.5 -181t-166.5 -58zM166 -25q-78 0 -122.5 36.5t-44.5 109.5q0 109 66.5 173.5t172.5 64.5q75 0 119.5 -36.5t44.5 -109.5q0 -122 -68 -180t-168 -58z" />
    <glyph glyph-name="semicolon" unicode=";" horiz-adv-x="587" 
d="M-119 -274q36 87 69 179t63 184.5t57 179.5h334l7 -22q-35 -91 -75 -182.5t-84.5 -177t-90.5 -161.5h-280zM349 764q-79 0 -123 36t-44 110q0 72 29.5 125.5t83 83t124.5 29.5q75 0 119.5 -36.5t44.5 -108.5q0 -123 -67.5 -181t-166.5 -58z" />
    <glyph glyph-name="less" unicode="&#x3c;" horiz-adv-x="1112" 
d="M1040 204l-954 436v172l954 464v-297l-563 -247l563 -233v-295z" />
    <glyph glyph-name="equal" unicode="=" horiz-adv-x="1112" 
d="M91 815v268h951v-268h-951zM91 358v271h951v-271h-951z" />
    <glyph glyph-name="greater" unicode="&#x3e;" horiz-adv-x="1112" 
d="M91 499l563 233l-563 247v297l954 -464v-172l-954 -436v295z" />
    <glyph glyph-name="question" unicode="?" horiz-adv-x="885" 
d="M218 516q18 102 43.5 166.5t67.5 113.5t110 101q73 58 110 93t50.5 60.5t13.5 55.5q0 33 -20.5 54t-65.5 21q-60 0 -133 -29.5t-150 -78.5l-79 270q96 65 204 102.5t218 37.5q179 0 278 -83t99 -227q0 -106 -38.5 -184.5t-99.5 -137.5t-130 -109q-60 -42 -91.5 -71
t-48 -63t-31.5 -92h-307zM279 -25q-93 0 -134 41.5t-41 104.5q0 97 60.5 167.5t179.5 70.5q77 0 120 -38t43 -108q0 -113 -66.5 -175.5t-161.5 -62.5z" />
    <glyph glyph-name="at" unicode="@" horiz-adv-x="1642" 
d="M698 -170q-146 0 -263.5 41.5t-200 119.5t-126.5 190.5t-44 255.5q0 183 45.5 342.5t129 289t197.5 222t252 142t291 49.5q192 0 334.5 -70.5t220.5 -202.5t78 -316q0 -100 -22.5 -197.5t-64.5 -183.5t-101 -151.5t-132.5 -103t-157.5 -37.5q-88 0 -137 32t-70 94h-8
q-48 -62 -105.5 -94t-126.5 -32q-119 0 -184 74.5t-65 206.5q0 74 19.5 156.5t59 161.5t100 143t141.5 102t183 38q89 0 169 -18t147 -48l-115 -477q-7 -27 -10.5 -49t-3.5 -41q0 -21 7.5 -31.5t22.5 -10.5q39 0 72 27t59.5 73t44.5 104.5t28 122.5t10 126q0 124 -46.5 211
t-138.5 133t-229 46q-116 0 -216 -41.5t-180.5 -116t-138 -176t-88.5 -222.5t-31 -255q0 -133 49 -226t137 -141.5t203 -48.5q99 0 214.5 23t233.5 72v-209q-91 -43 -211 -71t-232 -28zM760 427q50 0 87.5 54t69.5 178l56 226q-11 5 -23 7t-29 2q-55 0 -97 -37t-70 -95.5
t-42.5 -122t-14.5 -117.5q0 -49 16.5 -72t46.5 -23z" />
    <glyph glyph-name="A" unicode="A" horiz-adv-x="1237" 
d="M-120 0l688 1465h469l73 -1465h-373l-1 280h-348l-117 -280h-391zM515 584h225v400q1 49 1.5 97t4.5 98h-7q-12 -50 -27 -95t-34 -93z" />
    <glyph glyph-name="B" unicode="B" horiz-adv-x="1179" 
d="M12 0l309 1462h442q128 0 221 -35t143.5 -105t50.5 -177q0 -92 -31.5 -167t-94 -128.5t-154.5 -83.5v-8q77 -29 123 -100t46 -172q0 -148 -68 -257t-191 -169t-289 -60h-507zM441 297h72q57 0 97.5 27.5t62 72t21.5 97.5q0 61 -27.5 92t-91.5 31h-66zM567 897h64
q57 0 93 25t53 65.5t17 88.5q0 46 -27 71t-83 25h-56z" />
    <glyph glyph-name="C" unicode="C" horiz-adv-x="1128" 
d="M546 -20q-153 0 -255 65t-153 181.5t-51 272.5q0 138 29 278t86.5 267t144.5 226.5t202.5 156.5t260.5 57q119 0 223 -28.5t194 -89.5l-154 -287q-71 46 -131.5 69.5t-123.5 23.5q-69 0 -125 -44t-98.5 -117t-71 -160t-43 -174.5t-14.5 -159.5q0 -116 42.5 -170.5
t120.5 -54.5q79 0 154 22.5t161 61.5v-313q-93 -44 -195.5 -63.5t-202.5 -19.5z" />
    <glyph glyph-name="D" unicode="D" horiz-adv-x="1257" 
d="M12 0l309 1462h376q252 0 390.5 -132.5t138.5 -376.5q0 -153 -32 -294.5t-96 -261.5t-159 -209t-221 -138.5t-283 -49.5h-423zM445 314h45q70 0 127.5 37t100.5 100t72 142.5t43.5 165t14.5 166.5q0 114 -45.5 170.5t-130.5 56.5h-50z" />
    <glyph glyph-name="E" unicode="E" horiz-adv-x="1005" 
d="M12 0l309 1462h766l-64 -306h-399l-52 -247h371l-67 -306h-371l-62 -292h400l-66 -311h-765z" />
    <glyph glyph-name="F" unicode="F" horiz-adv-x="1000" 
d="M12 0l309 1462h762l-65 -306h-395l-63 -296h366l-67 -307h-366l-115 -553h-366z" />
    <glyph glyph-name="G" unicode="G" horiz-adv-x="1276" 
d="M589 -20q-240 0 -370 136t-130 394q0 140 31 279.5t94 264.5t159 222t226.5 152.5t296.5 55.5q117 0 222.5 -26.5t179.5 -73.5l-147 -299q-59 38 -128.5 62.5t-145.5 24.5q-106 0 -183.5 -63t-128 -161.5t-75 -209.5t-24.5 -207q0 -81 19 -134t55.5 -78.5t90.5 -25.5
q30 0 54.5 3.5t56.5 9.5l54 252h-185l63 298h545l-167 -789q-111 -40 -228 -63.5t-235 -23.5z" />
    <glyph glyph-name="H" unicode="H" horiz-adv-x="1308" 
d="M12 0l309 1462h366l-114 -547h300l115 547h367l-310 -1462h-367l127 603h-299l-128 -603h-366z" />
    <glyph glyph-name="I" unicode="I" horiz-adv-x="640" 
d="M11 0l310 1462h366l-310 -1462h-366z" />
    <glyph glyph-name="J" unicode="J" horiz-adv-x="664" 
d="M-123 -460q-58 0 -108.5 7t-94.5 20l32 309q33 -11 67.5 -18.5t73.5 -7.5q60 0 99.5 32.5t65.5 90.5t41 134l290 1355h367l-299 -1404q-40 -187 -109.5 -301t-173.5 -165.5t-251 -51.5z" />
    <glyph glyph-name="K" unicode="K" horiz-adv-x="1210" 
d="M12 0l309 1462h366l-129 -606l109 172l306 434h418l-507 -682l210 -780h-408l-123 555l-79 -46l-106 -509h-366z" />
    <glyph glyph-name="L" unicode="L" horiz-adv-x="949" 
d="M12 0l309 1462h366l-244 -1153h410l-64 -309h-777z" />
    <glyph glyph-name="M" unicode="M" horiz-adv-x="1691" 
d="M12 0l309 1462h481l10 -941h7l418 941h500l-312 -1462h-342l130 606q19 90 34.5 152t28 104t19.5 72h-7l-422 -934h-324l-8 928h-7q-11 -72 -21.5 -137.5t-20 -122.5t-20.5 -106l-119 -562h-334z" />
    <glyph glyph-name="N" unicode="N" horiz-adv-x="1429" 
d="M12 0l309 1462h417l218 -909h8q7 49 16 109.5t19 119t18 101.5l124 579h335l-309 -1462h-418l-221 945h-6q-4 -34 -9.5 -80t-12.5 -96.5t-15 -99t-16 -86.5l-124 -583h-333z" />
    <glyph glyph-name="O" unicode="O" horiz-adv-x="1343" 
d="M582 -20q-166 0 -275.5 61.5t-164 179.5t-54.5 288q0 115 20.5 231t62 225.5t103 203.5t143.5 165t184.5 111t225.5 40q245 0 364.5 -139.5t119.5 -388.5q0 -106 -18.5 -219t-56.5 -222.5t-97 -206t-140 -170.5t-185 -116.5t-232 -42.5zM611 294q48 0 91 29t79 79.5
t64.5 117t48.5 141t30.5 151t10.5 148.5q0 103 -36 158.5t-103 55.5q-51 0 -95 -30.5t-81 -82.5t-65.5 -119t-48.5 -142t-30.5 -149.5t-10.5 -141.5q0 -78 16.5 -125t49.5 -68.5t80 -21.5z" />
    <glyph glyph-name="P" unicode="P" horiz-adv-x="1132" 
d="M12 0l309 1462h365q167 0 269 -51t148.5 -140t46.5 -203q0 -118 -38 -223.5t-113 -186t-184.5 -127t-252.5 -46.5h-83l-101 -485h-366zM545 793h44q58 0 100.5 32t65.5 87.5t23 127.5q0 55 -27.5 85t-88.5 30h-39z" />
    <glyph glyph-name="Q" unicode="Q" horiz-adv-x="1343" 
d="M667 -348l-125 330q-7 0 -13.5 1t-13.5 1q-140 9 -235.5 73t-143.5 178.5t-48 273.5q0 115 20.5 231t62 225.5t103 203.5t144 165t185.5 111t227 40q243 0 362 -139.5t119 -388.5q0 -97 -15.5 -200.5t-47.5 -204.5t-81.5 -193.5t-117.5 -168t-155 -126.5l189 -412h-416z
M602 297q51 0 95 29t81 80t66.5 117t49.5 140t30.5 150.5t10.5 147.5q0 106 -35.5 158.5t-100.5 52.5q-51 0 -95 -29t-81.5 -80t-66.5 -116.5t-49 -140.5t-31 -151.5t-11 -148.5q0 -76 16 -122t47 -66.5t74 -20.5z" />
    <glyph glyph-name="R" unicode="R" horiz-adv-x="1183" 
d="M12 0l309 1462h358q239 0 358 -94.5t119 -278.5q0 -130 -38.5 -224t-102 -156.5t-137.5 -95.5l210 -613h-403l-146 538h-48l-113 -538h-366zM553 824h40q41 0 75 17t59 48t38.5 72.5t13.5 91.5q0 53 -27 85t-89 32h-38z" />
    <glyph glyph-name="S" unicode="S" horiz-adv-x="1007" 
d="M366 -20q-109 0 -200.5 23t-162.5 73l37 349q66 -47 159 -85.5t174 -38.5q30 0 56.5 7t47 21.5t32.5 39t12 59.5q0 34 -15.5 64t-47 61t-78.5 70q-65 54 -110 111.5t-68 126.5t-23 156q0 99 33.5 183.5t98.5 148.5t160 99t217 35q100 0 201 -27.5t185 -81.5l-144 -302
q-65 42 -130.5 68.5t-119.5 26.5q-32 0 -56 -9t-39.5 -24.5t-23.5 -37.5t-8 -48q0 -28 11.5 -55.5t42.5 -61t90 -78.5q73 -54 117.5 -113t64.5 -126.5t20 -150.5q0 -101 -34 -189t-100.5 -154t-166.5 -103t-232 -37z" />
    <glyph glyph-name="T" unicode="T" horiz-adv-x="1005" 
d="M193 0l241 1150h-276l66 312h922l-67 -312h-278l-241 -1150h-367z" />
    <glyph glyph-name="U" unicode="U" horiz-adv-x="1275" 
d="M531 -20q-135 0 -232 48.5t-148.5 136.5t-51.5 205q0 33 4 74.5t12 80.5l201 937h366l-199 -935q-6 -30 -10 -59t-4 -53q0 -59 26.5 -89t77.5 -30q49 0 84.5 23.5t61 76.5t44.5 142l198 924h366l-207 -970q-34 -167 -105.5 -281t-189.5 -172.5t-294 -58.5z" />
    <glyph glyph-name="V" unicode="V" horiz-adv-x="1164" 
d="M237 0l-67 1462h368l3 -739q0 -47 -1.5 -102t-5.5 -109.5t-10 -100.5h6q11 48 26 97.5t31.5 96t32.5 82.5l323 775h390l-682 -1462h-414z" />
    <glyph glyph-name="W" unicode="W" horiz-adv-x="1720" 
d="M168 0l3 1462h350l-21 -669q-3 -85 -8 -163.5t-12 -135.5h5q22 65 50 136.5t57 140.5l292 691h307l-11 -701q-2 -63 -4.5 -134t-7.5 -140h6q13 44 31 97.5t39 111t41 112.5l251 654h366l-596 -1462h-425l5 539q0 41 1.5 85.5t5 91t7.5 91.5h-7q-23 -70 -48 -138.5
t-53 -134.5l-215 -534h-409z" />
    <glyph glyph-name="X" unicode="X" horiz-adv-x="1191" 
d="M-123 0l517 754l-183 708h387l85 -416l252 416h409l-490 -722l218 -740h-401l-103 442l-285 -442h-406z" />
    <glyph glyph-name="Y" unicode="Y" horiz-adv-x="1119" 
d="M246 0l118 558l-187 904h380l65 -505l274 505h402l-565 -898l-120 -564h-367z" />
    <glyph glyph-name="Z" unicode="Z" horiz-adv-x="1001" 
d="M-86 0l48 241l655 914h-445l65 307h893l-51 -242l-660 -911h489l-66 -309h-928z" />
    <glyph glyph-name="bracketleft" unicode="[" horiz-adv-x="663" 
d="M-77 -344l393 1847h497l-54 -254h-194l-284 -1339h193l-54 -254h-497z" />
    <glyph glyph-name="backslash" unicode="\" horiz-adv-x="885" 
d="M428 -20l-217 1503h298l222 -1503h-303z" />
    <glyph glyph-name="bracketright" unicode="]" horiz-adv-x="663" 
d="M-146 -344l53 254h191l286 1339h-193l54 254h497l-393 -1847h-495z" />
    <glyph glyph-name="asciicircum" unicode="^" horiz-adv-x="1024" 
d="M-23 499l623 963h177l245 -963h-282l-129 527l-334 -527h-300z" />
    <glyph glyph-name="underscore" unicode="_" horiz-adv-x="855" 
d="M-193 -379l54 246h863l-55 -246h-862z" />
    <glyph glyph-name="grave" unicode="`" horiz-adv-x="700" 
d="M518 1241q-34 38 -78 94t-83.5 113.5t-61.5 100.5v20h380q9 -41 20.5 -89.5t28.5 -101.5t38 -111l-1 -26h-243z" />
    <glyph glyph-name="a" unicode="a" horiz-adv-x="1120" 
d="M335 -20q-79 0 -142.5 41.5t-99.5 126.5t-36 218q0 85 18 189.5t55 209.5t93.5 193t134 141.5t175.5 53.5q54 0 97.5 -17.5t77.5 -52t57 -88.5h7l53 138h299l-241 -1133h-288l1 129h-8q-32 -43 -68 -76.5t-80.5 -53t-104.5 -19.5zM489 274q44 0 78 44t58 109.5t36 130.5
q14 63 18 101.5t4 68.5q0 61 -17.5 94t-53.5 33q-32 0 -60.5 -30t-52 -80t-40.5 -110t-26.5 -120.5t-9.5 -111.5q0 -63 16.5 -96t49.5 -33z" />
    <glyph glyph-name="b" unicode="b" horiz-adv-x="1120" 
d="M584 -20q-52 0 -94.5 15.5t-77.5 46.5t-66 79h-7l-54 -121h-287l331 1556h357l-60 -283q-8 -39 -19.5 -83t-24.5 -85t-26 -75h6q31 39 63 66.5t72 42t94 14.5q78 0 140 -41t98.5 -125.5t36.5 -217.5q0 -89 -18.5 -195t-57 -211t-96 -191.5t-135 -139t-175.5 -52.5z
M509 274q29 0 57 30t52 79.5t42 109.5t28.5 121t10.5 113q0 63 -17 95.5t-51 32.5q-30 0 -56 -22t-47.5 -59t-37.5 -84.5t-27.5 -98.5t-17.5 -100t-6 -90q0 -61 17.5 -94t52.5 -33z" />
    <glyph glyph-name="c" unicode="c" horiz-adv-x="924" 
d="M434 -20q-109 0 -193.5 46t-132 138.5t-47.5 230.5q0 111 23 220.5t69 206.5t115.5 171.5t162.5 117t209 42.5q95 0 174 -21t153 -63l-128 -272q-41 25 -91 43t-96 18q-61 0 -104.5 -45.5t-70.5 -114.5t-40 -141t-13 -124q0 -55 11.5 -89.5t34 -50.5t55.5 -16
q59 0 121 23.5t133 68.5v-293q-68 -42 -154.5 -69t-190.5 -27z" />
    <glyph glyph-name="d" unicode="d" horiz-adv-x="1117" 
d="M335 -20q-79 0 -142.5 41.5t-99.5 126.5t-36 218q0 83 18 187t54.5 209t92 194t130.5 143t170 54q54 0 96 -15.5t75 -46.5t59 -78h7q2 26 5.5 64.5t9 79.5t12.5 73l68 326h360l-331 -1556h-288l1 120h-8q-34 -41 -68.5 -72.5t-78 -49.5t-106.5 -18zM489 274q30 0 56 22
t47.5 59.5t38.5 85t28.5 99t17.5 100.5t6 88q0 61 -17 94t-53 33q-34 0 -63 -32t-52.5 -84.5t-40 -113.5t-25.5 -119.5t-9 -102.5q0 -63 16.5 -96t49.5 -33z" />
    <glyph glyph-name="e" unicode="e" horiz-adv-x="1065" 
d="M470 -20q-129 0 -221 50t-140.5 143t-48.5 221q0 136 35.5 270.5t110.5 245t190.5 176.5t274.5 66q167 0 266.5 -82.5t99.5 -221.5q0 -98 -38 -174t-112 -127.5t-181.5 -78t-247.5 -26.5h-40q-2 -11 -2.5 -21.5t-0.5 -19.5q0 -80 36.5 -115t108.5 -35q80 0 148.5 21.5
t155.5 68.5v-259q-91 -53 -183 -77.5t-211 -24.5zM462 679h17q87 0 136 20t69 52.5t20 68.5q0 32 -20.5 52.5t-57.5 20.5t-69.5 -27.5t-56.5 -76t-38 -110.5z" />
    <glyph glyph-name="f" unicode="f" horiz-adv-x="737" 
d="M-38 -492q-45 0 -93 6.5t-86 18.5v294q23 -8 55 -13.5t55 -5.5q70 0 99 36.5t41 95.5l192 911h-138l39 180l160 94l16 72q17 76 45.5 142.5t74.5 118t112.5 80.5t159.5 29q69 0 137.5 -14.5t126.5 -43.5l-105 -254q-25 13 -54 20.5t-53 7.5q-36 0 -57 -22.5t-29 -57.5
l-17 -70h189l-61 -282h-187l-205 -955q-25 -118 -73 -205.5t-130.5 -135t-213.5 -47.5z" />
    <glyph glyph-name="g" unicode="g" horiz-adv-x="1095" 
d="M301 -492q-209 0 -320 73.5t-111 203.5q0 107 71 183.5t206 117.5q-35 19 -59.5 56.5t-24.5 85.5q0 70 47.5 123t130.5 101q-51 39 -79 106t-28 149q0 106 44 198t128 150q56 46 136 71t174 25q58 0 108.5 -8.5t80.5 -16.5h383l-40 -198l-151 -51q5 -18 7 -38t2 -42
q0 -88 -34.5 -172.5t-93.5 -141.5q-61 -60 -147.5 -91t-194.5 -31q-43 0 -67.5 0.5t-39.5 3.5q-26 -11 -42.5 -29t-16.5 -40q0 -15 16 -23q11 -6 33.5 -10.5t54.5 -7.5l169 -9q97 -7 160 -38t94 -85.5t31 -133.5q0 -134 -58.5 -232t-163.5 -157q-77 -45 -179 -68.5
t-226 -23.5zM326 -244q53 0 103 8.5t87 27.5q34 17 54.5 44t20.5 64q0 11 -4 19.5t-13 14.5q-16 12 -44.5 17t-67.5 7l-134 6q-42 -4 -73.5 -26.5t-48.5 -52.5t-17 -59q0 -37 34 -53.5t103 -16.5zM531 595q34 0 60.5 26.5t44.5 74.5t26 110q3 26 3 46.5t-4 34.5
q-3 20 -14 28t-29 8q-32 0 -56 -20t-40 -52t-25.5 -69t-13.5 -71q-3 -25 -3 -44.5t3 -33.5q9 -38 48 -38z" />
    <glyph glyph-name="h" unicode="h" horiz-adv-x="1140" 
d="M-2 0l331 1556h357l-57 -266q-9 -44 -22.5 -91t-28.5 -92t-30 -83h7q33 44 71 72.5t83 42.5t98 14q90 0 149 -38.5t88.5 -105.5t29.5 -152q0 -45 -6.5 -96t-15.5 -98l-140 -663h-358l131 625q8 33 14 72.5t6 75.5t-17.5 57.5t-50.5 21.5q-28 0 -56 -23.5t-53.5 -80
t-46.5 -154.5l-124 -594h-359z" />
    <glyph glyph-name="i" unicode="i" horiz-adv-x="591" 
d="M-1 0l241 1133h357l-240 -1133h-358zM456 1242q-79 0 -125 31.5t-46 101.5q0 59 24 108t72.5 78t120.5 29q75 0 123 -31t48 -102q0 -94 -56 -154.5t-161 -60.5z" />
    <glyph glyph-name="j" unicode="j" horiz-adv-x="591" 
d="M-80 -492q-46 0 -94 6.5t-86 18.5v294q28 -11 57 -15t50 -4q39 0 67.5 14.5t48.5 46t30 82.5l251 1182h356l-260 -1226q-24 -115 -72 -205t-131.5 -142t-216.5 -52zM460 1242q-79 0 -125 31.5t-46 101.5q0 59 24 108t72.5 78t120.5 29q75 0 123 -31t48 -102
q0 -94 -56 -154.5t-161 -60.5z" />
    <glyph glyph-name="k" unicode="k" horiz-adv-x="1128" 
d="M-2 0l329 1556h357l-134 -632q-8 -37 -19 -78t-22 -79.5t-22 -69.5h7l347 436h399l-435 -501l217 -632h-397l-114 385l-90 -60l-64 -325h-359z" />
    <glyph glyph-name="l" unicode="l" horiz-adv-x="589" 
d="M-2 0l331 1556h357l-329 -1556h-359z" />
    <glyph glyph-name="m" unicode="m" horiz-adv-x="1691" 
d="M-2 0l241 1133h285l-11 -158h8q36 60 78.5 99.5t95 59t116.5 19.5q103 0 162 -43.5t86 -129.5h7q39 57 86 95t101.5 58t115.5 20q125 0 191 -75t66 -217q0 -41 -5.5 -90.5t-16.5 -101.5l-139 -669h-358l131 630q8 32 13 70t5 73q0 40 -15.5 59.5t-43.5 19.5
q-33 0 -59 -22t-46 -60.5t-35.5 -89.5t-27.5 -108l-119 -572h-357l132 630q7 34 13 73.5t6 65.5q0 44 -16 63.5t-43 19.5t-51.5 -19t-45.5 -55t-38 -87.5t-31 -114.5l-122 -576h-359z" />
    <glyph glyph-name="n" unicode="n" horiz-adv-x="1140" 
d="M-2 0l241 1133h285l-8 -145h7q35 56 77 92.5t91.5 54.5t109.5 18q84 0 144.5 -34t94.5 -99t34 -161q0 -43 -5.5 -92.5t-16.5 -103.5l-140 -663h-358l131 625q8 35 14.5 76t6.5 72q0 39 -17 59t-47 20q-36 0 -67 -34t-55.5 -97.5t-43.5 -151.5l-119 -569h-359z" />
    <glyph glyph-name="o" unicode="o" horiz-adv-x="1112" 
d="M458 -20q-126 0 -215 49t-135.5 141.5t-46.5 223.5q0 102 22 209t68.5 205.5t117.5 176t168 123t222 45.5t213 -49.5t134.5 -142t46.5 -221.5q0 -106 -23 -214t-69.5 -206t-117.5 -174.5t-167 -121t-218 -44.5zM499 263q33 0 62 31t53 83t41 115.5t26 129.5t9 124
q0 41 -8.5 68.5t-25 41.5t-41.5 14q-34 0 -63.5 -31t-53 -83t-40.5 -115.5t-26 -129.5t-9 -125q0 -60 19 -91.5t57 -31.5z" />
    <glyph glyph-name="p" unicode="p" horiz-adv-x="1120" 
d="M-105 -492l344 1625h287l-8 -135h8q35 54 74 88.5t83.5 50.5t96.5 16q87 0 151 -43t99 -127.5t35 -209.5q0 -105 -20.5 -216t-60.5 -214t-98 -185t-133.5 -130t-166.5 -48q-48 0 -88.5 17.5t-72 49t-54.5 75.5h-7q-7 -68 -16 -132t-25 -143l-72 -339h-356zM514 278
q32 0 60 29.5t50.5 78.5t39.5 109t26 121.5t9 113.5q0 65 -17 97.5t-49 32.5q-29 0 -55 -23t-47.5 -61t-38.5 -86t-28.5 -99t-18 -99t-6.5 -87q0 -61 19.5 -94t55.5 -33z" />
    <glyph glyph-name="q" unicode="q" horiz-adv-x="1120" 
d="M419 -492l77 350q9 40 21 84t24.5 86.5t23.5 75.5h-7q-30 -41 -64 -68t-75.5 -41.5t-96.5 -14.5q-71 0 -132 40.5t-97.5 123.5t-36.5 212q0 86 18.5 192t56 212.5t95 195.5t135.5 143t177 54q61 0 102.5 -16t72 -50.5t56.5 -91.5h6l50 138h299l-345 -1625h-360zM491 278
q30 0 56 22t47 59t38 84.5t28.5 99.5t17 103t5.5 93q0 54 -17.5 85t-53.5 31q-31 0 -59.5 -29t-52 -78t-41 -108t-27 -120t-9.5 -114q0 -63 17 -95.5t51 -32.5z" />
    <glyph glyph-name="r" unicode="r" horiz-adv-x="808" 
d="M-1 0l240 1133h283l-11 -176h8q42 73 85 116t95 61.5t119 18.5q21 0 43.5 -2.5t42.5 -8.5l-93 -372q-22 10 -50.5 15.5t-60.5 5.5q-44 0 -80.5 -16.5t-65.5 -48.5t-50 -80.5t-35 -111.5l-112 -534h-358z" />
    <glyph glyph-name="s" unicode="s" horiz-adv-x="911" 
d="M341 -20q-111 0 -187 16t-140 49v307q77 -45 151.5 -66.5t141.5 -21.5q26 0 53.5 6.5t46.5 22.5t19 44q0 21 -8.5 40.5t-36 45t-84.5 63.5q-65 44 -103 91t-53.5 98t-15.5 111q0 106 46 189t140 130.5t236 47.5q104 0 195 -27t164 -75l-123 -250q-53 41 -116.5 64.5
t-107.5 23.5q-32 0 -50 -16.5t-18 -49.5q0 -19 9.5 -35.5t35 -36t72.5 -49.5q63 -39 104.5 -84t63 -101.5t21.5 -132.5q0 -122 -55 -213t-157 -141t-244 -50z" />
    <glyph glyph-name="t" unicode="t" horiz-adv-x="818" 
d="M365 -20q-141 0 -205.5 69.5t-64.5 198.5q0 39 6 87t17 97l88 419h-128l38 180l187 90l125 239h245l-49 -227h240l-60 -282h-241l-93 -433q-4 -21 -8 -43t-4 -36q0 -32 15 -46t44 -14q27 0 69 10t85 29v-277q-60 -31 -141.5 -46t-164.5 -15z" />
    <glyph glyph-name="u" unicode="u" horiz-adv-x="1140" 
d="M340 -20q-92 0 -152.5 38.5t-90 104.5t-29.5 151q0 46 6 97t15 100l141 662h357l-131 -623q-8 -36 -14 -77t-6 -72q0 -39 17 -59t47 -20q34 0 64.5 34t56.5 98t44 153l121 566h357l-239 -1133h-287l9 145h-7q-35 -55 -76.5 -91.5t-91.5 -55t-111 -18.5z" />
    <glyph glyph-name="v" unicode="v" horiz-adv-x="1025" 
d="M204 0l-96 1133h356l8 -507v-60.5t-1.5 -60t-5.5 -57.5h8q5 19 13 41t17 44.5t16 40.5l243 559h380l-570 -1133h-368z" />
    <glyph glyph-name="w" unicode="w" horiz-adv-x="1538" 
d="M135 0l-18 1133h343l-11 -454q-2 -59 -7.5 -119t-10.5 -113h7q8 32 19 67.5t23 71.5t24 70l178 477h390l-26 -470q-3 -48 -7 -107t-11 -120h7q13 42 26 83t26.5 81t28.5 80l179 453h356l-498 -1133h-399l24 480q3 41 6 89t6.5 97t7.5 91h-7q-12 -42 -26 -86t-28 -85.5
t-27 -75.5l-191 -510h-384z" />
    <glyph glyph-name="x" unicode="x" horiz-adv-x="1051" 
d="M-114 0l425 578l-169 555h389l56 -292l167 292h412l-412 -565l180 -568h-391l-62 313l-188 -313h-407z" />
    <glyph glyph-name="y" unicode="y" horiz-adv-x="1025" 
d="M29 -492q-54 0 -91 5.5t-64 13.5l30 300q23 -6 47.5 -10.5t50.5 -4.5q66 0 105 30t71 91l43 83l-116 1117h360l21 -483q1 -32 1 -64t-0.5 -62.5t-1.5 -61.5h7q9 33 20.5 69t23.5 69.5t20 54.5l204 478h380l-630 -1268q-55 -110 -120.5 -190.5t-152 -123.5t-208.5 -43z
" />
    <glyph glyph-name="z" unicode="z" horiz-adv-x="897" 
d="M-63 0l42 208l490 637h-333l63 288h752l-49 -227l-478 -618h360l-61 -288h-786z" />
    <glyph glyph-name="braceleft" unicode="{" horiz-adv-x="721" 
d="M484 -324q-208 0 -296.5 74.5t-88.5 208.5q0 32 4 63.5t11 63.5l36 168q2 12 4.5 26t2.5 27q0 63 -31.5 95t-129.5 32l57 287q106 1 159.5 41.5t72.5 130.5l53 246q28 124 83 194.5t149 99.5t236 29h67l-62 -280q-73 0 -111.5 -25.5t-54.5 -103.5l-51 -248
q-22 -105 -94.5 -161.5t-191.5 -70.5l-1 -8q92 -30 133.5 -86.5t41.5 -134.5q0 -22 -3.5 -46.5t-8.5 -49.5l-32 -154q-3 -14 -4.5 -26.5t-1.5 -22.5q0 -45 24 -66.5t79 -21.5v-281h-51z" />
    <glyph glyph-name="bar" unicode="|" horiz-adv-x="981" 
d="M349 -467v2031h279v-2031h-279z" />
    <glyph glyph-name="braceright" unicode="}" horiz-adv-x="721" 
d="M-121 -324v281q62 2 99 13t57 38.5t30 77.5l51 248q23 106 95 162.5t190 68.5l1 8q-91 30 -133 86.5t-42 135.5q0 22 4 47t9 49l31 153q4 15 5.5 27t1.5 23q0 43 -30 65.5t-94 22.5l56 280h37q135 0 214.5 -33t113.5 -93.5t34 -144.5q0 -31 -3 -68.5t-10 -70.5l-36 -167
q-3 -13 -5 -26t-2 -27q0 -63 36 -94.5t133 -31.5l-58 -287q-70 0 -119 -19.5t-78 -57.5t-42 -96l-53 -246q-26 -120 -78 -191.5t-142.5 -102t-233.5 -30.5h-39z" />
    <glyph glyph-name="asciitilde" unicode="~" horiz-adv-x="1112" 
d="M530 592q-67 30 -121.5 42.5t-101.5 12.5q-55 0 -111 -32.5t-111 -88.5v281q50 54 112 81t139 27q63 0 124.5 -14.5t141.5 -48.5q67 -30 122.5 -42.5t102.5 -12.5q51 0 110 33.5t110 87.5v-281q-50 -54 -112.5 -81.5t-138.5 -27.5q-61 0 -122 15t-144 49z" />
    <glyph glyph-name="uni00A0" unicode="&#xa0;" horiz-adv-x="442" 
 />
    <glyph glyph-name="exclamdown" unicode="&#xa1;" horiz-adv-x="577" 
d="M-114 -353l253 963h308l-160 -963h-401zM326 769q-77 0 -120 38.5t-43 108.5q0 114 66.5 175.5t161.5 61.5q93 0 133.5 -40.5t40.5 -104.5t-27 -118.5t-80 -87.5t-132 -33z" />
    <glyph glyph-name="cent" unicode="&#xa2;" horiz-adv-x="1080" 
d="M340 -20l47 198q-118 29 -183 122.5t-65 271.5q0 103 20 205.5t60.5 195t100 167.5t137.5 124.5t174 64.5l33 154h208l-33 -155q61 -9 111 -30t95 -48l-129 -274q-46 30 -92 47t-89 17q-57 0 -100 -42.5t-72 -109.5t-44 -143t-15 -142q0 -75 25 -109t74 -34q56 0 113 21
t121 59l44 -268q-66 -47 -142.5 -71t-148.5 -33l-41 -188h-209z" />
    <glyph glyph-name="sterling" unicode="&#xa3;" horiz-adv-x="1080" 
d="M-21 0l62 298q63 27 102.5 58t62 75.5t35.5 108.5l20 100h-152l55 265h153l33 167q28 146 88 236.5t150.5 132.5t211.5 42q97 0 181 -23.5t153 -61.5l-138 -287q-51 30 -95.5 45.5t-86.5 15.5q-43 0 -66.5 -30t-37.5 -98l-31 -139h245l-55 -265h-244l-20 -98
q-17 -81 -71.5 -137.5t-119.5 -89.5h543l-68 -315h-910z" />
    <glyph glyph-name="currency" unicode="&#xa4;" horiz-adv-x="1080" 
d="M886 240l-128 125q-42 -21 -91 -33.5t-101 -12.5q-54 0 -103 11t-90 34l-125 -122l-165 165l128 125q-25 44 -37 91.5t-12 99.5q0 51 13 99t36 93l-130 127l167 167l128 -127q42 23 92.5 35.5t97.5 12.5q52 0 99.5 -12.5t92.5 -39.5l128 131l169 -162l-130 -130
q23 -42 35.5 -91.5t12.5 -102.5q0 -54 -11.5 -102t-35.5 -92l124 -124zM566 552q49 0 89 23t64 62t24 86q0 48 -24 86.5t-64 62t-89 23.5q-47 0 -85 -23t-61 -62t-23 -87q0 -47 23 -86t61 -62t85 -23z" />
    <glyph glyph-name="yen" unicode="&#xa5;" horiz-adv-x="1080" 
d="M232 0l43 201h-228l44 208h228l24 124h-226l45 208h177l-145 721h366l47 -467l253 467h375l-449 -721h183l-45 -208h-224l-27 -124h225l-44 -208h-225l-42 -201h-355z" />
    <glyph glyph-name="brokenbar" unicode="&#xa6;" horiz-adv-x="981" 
d="M350 752v811h279v-811h-279zM350 -456v809h279v-809h-279z" />
    <glyph glyph-name="section" unicode="&#xa7;" horiz-adv-x="971" 
d="M364 -31q-97 0 -178.5 23t-137.5 65v253q81 -58 161 -86.5t151 -28.5q69 0 100.5 33.5t31.5 76.5q0 29 -17 51.5t-45.5 43.5t-65.5 42q-67 40 -114.5 85t-73 99t-25.5 122q0 61 21.5 114.5t64 98.5t103.5 81q-38 39 -58.5 88.5t-20.5 112.5q0 94 49 166.5t141 115
t220 43.5q100 0 186 -24.5t163 -70.5l-107 -221q-51 39 -115 65t-137 26q-33 0 -55 -11.5t-33.5 -30t-11.5 -41.5q0 -32 25 -60.5t101 -69.5q83 -47 131.5 -93.5t69.5 -96t21 -104.5q0 -79 -23.5 -135t-64 -97.5t-91.5 -77.5q28 -33 47 -83t19 -115q0 -104 -51 -185
t-147.5 -127.5t-233.5 -46.5zM566 639q24 21 42.5 56.5t18.5 77.5q0 32 -12 59t-39.5 51.5t-74.5 49.5q-22 -12 -37.5 -33.5t-23.5 -46t-8 -48.5q0 -33 17 -61.5t47.5 -54t69.5 -50.5z" />
    <glyph glyph-name="dieresis" unicode="&#xa8;" horiz-adv-x="1007" 
d="M891 1257q-68 0 -109 27.5t-41 93.5q0 88 51 140.5t144 52.5q59 0 101.5 -26.5t42.5 -92.5q0 -88 -49 -141.5t-140 -53.5zM453 1257q-68 0 -108.5 27.5t-40.5 93.5q0 88 51 140.5t144 52.5q39 0 71.5 -11t52.5 -37.5t20 -70.5q0 -88 -49.5 -141.5t-140.5 -53.5z" />
    <glyph glyph-name="copyright" unicode="&#xa9;" horiz-adv-x="1688" 
d="M845 -20q-168 0 -306.5 57.5t-238.5 159.5t-154 239.5t-54 296.5q0 165 56 302t157.5 237.5t238.5 155.5t299 55q164 0 301.5 -55.5t238.5 -157t156.5 -239.5t55.5 -303q0 -163 -54.5 -299.5t-155 -237t-237.5 -156t-303 -55.5zM848 262q-216 0 -330 126.5t-114 345.5
q0 144 49.5 248t146.5 160t238 56q88 0 167 -20t154 -58l-92 -194q-53 28 -104 41.5t-104 13.5q-88 0 -137.5 -63t-49.5 -192q0 -128 47 -187.5t147 -59.5q63 0 128.5 17t125.5 51v-221q-63 -32 -129 -48t-143 -16zM846 137q128 0 232.5 44.5t180.5 124.5t117 189t41 237
q0 132 -42.5 241t-120 187.5t-182.5 121.5t-230 43q-128 0 -233.5 -44.5t-181.5 -124.5t-117.5 -189t-41.5 -238q0 -132 43 -240.5t121 -187.5t183.5 -121.5t230.5 -42.5z" />
    <glyph glyph-name="ordfeminine" unicode="&#xaa;" horiz-adv-x="751" 
d="M350 729q-44 0 -93 24.5t-83.5 83.5t-34.5 164q0 80 22.5 163t66.5 153.5t108.5 114t148.5 43.5q68 0 109 -27t70 -72h8l37 86h178l-162 -721h-182l8 86h-8q-32 -41 -78.5 -69.5t-114.5 -28.5zM442 913q29 0 51 18t38 47.5t26.5 65t15.5 70.5t5 64q0 52 -14 83t-44 31
t-54 -25.5t-41.5 -67t-26.5 -90.5t-9 -97q0 -50 14 -74.5t39 -24.5z" />
    <glyph glyph-name="guillemotleft" unicode="&#xab;" horiz-adv-x="1189" 
d="M251 69l-205 485l1 17l385 505l251 -173l-268 -352l137 -354zM770 69l-211 500l2 16l394 494l248 -176l-275 -338l145 -368z" />
    <glyph glyph-name="logicalnot" unicode="&#xac;" horiz-adv-x="1112" 
d="M1036 856v-618h-273v350h-672v268h945z" />
    <glyph glyph-name="uni00AD" unicode="&#xad;" horiz-adv-x="652" 
d="M21 393l64 312h538l-66 -312h-536z" />
    <glyph glyph-name="registered" unicode="&#xae;" horiz-adv-x="1688" 
d="M514 313v875h291q199 0 290 -69t91 -201q0 -95 -37 -152t-104 -90l184 -363h-274l-137 320h-44v-320h-260zM774 809h23q58 0 91.5 21.5t33.5 76.5q0 51 -30 68.5t-93 17.5h-25v-184zM845 -20q-168 0 -306.5 57.5t-238.5 159.5t-154 239.5t-54 296.5q0 165 56 302
t157.5 237.5t238.5 155.5t299 55q164 0 301.5 -55.5t238.5 -157t156.5 -239.5t55.5 -303q0 -163 -54.5 -299.5t-155 -237t-237.5 -156t-303 -55.5zM846 137q128 0 232.5 44.5t180.5 124.5t117 189t41 237q0 132 -42.5 241t-120 187.5t-182.5 121.5t-230 43
q-128 0 -233.5 -44.5t-181.5 -124.5t-117.5 -189t-41.5 -238q0 -132 43 -240.5t121 -187.5t183.5 -121.5t230.5 -42.5z" />
    <glyph glyph-name="overscore" unicode="&#xaf;" horiz-adv-x="932" 
d="M207 1555l55 246h940l-54 -246h-941z" />
    <glyph glyph-name="degree" unicode="&#xb0;" horiz-adv-x="800" 
d="M400 801q-100 0 -178.5 43t-124 119.5t-45.5 177.5q0 100 45.5 177t124 121t178.5 44t178.5 -44t124 -121t45.5 -177q0 -101 -45.5 -177.5t-124 -119.5t-178.5 -43zM400 1016q59 0 92.5 33.5t33.5 91.5t-33.5 93t-92.5 35t-92.5 -35t-33.5 -93t33.5 -91.5t92.5 -33.5z
" />
    <glyph glyph-name="plusminus" unicode="&#xb1;" horiz-adv-x="1112" 
d="M91 0v268h950v-268h-950zM702 962h339v-268h-339v-361h-272v361h-339v268h339v367h272v-367z" />
    <glyph glyph-name="uni00B2" unicode="&#xb2;" horiz-adv-x="759" 
d="M127 851l43 204l241 214q58 52 95 89t55 66.5t18 57.5q0 25 -14.5 37.5t-39.5 12.5q-34 0 -79 -25.5t-85 -61.5l-98 175q69 64 153 97t189 33q121 0 193 -57t72 -153q0 -71 -33 -132t-92.5 -117t-138.5 -113l-111 -91h298l-49 -236h-617z" />
    <glyph glyph-name="uni00B3" unicode="&#xb3;" horiz-adv-x="759" 
d="M429 837q-88 0 -150.5 17.5t-112.5 52.5v227q50 -42 114 -63.5t125 -21.5q60 0 94 21.5t34 65.5q0 25 -21 44.5t-73 19.5h-109l41 189h87q42 0 72.5 11t47 33t16.5 53q0 29 -19 42.5t-47 13.5q-35 0 -71.5 -14t-90.5 -52l-92 171q74 56 150.5 78.5t162.5 22.5
q85 0 146.5 -24.5t94 -70.5t32.5 -111q0 -89 -54 -144t-153 -86l-1 -8q70 -21 104.5 -65t34.5 -114q0 -87 -43.5 -152t-124.5 -100.5t-194 -35.5z" />
    <glyph glyph-name="acute" unicode="&#xb4;" horiz-adv-x="748" 
d="M227 1241l3 23q43 45 86 96t84 104.5t76 104.5h401l-1 -16q-23 -25 -72.5 -68t-108.5 -91t-114 -89.5t-89 -63.5h-265z" />
    <glyph glyph-name="uni00B5" unicode="&#xb5;" horiz-adv-x="1147" 
d="M-107 -492l344 1625h357l-131 -623q-8 -36 -13.5 -74t-5.5 -69q0 -42 16.5 -63.5t45.5 -21.5q37 0 65 21.5t52 80.5t47 169l123 580h357l-239 -1133h-274l2 118h-7q-24 -51 -52.5 -81t-59 -43.5t-64.5 -13.5q-38 0 -64 15.5t-41 46.5h-7q-2 -41 -6.5 -82t-11 -83
t-16.5 -87l-60 -282h-357z" />
    <glyph glyph-name="paragraph" unicode="&#xb6;" horiz-adv-x="1212" 
d="M597 -260l-1 815q-24 -7 -44.5 -10.5t-53.5 -3.5q-97 0 -167 38.5t-114.5 107.5t-66 163t-21.5 206q0 115 24.5 207.5t73.5 158t123 100t174 34.5h580v-1816h-186v1622h-134v-1622h-187z" />
    <glyph glyph-name="periodcentered" unicode="&#xb7;" horiz-adv-x="580" 
d="M280 532q-78 0 -122.5 36.5t-44.5 109.5q0 109 66.5 173.5t172.5 64.5q74 0 119 -36.5t45 -109.5q0 -122 -68 -180t-168 -58z" />
    <glyph glyph-name="cedilla" unicode="&#xb8;" horiz-adv-x="338" 
d="M-62 -492q-52 0 -96.5 6.5t-83.5 19.5v193q29 -8 69 -15t63 -7q25 0 41.5 6.5t25 19.5t8.5 33q0 29 -26.5 51.5t-97.5 32.5l87 152h181l-33 -55q70 -13 116 -56t46 -125q0 -88 -38 -144.5t-105.5 -84t-156.5 -27.5z" />
    <glyph glyph-name="uni00B9" unicode="&#xb9;" horiz-adv-x="759" 
d="M353 851l89 412q12 54 23.5 94t21.5 67q-14 -12 -30.5 -26.5t-22.5 -18.5l-112 -79l-110 162l383 267h224l-186 -878h-280z" />
    <glyph glyph-name="ordmasculine" unicode="&#xba;" horiz-adv-x="738" 
d="M424 727q-131 0 -203.5 77t-72.5 210q0 89 25 172.5t75 149.5t125 104.5t174 38.5q120 0 197.5 -73t77.5 -220q0 -88 -25.5 -169.5t-76 -147t-124.5 -104t-172 -38.5zM452 927q28 0 51 22t38.5 58.5t24 81t8.5 90.5q0 49 -13.5 74.5t-42.5 25.5t-51.5 -23.5t-38 -62
t-23.5 -83.5t-8 -88q0 -52 14 -73.5t41 -21.5z" />
    <glyph glyph-name="guillemotright" unicode="&#xbb;" horiz-adv-x="1189" 
d="M754 52l-251 175l269 351l-138 354l301 128l206 -485l-2 -17zM233 48l-248 179l273 336l-142 369l300 128l211 -499l-1 -17z" />
    <glyph glyph-name="onequarter" unicode="&#xbc;" horiz-adv-x="1777" 
d="M275 0l1023 1462h270l-1019 -1462h-274zM317 585l89 412q12 54 23.5 94t21.5 67q-14 -12 -30.5 -26.5t-22.5 -18.5l-112 -79l-110 162l383 267h224l-186 -878h-280zM1264 0l29 131h-346l33 176l441 574h295l-119 -555h106l-41 -195h-105l-29 -131h-264zM1203 326h131
l39 167q8 30 17 65t18 61q-14 -25 -35.5 -58t-39.5 -57z" />
    <glyph glyph-name="onehalf" unicode="&#xbd;" horiz-adv-x="1823" 
d="M257 0l1023 1462h270l-1019 -1462h-274zM317 586l89 412q12 54 23.5 94t21.5 67q-14 -12 -30.5 -26.5t-22.5 -18.5l-112 -79l-110 162l383 267h224l-186 -878h-280zM1011 0l43 204l241 214q58 52 95 89t55 66.5t18 57.5q0 25 -14.5 37.5t-39.5 12.5q-34 0 -79 -25.5
t-85 -61.5l-98 175q69 64 153 97t189 33q121 0 193 -57t72 -153q0 -71 -33 -132t-92.5 -117t-138.5 -113l-111 -91h298l-49 -236h-617z" />
    <glyph glyph-name="threequarters" unicode="&#xbe;" horiz-adv-x="1800" 
d="M376 571q-88 0 -150.5 17.5t-112.5 52.5v227q50 -42 114 -63.5t125 -21.5q60 0 94 21.5t34 65.5q0 25 -21 44.5t-73 19.5h-109l41 189h87q42 0 72.5 11t47 33t16.5 53q0 29 -19 42.5t-47 13.5q-35 0 -71.5 -14t-90.5 -52l-92 171q74 56 150.5 78.5t162.5 22.5
q85 0 146.5 -24.5t94 -70.5t32.5 -111q0 -89 -54 -144t-153 -86l-1 -8q70 -21 104.5 -65t34.5 -114q0 -87 -43.5 -152t-124.5 -100.5t-194 -35.5zM311 0l1023 1462h270l-1019 -1462h-274zM1287 0l29 131h-346l33 176l441 574h295l-119 -555h106l-41 -195h-105l-29 -131h-264
zM1226 326h131l39 167q8 30 17 65t18 61q-14 -25 -35.5 -58t-39.5 -57z" />
    <glyph glyph-name="questiondown" unicode="&#xbf;" horiz-adv-x="885" 
d="M664 615q-17 -102 -43 -166.5t-68 -113.5t-110 -101q-72 -58 -109.5 -93t-51 -60.5t-13.5 -55.5q0 -33 21 -54t65 -21q61 0 133.5 30t149.5 78l79 -270q-96 -65 -204 -102.5t-218 -37.5q-179 0 -278 83t-99 227q0 107 38.5 185t100 137t129.5 109q61 42 92 71.5
t47.5 63.5t31.5 91h307zM603 1156q93 0 134 -41t41 -105q0 -97 -60.5 -167.5t-179.5 -70.5q-77 0 -120 38.5t-43 107.5q0 114 66.5 176t161.5 62z" />
    <glyph glyph-name="Agrave" unicode="&#xc0;" horiz-adv-x="1237" 
d="M-120 0l688 1465h469l73 -1465h-373l-1 280h-348l-117 -280h-391zM515 584h225v400q1 49 1.5 97t4.5 98h-7q-12 -50 -27 -95t-34 -93zM750 1598q-34 38 -78 94t-83.5 113.5t-61.5 100.5v20h380q9 -41 20.5 -89.5t28.5 -101.5t38 -111l-1 -26h-243z" />
    <glyph glyph-name="Aacute" unicode="&#xc1;" horiz-adv-x="1237" 
d="M-120 0l688 1465h469l73 -1465h-373l-1 280h-348l-117 -280h-391zM515 584h225v400q1 49 1.5 97t4.5 98h-7q-12 -50 -27 -95t-34 -93zM631 1598l3 23q43 45 86 96t84 104.5t76 104.5h401l-1 -16q-23 -25 -72.5 -68t-108.5 -91t-114 -89.5t-89 -63.5h-265z" />
    <glyph glyph-name="Acircumflex" unicode="&#xc2;" horiz-adv-x="1237" 
d="M-120 0l688 1465h469l73 -1465h-373l-1 280h-348l-117 -280h-391zM515 584h225v400q1 49 1.5 97t4.5 98h-7q-12 -50 -27 -95t-34 -93zM428 1598l2 24q46 44 95 96t96.5 105.5t86.5 102.5h372q15 -42 39.5 -97t52.5 -109t53 -96l-3 -26h-234q-18 19 -40.5 45.5t-44.5 55.5
t-39 54q-51 -45 -98.5 -84.5t-93.5 -70.5h-244z" />
    <glyph glyph-name="Atilde" unicode="&#xc3;" horiz-adv-x="1237" 
d="M-120 0l688 1465h469l73 -1465h-373l-1 280h-348l-117 -280h-391zM515 584h225v400q1 49 1.5 97t4.5 98h-7q-12 -50 -27 -95t-34 -93zM457 1594q21 108 57 184.5t91.5 117t134.5 40.5q48 0 84 -14.5t66 -33.5t57.5 -34t55.5 -15q30 0 54 23.5t39 75.5h187
q-23 -127 -66 -202t-100 -107.5t-123 -32.5q-48 0 -85.5 15t-68 34t-58 33.5t-56.5 14.5q-25 0 -49.5 -24t-33.5 -75h-186z" />
    <glyph glyph-name="Adieresis" unicode="&#xc4;" horiz-adv-x="1237" 
d="M-120 0l688 1465h469l73 -1465h-373l-1 280h-348l-117 -280h-391zM515 584h225v400q1 49 1.5 97t4.5 98h-7q-12 -50 -27 -95t-34 -93zM1063 1614q-68 0 -109 27.5t-41 93.5q0 88 51 140.5t144 52.5q59 0 101.5 -26.5t42.5 -92.5q0 -88 -49 -141.5t-140 -53.5zM625 1614
q-68 0 -108.5 27.5t-40.5 93.5q0 88 51 140.5t144 52.5q39 0 71.5 -11t52.5 -37.5t20 -70.5q0 -88 -49.5 -141.5t-140.5 -53.5z" />
    <glyph glyph-name="Aring" unicode="&#xc5;" horiz-adv-x="1237" 
d="M-120 0l688 1465h469l73 -1465h-373l-1 280h-348l-117 -280h-391zM515 584h225v400q1 49 1.5 97t4.5 98h-7q-12 -50 -27 -95t-34 -93zM847 1553q-119 0 -190.5 68t-71.5 184t72.5 183.5t189.5 67.5q109 0 185 -67t76 -181q0 -115 -72.5 -185t-188.5 -70zM847 1717
q38 0 63.5 24t25.5 63t-25.5 64t-63.5 25q-39 0 -64.5 -25t-25.5 -64t23 -63t67 -24z" />
    <glyph glyph-name="AE" unicode="&#xc6;" horiz-adv-x="1673" 
d="M-126 0l814 1462h1067l-63 -306h-400l-51 -247h371l-67 -306h-371l-62 -292h400l-66 -311h-764l60 280h-325l-151 -280h-392zM586 593h223l118 563h-43z" />
    <glyph glyph-name="Ccedilla" unicode="&#xc7;" horiz-adv-x="1128" 
d="M546 -20q-153 0 -255 65t-153 181.5t-51 272.5q0 138 29 278t86.5 267t144.5 226.5t202.5 156.5t260.5 57q119 0 223 -28.5t194 -89.5l-154 -287q-71 46 -131.5 69.5t-123.5 23.5q-69 0 -125 -44t-98.5 -117t-71 -160t-43 -174.5t-14.5 -159.5q0 -116 42.5 -170.5
t120.5 -54.5q79 0 154 22.5t161 61.5v-313q-93 -44 -195.5 -63.5t-202.5 -19.5zM474 -492q-52 0 -96.5 6.5t-83.5 19.5v193q29 -8 69 -15t63 -7q25 0 41.5 6.5t25 19.5t8.5 33q0 29 -26.5 51.5t-97.5 32.5l87 152h181l-33 -55q70 -13 116 -56t46 -125q0 -88 -38 -144.5
t-105.5 -84t-156.5 -27.5z" />
    <glyph glyph-name="Egrave" unicode="&#xc8;" horiz-adv-x="1005" 
d="M12 0l309 1462h766l-64 -306h-399l-52 -247h371l-67 -306h-371l-62 -292h400l-66 -311h-765zM650 1575q-34 38 -78 94t-83.5 113.5t-61.5 100.5v20h380q9 -41 20.5 -89.5t28.5 -101.5t38 -111l-1 -26h-243z" />
    <glyph glyph-name="Eacute" unicode="&#xc9;" horiz-adv-x="1005" 
d="M12 0l309 1462h766l-64 -306h-399l-52 -247h371l-67 -306h-371l-62 -292h400l-66 -311h-765zM537 1575l3 23q43 45 86 96t84 104.5t76 104.5h401l-1 -16q-23 -25 -72.5 -68t-108.5 -91t-114 -89.5t-89 -63.5h-265z" />
    <glyph glyph-name="Ecircumflex" unicode="&#xca;" horiz-adv-x="1005" 
d="M12 0l309 1462h766l-64 -306h-399l-52 -247h371l-67 -306h-371l-62 -292h400l-66 -311h-765zM326 1575l2 24q46 44 95 96t96.5 105.5t86.5 102.5h372q15 -42 39.5 -97t52.5 -109t53 -96l-3 -26h-234q-18 19 -40.5 45.5t-44.5 55.5t-39 54q-51 -45 -98.5 -84.5
t-93.5 -70.5h-244z" />
    <glyph glyph-name="Edieresis" unicode="&#xcb;" horiz-adv-x="1005" 
d="M12 0l309 1462h766l-64 -306h-399l-52 -247h371l-67 -306h-371l-62 -292h400l-66 -311h-765zM953 1591q-68 0 -109 27.5t-41 93.5q0 88 51 140.5t144 52.5q59 0 101.5 -26.5t42.5 -92.5q0 -88 -49 -141.5t-140 -53.5zM515 1591q-68 0 -108.5 27.5t-40.5 93.5
q0 88 51 140.5t144 52.5q39 0 71.5 -11t52.5 -37.5t20 -70.5q0 -88 -49.5 -141.5t-140.5 -53.5z" />
    <glyph glyph-name="Igrave" unicode="&#xcc;" horiz-adv-x="640" 
d="M11 0l310 1462h366l-310 -1462h-366zM475 1595q-34 38 -78 94t-83.5 113.5t-61.5 100.5v20h380q9 -41 20.5 -89.5t28.5 -101.5t38 -111l-1 -26h-243z" />
    <glyph glyph-name="Iacute" unicode="&#xcd;" horiz-adv-x="640" 
d="M11 0l310 1462h366l-310 -1462h-366zM352 1595l3 23q43 45 86 96t84 104.5t76 104.5h401l-1 -16q-23 -25 -72.5 -68t-108.5 -91t-114 -89.5t-89 -63.5h-265z" />
    <glyph glyph-name="Icircumflex" unicode="&#xce;" horiz-adv-x="640" 
d="M11 0l310 1462h366l-310 -1462h-366zM126 1595l2 24q46 44 95 96t96.5 105.5t86.5 102.5h372q15 -42 39.5 -97t52.5 -109t53 -96l-3 -26h-234q-18 19 -40.5 45.5t-44.5 55.5t-39 54q-51 -45 -98.5 -84.5t-93.5 -70.5h-244z" />
    <glyph glyph-name="Idieresis" unicode="&#xcf;" horiz-adv-x="640" 
d="M11 0l310 1462h366l-310 -1462h-366zM766 1611q-68 0 -109 27.5t-41 93.5q0 88 51 140.5t144 52.5q59 0 101.5 -26.5t42.5 -92.5q0 -88 -49 -141.5t-140 -53.5zM328 1611q-68 0 -108.5 27.5t-40.5 93.5q0 88 51 140.5t144 52.5q39 0 71.5 -11t52.5 -37.5t20 -70.5
q0 -88 -49.5 -141.5t-140.5 -53.5z" />
    <glyph glyph-name="Eth" unicode="&#xd0;" horiz-adv-x="1257" 
d="M12 0l126 597h-126l63 288h124l122 577h383q253 0 387.5 -133.5t134.5 -375.5q0 -156 -32 -298t-95 -261.5t-156.5 -207.5t-218 -137t-278.5 -49h-434zM445 314h45q71 0 128.5 37.5t100.5 101.5t72 144t43 166.5t14 167.5q0 110 -45.5 165.5t-130.5 55.5h-50l-58 -267
h154l-61 -288h-154z" />
    <glyph glyph-name="Ntilde" unicode="&#xd1;" horiz-adv-x="1429" 
d="M12 0l309 1462h417l218 -909h8q7 49 16 109.5t19 119t18 101.5l124 579h335l-309 -1462h-418l-221 945h-6q-4 -34 -9.5 -80t-12.5 -96.5t-15 -99t-16 -86.5l-124 -583h-333zM548 1571q21 108 57 184.5t91.5 117t134.5 40.5q48 0 84 -14.5t66 -33.5t57.5 -34t55.5 -15
q30 0 54 23.5t39 75.5h187q-23 -127 -66 -202t-100 -107.5t-123 -32.5q-48 0 -85.5 15t-68 34t-58 33.5t-56.5 14.5q-25 0 -49.5 -24t-33.5 -75h-186z" />
    <glyph glyph-name="Ograve" unicode="&#xd2;" horiz-adv-x="1343" 
d="M582 -20q-166 0 -275.5 61.5t-164 179.5t-54.5 288q0 115 20.5 231t62 225.5t103 203.5t143.5 165t184.5 111t225.5 40q245 0 364.5 -139.5t119.5 -388.5q0 -106 -18.5 -219t-56.5 -222.5t-97 -206t-140 -170.5t-185 -116.5t-232 -42.5zM611 294q48 0 91 29t79 79.5
t64.5 117t48.5 141t30.5 151t10.5 148.5q0 103 -36 158.5t-103 55.5q-51 0 -95 -30.5t-81 -82.5t-65.5 -119t-48.5 -142t-30.5 -149.5t-10.5 -141.5q0 -78 16.5 -125t49.5 -68.5t80 -21.5zM790 1575q-34 38 -78 94t-83.5 113.5t-61.5 100.5v20h380q9 -41 20.5 -89.5
t28.5 -101.5t38 -111l-1 -26h-243z" />
    <glyph glyph-name="Oacute" unicode="&#xd3;" horiz-adv-x="1343" 
d="M582 -20q-166 0 -275.5 61.5t-164 179.5t-54.5 288q0 115 20.5 231t62 225.5t103 203.5t143.5 165t184.5 111t225.5 40q245 0 364.5 -139.5t119.5 -388.5q0 -106 -18.5 -219t-56.5 -222.5t-97 -206t-140 -170.5t-185 -116.5t-232 -42.5zM611 294q48 0 91 29t79 79.5
t64.5 117t48.5 141t30.5 151t10.5 148.5q0 103 -36 158.5t-103 55.5q-51 0 -95 -30.5t-81 -82.5t-65.5 -119t-48.5 -142t-30.5 -149.5t-10.5 -141.5q0 -78 16.5 -125t49.5 -68.5t80 -21.5zM678 1575l3 23q43 45 86 96t84 104.5t76 104.5h401l-1 -16q-23 -25 -72.5 -68
t-108.5 -91t-114 -89.5t-89 -63.5h-265z" />
    <glyph glyph-name="Ocircumflex" unicode="&#xd4;" horiz-adv-x="1343" 
d="M582 -20q-166 0 -275.5 61.5t-164 179.5t-54.5 288q0 115 20.5 231t62 225.5t103 203.5t143.5 165t184.5 111t225.5 40q245 0 364.5 -139.5t119.5 -388.5q0 -106 -18.5 -219t-56.5 -222.5t-97 -206t-140 -170.5t-185 -116.5t-232 -42.5zM611 294q48 0 91 29t79 79.5
t64.5 117t48.5 141t30.5 151t10.5 148.5q0 103 -36 158.5t-103 55.5q-51 0 -95 -30.5t-81 -82.5t-65.5 -119t-48.5 -142t-30.5 -149.5t-10.5 -141.5q0 -78 16.5 -125t49.5 -68.5t80 -21.5zM455 1575l2 24q46 44 95 96t96.5 105.5t86.5 102.5h372q15 -42 39.5 -97t52.5 -109
t53 -96l-3 -26h-234q-18 19 -40.5 45.5t-44.5 55.5t-39 54q-51 -45 -98.5 -84.5t-93.5 -70.5h-244z" />
    <glyph glyph-name="Otilde" unicode="&#xd5;" horiz-adv-x="1343" 
d="M582 -20q-166 0 -275.5 61.5t-164 179.5t-54.5 288q0 115 20.5 231t62 225.5t103 203.5t143.5 165t184.5 111t225.5 40q245 0 364.5 -139.5t119.5 -388.5q0 -106 -18.5 -219t-56.5 -222.5t-97 -206t-140 -170.5t-185 -116.5t-232 -42.5zM611 294q48 0 91 29t79 79.5
t64.5 117t48.5 141t30.5 151t10.5 148.5q0 103 -36 158.5t-103 55.5q-51 0 -95 -30.5t-81 -82.5t-65.5 -119t-48.5 -142t-30.5 -149.5t-10.5 -141.5q0 -78 16.5 -125t49.5 -68.5t80 -21.5zM497 1571q21 108 57 184.5t91.5 117t134.5 40.5q48 0 84 -14.5t66 -33.5t57.5 -34
t55.5 -15q30 0 54 23.5t39 75.5h187q-23 -127 -66 -202t-100 -107.5t-123 -32.5q-48 0 -85.5 15t-68 34t-58 33.5t-56.5 14.5q-25 0 -49.5 -24t-33.5 -75h-186z" />
    <glyph glyph-name="Odieresis" unicode="&#xd6;" horiz-adv-x="1343" 
d="M582 -20q-166 0 -275.5 61.5t-164 179.5t-54.5 288q0 115 20.5 231t62 225.5t103 203.5t143.5 165t184.5 111t225.5 40q245 0 364.5 -139.5t119.5 -388.5q0 -106 -18.5 -219t-56.5 -222.5t-97 -206t-140 -170.5t-185 -116.5t-232 -42.5zM611 294q48 0 91 29t79 79.5
t64.5 117t48.5 141t30.5 151t10.5 148.5q0 103 -36 158.5t-103 55.5q-51 0 -95 -30.5t-81 -82.5t-65.5 -119t-48.5 -142t-30.5 -149.5t-10.5 -141.5q0 -78 16.5 -125t49.5 -68.5t80 -21.5zM1093 1591q-68 0 -109 27.5t-41 93.5q0 88 51 140.5t144 52.5q59 0 101.5 -26.5
t42.5 -92.5q0 -88 -49 -141.5t-140 -53.5zM655 1591q-68 0 -108.5 27.5t-40.5 93.5q0 88 51 140.5t144 52.5q39 0 71.5 -11t52.5 -37.5t20 -70.5q0 -88 -49.5 -141.5t-140.5 -53.5z" />
    <glyph glyph-name="multiply" unicode="&#xd7;" horiz-adv-x="1112" 
d="M825 1170l189 -183l-264 -264l260 -262l-185 -184l-264 260l-261 -258l-179 186l254 258l-256 258l181 189l261 -257z" />
    <glyph glyph-name="Oslash" unicode="&#xd8;" horiz-adv-x="1343" 
d="M215 -101l-153 101l115 161q-45 65 -67 152.5t-22 195.5q0 115 20.5 231t61.5 225.5t102 203.5t142 165t182 111t222 40q83 0 151 -16t123 -45l86 118l152 -102l-103 -143q42 -65 63 -151.5t21 -188.5q0 -106 -18.5 -219t-57 -222.5t-97 -206t-139 -170.5t-182 -116
t-226.5 -43q-83 0 -152 14.5t-125 43.5zM611 294q44 0 83.5 21.5t73 59.5t61 90t47.5 113t33 129t17 137q2 14 3 26.5t1 24.5l-410 -567q17 -18 40 -26t51 -8zM468 553l416 575q-17 23 -40.5 34.5t-53.5 11.5q-44 0 -83 -22t-73 -61.5t-61.5 -92t-48.5 -115t-33.5 -129.5
t-17.5 -135q-1 -16 -2.5 -33t-2.5 -33z" />
    <glyph glyph-name="Ugrave" unicode="&#xd9;" horiz-adv-x="1275" 
d="M531 -20q-135 0 -232 48.5t-148.5 136.5t-51.5 205q0 33 4 74.5t12 80.5l201 937h366l-199 -935q-6 -30 -10 -59t-4 -53q0 -59 26.5 -89t77.5 -30q49 0 84.5 23.5t61 76.5t44.5 142l198 924h366l-207 -970q-34 -167 -105.5 -281t-189.5 -172.5t-294 -58.5zM758 1575
q-34 38 -78 94t-83.5 113.5t-61.5 100.5v20h380q9 -41 20.5 -89.5t28.5 -101.5t38 -111l-1 -26h-243z" />
    <glyph glyph-name="Uacute" unicode="&#xda;" horiz-adv-x="1275" 
d="M531 -20q-135 0 -232 48.5t-148.5 136.5t-51.5 205q0 33 4 74.5t12 80.5l201 937h366l-199 -935q-6 -30 -10 -59t-4 -53q0 -59 26.5 -89t77.5 -30q49 0 84.5 23.5t61 76.5t44.5 142l198 924h366l-207 -970q-34 -167 -105.5 -281t-189.5 -172.5t-294 -58.5zM655 1575l3 23
q43 45 86 96t84 104.5t76 104.5h401l-1 -16q-23 -25 -72.5 -68t-108.5 -91t-114 -89.5t-89 -63.5h-265z" />
    <glyph glyph-name="Ucircumflex" unicode="&#xdb;" horiz-adv-x="1275" 
d="M531 -20q-135 0 -232 48.5t-148.5 136.5t-51.5 205q0 33 4 74.5t12 80.5l201 937h366l-199 -935q-6 -30 -10 -59t-4 -53q0 -59 26.5 -89t77.5 -30q49 0 84.5 23.5t61 76.5t44.5 142l198 924h366l-207 -970q-34 -167 -105.5 -281t-189.5 -172.5t-294 -58.5zM430 1575l2 24
q46 44 95 96t96.5 105.5t86.5 102.5h372q15 -42 39.5 -97t52.5 -109t53 -96l-3 -26h-234q-18 19 -40.5 45.5t-44.5 55.5t-39 54q-51 -45 -98.5 -84.5t-93.5 -70.5h-244z" />
    <glyph glyph-name="Udieresis" unicode="&#xdc;" horiz-adv-x="1275" 
d="M531 -20q-135 0 -232 48.5t-148.5 136.5t-51.5 205q0 33 4 74.5t12 80.5l201 937h366l-199 -935q-6 -30 -10 -59t-4 -53q0 -59 26.5 -89t77.5 -30q49 0 84.5 23.5t61 76.5t44.5 142l198 924h366l-207 -970q-34 -167 -105.5 -281t-189.5 -172.5t-294 -58.5zM1063 1591
q-68 0 -109 27.5t-41 93.5q0 88 51 140.5t144 52.5q59 0 101.5 -26.5t42.5 -92.5q0 -88 -49 -141.5t-140 -53.5zM625 1591q-68 0 -108.5 27.5t-40.5 93.5q0 88 51 140.5t144 52.5q39 0 71.5 -11t52.5 -37.5t20 -70.5q0 -88 -49.5 -141.5t-140.5 -53.5z" />
    <glyph glyph-name="Yacute" unicode="&#xdd;" horiz-adv-x="1119" 
d="M246 0l118 558l-187 904h380l65 -505l274 505h402l-565 -898l-120 -564h-367zM564 1575l3 23q43 45 86 96t84 104.5t76 104.5h401l-1 -16q-23 -25 -72.5 -68t-108.5 -91t-114 -89.5t-89 -63.5h-265z" />
    <glyph glyph-name="Thorn" unicode="&#xde;" horiz-adv-x="1132" 
d="M12 0l309 1462h366l-44 -213h21q159 0 256.5 -51t141.5 -140t44 -203q0 -118 -38 -223.5t-113 -186t-184.5 -126.5t-252.5 -46h-83l-57 -273h-366zM501 581h45q58 0 100.5 29t65 84.5t22.5 132.5q0 56 -31.5 86t-91.5 30h-32z" />
    <glyph glyph-name="germandbls" unicode="&#xdf;" horiz-adv-x="1291" 
d="M-79 -492q-46 0 -94 6.5t-86 18.5v294q24 -8 55.5 -13.5t54.5 -5.5q60 0 92.5 29.5t47.5 102.5l245 1158q31 146 99 251t182 161.5t283 56.5q230 0 345.5 -95.5t115.5 -243.5q0 -73 -19 -129.5t-57 -101.5t-96 -83q-69 -44 -99.5 -77t-30.5 -75q0 -25 15.5 -44.5
t42.5 -39.5t60 -48q56 -48 88 -105.5t32 -149.5q0 -109 -52 -198.5t-154.5 -143t-256.5 -53.5q-81 0 -145 13t-117 40l32 302q51 -36 115.5 -54t114.5 -18t73.5 23t23.5 52q0 22 -9 39.5t-34 42.5t-75 70q-75 62 -100 113t-25 109q0 62 21 110t61.5 89.5t99.5 82.5
q43 31 71 58t41.5 56.5t13.5 66.5q0 38 -25 70t-94 32q-48 0 -85.5 -24t-63.5 -71.5t-42 -118.5l-249 -1167q-25 -118 -73 -205.5t-130.5 -135t-212.5 -47.5z" />
    <glyph glyph-name="agrave" unicode="&#xe0;" horiz-adv-x="1120" 
d="M335 -20q-79 0 -142.5 41.5t-99.5 126.5t-36 218q0 85 18 189.5t55 209.5t93.5 193t134 141.5t175.5 53.5q54 0 97.5 -17.5t77.5 -52t57 -88.5h7l53 138h299l-241 -1133h-288l1 129h-8q-32 -43 -68 -76.5t-80.5 -53t-104.5 -19.5zM489 274q44 0 78 44t58 109.5t36 130.5
q14 63 18 101.5t4 68.5q0 61 -17.5 94t-53.5 33q-32 0 -60.5 -30t-52 -80t-40.5 -110t-26.5 -120.5t-9.5 -111.5q0 -63 16.5 -96t49.5 -33zM623 1247q-34 38 -78 94t-83.5 113.5t-61.5 100.5v20h380q9 -41 20.5 -89.5t28.5 -101.5t38 -111l-1 -26h-243z" />
    <glyph glyph-name="aacute" unicode="&#xe1;" horiz-adv-x="1120" 
d="M335 -20q-79 0 -142.5 41.5t-99.5 126.5t-36 218q0 85 18 189.5t55 209.5t93.5 193t134 141.5t175.5 53.5q54 0 97.5 -17.5t77.5 -52t57 -88.5h7l53 138h299l-241 -1133h-288l1 129h-8q-32 -43 -68 -76.5t-80.5 -53t-104.5 -19.5zM489 274q44 0 78 44t58 109.5t36 130.5
q14 63 18 101.5t4 68.5q0 61 -17.5 94t-53.5 33q-32 0 -60.5 -30t-52 -80t-40.5 -110t-26.5 -120.5t-9.5 -111.5q0 -63 16.5 -96t49.5 -33zM504 1247l3 23q43 45 86 96t84 104.5t76 104.5h401l-1 -16q-23 -25 -72.5 -68t-108.5 -91t-114 -89.5t-89 -63.5h-265z" />
    <glyph glyph-name="acircumflex" unicode="&#xe2;" horiz-adv-x="1120" 
d="M335 -20q-79 0 -142.5 41.5t-99.5 126.5t-36 218q0 85 18 189.5t55 209.5t93.5 193t134 141.5t175.5 53.5q54 0 97.5 -17.5t77.5 -52t57 -88.5h7l53 138h299l-241 -1133h-288l1 129h-8q-32 -43 -68 -76.5t-80.5 -53t-104.5 -19.5zM489 274q44 0 78 44t58 109.5t36 130.5
q14 63 18 101.5t4 68.5q0 61 -17.5 94t-53.5 33q-32 0 -60.5 -30t-52 -80t-40.5 -110t-26.5 -120.5t-9.5 -111.5q0 -63 16.5 -96t49.5 -33zM301 1247l2 24q46 44 95 96t96.5 105.5t86.5 102.5h372q15 -42 39.5 -97t52.5 -109t53 -96l-3 -26h-234q-18 19 -40.5 45.5
t-44.5 55.5t-39 54q-51 -45 -98.5 -84.5t-93.5 -70.5h-244z" />
    <glyph glyph-name="atilde" unicode="&#xe3;" horiz-adv-x="1120" 
d="M335 -20q-79 0 -142.5 41.5t-99.5 126.5t-36 218q0 85 18 189.5t55 209.5t93.5 193t134 141.5t175.5 53.5q54 0 97.5 -17.5t77.5 -52t57 -88.5h7l53 138h299l-241 -1133h-288l1 129h-8q-32 -43 -68 -76.5t-80.5 -53t-104.5 -19.5zM489 274q44 0 78 44t58 109.5t36 130.5
q14 63 18 101.5t4 68.5q0 61 -17.5 94t-53.5 33q-32 0 -60.5 -30t-52 -80t-40.5 -110t-26.5 -120.5t-9.5 -111.5q0 -63 16.5 -96t49.5 -33zM330 1243q21 108 57 184.5t91.5 117t134.5 40.5q48 0 84 -14.5t66 -33.5t57.5 -34t55.5 -15q30 0 54 23.5t39 75.5h187
q-23 -127 -66 -202t-100 -107.5t-123 -32.5q-48 0 -85.5 15t-68 34t-58 33.5t-56.5 14.5q-25 0 -49.5 -24t-33.5 -75h-186z" />
    <glyph glyph-name="adieresis" unicode="&#xe4;" horiz-adv-x="1120" 
d="M335 -20q-79 0 -142.5 41.5t-99.5 126.5t-36 218q0 85 18 189.5t55 209.5t93.5 193t134 141.5t175.5 53.5q54 0 97.5 -17.5t77.5 -52t57 -88.5h7l53 138h299l-241 -1133h-288l1 129h-8q-32 -43 -68 -76.5t-80.5 -53t-104.5 -19.5zM489 274q44 0 78 44t58 109.5t36 130.5
q14 63 18 101.5t4 68.5q0 61 -17.5 94t-53.5 33q-32 0 -60.5 -30t-52 -80t-40.5 -110t-26.5 -120.5t-9.5 -111.5q0 -63 16.5 -96t49.5 -33zM937 1263q-68 0 -109 27.5t-41 93.5q0 88 51 140.5t144 52.5q59 0 101.5 -26.5t42.5 -92.5q0 -88 -49 -141.5t-140 -53.5zM499 1263
q-68 0 -108.5 27.5t-40.5 93.5q0 88 51 140.5t144 52.5q39 0 71.5 -11t52.5 -37.5t20 -70.5q0 -88 -49.5 -141.5t-140.5 -53.5z" />
    <glyph glyph-name="aring" unicode="&#xe5;" horiz-adv-x="1120" 
d="M335 -20q-79 0 -142.5 41.5t-99.5 126.5t-36 218q0 85 18 189.5t55 209.5t93.5 193t134 141.5t175.5 53.5q54 0 97.5 -17.5t77.5 -52t57 -88.5h7l53 138h299l-241 -1133h-288l1 129h-8q-32 -43 -68 -76.5t-80.5 -53t-104.5 -19.5zM489 274q44 0 78 44t58 109.5t36 130.5
q14 63 18 101.5t4 68.5q0 61 -17.5 94t-53.5 33q-32 0 -60.5 -30t-52 -80t-40.5 -110t-26.5 -120.5t-9.5 -111.5q0 -63 16.5 -96t49.5 -33zM727 1238q-119 0 -190.5 68t-71.5 184t72.5 183.5t189.5 67.5q109 0 185 -67t76 -181q0 -115 -72.5 -185t-188.5 -70zM727 1402
q38 0 63.5 24t25.5 63t-25.5 64t-63.5 25q-39 0 -64.5 -25t-25.5 -64t23 -63t67 -24z" />
    <glyph glyph-name="ae" unicode="&#xe6;" horiz-adv-x="1619" 
d="M326 -20q-75 0 -136 41.5t-97 126.5t-36 218q0 94 19 201.5t57 211t95 188.5t133.5 135.5t171.5 50.5q51 0 94 -14.5t78 -45.5t61 -78h5l39 118h217l-3 -75q44 39 105.5 66.5t142.5 27.5q146 0 232.5 -84t86.5 -220q0 -98 -38 -174t-112 -127.5t-181.5 -78t-247.5 -26.5
h-40q-2 -11 -2.5 -21.5t-0.5 -19.5q0 -80 36.5 -115t109.5 -35q79 0 154 24.5t167 74.5l-30 -275q-82 -48 -160.5 -71.5t-187.5 -23.5q-82 0 -137 23.5t-86 63.5l-21 -67h-227l14 124h-7q-33 -42 -72.5 -74.5t-87.5 -51t-108 -18.5zM489 274q35 0 63 27t49.5 70t36.5 92.5
t23 94.5q14 63 17.5 101.5t3.5 68.5q0 61 -19 94t-55 33q-30 0 -57.5 -28t-50.5 -75.5t-40.5 -106.5t-27 -121.5t-9.5 -120.5q0 -63 16.5 -96t49.5 -33zM1016 679h17q88 0 137 20.5t68.5 53t19.5 67.5q0 32 -20.5 52.5t-57.5 20.5q-44 0 -78 -35t-55.5 -85t-30.5 -94z" />
    <glyph glyph-name="ccedilla" unicode="&#xe7;" horiz-adv-x="924" 
d="M434 -20q-109 0 -193.5 46t-132 138.5t-47.5 230.5q0 111 23 220.5t69 206.5t115.5 171.5t162.5 117t209 42.5q95 0 174 -21t153 -63l-128 -272q-41 25 -91 43t-96 18q-61 0 -104.5 -45.5t-70.5 -114.5t-40 -141t-13 -124q0 -55 11.5 -89.5t34 -50.5t55.5 -16
q59 0 121 23.5t133 68.5v-293q-68 -42 -154.5 -69t-190.5 -27zM319 -492q-52 0 -96.5 6.5t-83.5 19.5v193q29 -8 69 -15t63 -7q25 0 41.5 6.5t25 19.5t8.5 33q0 29 -26.5 51.5t-97.5 32.5l87 152h181l-33 -55q70 -13 116 -56t46 -125q0 -88 -38 -144.5t-105.5 -84
t-156.5 -27.5z" />
    <glyph glyph-name="egrave" unicode="&#xe8;" horiz-adv-x="1065" 
d="M470 -20q-129 0 -221 50t-140.5 143t-48.5 221q0 136 35.5 270.5t110.5 245t190.5 176.5t274.5 66q167 0 266.5 -82.5t99.5 -221.5q0 -98 -38 -174t-112 -127.5t-181.5 -78t-247.5 -26.5h-40q-2 -11 -2.5 -21.5t-0.5 -19.5q0 -80 36.5 -115t108.5 -35q80 0 148.5 21.5
t155.5 68.5v-259q-91 -53 -183 -77.5t-211 -24.5zM462 679h17q87 0 136 20t69 52.5t20 68.5q0 32 -20.5 52.5t-57.5 20.5t-69.5 -27.5t-56.5 -76t-38 -110.5zM617 1241q-34 38 -78 94t-83.5 113.5t-61.5 100.5v20h380q9 -41 20.5 -89.5t28.5 -101.5t38 -111l-1 -26h-243z
" />
    <glyph glyph-name="eacute" unicode="&#xe9;" horiz-adv-x="1065" 
d="M470 -20q-129 0 -221 50t-140.5 143t-48.5 221q0 136 35.5 270.5t110.5 245t190.5 176.5t274.5 66q167 0 266.5 -82.5t99.5 -221.5q0 -98 -38 -174t-112 -127.5t-181.5 -78t-247.5 -26.5h-40q-2 -11 -2.5 -21.5t-0.5 -19.5q0 -80 36.5 -115t108.5 -35q80 0 148.5 21.5
t155.5 68.5v-259q-91 -53 -183 -77.5t-211 -24.5zM462 679h17q87 0 136 20t69 52.5t20 68.5q0 32 -20.5 52.5t-57.5 20.5t-69.5 -27.5t-56.5 -76t-38 -110.5zM480 1241l3 23q43 45 86 96t84 104.5t76 104.5h401l-1 -16q-23 -25 -72.5 -68t-108.5 -91t-114 -89.5t-89 -63.5
h-265z" />
    <glyph glyph-name="ecircumflex" unicode="&#xea;" horiz-adv-x="1065" 
d="M470 -20q-129 0 -221 50t-140.5 143t-48.5 221q0 136 35.5 270.5t110.5 245t190.5 176.5t274.5 66q167 0 266.5 -82.5t99.5 -221.5q0 -98 -38 -174t-112 -127.5t-181.5 -78t-247.5 -26.5h-40q-2 -11 -2.5 -21.5t-0.5 -19.5q0 -80 36.5 -115t108.5 -35q80 0 148.5 21.5
t155.5 68.5v-259q-91 -53 -183 -77.5t-211 -24.5zM462 679h17q87 0 136 20t69 52.5t20 68.5q0 32 -20.5 52.5t-57.5 20.5t-69.5 -27.5t-56.5 -76t-38 -110.5zM277 1241l2 24q46 44 95 96t96.5 105.5t86.5 102.5h372q15 -42 39.5 -97t52.5 -109t53 -96l-3 -26h-234
q-18 19 -40.5 45.5t-44.5 55.5t-39 54q-51 -45 -98.5 -84.5t-93.5 -70.5h-244z" />
    <glyph glyph-name="edieresis" unicode="&#xeb;" horiz-adv-x="1065" 
d="M470 -20q-129 0 -221 50t-140.5 143t-48.5 221q0 136 35.5 270.5t110.5 245t190.5 176.5t274.5 66q167 0 266.5 -82.5t99.5 -221.5q0 -98 -38 -174t-112 -127.5t-181.5 -78t-247.5 -26.5h-40q-2 -11 -2.5 -21.5t-0.5 -19.5q0 -80 36.5 -115t108.5 -35q80 0 148.5 21.5
t155.5 68.5v-259q-91 -53 -183 -77.5t-211 -24.5zM462 679h17q87 0 136 20t69 52.5t20 68.5q0 32 -20.5 52.5t-57.5 20.5t-69.5 -27.5t-56.5 -76t-38 -110.5zM912 1257q-68 0 -109 27.5t-41 93.5q0 88 51 140.5t144 52.5q59 0 101.5 -26.5t42.5 -92.5q0 -88 -49 -141.5
t-140 -53.5zM474 1257q-68 0 -108.5 27.5t-40.5 93.5q0 88 51 140.5t144 52.5q39 0 71.5 -11t52.5 -37.5t20 -70.5q0 -88 -49.5 -141.5t-140.5 -53.5z" />
    <glyph glyph-name="igrave" unicode="&#xec;" horiz-adv-x="591" 
d="M-1 0l241 1133h357l-240 -1133h-358zM360 1241q-34 38 -78 94t-83.5 113.5t-61.5 100.5v20h380q9 -41 20.5 -89.5t28.5 -101.5t38 -111l-1 -26h-243z" />
    <glyph glyph-name="iacute" unicode="&#xed;" horiz-adv-x="591" 
d="M-1 0l241 1133h357l-240 -1133h-358zM247 1241l3 23q43 45 86 96t84 104.5t76 104.5h401l-1 -16q-23 -25 -72.5 -68t-108.5 -91t-114 -89.5t-89 -63.5h-265z" />
    <glyph glyph-name="icircumflex" unicode="&#xee;" horiz-adv-x="591" 
d="M-1 0l241 1133h357l-240 -1133h-358zM28 1241l2 24q46 44 95 96t96.5 105.5t86.5 102.5h372q15 -42 39.5 -97t52.5 -109t53 -96l-3 -26h-234q-18 19 -40.5 45.5t-44.5 55.5t-39 54q-51 -45 -98.5 -84.5t-93.5 -70.5h-244z" />
    <glyph glyph-name="idieresis" unicode="&#xef;" horiz-adv-x="591" 
d="M-1 0l241 1133h357l-240 -1133h-358zM664 1257q-68 0 -109 27.5t-41 93.5q0 88 51 140.5t144 52.5q59 0 101.5 -26.5t42.5 -92.5q0 -88 -49 -141.5t-140 -53.5zM226 1257q-68 0 -108.5 27.5t-40.5 93.5q0 88 51 140.5t144 52.5q39 0 71.5 -11t52.5 -37.5t20 -70.5
q0 -88 -49.5 -141.5t-140.5 -53.5z" />
    <glyph glyph-name="eth" unicode="&#xf0;" horiz-adv-x="1068" 
d="M455 -20q-125 0 -214.5 49t-137 141t-47.5 221q0 110 31 220.5t93.5 201.5t156 146t216.5 55q54 0 93.5 -18.5t66.5 -44.5l7 2q-3 53 -18.5 104t-41.5 100l-197 -111l-94 156l181 107q-21 21 -44 42t-46 41l140 180q50 -26 96 -56.5t87 -66.5l186 112l97 -156l-161 -101
q43 -62 73 -144t45 -173.5t15 -183.5q0 -118 -18.5 -236t-59.5 -223.5t-108.5 -187.5t-165.5 -129t-231 -47zM491 258q32 0 59 23t48.5 61t36 83.5t22.5 91t8 84.5q0 33 -4.5 57.5t-13.5 41.5t-23.5 25.5t-34.5 8.5q-42 0 -74.5 -35.5t-54.5 -90.5t-33 -114t-11 -105
q0 -65 19 -98t56 -33z" />
    <glyph glyph-name="ntilde" unicode="&#xf1;" horiz-adv-x="1140" 
d="M-2 0l241 1133h285l-8 -145h7q35 56 77 92.5t91.5 54.5t109.5 18q84 0 144.5 -34t94.5 -99t34 -161q0 -43 -5.5 -92.5t-16.5 -103.5l-140 -663h-358l131 625q8 35 14.5 76t6.5 72q0 39 -17 59t-47 20q-36 0 -67 -34t-55.5 -97.5t-43.5 -151.5l-119 -569h-359zM353 1243
q21 108 57 184.5t91.5 117t134.5 40.5q48 0 84 -14.5t66 -33.5t57.5 -34t55.5 -15q30 0 54 23.5t39 75.5h187q-23 -127 -66 -202t-100 -107.5t-123 -32.5q-48 0 -85.5 15t-68 34t-58 33.5t-56.5 14.5q-25 0 -49.5 -24t-33.5 -75h-186z" />
    <glyph glyph-name="ograve" unicode="&#xf2;" horiz-adv-x="1112" 
d="M458 -20q-126 0 -215 49t-135.5 141.5t-46.5 223.5q0 102 22 209t68.5 205.5t117.5 176t168 123t222 45.5t213 -49.5t134.5 -142t46.5 -221.5q0 -106 -23 -214t-69.5 -206t-117.5 -174.5t-167 -121t-218 -44.5zM499 263q33 0 62 31t53 83t41 115.5t26 129.5t9 124
q0 41 -8.5 68.5t-25 41.5t-41.5 14q-34 0 -63.5 -31t-53 -83t-40.5 -115.5t-26 -129.5t-9 -125q0 -60 19 -91.5t57 -31.5zM606 1241q-34 38 -78 94t-83.5 113.5t-61.5 100.5v20h380q9 -41 20.5 -89.5t28.5 -101.5t38 -111l-1 -26h-243z" />
    <glyph glyph-name="oacute" unicode="&#xf3;" horiz-adv-x="1112" 
d="M458 -20q-126 0 -215 49t-135.5 141.5t-46.5 223.5q0 102 22 209t68.5 205.5t117.5 176t168 123t222 45.5t213 -49.5t134.5 -142t46.5 -221.5q0 -106 -23 -214t-69.5 -206t-117.5 -174.5t-167 -121t-218 -44.5zM499 263q33 0 62 31t53 83t41 115.5t26 129.5t9 124
q0 41 -8.5 68.5t-25 41.5t-41.5 14q-34 0 -63.5 -31t-53 -83t-40.5 -115.5t-26 -129.5t-9 -125q0 -60 19 -91.5t57 -31.5zM505 1241l3 23q43 45 86 96t84 104.5t76 104.5h401l-1 -16q-23 -25 -72.5 -68t-108.5 -91t-114 -89.5t-89 -63.5h-265z" />
    <glyph glyph-name="ocircumflex" unicode="&#xf4;" horiz-adv-x="1112" 
d="M458 -20q-126 0 -215 49t-135.5 141.5t-46.5 223.5q0 102 22 209t68.5 205.5t117.5 176t168 123t222 45.5t213 -49.5t134.5 -142t46.5 -221.5q0 -106 -23 -214t-69.5 -206t-117.5 -174.5t-167 -121t-218 -44.5zM499 263q33 0 62 31t53 83t41 115.5t26 129.5t9 124
q0 41 -8.5 68.5t-25 41.5t-41.5 14q-34 0 -63.5 -31t-53 -83t-40.5 -115.5t-26 -129.5t-9 -125q0 -60 19 -91.5t57 -31.5zM277 1241l2 24q46 44 95 96t96.5 105.5t86.5 102.5h372q15 -42 39.5 -97t52.5 -109t53 -96l-3 -26h-234q-18 19 -40.5 45.5t-44.5 55.5t-39 54
q-51 -45 -98.5 -84.5t-93.5 -70.5h-244z" />
    <glyph glyph-name="otilde" unicode="&#xf5;" horiz-adv-x="1112" 
d="M458 -20q-126 0 -215 49t-135.5 141.5t-46.5 223.5q0 102 22 209t68.5 205.5t117.5 176t168 123t222 45.5t213 -49.5t134.5 -142t46.5 -221.5q0 -106 -23 -214t-69.5 -206t-117.5 -174.5t-167 -121t-218 -44.5zM499 263q33 0 62 31t53 83t41 115.5t26 129.5t9 124
q0 41 -8.5 68.5t-25 41.5t-41.5 14q-34 0 -63.5 -31t-53 -83t-40.5 -115.5t-26 -129.5t-9 -125q0 -60 19 -91.5t57 -31.5zM313 1237q21 108 57 184.5t91.5 117t134.5 40.5q48 0 84 -14.5t66 -33.5t57.5 -34t55.5 -15q30 0 54 23.5t39 75.5h187q-23 -127 -66 -202
t-100 -107.5t-123 -32.5q-48 0 -85.5 15t-68 34t-58 33.5t-56.5 14.5q-25 0 -49.5 -24t-33.5 -75h-186z" />
    <glyph glyph-name="odieresis" unicode="&#xf6;" horiz-adv-x="1112" 
d="M458 -20q-126 0 -215 49t-135.5 141.5t-46.5 223.5q0 102 22 209t68.5 205.5t117.5 176t168 123t222 45.5t213 -49.5t134.5 -142t46.5 -221.5q0 -106 -23 -214t-69.5 -206t-117.5 -174.5t-167 -121t-218 -44.5zM499 263q33 0 62 31t53 83t41 115.5t26 129.5t9 124
q0 41 -8.5 68.5t-25 41.5t-41.5 14q-34 0 -63.5 -31t-53 -83t-40.5 -115.5t-26 -129.5t-9 -125q0 -60 19 -91.5t57 -31.5zM905 1257q-68 0 -109 27.5t-41 93.5q0 88 51 140.5t144 52.5q59 0 101.5 -26.5t42.5 -92.5q0 -88 -49 -141.5t-140 -53.5zM467 1257
q-68 0 -108.5 27.5t-40.5 93.5q0 88 51 140.5t144 52.5q39 0 71.5 -11t52.5 -37.5t20 -70.5q0 -88 -49.5 -141.5t-140.5 -53.5z" />
    <glyph glyph-name="divide" unicode="&#xf7;" horiz-adv-x="1112" 
d="M91 588v268h950v-268h-950zM567 152q-70 0 -115 43t-45 130q0 90 44 131.5t116 41.5q70 0 114 -41.5t44 -131.5q0 -86 -45 -129.5t-113 -43.5zM567 946q-70 0 -115 43.5t-45 129.5q0 90 44 132t116 42q70 0 114 -42t44 -132q0 -85 -45 -129t-113 -44z" />
    <glyph glyph-name="oslash" unicode="&#xf8;" horiz-adv-x="1134" 
d="M162 -121l-134 99l111 149q-37 52 -57.5 117.5t-20.5 149.5q0 102 22.5 209t69.5 205.5t119.5 176t171 123t225.5 45.5q61 0 112.5 -12t95.5 -34l90 118l134 -98l-98 -131q33 -51 52 -115t19 -141q0 -106 -23 -214t-70 -206t-119 -174.5t-169 -121t-221 -44.5
q-58 0 -109 11.5t-94 30.5zM510 251q32 0 61.5 17.5t54.5 49.5t45.5 76.5t35 99.5t22.5 117l2 22t2 20l-286 -380q13 -10 29 -16t34 -6zM402 459l296 394q-13 15 -30 23t-39 8q-31 0 -60 -19t-55 -54t-48 -82.5t-37 -104t-22 -118.5q-1 -11 -2.5 -22.5t-2.5 -24.5z" />
    <glyph glyph-name="ugrave" unicode="&#xf9;" horiz-adv-x="1140" 
d="M340 -20q-92 0 -152.5 38.5t-90 104.5t-29.5 151q0 46 6 97t15 100l141 662h357l-131 -623q-8 -36 -14 -77t-6 -72q0 -39 17 -59t47 -20q34 0 64.5 34t56.5 98t44 153l121 566h357l-239 -1133h-287l9 145h-7q-35 -55 -76.5 -91.5t-91.5 -55t-111 -18.5zM611 1241
q-34 38 -78 94t-83.5 113.5t-61.5 100.5v20h380q9 -41 20.5 -89.5t28.5 -101.5t38 -111l-1 -26h-243z" />
    <glyph glyph-name="uacute" unicode="&#xfa;" horiz-adv-x="1140" 
d="M340 -20q-92 0 -152.5 38.5t-90 104.5t-29.5 151q0 46 6 97t15 100l141 662h357l-131 -623q-8 -36 -14 -77t-6 -72q0 -39 17 -59t47 -20q34 0 64.5 34t56.5 98t44 153l121 566h357l-239 -1133h-287l9 145h-7q-35 -55 -76.5 -91.5t-91.5 -55t-111 -18.5zM530 1241l3 23
q43 45 86 96t84 104.5t76 104.5h401l-1 -16q-23 -25 -72.5 -68t-108.5 -91t-114 -89.5t-89 -63.5h-265z" />
    <glyph glyph-name="ucircumflex" unicode="&#xfb;" horiz-adv-x="1140" 
d="M340 -20q-92 0 -152.5 38.5t-90 104.5t-29.5 151q0 46 6 97t15 100l141 662h357l-131 -623q-8 -36 -14 -77t-6 -72q0 -39 17 -59t47 -20q34 0 64.5 34t56.5 98t44 153l121 566h357l-239 -1133h-287l9 145h-7q-35 -55 -76.5 -91.5t-91.5 -55t-111 -18.5zM294 1241l2 24
q46 44 95 96t96.5 105.5t86.5 102.5h372q15 -42 39.5 -97t52.5 -109t53 -96l-3 -26h-234q-18 19 -40.5 45.5t-44.5 55.5t-39 54q-51 -45 -98.5 -84.5t-93.5 -70.5h-244z" />
    <glyph glyph-name="udieresis" unicode="&#xfc;" horiz-adv-x="1140" 
d="M340 -20q-92 0 -152.5 38.5t-90 104.5t-29.5 151q0 46 6 97t15 100l141 662h357l-131 -623q-8 -36 -14 -77t-6 -72q0 -39 17 -59t47 -20q34 0 64.5 34t56.5 98t44 153l121 566h357l-239 -1133h-287l9 145h-7q-35 -55 -76.5 -91.5t-91.5 -55t-111 -18.5zM923 1257
q-68 0 -109 27.5t-41 93.5q0 88 51 140.5t144 52.5q59 0 101.5 -26.5t42.5 -92.5q0 -88 -49 -141.5t-140 -53.5zM485 1257q-68 0 -108.5 27.5t-40.5 93.5q0 88 51 140.5t144 52.5q39 0 71.5 -11t52.5 -37.5t20 -70.5q0 -88 -49.5 -141.5t-140.5 -53.5z" />
    <glyph glyph-name="yacute" unicode="&#xfd;" horiz-adv-x="1025" 
d="M29 -492q-54 0 -91 5.5t-64 13.5l30 300q23 -6 47.5 -10.5t50.5 -4.5q66 0 105 30t71 91l43 83l-116 1117h360l21 -483q1 -32 1 -64t-0.5 -62.5t-1.5 -61.5h7q9 33 20.5 69t23.5 69.5t20 54.5l204 478h380l-630 -1268q-55 -110 -120.5 -190.5t-152 -123.5t-208.5 -43z
M467 1241l3 23q43 45 86 96t84 104.5t76 104.5h401l-1 -16q-23 -25 -72.5 -68t-108.5 -91t-114 -89.5t-89 -63.5h-265z" />
    <glyph glyph-name="thorn" unicode="&#xfe;" horiz-adv-x="1120" 
d="M-105 -492l434 2050h356l-67 -319q-13 -61 -29 -114t-30 -87h8q26 34 58 60t72 40.5t89 14.5q127 0 203 -96t76 -284q0 -105 -20.5 -216t-60.5 -214t-98 -185t-133.5 -130t-166.5 -48q-48 0 -88.5 17.5t-72 49t-54.5 75.5h-7q-7 -68 -16 -132t-25 -143l-72 -339h-356z
M514 278q32 0 60 29.5t50.5 78.5t39.5 109t26 121.5t9 113.5q0 65 -17 97.5t-49 32.5q-41 0 -75.5 -42.5t-59.5 -109t-40 -138.5q-10 -46 -14.5 -89t-4.5 -76q0 -61 19.5 -94t55.5 -33z" />
    <glyph glyph-name="ydieresis" unicode="&#xff;" horiz-adv-x="1025" 
d="M29 -492q-54 0 -91 5.5t-64 13.5l30 300q23 -6 47.5 -10.5t50.5 -4.5q66 0 105 30t71 91l43 83l-116 1117h360l21 -483q1 -32 1 -64t-0.5 -62.5t-1.5 -61.5h7q9 33 20.5 69t23.5 69.5t20 54.5l204 478h380l-630 -1268q-55 -110 -120.5 -190.5t-152 -123.5t-208.5 -43z
M866 1257q-68 0 -109 27.5t-41 93.5q0 88 51 140.5t144 52.5q59 0 101.5 -26.5t42.5 -92.5q0 -88 -49 -141.5t-140 -53.5zM428 1257q-68 0 -108.5 27.5t-40.5 93.5q0 88 51 140.5t144 52.5q39 0 71.5 -11t52.5 -37.5t20 -70.5q0 -88 -49.5 -141.5t-140.5 -53.5z" />
    <glyph glyph-name="Amacron" unicode="&#x100;" horiz-adv-x="1237" 
d="M-120 0l688 1465h469l73 -1465h-373l-1 280h-348l-117 -280h-391zM515 584h225v400q1 49 1.5 97t4.5 98h-7q-12 -50 -27 -95t-34 -93zM515 1598l50 236h621l-49 -236h-622z" />
    <glyph glyph-name="amacron" unicode="&#x101;" horiz-adv-x="1120" 
d="M335 -20q-79 0 -142.5 41.5t-99.5 126.5t-36 218q0 85 18 189.5t55 209.5t93.5 193t134 141.5t175.5 53.5q54 0 97.5 -17.5t77.5 -52t57 -88.5h7l53 138h299l-241 -1133h-288l1 129h-8q-32 -43 -68 -76.5t-80.5 -53t-104.5 -19.5zM489 274q44 0 78 44t58 109.5t36 130.5
q14 63 18 101.5t4 68.5q0 61 -17.5 94t-53.5 33q-32 0 -60.5 -30t-52 -80t-40.5 -110t-26.5 -120.5t-9.5 -111.5q0 -63 16.5 -96t49.5 -33zM388 1247l50 236h621l-49 -236h-622z" />
    <glyph glyph-name="Abreve" unicode="&#x102;" horiz-adv-x="1237" 
d="M-120 0l688 1465h469l73 -1465h-373l-1 280h-348l-117 -280h-391zM515 584h225v400q1 49 1.5 97t4.5 98h-7q-12 -50 -27 -95t-34 -93zM850 1598q-106 0 -175.5 35t-103.5 98t-34 147q0 23 3.5 46.5t7.5 44.5h208q0 -41 13 -71.5t40 -47t67 -16.5q57 0 102 28t67 107h212
q-31 -180 -133.5 -275.5t-273.5 -95.5z" />
    <glyph glyph-name="abreve" unicode="&#x103;" horiz-adv-x="1120" 
d="M335 -20q-79 0 -142.5 41.5t-99.5 126.5t-36 218q0 85 18 189.5t55 209.5t93.5 193t134 141.5t175.5 53.5q54 0 97.5 -17.5t77.5 -52t57 -88.5h7l53 138h299l-241 -1133h-288l1 129h-8q-32 -43 -68 -76.5t-80.5 -53t-104.5 -19.5zM489 274q44 0 78 44t58 109.5t36 130.5
q14 63 18 101.5t4 68.5q0 61 -17.5 94t-53.5 33q-32 0 -60.5 -30t-52 -80t-40.5 -110t-26.5 -120.5t-9.5 -111.5q0 -63 16.5 -96t49.5 -33zM723 1247q-106 0 -175.5 35t-103.5 98t-34 147q0 23 3.5 46.5t7.5 44.5h208q0 -41 13 -71.5t40 -47t67 -16.5q57 0 102 28t67 107
h212q-31 -180 -133.5 -275.5t-273.5 -95.5z" />
    <glyph glyph-name="Aogonek" unicode="&#x104;" horiz-adv-x="1237" 
d="M-120 0l688 1465h469l73 -1465h-373l-1 280h-348l-117 -280h-391zM515 584h225v400q1 49 1.5 97t4.5 98h-7q-12 -50 -27 -95t-34 -93zM794 -508q-109 0 -165.5 56t-56.5 137q0 68 29 124t77.5 103t107.5 88h223q-50 -47 -86.5 -86t-56 -75.5t-20.5 -75.5q0 -19 13 -31.5
t32 -12.5q24 0 49.5 5.5t54.5 13.5l-23 -219q-42 -14 -84 -20.5t-94 -6.5z" />
    <glyph glyph-name="aogonek" unicode="&#x105;" horiz-adv-x="1120" 
d="M335 -20q-79 0 -142.5 41.5t-99.5 126.5t-36 218q0 85 18 189.5t55 209.5t93.5 193t134 141.5t175.5 53.5q54 0 97.5 -17.5t77.5 -52t57 -88.5h7l53 138h299l-241 -1133h-288l1 129h-8q-32 -43 -68 -76.5t-80.5 -53t-104.5 -19.5zM489 274q44 0 78 44t58 109.5t36 130.5
q14 63 18 101.5t4 68.5q0 61 -17.5 94t-53.5 33q-32 0 -60.5 -30t-52 -80t-40.5 -110t-26.5 -120.5t-9.5 -111.5q0 -63 16.5 -96t49.5 -33zM619 -508q-109 0 -165.5 56t-56.5 137q0 68 29 124t77.5 103t107.5 88h223q-50 -47 -86.5 -86t-56 -75.5t-20.5 -75.5
q0 -19 13 -31.5t32 -12.5q24 0 49.5 5.5t54.5 13.5l-23 -219q-42 -14 -84 -20.5t-94 -6.5z" />
    <glyph glyph-name="Cacute" unicode="&#x106;" horiz-adv-x="1128" 
d="M546 -20q-153 0 -255 65t-153 181.5t-51 272.5q0 138 29 278t86.5 267t144.5 226.5t202.5 156.5t260.5 57q119 0 223 -28.5t194 -89.5l-154 -287q-71 46 -131.5 69.5t-123.5 23.5q-69 0 -125 -44t-98.5 -117t-71 -160t-43 -174.5t-14.5 -159.5q0 -116 42.5 -170.5
t120.5 -54.5q79 0 154 22.5t161 61.5v-313q-93 -44 -195.5 -63.5t-202.5 -19.5zM651 1575l3 23q43 45 86 96t84 104.5t76 104.5h401l-1 -16q-23 -25 -72.5 -68t-108.5 -91t-114 -89.5t-89 -63.5h-265z" />
    <glyph glyph-name="cacute" unicode="&#x107;" horiz-adv-x="924" 
d="M434 -20q-109 0 -193.5 46t-132 138.5t-47.5 230.5q0 111 23 220.5t69 206.5t115.5 171.5t162.5 117t209 42.5q95 0 174 -21t153 -63l-128 -272q-41 25 -91 43t-96 18q-61 0 -104.5 -45.5t-70.5 -114.5t-40 -141t-13 -124q0 -55 11.5 -89.5t34 -50.5t55.5 -16
q59 0 121 23.5t133 68.5v-293q-68 -42 -154.5 -69t-190.5 -27zM480 1241l3 23q43 45 86 96t84 104.5t76 104.5h401l-1 -16q-23 -25 -72.5 -68t-108.5 -91t-114 -89.5t-89 -63.5h-265z" />
    <glyph glyph-name="Ccircumflex" unicode="&#x108;" horiz-adv-x="1128" 
d="M546 -20q-153 0 -255 65t-153 181.5t-51 272.5q0 138 29 278t86.5 267t144.5 226.5t202.5 156.5t260.5 57q119 0 223 -28.5t194 -89.5l-154 -287q-71 46 -131.5 69.5t-123.5 23.5q-69 0 -125 -44t-98.5 -117t-71 -160t-43 -174.5t-14.5 -159.5q0 -116 42.5 -170.5
t120.5 -54.5q79 0 154 22.5t161 61.5v-313q-93 -44 -195.5 -63.5t-202.5 -19.5zM429 1575l2 24q46 44 95 96t96.5 105.5t86.5 102.5h372q15 -42 39.5 -97t52.5 -109t53 -96l-3 -26h-234q-18 19 -40.5 45.5t-44.5 55.5t-39 54q-51 -45 -98.5 -84.5t-93.5 -70.5h-244z" />
    <glyph glyph-name="ccircumflex" unicode="&#x109;" horiz-adv-x="924" 
d="M434 -20q-109 0 -193.5 46t-132 138.5t-47.5 230.5q0 111 23 220.5t69 206.5t115.5 171.5t162.5 117t209 42.5q95 0 174 -21t153 -63l-128 -272q-41 25 -91 43t-96 18q-61 0 -104.5 -45.5t-70.5 -114.5t-40 -141t-13 -124q0 -55 11.5 -89.5t34 -50.5t55.5 -16
q59 0 121 23.5t133 68.5v-293q-68 -42 -154.5 -69t-190.5 -27zM238 1241l2 24q46 44 95 96t96.5 105.5t86.5 102.5h372q15 -42 39.5 -97t52.5 -109t53 -96l-3 -26h-234q-18 19 -40.5 45.5t-44.5 55.5t-39 54q-51 -45 -98.5 -84.5t-93.5 -70.5h-244z" />
    <glyph glyph-name="Cdot" unicode="&#x10a;" horiz-adv-x="1128" 
d="M546 -20q-153 0 -255 65t-153 181.5t-51 272.5q0 138 29 278t86.5 267t144.5 226.5t202.5 156.5t260.5 57q119 0 223 -28.5t194 -89.5l-154 -287q-71 46 -131.5 69.5t-123.5 23.5q-69 0 -125 -44t-98.5 -117t-71 -160t-43 -174.5t-14.5 -159.5q0 -116 42.5 -170.5
t120.5 -54.5q79 0 154 22.5t161 61.5v-313q-93 -44 -195.5 -63.5t-202.5 -19.5zM844 1576q-81 0 -128 34t-47 107q0 96 55.5 151.5t160.5 55.5q51 0 90 -13.5t62 -44.5t23 -84q0 -87 -51 -146.5t-165 -59.5z" />
    <glyph glyph-name="cdot" unicode="&#x10b;" horiz-adv-x="924" 
d="M434 -20q-109 0 -193.5 46t-132 138.5t-47.5 230.5q0 111 23 220.5t69 206.5t115.5 171.5t162.5 117t209 42.5q95 0 174 -21t153 -63l-128 -272q-41 25 -91 43t-96 18q-61 0 -104.5 -45.5t-70.5 -114.5t-40 -141t-13 -124q0 -55 11.5 -89.5t34 -50.5t55.5 -16
q59 0 121 23.5t133 68.5v-293q-68 -42 -154.5 -69t-190.5 -27zM659 1242q-81 0 -128 34t-47 107q0 96 55.5 151.5t160.5 55.5q51 0 90 -13.5t62 -44.5t23 -84q0 -87 -51 -146.5t-165 -59.5z" />
    <glyph glyph-name="Ccaron" unicode="&#x10c;" horiz-adv-x="1128" 
d="M546 -20q-153 0 -255 65t-153 181.5t-51 272.5q0 138 29 278t86.5 267t144.5 226.5t202.5 156.5t260.5 57q119 0 223 -28.5t194 -89.5l-154 -287q-71 46 -131.5 69.5t-123.5 23.5q-69 0 -125 -44t-98.5 -117t-71 -160t-43 -174.5t-14.5 -159.5q0 -116 42.5 -170.5
t120.5 -54.5q79 0 154 22.5t161 61.5v-313q-93 -44 -195.5 -63.5t-202.5 -19.5zM644 1575q-16 45 -40.5 99t-51.5 107.5t-54 95.5l3 26h235q18 -17 40.5 -44t44.5 -55.5t39 -54.5q50 45 97.5 84t93.5 70h245l-3 -24q-42 -38 -94.5 -94t-101.5 -112.5t-81 -97.5h-372z" />
    <glyph glyph-name="ccaron" unicode="&#x10d;" horiz-adv-x="924" 
d="M434 -20q-109 0 -193.5 46t-132 138.5t-47.5 230.5q0 111 23 220.5t69 206.5t115.5 171.5t162.5 117t209 42.5q95 0 174 -21t153 -63l-128 -272q-41 25 -91 43t-96 18q-61 0 -104.5 -45.5t-70.5 -114.5t-40 -141t-13 -124q0 -55 11.5 -89.5t34 -50.5t55.5 -16
q59 0 121 23.5t133 68.5v-293q-68 -42 -154.5 -69t-190.5 -27zM453 1241q-16 45 -40.5 99t-51.5 107.5t-54 95.5l3 26h235q18 -17 40.5 -44t44.5 -55.5t39 -54.5q50 45 97.5 84t93.5 70h245l-3 -24q-42 -38 -94.5 -94t-101.5 -112.5t-81 -97.5h-372z" />
    <glyph glyph-name="Dcaron" unicode="&#x10e;" horiz-adv-x="1257" 
d="M12 0l309 1462h376q252 0 390.5 -132.5t138.5 -376.5q0 -153 -32 -294.5t-96 -261.5t-159 -209t-221 -138.5t-283 -49.5h-423zM445 314h45q70 0 127.5 37t100.5 100t72 142.5t43.5 165t14.5 166.5q0 114 -45.5 170.5t-130.5 56.5h-50zM592 1575q-16 45 -40.5 99
t-51.5 107.5t-54 95.5l3 26h235q18 -17 40.5 -44t44.5 -55.5t39 -54.5q50 45 97.5 84t93.5 70h245l-3 -24q-42 -38 -94.5 -94t-101.5 -112.5t-81 -97.5h-372z" />
    <glyph glyph-name="dcaron" unicode="&#x10f;" horiz-adv-x="1378" 
d="M334 -20q-79 0 -142.5 41.5t-99.5 126.5t-36 218q0 83 18 187t54.5 209t92 194t130.5 143t170 54q54 0 96 -15.5t75 -46.5t59 -78h7q2 26 5.5 64.5t9 79.5t12.5 73l68 326h360l-331 -1556h-288l1 120h-8q-34 -41 -68.5 -72.5t-78 -49.5t-106.5 -18zM488 274q30 0 56 22
t47.5 59.5t38.5 85t28.5 99t17.5 100.5t6 88q0 61 -17 94t-53 33q-34 0 -63 -32t-52.5 -84.5t-40 -113.5t-25.5 -119.5t-9 -102.5q0 -63 16.5 -96t49.5 -33zM1238 1229v24q19 47 37 98.5t35.5 104t30.5 100.5h335l1 -20q-30 -55 -63 -106t-69 -100t-77 -101h-230z" />
    <glyph glyph-name="Dcroat" unicode="&#x110;" horiz-adv-x="1257" 
d="M12 0l126 597h-126l63 288h124l122 577h383q253 0 387.5 -133.5t134.5 -375.5q0 -156 -32 -298t-95 -261.5t-156.5 -207.5t-218 -137t-278.5 -49h-434zM445 314h45q71 0 128.5 37.5t100.5 101.5t72 144t43 166.5t14 167.5q0 110 -45.5 165.5t-130.5 55.5h-50l-58 -267
h154l-61 -288h-154z" />
    <glyph glyph-name="dcroat" unicode="&#x111;" horiz-adv-x="1117" 
d="M335 -20q-79 0 -142.5 41.5t-99.5 126.5t-36 218q0 88 18.5 188.5t55.5 197.5t91 176t124.5 126.5t156.5 47.5q55 0 99 -15.5t79 -47t61 -77.5h7q1 21 4 55t7.5 72.5t11.5 70.5l2 12h-194l49 237h195l30 147h360l-32 -147h134l-51 -237h-134l-248 -1172h-288l1 120h-8
q-34 -41 -67 -72.5t-76 -49.5t-110 -18zM489 274q28 0 52.5 18.5t45 50.5t36.5 73t26.5 86t16.5 90.5t6 84.5q0 61 -19 94t-56 33q-34 0 -61.5 -30t-48.5 -78.5t-35 -103.5t-21.5 -105.5t-7.5 -83.5q0 -63 16.5 -96t49.5 -33z" />
    <glyph glyph-name="Emacron" unicode="&#x112;" horiz-adv-x="1005" 
d="M12 0l309 1462h766l-64 -306h-399l-52 -247h371l-67 -306h-371l-62 -292h400l-66 -311h-765zM409 1575l50 236h621l-49 -236h-622z" />
    <glyph glyph-name="emacron" unicode="&#x113;" horiz-adv-x="1065" 
d="M470 -20q-129 0 -221 50t-140.5 143t-48.5 221q0 136 35.5 270.5t110.5 245t190.5 176.5t274.5 66q167 0 266.5 -82.5t99.5 -221.5q0 -98 -38 -174t-112 -127.5t-181.5 -78t-247.5 -26.5h-40q-2 -11 -2.5 -21.5t-0.5 -19.5q0 -80 36.5 -115t108.5 -35q80 0 148.5 21.5
t155.5 68.5v-259q-91 -53 -183 -77.5t-211 -24.5zM462 679h17q87 0 136 20t69 52.5t20 68.5q0 32 -20.5 52.5t-57.5 20.5t-69.5 -27.5t-56.5 -76t-38 -110.5zM367 1241l50 236h621l-49 -236h-622z" />
    <glyph glyph-name="Ebreve" unicode="&#x114;" horiz-adv-x="1005" 
d="M12 0l309 1462h766l-64 -306h-399l-52 -247h371l-67 -306h-371l-62 -292h400l-66 -311h-765zM752 1575q-106 0 -175.5 35t-103.5 98t-34 147q0 23 3.5 46.5t7.5 44.5h208q0 -41 13 -71.5t40 -47t67 -16.5q57 0 102 28t67 107h212q-31 -180 -133.5 -275.5t-273.5 -95.5z
" />
    <glyph glyph-name="ebreve" unicode="&#x115;" horiz-adv-x="1065" 
d="M470 -20q-129 0 -221 50t-140.5 143t-48.5 221q0 136 35.5 270.5t110.5 245t190.5 176.5t274.5 66q167 0 266.5 -82.5t99.5 -221.5q0 -98 -38 -174t-112 -127.5t-181.5 -78t-247.5 -26.5h-40q-2 -11 -2.5 -21.5t-0.5 -19.5q0 -80 36.5 -115t108.5 -35q80 0 148.5 21.5
t155.5 68.5v-259q-91 -53 -183 -77.5t-211 -24.5zM462 679h17q87 0 136 20t69 52.5t20 68.5q0 32 -20.5 52.5t-57.5 20.5t-69.5 -27.5t-56.5 -76t-38 -110.5zM720 1241q-106 0 -175.5 35t-103.5 98t-34 147q0 23 3.5 46.5t7.5 44.5h208q0 -41 13 -71.5t40 -47t67 -16.5
q57 0 102 28t67 107h212q-31 -180 -133.5 -275.5t-273.5 -95.5z" />
    <glyph glyph-name="Edotaccent" unicode="&#x116;" horiz-adv-x="1005" 
d="M12 0l309 1462h766l-64 -306h-399l-52 -247h371l-67 -306h-371l-62 -292h400l-66 -311h-765zM729 1562q-81 0 -128 34t-47 107q0 96 55.5 151.5t160.5 55.5q51 0 90 -13.5t62 -44.5t23 -84q0 -87 -51 -146.5t-165 -59.5z" />
    <glyph glyph-name="edotaccent" unicode="&#x117;" horiz-adv-x="1065" 
d="M470 -20q-129 0 -221 50t-140.5 143t-48.5 221q0 136 35.5 270.5t110.5 245t190.5 176.5t274.5 66q167 0 266.5 -82.5t99.5 -221.5q0 -98 -38 -174t-112 -127.5t-181.5 -78t-247.5 -26.5h-40q-2 -11 -2.5 -21.5t-0.5 -19.5q0 -80 36.5 -115t108.5 -35q80 0 148.5 21.5
t155.5 68.5v-259q-91 -53 -183 -77.5t-211 -24.5zM462 679h17q87 0 136 20t69 52.5t20 68.5q0 32 -20.5 52.5t-57.5 20.5t-69.5 -27.5t-56.5 -76t-38 -110.5zM694 1242q-81 0 -128 34t-47 107q0 96 55.5 151.5t160.5 55.5q51 0 90 -13.5t62 -44.5t23 -84q0 -87 -51 -146.5
t-165 -59.5z" />
    <glyph glyph-name="Eogonek" unicode="&#x118;" horiz-adv-x="1005" 
d="M12 0l309 1462h766l-64 -306h-399l-52 -247h371l-67 -306h-371l-62 -292h400l-66 -311h-765zM512 -508q-109 0 -165.5 56t-56.5 137q0 68 29 124t77.5 103t107.5 88h223q-50 -47 -86.5 -86t-56 -75.5t-20.5 -75.5q0 -19 13 -31.5t32 -12.5q24 0 49.5 5.5t54.5 13.5
l-23 -219q-42 -14 -84 -20.5t-94 -6.5z" />
    <glyph glyph-name="eogonek" unicode="&#x119;" horiz-adv-x="1065" 
d="M516 -501q-109 0 -165.5 55.5t-56.5 136.5q0 69 29 124.5t77.5 102.5t107.5 88l298 51q-80 -59 -132.5 -110t-78 -95t-26.5 -83q0 -19 12.5 -31.5t32.5 -12.5q23 0 49 5.5t54 13.5l-22 -219q-44 -14 -85.5 -20t-93.5 -6zM470 -20q-129 0 -221 50t-140.5 143t-48.5 221
q0 136 35.5 270.5t110.5 245t190.5 176.5t274.5 66q167 0 266.5 -82.5t99.5 -221.5q0 -98 -38 -174t-112 -127.5t-181.5 -78t-247.5 -26.5h-40q-2 -11 -2.5 -21.5t-0.5 -19.5q0 -80 36.5 -115t108.5 -35q80 0 148.5 21.5t155.5 68.5v-259q-91 -53 -183 -77.5t-211 -24.5z
M462 679h17q87 0 136 20t69 52.5t20 68.5q0 32 -20.5 52.5t-57.5 20.5t-69.5 -27.5t-56.5 -76t-38 -110.5z" />
    <glyph glyph-name="Ecaron" unicode="&#x11a;" horiz-adv-x="1005" 
d="M12 0l309 1462h766l-64 -306h-399l-52 -247h371l-67 -306h-371l-62 -292h400l-66 -311h-765zM533 1575q-16 45 -40.5 99t-51.5 107.5t-54 95.5l3 26h235q18 -17 40.5 -44t44.5 -55.5t39 -54.5q50 45 97.5 84t93.5 70h245l-3 -24q-42 -38 -94.5 -94t-101.5 -112.5
t-81 -97.5h-372z" />
    <glyph glyph-name="ecaron" unicode="&#x11b;" horiz-adv-x="1065" 
d="M470 -20q-129 0 -221 50t-140.5 143t-48.5 221q0 136 35.5 270.5t110.5 245t190.5 176.5t274.5 66q167 0 266.5 -82.5t99.5 -221.5q0 -98 -38 -174t-112 -127.5t-181.5 -78t-247.5 -26.5h-40q-2 -11 -2.5 -21.5t-0.5 -19.5q0 -80 36.5 -115t108.5 -35q80 0 148.5 21.5
t155.5 68.5v-259q-91 -53 -183 -77.5t-211 -24.5zM462 679h17q87 0 136 20t69 52.5t20 68.5q0 32 -20.5 52.5t-57.5 20.5t-69.5 -27.5t-56.5 -76t-38 -110.5zM489 1241q-16 45 -40.5 99t-51.5 107.5t-54 95.5l3 26h235q18 -17 40.5 -44t44.5 -55.5t39 -54.5q50 45 97.5 84
t93.5 70h245l-3 -24q-42 -38 -94.5 -94t-101.5 -112.5t-81 -97.5h-372z" />
    <glyph glyph-name="Gcircumflex" unicode="&#x11c;" horiz-adv-x="1276" 
d="M589 -20q-240 0 -370 136t-130 394q0 140 31 279.5t94 264.5t159 222t226.5 152.5t296.5 55.5q117 0 222.5 -26.5t179.5 -73.5l-147 -299q-59 38 -128.5 62.5t-145.5 24.5q-106 0 -183.5 -63t-128 -161.5t-75 -209.5t-24.5 -207q0 -81 19 -134t55.5 -78.5t90.5 -25.5
q30 0 54.5 3.5t56.5 9.5l54 252h-185l63 298h545l-167 -789q-111 -40 -228 -63.5t-235 -23.5zM484 1575l2 24q46 44 95 96t96.5 105.5t86.5 102.5h372q15 -42 39.5 -97t52.5 -109t53 -96l-3 -26h-234q-18 19 -40.5 45.5t-44.5 55.5t-39 54q-51 -45 -98.5 -84.5t-93.5 -70.5
h-244z" />
    <glyph glyph-name="gcircumflex" unicode="&#x11d;" horiz-adv-x="1090" 
d="M301 -492q-209 0 -320 73.5t-111 203.5q0 107 71 183.5t206 117.5q-35 19 -59.5 56.5t-24.5 85.5q0 70 47.5 123t130.5 101q-51 39 -79 106t-28 149q0 106 44 198t128 150q56 46 136 71t174 25q58 0 108.5 -8.5t80.5 -16.5h383l-40 -198l-151 -51q5 -18 7 -38t2 -42
q0 -88 -34.5 -172.5t-93.5 -141.5q-61 -60 -147.5 -91t-194.5 -31q-43 0 -67.5 0.5t-39.5 3.5q-26 -11 -42.5 -29t-16.5 -40q0 -15 16 -23q11 -6 33.5 -10.5t54.5 -7.5l169 -9q97 -7 160 -38t94 -85.5t31 -133.5q0 -134 -58.5 -232t-163.5 -157q-77 -45 -179 -68.5
t-226 -23.5zM326 -244q53 0 103 8.5t87 27.5q34 17 54.5 44t20.5 64q0 11 -4 19.5t-13 14.5q-16 12 -44.5 17t-67.5 7l-134 6q-42 -4 -73.5 -26.5t-48.5 -52.5t-17 -59q0 -37 34 -53.5t103 -16.5zM531 595q34 0 60.5 26.5t44.5 74.5t26 110q3 26 3 46.5t-4 34.5
q-3 20 -14 28t-29 8q-32 0 -56 -20t-40 -52t-25.5 -69t-13.5 -71q-3 -25 -3 -44.5t3 -33.5q9 -38 48 -38zM309 1248l2 24q46 44 95 96t96.5 105.5t86.5 102.5h372q15 -42 39.5 -97t52.5 -109t53 -96l-3 -26h-234q-18 19 -40.5 45.5t-44.5 55.5t-39 54q-51 -45 -98.5 -84.5
t-93.5 -70.5h-244z" />
    <glyph glyph-name="Gbreve" unicode="&#x11e;" horiz-adv-x="1276" 
d="M589 -20q-240 0 -370 136t-130 394q0 140 31 279.5t94 264.5t159 222t226.5 152.5t296.5 55.5q117 0 222.5 -26.5t179.5 -73.5l-147 -299q-59 38 -128.5 62.5t-145.5 24.5q-106 0 -183.5 -63t-128 -161.5t-75 -209.5t-24.5 -207q0 -81 19 -134t55.5 -78.5t90.5 -25.5
q30 0 54.5 3.5t56.5 9.5l54 252h-185l63 298h545l-167 -789q-111 -40 -228 -63.5t-235 -23.5zM928 1575q-106 0 -175.5 35t-103.5 98t-34 147q0 23 3.5 46.5t7.5 44.5h208q0 -41 13 -71.5t40 -47t67 -16.5q57 0 102 28t67 107h212q-31 -180 -133.5 -275.5t-273.5 -95.5z" />
    <glyph glyph-name="gbreve" unicode="&#x11f;" horiz-adv-x="1090" 
d="M301 -492q-209 0 -320 73.5t-111 203.5q0 107 71 183.5t206 117.5q-35 19 -59.5 56.5t-24.5 85.5q0 70 47.5 123t130.5 101q-51 39 -79 106t-28 149q0 106 44 198t128 150q56 46 136 71t174 25q58 0 108.5 -8.5t80.5 -16.5h383l-40 -198l-151 -51q5 -18 7 -38t2 -42
q0 -88 -34.5 -172.5t-93.5 -141.5q-61 -60 -147.5 -91t-194.5 -31q-43 0 -67.5 0.5t-39.5 3.5q-26 -11 -42.5 -29t-16.5 -40q0 -15 16 -23q11 -6 33.5 -10.5t54.5 -7.5l169 -9q97 -7 160 -38t94 -85.5t31 -133.5q0 -134 -58.5 -232t-163.5 -157q-77 -45 -179 -68.5
t-226 -23.5zM326 -244q53 0 103 8.5t87 27.5q34 17 54.5 44t20.5 64q0 11 -4 19.5t-13 14.5q-16 12 -44.5 17t-67.5 7l-134 6q-42 -4 -73.5 -26.5t-48.5 -52.5t-17 -59q0 -37 34 -53.5t103 -16.5zM531 595q34 0 60.5 26.5t44.5 74.5t26 110q3 26 3 46.5t-4 34.5
q-3 20 -14 28t-29 8q-32 0 -56 -20t-40 -52t-25.5 -69t-13.5 -71q-3 -25 -3 -44.5t3 -33.5q9 -38 48 -38zM690 1248q-106 0 -175.5 35t-103.5 98t-34 147q0 23 3.5 46.5t7.5 44.5h208q0 -41 13 -71.5t40 -47t67 -16.5q57 0 102 28t67 107h212q-31 -180 -133.5 -275.5
t-273.5 -95.5z" />
    <glyph glyph-name="Gdot" unicode="&#x120;" horiz-adv-x="1276" 
d="M589 -20q-240 0 -370 136t-130 394q0 140 31 279.5t94 264.5t159 222t226.5 152.5t296.5 55.5q117 0 222.5 -26.5t179.5 -73.5l-147 -299q-59 38 -128.5 62.5t-145.5 24.5q-106 0 -183.5 -63t-128 -161.5t-75 -209.5t-24.5 -207q0 -81 19 -134t55.5 -78.5t90.5 -25.5
q30 0 54.5 3.5t56.5 9.5l54 252h-185l63 298h545l-167 -789q-111 -40 -228 -63.5t-235 -23.5zM902 1576q-81 0 -128 34t-47 107q0 96 55.5 151.5t160.5 55.5q51 0 90 -13.5t62 -44.5t23 -84q0 -87 -51 -146.5t-165 -59.5z" />
    <glyph glyph-name="gdot" unicode="&#x121;" horiz-adv-x="1090" 
d="M301 -492q-209 0 -320 73.5t-111 203.5q0 107 71 183.5t206 117.5q-35 19 -59.5 56.5t-24.5 85.5q0 70 47.5 123t130.5 101q-51 39 -79 106t-28 149q0 106 44 198t128 150q56 46 136 71t174 25q58 0 108.5 -8.5t80.5 -16.5h383l-40 -198l-151 -51q5 -18 7 -38t2 -42
q0 -88 -34.5 -172.5t-93.5 -141.5q-61 -60 -147.5 -91t-194.5 -31q-43 0 -67.5 0.5t-39.5 3.5q-26 -11 -42.5 -29t-16.5 -40q0 -15 16 -23q11 -6 33.5 -10.5t54.5 -7.5l169 -9q97 -7 160 -38t94 -85.5t31 -133.5q0 -134 -58.5 -232t-163.5 -157q-77 -45 -179 -68.5
t-226 -23.5zM326 -244q53 0 103 8.5t87 27.5q34 17 54.5 44t20.5 64q0 11 -4 19.5t-13 14.5q-16 12 -44.5 17t-67.5 7l-134 6q-42 -4 -73.5 -26.5t-48.5 -52.5t-17 -59q0 -37 34 -53.5t103 -16.5zM531 595q34 0 60.5 26.5t44.5 74.5t26 110q3 26 3 46.5t-4 34.5
q-3 20 -14 28t-29 8q-32 0 -56 -20t-40 -52t-25.5 -69t-13.5 -71q-3 -25 -3 -44.5t3 -33.5q9 -38 48 -38zM690 1249q-81 0 -128 34t-47 107q0 96 55.5 151.5t160.5 55.5q51 0 90 -13.5t62 -44.5t23 -84q0 -87 -51 -146.5t-165 -59.5z" />
    <glyph glyph-name="uni0122" unicode="&#x122;" horiz-adv-x="1276" 
d="M589 -20q-240 0 -370 136t-130 394q0 140 31 279.5t94 264.5t159 222t226.5 152.5t296.5 55.5q117 0 222.5 -26.5t179.5 -73.5l-147 -299q-59 38 -128.5 62.5t-145.5 24.5q-106 0 -183.5 -63t-128 -161.5t-75 -209.5t-24.5 -207q0 -81 19 -134t55.5 -78.5t90.5 -25.5
q30 0 54.5 3.5t56.5 9.5l54 252h-185l63 298h545l-167 -789q-111 -40 -228 -63.5t-235 -23.5zM323 -453v26q17 43 36 96t37.5 107t30.5 99h334v-19q-27 -52 -61 -105.5t-71 -105t-75 -98.5h-231z" />
    <glyph glyph-name="uni0123" unicode="&#x123;" horiz-adv-x="1090" 
d="M491 1241v21q28 51 61.5 103.5t71.5 104t77 99.5h229l1 -25q-17 -42 -37 -97.5t-38 -110t-30 -95.5h-335zM301 -492q-209 0 -320 73.5t-111 203.5q0 107 71 183.5t206 117.5q-35 19 -59.5 56.5t-24.5 85.5q0 70 47.5 123t130.5 101q-51 39 -79 106t-28 149q0 106 44 198
t128 150q56 46 136 71t174 25q58 0 108.5 -8.5t80.5 -16.5h383l-40 -198l-151 -51q5 -18 7 -38t2 -42q0 -88 -34.5 -172.5t-93.5 -141.5q-61 -60 -147.5 -91t-194.5 -31q-43 0 -67.5 0.5t-39.5 3.5q-26 -11 -42.5 -29t-16.5 -40q0 -15 16 -23q11 -6 33.5 -10.5t54.5 -7.5
l169 -9q97 -7 160 -38t94 -85.5t31 -133.5q0 -134 -58.5 -232t-163.5 -157q-77 -45 -179 -68.5t-226 -23.5zM326 -244q53 0 103 8.5t87 27.5q34 17 54.5 44t20.5 64q0 11 -4 19.5t-13 14.5q-16 12 -44.5 17t-67.5 7l-134 6q-42 -4 -73.5 -26.5t-48.5 -52.5t-17 -59
q0 -37 34 -53.5t103 -16.5zM531 595q34 0 60.5 26.5t44.5 74.5t26 110q3 26 3 46.5t-4 34.5q-3 20 -14 28t-29 8q-32 0 -56 -20t-40 -52t-25.5 -69t-13.5 -71q-3 -25 -3 -44.5t3 -33.5q9 -38 48 -38z" />
    <glyph glyph-name="Hcircumflex" unicode="&#x124;" horiz-adv-x="1308" 
d="M12 0l309 1462h366l-114 -547h300l115 547h367l-310 -1462h-367l127 603h-299l-128 -603h-366zM447 1575l2 24q46 44 95 96t96.5 105.5t86.5 102.5h372q15 -42 39.5 -97t52.5 -109t53 -96l-3 -26h-234q-18 19 -40.5 45.5t-44.5 55.5t-39 54q-51 -45 -98.5 -84.5
t-93.5 -70.5h-244z" />
    <glyph glyph-name="hcircumflex" unicode="&#x125;" horiz-adv-x="1140" 
d="M-2 0l331 1556h357l-57 -266q-9 -44 -22.5 -91t-28.5 -92t-30 -83h7q33 44 71 72.5t83 42.5t98 14q90 0 149 -38.5t88.5 -105.5t29.5 -152q0 -45 -6.5 -96t-15.5 -98l-140 -663h-358l131 625q8 33 14 72.5t6 75.5t-17.5 57.5t-50.5 21.5q-28 0 -56 -23.5t-53.5 -80
t-46.5 -154.5l-124 -594h-359zM110 1683l2 24q46 44 95 96t96.5 105.5t86.5 102.5h372q15 -42 39.5 -97t52.5 -109t53 -96l-3 -26h-234q-18 19 -40.5 45.5t-44.5 55.5t-39 54q-51 -45 -98.5 -84.5t-93.5 -70.5h-244z" />
    <glyph glyph-name="Hbar" unicode="&#x126;" horiz-adv-x="1308" 
d="M12 0l225 1068h-138l48 235h139l35 159h366l-33 -159h301l33 159h367l-34 -159h141l-49 -235h-142l-226 -1068h-367l127 602h-299l-128 -602h-366zM571 904h300l33 164h-301z" />
    <glyph glyph-name="hbar" unicode="&#x127;" horiz-adv-x="1140" 
d="M-2 0l248 1172h-137l50 237h137l33 147h357l-31 -147h216l-50 -237h-217q-10 -46 -22.5 -86.5t-24.5 -73.5t-24 -61h7q33 43 70.5 71.5t82.5 42.5t99 14q90 0 148.5 -39t88 -106t29.5 -151q0 -47 -6 -97.5t-15 -97.5l-125 -588h-358l116 550q8 34 13.5 73t5.5 75
q0 41 -18 60t-46 19q-38 0 -66.5 -28.5t-50.5 -85.5t-41 -143l-110 -520h-359z" />
    <glyph glyph-name="Itilde" unicode="&#x128;" horiz-adv-x="640" 
d="M11 0l310 1462h366l-310 -1462h-366zM153 1591q21 108 57 184.5t91.5 117t134.5 40.5q48 0 84 -14.5t66 -33.5t57.5 -34t55.5 -15q30 0 54 23.5t39 75.5h187q-23 -127 -66 -202t-100 -107.5t-123 -32.5q-48 0 -85.5 15t-68 34t-58 33.5t-56.5 14.5q-25 0 -49.5 -24
t-33.5 -75h-186z" />
    <glyph glyph-name="itilde" unicode="&#x129;" horiz-adv-x="591" 
d="M-1 0l241 1133h357l-240 -1133h-358zM58 1237q21 108 57 184.5t91.5 117t134.5 40.5q48 0 84 -14.5t66 -33.5t57.5 -34t55.5 -15q30 0 54 23.5t39 75.5h187q-23 -127 -66 -202t-100 -107.5t-123 -32.5q-48 0 -85.5 15t-68 34t-58 33.5t-56.5 14.5q-25 0 -49.5 -24
t-33.5 -75h-186z" />
    <glyph glyph-name="Imacron" unicode="&#x12a;" horiz-adv-x="640" 
d="M11 0l310 1462h366l-310 -1462h-366zM219 1595l50 236h621l-49 -236h-622z" />
    <glyph glyph-name="imacron" unicode="&#x12b;" horiz-adv-x="591" 
d="M-1 0l241 1133h357l-240 -1133h-358zM121 1241l50 236h621l-49 -236h-622z" />
    <glyph glyph-name="Ibreve" unicode="&#x12c;" horiz-adv-x="640" 
d="M11 0l310 1462h366l-310 -1462h-366zM547 1595q-106 0 -175.5 35t-103.5 98t-34 147q0 23 3.5 46.5t7.5 44.5h208q0 -41 13 -71.5t40 -47t67 -16.5q57 0 102 28t67 107h212q-31 -180 -133.5 -275.5t-273.5 -95.5z" />
    <glyph glyph-name="ibreve" unicode="&#x12d;" horiz-adv-x="591" 
d="M-1 0l241 1133h357l-240 -1133h-358zM465 1241q-106 0 -175.5 35t-103.5 98t-34 147q0 23 3.5 46.5t7.5 44.5h208q0 -41 13 -71.5t40 -47t67 -16.5q57 0 102 28t67 107h212q-31 -180 -133.5 -275.5t-273.5 -95.5z" />
    <glyph glyph-name="Iogonek" unicode="&#x12e;" horiz-adv-x="640" 
d="M11 0l310 1462h366l-310 -1462h-366zM155 -508q-109 0 -165.5 56t-56.5 137q0 68 29 124t77.5 103t107.5 88h223q-50 -47 -86.5 -86t-56 -75.5t-20.5 -75.5q0 -19 13 -31.5t32 -12.5q24 0 49.5 5.5t54.5 13.5l-23 -219q-42 -14 -84 -20.5t-94 -6.5z" />
    <glyph glyph-name="iogonek" unicode="&#x12f;" horiz-adv-x="591" 
d="M-1 0l241 1133h357l-240 -1133h-358zM456 1242q-79 0 -125 31.5t-46 101.5q0 59 24 108t72.5 78t120.5 29q75 0 123 -31t48 -102q0 -94 -56 -154.5t-161 -60.5zM117 -508q-109 0 -165.5 56t-56.5 137q0 68 29 124t77.5 103t107.5 88h223q-50 -47 -86.5 -86t-56 -75.5
t-20.5 -75.5q0 -19 13 -31.5t32 -12.5q24 0 49.5 5.5t54.5 13.5l-23 -219q-42 -14 -84 -20.5t-94 -6.5z" />
    <glyph glyph-name="Idotaccent" unicode="&#x130;" horiz-adv-x="640" 
d="M11 0l310 1462h366l-310 -1462h-366zM547 1596q-81 0 -128 34t-47 107q0 96 55.5 151.5t160.5 55.5q51 0 90 -13.5t62 -44.5t23 -84q0 -87 -51 -146.5t-165 -59.5z" />
    <glyph glyph-name="dotlessi" unicode="&#x131;" horiz-adv-x="591" 
d="M-1 0l241 1133h357l-240 -1133h-358z" />
    <glyph glyph-name="IJ" unicode="&#x132;" horiz-adv-x="1304" 
d="M11 0l310 1462h366l-310 -1462h-366zM517 -460q-58 0 -108.5 7t-94.5 20l32 309q33 -11 67.5 -18.5t73.5 -7.5q60 0 99.5 32.5t65.5 90.5t41 134l290 1355h367l-299 -1404q-40 -187 -109.5 -301t-173.5 -165.5t-251 -51.5z" />
    <glyph glyph-name="ij" unicode="&#x133;" horiz-adv-x="1182" 
d="M-1 0l241 1133h357l-240 -1133h-358zM456 1242q-79 0 -125 31.5t-46 101.5q0 59 24 108t72.5 78t120.5 29q75 0 123 -31t48 -102q0 -94 -56 -154.5t-161 -60.5zM511 -492q-46 0 -94 6.5t-86 18.5v294q28 -11 57 -15t50 -4q39 0 67.5 14.5t48.5 46t30 82.5l251 1182h356
l-260 -1226q-24 -115 -72 -205t-131.5 -142t-216.5 -52zM1051 1242q-79 0 -125 31.5t-46 101.5q0 59 24 108t72.5 78t120.5 29q75 0 123 -31t48 -102q0 -94 -56 -154.5t-161 -60.5z" />
    <glyph glyph-name="Jcircumflex" unicode="&#x134;" horiz-adv-x="664" 
d="M-123 -460q-58 0 -108.5 7t-94.5 20l32 309q33 -11 67.5 -18.5t73.5 -7.5q60 0 99.5 32.5t65.5 90.5t41 134l290 1355h367l-299 -1404q-40 -187 -109.5 -301t-173.5 -165.5t-251 -51.5zM132 1575l2 24q46 44 95 96t96.5 105.5t86.5 102.5h372q15 -42 39.5 -97t52.5 -109
t53 -96l-3 -26h-234q-18 19 -40.5 45.5t-44.5 55.5t-39 54q-51 -45 -98.5 -84.5t-93.5 -70.5h-244z" />
    <glyph glyph-name="jcircumflex" unicode="&#x135;" horiz-adv-x="591" 
d="M-80 -492q-46 0 -94 6.5t-86 18.5v294q28 -11 57 -15t50 -4q39 0 67.5 14.5t48.5 46t30 82.5l251 1182h356l-260 -1226q-24 -115 -72 -205t-131.5 -142t-216.5 -52zM23 1241l2 24q46 44 95 96t96.5 105.5t86.5 102.5h372q15 -42 39.5 -97t52.5 -109t53 -96l-3 -26h-234
q-18 19 -40.5 45.5t-44.5 55.5t-39 54q-51 -45 -98.5 -84.5t-93.5 -70.5h-244z" />
    <glyph glyph-name="uni0136" unicode="&#x136;" horiz-adv-x="1210" 
d="M12 0l309 1462h366l-129 -606l109 172l306 434h418l-507 -682l210 -780h-408l-123 555l-79 -46l-106 -509h-366zM243 -453v26q17 43 36 96t37.5 107t30.5 99h334v-19q-27 -52 -61 -105.5t-71 -105t-75 -98.5h-231z" />
    <glyph glyph-name="uni0137" unicode="&#x137;" horiz-adv-x="1128" 
d="M-2 0l329 1556h357l-134 -632q-8 -37 -19 -78t-22 -79.5t-22 -69.5h7l347 436h399l-435 -501l217 -632h-397l-114 385l-90 -60l-64 -325h-359zM195 -453v26q17 43 36 96t37.5 107t30.5 99h334v-19q-27 -52 -61 -105.5t-71 -105t-75 -98.5h-231z" />
    <glyph glyph-name="kgreenlandic" unicode="&#x138;" horiz-adv-x="1128" 
d="M-2 0l240 1133h357l-45 -209q-12 -57 -29 -114t-35 -108h7l344 431h401l-433 -501l217 -632h-397l-114 385l-90 -60l-64 -325h-359z" />
    <glyph glyph-name="Lacute" unicode="&#x139;" horiz-adv-x="949" 
d="M12 0l309 1462h366l-244 -1153h410l-64 -309h-777zM376 1575l3 23q43 45 86 96t84 104.5t76 104.5h401l-1 -16q-23 -25 -72.5 -68t-108.5 -91t-114 -89.5t-89 -63.5h-265z" />
    <glyph glyph-name="lacute" unicode="&#x13a;" horiz-adv-x="589" 
d="M-2 0l331 1556h357l-329 -1556h-359zM337 1651l3 23q43 45 86 96t84 104.5t76 104.5h401l-1 -16q-23 -25 -72.5 -68t-108.5 -91t-114 -89.5t-89 -63.5h-265z" />
    <glyph glyph-name="uni013B" unicode="&#x13b;" horiz-adv-x="949" 
d="M12 0l309 1462h366l-244 -1153h410l-64 -309h-777zM120 -453v26q17 43 36 96t37.5 107t30.5 99h334v-19q-27 -52 -61 -105.5t-71 -105t-75 -98.5h-231z" />
    <glyph glyph-name="uni013C" unicode="&#x13c;" horiz-adv-x="589" 
d="M-2 0l331 1556h357l-329 -1556h-359zM-110 -453v26q17 43 36 96t37.5 107t30.5 99h334v-19q-27 -52 -61 -105.5t-71 -105t-75 -98.5h-231z" />
    <glyph glyph-name="Lcaron" unicode="&#x13d;" horiz-adv-x="949" 
d="M12 0l309 1462h366l-244 -1153h410l-64 -309h-777zM714 1134v24q19 47 37 98.5t35.5 104t30.5 100.5h335l1 -20q-30 -55 -63 -106t-69 -100t-77 -101h-230z" />
    <glyph glyph-name="lcaron" unicode="&#x13e;" horiz-adv-x="845" 
d="M-2 0l331 1556h357l-329 -1556h-359zM705 1229v24q19 47 37 98.5t35.5 104t30.5 100.5h335l1 -20q-30 -55 -63 -106t-69 -100t-77 -101h-230z" />
    <glyph glyph-name="Ldot" unicode="&#x13f;" horiz-adv-x="949" 
d="M12 0l309 1462h366l-244 -1153h410l-64 -309h-777zM809 592q-81 0 -128 34t-47 107q0 96 55.5 151.5t160.5 55.5q51 0 90 -13.5t62 -44.5t23 -84q0 -87 -51 -146.5t-165 -59.5z" />
    <glyph glyph-name="ldot" unicode="&#x140;" horiz-adv-x="964" 
d="M-2 0l331 1556h357l-329 -1556h-359zM792 529q-81 0 -128 34t-47 107q0 96 55.5 151.5t160.5 55.5q51 0 90 -13.5t62 -44.5t23 -84q0 -87 -51 -146.5t-165 -59.5z" />
    <glyph glyph-name="Lslash" unicode="&#x141;" horiz-adv-x="982" 
d="M44 0l101 477l-68 -40l-130 219l270 169l136 637h367l-84 -390l152 94l134 -215l-358 -228l-89 -414h411l-64 -309h-778z" />
    <glyph glyph-name="lslash" unicode="&#x142;" horiz-adv-x="675" 
d="M41 0l108 505l-84 -38l-98 220l243 113l161 756h357l-126 -591l84 37l104 -219l-250 -114l-142 -669h-357z" />
    <glyph glyph-name="Nacute" unicode="&#x143;" horiz-adv-x="1429" 
d="M12 0l309 1462h417l218 -909h8q7 49 16 109.5t19 119t18 101.5l124 579h335l-309 -1462h-418l-221 945h-6q-4 -34 -9.5 -80t-12.5 -96.5t-15 -99t-16 -86.5l-124 -583h-333zM754 1575l3 23q43 45 86 96t84 104.5t76 104.5h401l-1 -16q-23 -25 -72.5 -68t-108.5 -91
t-114 -89.5t-89 -63.5h-265z" />
    <glyph glyph-name="nacute" unicode="&#x144;" horiz-adv-x="1140" 
d="M-2 0l241 1133h285l-8 -145h7q35 56 77 92.5t91.5 54.5t109.5 18q84 0 144.5 -34t94.5 -99t34 -161q0 -43 -5.5 -92.5t-16.5 -103.5l-140 -663h-358l131 625q8 35 14.5 76t6.5 72q0 39 -17 59t-47 20q-36 0 -67 -34t-55.5 -97.5t-43.5 -151.5l-119 -569h-359zM540 1241
l3 23q43 45 86 96t84 104.5t76 104.5h401l-1 -16q-23 -25 -72.5 -68t-108.5 -91t-114 -89.5t-89 -63.5h-265z" />
    <glyph glyph-name="uni0145" unicode="&#x145;" horiz-adv-x="1429" 
d="M12 0l309 1462h417l218 -909h8q7 49 16 109.5t19 119t18 101.5l124 579h335l-309 -1462h-418l-221 945h-6q-4 -34 -9.5 -80t-12.5 -96.5t-15 -99t-16 -86.5l-124 -583h-333zM320 -453v26q17 43 36 96t37.5 107t30.5 99h334v-19q-27 -52 -61 -105.5t-71 -105t-75 -98.5
h-231z" />
    <glyph glyph-name="uni0146" unicode="&#x146;" horiz-adv-x="1140" 
d="M-2 0l241 1133h285l-8 -145h7q35 56 77 92.5t91.5 54.5t109.5 18q84 0 144.5 -34t94.5 -99t34 -161q0 -43 -5.5 -92.5t-16.5 -103.5l-140 -663h-358l131 625q8 35 14.5 76t6.5 72q0 39 -17 59t-47 20q-36 0 -67 -34t-55.5 -97.5t-43.5 -151.5l-119 -569h-359zM171 -453
v26q17 43 36 96t37.5 107t30.5 99h334v-19q-27 -52 -61 -105.5t-71 -105t-75 -98.5h-231z" />
    <glyph glyph-name="Ncaron" unicode="&#x147;" horiz-adv-x="1429" 
d="M12 0l309 1462h417l218 -909h8q7 49 16 109.5t19 119t18 101.5l124 579h335l-309 -1462h-418l-221 945h-6q-4 -34 -9.5 -80t-12.5 -96.5t-15 -99t-16 -86.5l-124 -583h-333zM736 1575q-16 45 -40.5 99t-51.5 107.5t-54 95.5l3 26h235q18 -17 40.5 -44t44.5 -55.5
t39 -54.5q50 45 97.5 84t93.5 70h245l-3 -24q-42 -38 -94.5 -94t-101.5 -112.5t-81 -97.5h-372z" />
    <glyph glyph-name="ncaron" unicode="&#x148;" horiz-adv-x="1140" 
d="M-2 0l241 1133h285l-8 -145h7q35 56 77 92.5t91.5 54.5t109.5 18q84 0 144.5 -34t94.5 -99t34 -161q0 -43 -5.5 -92.5t-16.5 -103.5l-140 -663h-358l131 625q8 35 14.5 76t6.5 72q0 39 -17 59t-47 20q-36 0 -67 -34t-55.5 -97.5t-43.5 -151.5l-119 -569h-359zM528 1241
q-16 45 -40.5 99t-51.5 107.5t-54 95.5l3 26h235q18 -17 40.5 -44t44.5 -55.5t39 -54.5q50 45 97.5 84t93.5 70h245l-3 -24q-42 -38 -94.5 -94t-101.5 -112.5t-81 -97.5h-372z" />
    <glyph glyph-name="napostrophe" unicode="&#x149;" horiz-adv-x="1389" 
d="M247 0l241 1133h285l-8 -145h7q35 56 77 92.5t91.5 54.5t109.5 18q84 0 144.5 -34t94.5 -99t34 -161q0 -43 -5.5 -92.5t-16.5 -103.5l-140 -663h-358l131 625q8 35 14.5 76t6.5 72q0 39 -17 59t-47 20q-36 0 -67 -34t-55.5 -97.5t-43.5 -151.5l-119 -569h-359zM-18 920
q34 87 67.5 179t64.5 184.5t58 178.5h333l6 -21q-33 -90 -73.5 -181t-85 -177t-89.5 -163h-281z" />
    <glyph glyph-name="Eng" unicode="&#x14a;" horiz-adv-x="1429" 
d="M640 -460q-47 0 -96 7t-91 20l31 304q34 -11 69 -19.5t81 -8.5t84.5 18t66 55t41.5 93l-290 967h-8q-2 -31 -8 -77.5t-13.5 -98t-15.5 -101.5t-17 -89l-129 -610h-333l309 1462h411l243 -808h7q7 52 16.5 110t19.5 114t19 100l104 484h335l-301 -1422q-35 -158 -97 -270
t-167.5 -171t-270.5 -59z" />
    <glyph glyph-name="eng" unicode="&#x14b;" horiz-adv-x="1140" 
d="M469 -492q-52 0 -99.5 7.5t-78.5 17.5v294q28 -11 56.5 -15t51.5 -4q39 0 67.5 14t48 45.5t29.5 83.5l141 674q8 35 14.5 76t6.5 72q0 39 -17 59t-47 20q-37 0 -67.5 -33.5t-53.5 -92t-40 -135.5l-124 -591h-359l241 1133h285l-8 -145h7q35 56 77 92.5t91.5 54.5
t109.5 18q84 0 144.5 -34t94.5 -99t34 -161q0 -43 -5.5 -92.5t-16.5 -103.5l-161 -756q-26 -127 -78 -216.5t-136 -136t-208 -46.5z" />
    <glyph glyph-name="Omacron" unicode="&#x14c;" horiz-adv-x="1343" 
d="M582 -20q-166 0 -275.5 61.5t-164 179.5t-54.5 288q0 115 20.5 231t62 225.5t103 203.5t143.5 165t184.5 111t225.5 40q245 0 364.5 -139.5t119.5 -388.5q0 -106 -18.5 -219t-56.5 -222.5t-97 -206t-140 -170.5t-185 -116.5t-232 -42.5zM611 294q48 0 91 29t79 79.5
t64.5 117t48.5 141t30.5 151t10.5 148.5q0 103 -36 158.5t-103 55.5q-51 0 -95 -30.5t-81 -82.5t-65.5 -119t-48.5 -142t-30.5 -149.5t-10.5 -141.5q0 -78 16.5 -125t49.5 -68.5t80 -21.5zM553 1575l50 236h621l-49 -236h-622z" />
    <glyph glyph-name="omacron" unicode="&#x14d;" horiz-adv-x="1112" 
d="M458 -20q-126 0 -215 49t-135.5 141.5t-46.5 223.5q0 102 22 209t68.5 205.5t117.5 176t168 123t222 45.5t213 -49.5t134.5 -142t46.5 -221.5q0 -106 -23 -214t-69.5 -206t-117.5 -174.5t-167 -121t-218 -44.5zM499 263q33 0 62 31t53 83t41 115.5t26 129.5t9 124
q0 41 -8.5 68.5t-25 41.5t-41.5 14q-34 0 -63.5 -31t-53 -83t-40.5 -115.5t-26 -129.5t-9 -125q0 -60 19 -91.5t57 -31.5zM363 1241l50 236h621l-49 -236h-622z" />
    <glyph glyph-name="Obreve" unicode="&#x14e;" horiz-adv-x="1343" 
d="M582 -20q-166 0 -275.5 61.5t-164 179.5t-54.5 288q0 115 20.5 231t62 225.5t103 203.5t143.5 165t184.5 111t225.5 40q245 0 364.5 -139.5t119.5 -388.5q0 -106 -18.5 -219t-56.5 -222.5t-97 -206t-140 -170.5t-185 -116.5t-232 -42.5zM611 294q48 0 91 29t79 79.5
t64.5 117t48.5 141t30.5 151t10.5 148.5q0 103 -36 158.5t-103 55.5q-51 0 -95 -30.5t-81 -82.5t-65.5 -119t-48.5 -142t-30.5 -149.5t-10.5 -141.5q0 -78 16.5 -125t49.5 -68.5t80 -21.5zM900 1575q-106 0 -175.5 35t-103.5 98t-34 147q0 23 3.5 46.5t7.5 44.5h208
q0 -41 13 -71.5t40 -47t67 -16.5q57 0 102 28t67 107h212q-31 -180 -133.5 -275.5t-273.5 -95.5z" />
    <glyph glyph-name="obreve" unicode="&#x14f;" horiz-adv-x="1112" 
d="M458 -20q-126 0 -215 49t-135.5 141.5t-46.5 223.5q0 102 22 209t68.5 205.5t117.5 176t168 123t222 45.5t213 -49.5t134.5 -142t46.5 -221.5q0 -106 -23 -214t-69.5 -206t-117.5 -174.5t-167 -121t-218 -44.5zM499 263q33 0 62 31t53 83t41 115.5t26 129.5t9 124
q0 41 -8.5 68.5t-25 41.5t-41.5 14q-34 0 -63.5 -31t-53 -83t-40.5 -115.5t-26 -129.5t-9 -125q0 -60 19 -91.5t57 -31.5zM716 1241q-106 0 -175.5 35t-103.5 98t-34 147q0 23 3.5 46.5t7.5 44.5h208q0 -41 13 -71.5t40 -47t67 -16.5q57 0 102 28t67 107h212
q-31 -180 -133.5 -275.5t-273.5 -95.5z" />
    <glyph glyph-name="Ohungarumlaut" unicode="&#x150;" horiz-adv-x="1343" 
d="M582 -20q-166 0 -275.5 61.5t-164 179.5t-54.5 288q0 115 20.5 231t62 225.5t103 203.5t143.5 165t184.5 111t225.5 40q245 0 364.5 -139.5t119.5 -388.5q0 -106 -18.5 -219t-56.5 -222.5t-97 -206t-140 -170.5t-185 -116.5t-232 -42.5zM611 294q48 0 91 29t79 79.5
t64.5 117t48.5 141t30.5 151t10.5 148.5q0 103 -36 158.5t-103 55.5q-51 0 -95 -30.5t-81 -82.5t-65.5 -119t-48.5 -142t-30.5 -149.5t-10.5 -141.5q0 -78 16.5 -125t49.5 -68.5t80 -21.5zM961 1575l3 27q39 57 78 112.5t71.5 104.5t51.5 84h335l-1 -19q-18 -28 -59 -68
t-93 -84.5t-104 -85.5t-91 -71h-191zM546 1575l3 27q41 57 80.5 113t72.5 104.5t54 83.5h332l-2 -19q-16 -27 -57 -66.5t-94 -83.5t-108 -86t-98 -73h-183z" />
    <glyph glyph-name="ohungarumlaut" unicode="&#x151;" horiz-adv-x="1112" 
d="M458 -20q-126 0 -215 49t-135.5 141.5t-46.5 223.5q0 102 22 209t68.5 205.5t117.5 176t168 123t222 45.5t213 -49.5t134.5 -142t46.5 -221.5q0 -106 -23 -214t-69.5 -206t-117.5 -174.5t-167 -121t-218 -44.5zM499 263q33 0 62 31t53 83t41 115.5t26 129.5t9 124
q0 41 -8.5 68.5t-25 41.5t-41.5 14q-34 0 -63.5 -31t-53 -83t-40.5 -115.5t-26 -129.5t-9 -125q0 -60 19 -91.5t57 -31.5zM770 1241l3 27q39 57 78 112.5t71.5 104.5t51.5 84h335l-1 -19q-18 -28 -59 -68t-93 -84.5t-104 -85.5t-91 -71h-191zM355 1241l3 27q41 57 80.5 113
t72.5 104.5t54 83.5h332l-2 -19q-16 -27 -57 -66.5t-94 -83.5t-108 -86t-98 -73h-183z" />
    <glyph glyph-name="OE" unicode="&#x152;" horiz-adv-x="1668" 
d="M547 -20q-156 0 -257.5 64.5t-151.5 177t-50 255.5q0 129 24.5 268.5t78 271t138 237.5t204.5 168.5t279 62.5q50 0 99 -6t85 -17h754l-64 -307h-400l-52 -244h371l-67 -309h-370l-63 -290h400l-64 -312h-726q-36 -7 -79 -13.5t-89 -6.5zM599 297q43 0 80.5 7t67.5 21
l172 810q-24 18 -54.5 28.5t-64.5 10.5q-58 0 -109 -41.5t-92.5 -112.5t-71 -159t-45.5 -181.5t-16 -179.5q0 -72 15.5 -117t45.5 -65.5t72 -20.5z" />
    <glyph glyph-name="oe" unicode="&#x153;" horiz-adv-x="1635" 
d="M443 -20q-177 0 -279.5 109t-102.5 305q0 98 21 203.5t65 204.5t112.5 178.5t162.5 126t215 46.5q100 0 161 -32t103 -91q64 58 151.5 90t187.5 32q167 0 267 -82.5t100 -221.5q0 -98 -38 -174t-112 -127.5t-182 -78t-248 -26.5h-39q-2 -11 -2.5 -21.5t-0.5 -21.5
q0 -78 37 -113t109 -35q79 0 154 25t148 65v-259q-89 -48 -181.5 -75t-211.5 -27q-67 0 -120.5 13.5t-93.5 40t-69 64.5q-58 -55 -136 -86.5t-178 -31.5zM499 263q33 0 62 31t52.5 82.5t40.5 115t26.5 129.5t9.5 125q0 61 -19 92.5t-56 31.5q-32 0 -61 -31t-52.5 -82
t-41.5 -114.5t-27.5 -130t-9.5 -126.5t19 -91.5t57 -31.5zM1032 679h19q86 0 134.5 20.5t68 53t19.5 67.5q0 32 -20.5 52.5t-57.5 20.5q-40 0 -76 -34.5t-59.5 -84.5t-27.5 -95z" />
    <glyph glyph-name="Racute" unicode="&#x154;" horiz-adv-x="1183" 
d="M12 0l309 1462h358q239 0 358 -94.5t119 -278.5q0 -130 -38.5 -224t-102 -156.5t-137.5 -95.5l210 -613h-403l-146 538h-48l-113 -538h-366zM553 824h40q41 0 75 17t59 48t38.5 72.5t13.5 91.5q0 53 -27 85t-89 32h-38zM582 1575l3 23q43 45 86 96t84 104.5t76 104.5h401
l-1 -16q-23 -25 -72.5 -68t-108.5 -91t-114 -89.5t-89 -63.5h-265z" />
    <glyph glyph-name="racute" unicode="&#x155;" horiz-adv-x="808" 
d="M-1 0l240 1133h283l-11 -176h8q42 73 85 116t95 61.5t119 18.5q21 0 43.5 -2.5t42.5 -8.5l-93 -372q-22 10 -50.5 15.5t-60.5 5.5q-44 0 -80.5 -16.5t-65.5 -48.5t-50 -80.5t-35 -111.5l-112 -534h-358zM405 1241l3 23q43 45 86 96t84 104.5t76 104.5h401l-1 -16
q-23 -25 -72.5 -68t-108.5 -91t-114 -89.5t-89 -63.5h-265z" />
    <glyph glyph-name="uni0156" unicode="&#x156;" horiz-adv-x="1183" 
d="M12 0l309 1462h358q239 0 358 -94.5t119 -278.5q0 -130 -38.5 -224t-102 -156.5t-137.5 -95.5l210 -613h-403l-146 538h-48l-113 -538h-366zM553 824h40q41 0 75 17t59 48t38.5 72.5t13.5 91.5q0 53 -27 85t-89 32h-38zM226 -453v26q17 43 36 96t37.5 107t30.5 99h334
v-19q-27 -52 -61 -105.5t-71 -105t-75 -98.5h-231z" />
    <glyph glyph-name="uni0157" unicode="&#x157;" horiz-adv-x="808" 
d="M-1 0l240 1133h283l-11 -176h8q42 73 85 116t95 61.5t119 18.5q21 0 43.5 -2.5t42.5 -8.5l-93 -372q-22 10 -50.5 15.5t-60.5 5.5q-44 0 -80.5 -16.5t-65.5 -48.5t-50 -80.5t-35 -111.5l-112 -534h-358zM-104 -453v26q17 43 36 96t37.5 107t30.5 99h334v-19
q-27 -52 -61 -105.5t-71 -105t-75 -98.5h-231z" />
    <glyph glyph-name="Rcaron" unicode="&#x158;" horiz-adv-x="1183" 
d="M12 0l309 1462h358q239 0 358 -94.5t119 -278.5q0 -130 -38.5 -224t-102 -156.5t-137.5 -95.5l210 -613h-403l-146 538h-48l-113 -538h-366zM553 824h40q41 0 75 17t59 48t38.5 72.5t13.5 91.5q0 53 -27 85t-89 32h-38zM577 1575q-16 45 -40.5 99t-51.5 107.5t-54 95.5
l3 26h235q18 -17 40.5 -44t44.5 -55.5t39 -54.5q50 45 97.5 84t93.5 70h245l-3 -24q-42 -38 -94.5 -94t-101.5 -112.5t-81 -97.5h-372z" />
    <glyph glyph-name="rcaron" unicode="&#x159;" horiz-adv-x="808" 
d="M-1 0l240 1133h283l-11 -176h8q42 73 85 116t95 61.5t119 18.5q21 0 43.5 -2.5t42.5 -8.5l-93 -372q-22 10 -50.5 15.5t-60.5 5.5q-44 0 -80.5 -16.5t-65.5 -48.5t-50 -80.5t-35 -111.5l-112 -534h-358zM395 1241q-16 45 -40.5 99t-51.5 107.5t-54 95.5l3 26h235
q18 -17 40.5 -44t44.5 -55.5t39 -54.5q50 45 97.5 84t93.5 70h245l-3 -24q-42 -38 -94.5 -94t-101.5 -112.5t-81 -97.5h-372z" />
    <glyph glyph-name="Sacute" unicode="&#x15a;" horiz-adv-x="1007" 
d="M366 -20q-109 0 -200.5 23t-162.5 73l37 349q66 -47 159 -85.5t174 -38.5q30 0 56.5 7t47 21.5t32.5 39t12 59.5q0 34 -15.5 64t-47 61t-78.5 70q-65 54 -110 111.5t-68 126.5t-23 156q0 99 33.5 183.5t98.5 148.5t160 99t217 35q100 0 201 -27.5t185 -81.5l-144 -302
q-65 42 -130.5 68.5t-119.5 26.5q-32 0 -56 -9t-39.5 -24.5t-23.5 -37.5t-8 -48q0 -28 11.5 -55.5t42.5 -61t90 -78.5q73 -54 117.5 -113t64.5 -126.5t20 -150.5q0 -101 -34 -189t-100.5 -154t-166.5 -103t-232 -37zM516 1575l3 23q43 45 86 96t84 104.5t76 104.5h401
l-1 -16q-23 -25 -72.5 -68t-108.5 -91t-114 -89.5t-89 -63.5h-265z" />
    <glyph glyph-name="sacute" unicode="&#x15b;" horiz-adv-x="911" 
d="M341 -20q-111 0 -187 16t-140 49v307q77 -45 151.5 -66.5t141.5 -21.5q26 0 53.5 6.5t46.5 22.5t19 44q0 21 -8.5 40.5t-36 45t-84.5 63.5q-65 44 -103 91t-53.5 98t-15.5 111q0 106 46 189t140 130.5t236 47.5q104 0 195 -27t164 -75l-123 -250q-53 41 -116.5 64.5
t-107.5 23.5q-32 0 -50 -16.5t-18 -49.5q0 -19 9.5 -35.5t35 -36t72.5 -49.5q63 -39 104.5 -84t63 -101.5t21.5 -132.5q0 -122 -55 -213t-157 -141t-244 -50zM405 1241l3 23q43 45 86 96t84 104.5t76 104.5h401l-1 -16q-23 -25 -72.5 -68t-108.5 -91t-114 -89.5t-89 -63.5
h-265z" />
    <glyph glyph-name="Scircumflex" unicode="&#x15c;" horiz-adv-x="1007" 
d="M366 -20q-109 0 -200.5 23t-162.5 73l37 349q66 -47 159 -85.5t174 -38.5q30 0 56.5 7t47 21.5t32.5 39t12 59.5q0 34 -15.5 64t-47 61t-78.5 70q-65 54 -110 111.5t-68 126.5t-23 156q0 99 33.5 183.5t98.5 148.5t160 99t217 35q100 0 201 -27.5t185 -81.5l-144 -302
q-65 42 -130.5 68.5t-119.5 26.5q-32 0 -56 -9t-39.5 -24.5t-23.5 -37.5t-8 -48q0 -28 11.5 -55.5t42.5 -61t90 -78.5q73 -54 117.5 -113t64.5 -126.5t20 -150.5q0 -101 -34 -189t-100.5 -154t-166.5 -103t-232 -37zM304 1575l2 24q46 44 95 96t96.5 105.5t86.5 102.5h372
q15 -42 39.5 -97t52.5 -109t53 -96l-3 -26h-234q-18 19 -40.5 45.5t-44.5 55.5t-39 54q-51 -45 -98.5 -84.5t-93.5 -70.5h-244z" />
    <glyph glyph-name="scircumflex" unicode="&#x15d;" horiz-adv-x="911" 
d="M341 -20q-111 0 -187 16t-140 49v307q77 -45 151.5 -66.5t141.5 -21.5q26 0 53.5 6.5t46.5 22.5t19 44q0 21 -8.5 40.5t-36 45t-84.5 63.5q-65 44 -103 91t-53.5 98t-15.5 111q0 106 46 189t140 130.5t236 47.5q104 0 195 -27t164 -75l-123 -250q-53 41 -116.5 64.5
t-107.5 23.5q-32 0 -50 -16.5t-18 -49.5q0 -19 9.5 -35.5t35 -36t72.5 -49.5q63 -39 104.5 -84t63 -101.5t21.5 -132.5q0 -122 -55 -213t-157 -141t-244 -50zM161 1241l2 24q46 44 95 96t96.5 105.5t86.5 102.5h372q15 -42 39.5 -97t52.5 -109t53 -96l-3 -26h-234
q-18 19 -40.5 45.5t-44.5 55.5t-39 54q-51 -45 -98.5 -84.5t-93.5 -70.5h-244z" />
    <glyph glyph-name="Scedilla" unicode="&#x15e;" horiz-adv-x="1007" 
d="M366 -20q-109 0 -200.5 23t-162.5 73l37 349q66 -47 159 -85.5t174 -38.5q30 0 56.5 7t47 21.5t32.5 39t12 59.5q0 34 -15.5 64t-47 61t-78.5 70q-65 54 -110 111.5t-68 126.5t-23 156q0 99 33.5 183.5t98.5 148.5t160 99t217 35q100 0 201 -27.5t185 -81.5l-144 -302
q-65 42 -130.5 68.5t-119.5 26.5q-32 0 -56 -9t-39.5 -24.5t-23.5 -37.5t-8 -48q0 -28 11.5 -55.5t42.5 -61t90 -78.5q73 -54 117.5 -113t64.5 -126.5t20 -150.5q0 -101 -34 -189t-100.5 -154t-166.5 -103t-232 -37zM289 -492q-52 0 -96.5 6.5t-83.5 19.5v193q29 -8 69 -15
t63 -7q25 0 41.5 6.5t25 19.5t8.5 33q0 29 -26.5 51.5t-97.5 32.5l87 152h181l-33 -55q70 -13 116 -56t46 -125q0 -88 -38 -144.5t-105.5 -84t-156.5 -27.5z" />
    <glyph glyph-name="scedilla" unicode="&#x15f;" horiz-adv-x="911" 
d="M341 -20q-111 0 -187 16t-140 49v307q77 -45 151.5 -66.5t141.5 -21.5q26 0 53.5 6.5t46.5 22.5t19 44q0 21 -8.5 40.5t-36 45t-84.5 63.5q-65 44 -103 91t-53.5 98t-15.5 111q0 106 46 189t140 130.5t236 47.5q104 0 195 -27t164 -75l-123 -250q-53 41 -116.5 64.5
t-107.5 23.5q-32 0 -50 -16.5t-18 -49.5q0 -19 9.5 -35.5t35 -36t72.5 -49.5q63 -39 104.5 -84t63 -101.5t21.5 -132.5q0 -122 -55 -213t-157 -141t-244 -50zM238 -492q-52 0 -96.5 6.5t-83.5 19.5v193q29 -8 69 -15t63 -7q25 0 41.5 6.5t25 19.5t8.5 33q0 29 -26.5 51.5
t-97.5 32.5l87 152h181l-33 -55q70 -13 116 -56t46 -125q0 -88 -38 -144.5t-105.5 -84t-156.5 -27.5z" />
    <glyph glyph-name="Scaron" unicode="&#x160;" horiz-adv-x="1007" 
d="M366 -20q-109 0 -200.5 23t-162.5 73l37 349q66 -47 159 -85.5t174 -38.5q30 0 56.5 7t47 21.5t32.5 39t12 59.5q0 34 -15.5 64t-47 61t-78.5 70q-65 54 -110 111.5t-68 126.5t-23 156q0 99 33.5 183.5t98.5 148.5t160 99t217 35q100 0 201 -27.5t185 -81.5l-144 -302
q-65 42 -130.5 68.5t-119.5 26.5q-32 0 -56 -9t-39.5 -24.5t-23.5 -37.5t-8 -48q0 -28 11.5 -55.5t42.5 -61t90 -78.5q73 -54 117.5 -113t64.5 -126.5t20 -150.5q0 -101 -34 -189t-100.5 -154t-166.5 -103t-232 -37zM525 1575q-16 45 -40.5 99t-51.5 107.5t-54 95.5l3 26
h235q18 -17 40.5 -44t44.5 -55.5t39 -54.5q50 45 97.5 84t93.5 70h245l-3 -24q-42 -38 -94.5 -94t-101.5 -112.5t-81 -97.5h-372z" />
    <glyph glyph-name="scaron" unicode="&#x161;" horiz-adv-x="911" 
d="M341 -20q-111 0 -187 16t-140 49v307q77 -45 151.5 -66.5t141.5 -21.5q26 0 53.5 6.5t46.5 22.5t19 44q0 21 -8.5 40.5t-36 45t-84.5 63.5q-65 44 -103 91t-53.5 98t-15.5 111q0 106 46 189t140 130.5t236 47.5q104 0 195 -27t164 -75l-123 -250q-53 41 -116.5 64.5
t-107.5 23.5q-32 0 -50 -16.5t-18 -49.5q0 -19 9.5 -35.5t35 -36t72.5 -49.5q63 -39 104.5 -84t63 -101.5t21.5 -132.5q0 -122 -55 -213t-157 -141t-244 -50zM381 1241q-16 45 -40.5 99t-51.5 107.5t-54 95.5l3 26h235q18 -17 40.5 -44t44.5 -55.5t39 -54.5q50 45 97.5 84
t93.5 70h245l-3 -24q-42 -38 -94.5 -94t-101.5 -112.5t-81 -97.5h-372z" />
    <glyph glyph-name="uni0162" unicode="&#x162;" horiz-adv-x="1005" 
d="M193 0l241 1150h-276l66 312h922l-67 -312h-278l-241 -1150h-367zM294 -492q-52 0 -96.5 6.5t-83.5 19.5v193q29 -8 69 -15t63 -7q25 0 41.5 6.5t25 19.5t8.5 33q0 29 -26.5 51.5t-97.5 32.5l87 152h181l-33 -55q70 -13 116 -56t46 -125q0 -88 -38 -144.5t-105.5 -84
t-156.5 -27.5z" />
    <glyph glyph-name="uni0163" unicode="&#x163;" horiz-adv-x="818" 
d="M365 -20q-141 0 -205.5 69.5t-64.5 198.5q0 39 6 87t17 97l88 419h-128l38 180l187 90l125 239h245l-49 -227h240l-60 -282h-241l-93 -433q-4 -21 -8 -43t-4 -36q0 -32 15 -46t44 -14q27 0 69 10t85 29v-277q-60 -31 -141.5 -46t-164.5 -15zM263 -492q-52 0 -96.5 6.5
t-83.5 19.5v193q29 -8 69 -15t63 -7q25 0 41.5 6.5t25 19.5t8.5 33q0 29 -26.5 51.5t-97.5 32.5l87 152h181l-33 -55q70 -13 116 -56t46 -125q0 -88 -38 -144.5t-105.5 -84t-156.5 -27.5z" />
    <glyph glyph-name="Tcaron" unicode="&#x164;" horiz-adv-x="1005" 
d="M193 0l241 1150h-276l66 312h922l-67 -312h-278l-241 -1150h-367zM524 1575q-16 45 -40.5 99t-51.5 107.5t-54 95.5l3 26h235q18 -17 40.5 -44t44.5 -55.5t39 -54.5q50 45 97.5 84t93.5 70h245l-3 -24q-42 -38 -94.5 -94t-101.5 -112.5t-81 -97.5h-372z" />
    <glyph glyph-name="tcaron" unicode="&#x165;" horiz-adv-x="872" 
d="M365 -20q-141 0 -205.5 69.5t-64.5 198.5q0 39 6 87t17 97l88 419h-128l38 180l187 90l125 239h245l-49 -227h240l-60 -282h-241l-93 -433q-4 -21 -8 -43t-4 -36q0 -32 15 -46t44 -14q27 0 69 10t85 29v-277q-60 -31 -141.5 -46t-164.5 -15zM736 1229v24q19 47 37 98.5
t35.5 104t30.5 100.5h335l1 -20q-30 -55 -63 -106t-69 -100t-77 -101h-230z" />
    <glyph glyph-name="Tbar" unicode="&#x166;" horiz-adv-x="1005" 
d="M193 0l117 563h-176l62 287h176l62 300h-276l66 312h922l-67 -312h-278l-62 -300h177l-62 -287h-177l-117 -563h-367z" />
    <glyph glyph-name="tbar" unicode="&#x167;" horiz-adv-x="818" 
d="M367 -20q-141 0 -208.5 66t-67.5 195q0 33 5 72t14 84l9 50h-101l50 236h102l36 167h-128l38 181l187 90l124 238h245l-48 -226h240l-60 -283h-241l-37 -167h211l-51 -236h-211l-8 -44q-4 -22 -7.5 -40t-3.5 -32q0 -32 15 -42.5t44 -10.5q23 0 66.5 9t87.5 28v-275
q-60 -31 -139.5 -45.5t-162.5 -14.5z" />
    <glyph glyph-name="Utilde" unicode="&#x168;" horiz-adv-x="1275" 
d="M531 -20q-135 0 -232 48.5t-148.5 136.5t-51.5 205q0 33 4 74.5t12 80.5l201 937h366l-199 -935q-6 -30 -10 -59t-4 -53q0 -59 26.5 -89t77.5 -30q49 0 84.5 23.5t61 76.5t44.5 142l198 924h366l-207 -970q-34 -167 -105.5 -281t-189.5 -172.5t-294 -58.5zM463 1571
q21 108 57 184.5t91.5 117t134.5 40.5q48 0 84 -14.5t66 -33.5t57.5 -34t55.5 -15q30 0 54 23.5t39 75.5h187q-23 -127 -66 -202t-100 -107.5t-123 -32.5q-48 0 -85.5 15t-68 34t-58 33.5t-56.5 14.5q-25 0 -49.5 -24t-33.5 -75h-186z" />
    <glyph glyph-name="utilde" unicode="&#x169;" horiz-adv-x="1140" 
d="M340 -20q-92 0 -152.5 38.5t-90 104.5t-29.5 151q0 46 6 97t15 100l141 662h357l-131 -623q-8 -36 -14 -77t-6 -72q0 -39 17 -59t47 -20q34 0 64.5 34t56.5 98t44 153l121 566h357l-239 -1133h-287l9 145h-7q-35 -55 -76.5 -91.5t-91.5 -55t-111 -18.5zM331 1237
q21 108 57 184.5t91.5 117t134.5 40.5q48 0 84 -14.5t66 -33.5t57.5 -34t55.5 -15q30 0 54 23.5t39 75.5h187q-23 -127 -66 -202t-100 -107.5t-123 -32.5q-48 0 -85.5 15t-68 34t-58 33.5t-56.5 14.5q-25 0 -49.5 -24t-33.5 -75h-186z" />
    <glyph glyph-name="Umacron" unicode="&#x16a;" horiz-adv-x="1275" 
d="M531 -20q-135 0 -232 48.5t-148.5 136.5t-51.5 205q0 33 4 74.5t12 80.5l201 937h366l-199 -935q-6 -30 -10 -59t-4 -53q0 -59 26.5 -89t77.5 -30q49 0 84.5 23.5t61 76.5t44.5 142l198 924h366l-207 -970q-34 -167 -105.5 -281t-189.5 -172.5t-294 -58.5zM513 1575
l50 236h621l-49 -236h-622z" />
    <glyph glyph-name="umacron" unicode="&#x16b;" horiz-adv-x="1140" 
d="M340 -20q-92 0 -152.5 38.5t-90 104.5t-29.5 151q0 46 6 97t15 100l141 662h357l-131 -623q-8 -36 -14 -77t-6 -72q0 -39 17 -59t47 -20q34 0 64.5 34t56.5 98t44 153l121 566h357l-239 -1133h-287l9 145h-7q-35 -55 -76.5 -91.5t-91.5 -55t-111 -18.5zM382 1241l50 236
h621l-49 -236h-622z" />
    <glyph glyph-name="Ubreve" unicode="&#x16c;" horiz-adv-x="1275" 
d="M531 -20q-135 0 -232 48.5t-148.5 136.5t-51.5 205q0 33 4 74.5t12 80.5l201 937h366l-199 -935q-6 -30 -10 -59t-4 -53q0 -59 26.5 -89t77.5 -30q49 0 84.5 23.5t61 76.5t44.5 142l198 924h366l-207 -970q-34 -167 -105.5 -281t-189.5 -172.5t-294 -58.5zM864 1575
q-106 0 -175.5 35t-103.5 98t-34 147q0 23 3.5 46.5t7.5 44.5h208q0 -41 13 -71.5t40 -47t67 -16.5q57 0 102 28t67 107h212q-31 -180 -133.5 -275.5t-273.5 -95.5z" />
    <glyph glyph-name="ubreve" unicode="&#x16d;" horiz-adv-x="1140" 
d="M340 -20q-92 0 -152.5 38.5t-90 104.5t-29.5 151q0 46 6 97t15 100l141 662h357l-131 -623q-8 -36 -14 -77t-6 -72q0 -39 17 -59t47 -20q34 0 64.5 34t56.5 98t44 153l121 566h357l-239 -1133h-287l9 145h-7q-35 -55 -76.5 -91.5t-91.5 -55t-111 -18.5zM734 1241
q-106 0 -175.5 35t-103.5 98t-34 147q0 23 3.5 46.5t7.5 44.5h208q0 -41 13 -71.5t40 -47t67 -16.5q57 0 102 28t67 107h212q-31 -180 -133.5 -275.5t-273.5 -95.5z" />
    <glyph glyph-name="Uring" unicode="&#x16e;" horiz-adv-x="1275" 
d="M531 -20q-135 0 -232 48.5t-148.5 136.5t-51.5 205q0 33 4 74.5t12 80.5l201 937h366l-199 -935q-6 -30 -10 -59t-4 -53q0 -59 26.5 -89t77.5 -30q49 0 84.5 23.5t61 76.5t44.5 142l198 924h366l-207 -970q-34 -167 -105.5 -281t-189.5 -172.5t-294 -58.5zM848 1572
q-119 0 -190.5 68t-71.5 184t72.5 183.5t189.5 67.5q109 0 185 -67t76 -181q0 -115 -72.5 -185t-188.5 -70zM848 1736q38 0 63.5 24t25.5 63t-25.5 64t-63.5 25q-39 0 -64.5 -25t-25.5 -64t23 -63t67 -24z" />
    <glyph glyph-name="uring" unicode="&#x16f;" horiz-adv-x="1140" 
d="M340 -20q-92 0 -152.5 38.5t-90 104.5t-29.5 151q0 46 6 97t15 100l141 662h357l-131 -623q-8 -36 -14 -77t-6 -72q0 -39 17 -59t47 -20q34 0 64.5 34t56.5 98t44 153l121 566h357l-239 -1133h-287l9 145h-7q-35 -55 -76.5 -91.5t-91.5 -55t-111 -18.5zM736 1238
q-119 0 -190.5 68t-71.5 184t72.5 183.5t189.5 67.5q109 0 185 -67t76 -181q0 -115 -72.5 -185t-188.5 -70zM736 1402q38 0 63.5 24t25.5 63t-25.5 64t-63.5 25q-39 0 -64.5 -25t-25.5 -64t23 -63t67 -24z" />
    <glyph glyph-name="Uhungarumlaut" unicode="&#x170;" horiz-adv-x="1275" 
d="M531 -20q-135 0 -232 48.5t-148.5 136.5t-51.5 205q0 33 4 74.5t12 80.5l201 937h366l-199 -935q-6 -30 -10 -59t-4 -53q0 -59 26.5 -89t77.5 -30q49 0 84.5 23.5t61 76.5t44.5 142l198 924h366l-207 -970q-34 -167 -105.5 -281t-189.5 -172.5t-294 -58.5zM923 1575l3 27
q39 57 78 112.5t71.5 104.5t51.5 84h335l-1 -19q-18 -28 -59 -68t-93 -84.5t-104 -85.5t-91 -71h-191zM508 1575l3 27q41 57 80.5 113t72.5 104.5t54 83.5h332l-2 -19q-16 -27 -57 -66.5t-94 -83.5t-108 -86t-98 -73h-183z" />
    <glyph glyph-name="uhungarumlaut" unicode="&#x171;" horiz-adv-x="1140" 
d="M340 -20q-92 0 -152.5 38.5t-90 104.5t-29.5 151q0 46 6 97t15 100l141 662h357l-131 -623q-8 -36 -14 -77t-6 -72q0 -39 17 -59t47 -20q34 0 64.5 34t56.5 98t44 153l121 566h357l-239 -1133h-287l9 145h-7q-35 -55 -76.5 -91.5t-91.5 -55t-111 -18.5zM779 1241l3 27
q39 57 78 112.5t71.5 104.5t51.5 84h335l-1 -19q-18 -28 -59 -68t-93 -84.5t-104 -85.5t-91 -71h-191zM364 1241l3 27q41 57 80.5 113t72.5 104.5t54 83.5h332l-2 -19q-16 -27 -57 -66.5t-94 -83.5t-108 -86t-98 -73h-183z" />
    <glyph glyph-name="Uogonek" unicode="&#x172;" horiz-adv-x="1275" 
d="M531 -20q-135 0 -232 48.5t-148.5 136.5t-51.5 205q0 33 4 74.5t12 80.5l201 937h366l-199 -935q-6 -30 -10 -59t-4 -53q0 -59 26.5 -89t77.5 -30q49 0 84.5 23.5t61 76.5t44.5 142l198 924h366l-207 -970q-34 -167 -105.5 -281t-189.5 -172.5t-294 -58.5zM488 -508
q-109 0 -165.5 56t-56.5 137q0 68 29 124t77.5 103t107.5 88h223q-50 -47 -86.5 -86t-56 -75.5t-20.5 -75.5q0 -19 13 -31.5t32 -12.5q24 0 49.5 5.5t54.5 13.5l-23 -219q-42 -14 -84 -20.5t-94 -6.5z" />
    <glyph glyph-name="uogonek" unicode="&#x173;" horiz-adv-x="1140" 
d="M340 -20q-92 0 -152.5 38.5t-90 104.5t-29.5 151q0 46 6 97t15 100l141 662h357l-131 -623q-8 -36 -14 -77t-6 -72q0 -39 17 -59t47 -20q34 0 64.5 34t56.5 98t44 153l121 566h357l-239 -1133h-287l9 145h-7q-35 -55 -76.5 -91.5t-91.5 -55t-111 -18.5zM652 -508
q-109 0 -165.5 56t-56.5 137q0 68 29 124t77.5 103t107.5 88h223q-50 -47 -86.5 -86t-56 -75.5t-20.5 -75.5q0 -19 13 -31.5t32 -12.5q24 0 49.5 5.5t54.5 13.5l-23 -219q-42 -14 -84 -20.5t-94 -6.5z" />
    <glyph glyph-name="Wcircumflex" unicode="&#x174;" horiz-adv-x="1720" 
d="M168 0l3 1462h350l-21 -669q-3 -85 -8 -163.5t-12 -135.5h5q22 65 50 136.5t57 140.5l292 691h307l-11 -701q-2 -63 -4.5 -134t-7.5 -140h6q13 44 31 97.5t39 111t41 112.5l251 654h366l-596 -1462h-425l5 539q0 41 1.5 85.5t5 91t7.5 91.5h-7q-23 -70 -48 -138.5
t-53 -134.5l-215 -534h-409zM649 1575l2 24q46 44 95 96t96.5 105.5t86.5 102.5h372q15 -42 39.5 -97t52.5 -109t53 -96l-3 -26h-234q-18 19 -40.5 45.5t-44.5 55.5t-39 54q-51 -45 -98.5 -84.5t-93.5 -70.5h-244z" />
    <glyph glyph-name="wcircumflex" unicode="&#x175;" horiz-adv-x="1538" 
d="M135 0l-18 1133h343l-11 -454q-2 -59 -7.5 -119t-10.5 -113h7q8 32 19 67.5t23 71.5t24 70l178 477h390l-26 -470q-3 -48 -7 -107t-11 -120h7q13 42 26 83t26.5 81t28.5 80l179 453h356l-498 -1133h-399l24 480q3 41 6 89t6.5 97t7.5 91h-7q-12 -42 -26 -86t-28 -85.5
t-27 -75.5l-191 -510h-384zM492 1241l2 24q46 44 95 96t96.5 105.5t86.5 102.5h372q15 -42 39.5 -97t52.5 -109t53 -96l-3 -26h-234q-18 19 -40.5 45.5t-44.5 55.5t-39 54q-51 -45 -98.5 -84.5t-93.5 -70.5h-244z" />
    <glyph glyph-name="Ycircumflex" unicode="&#x176;" horiz-adv-x="1119" 
d="M246 0l118 558l-187 904h380l65 -505l274 505h402l-565 -898l-120 -564h-367zM333 1575l2 24q46 44 95 96t96.5 105.5t86.5 102.5h372q15 -42 39.5 -97t52.5 -109t53 -96l-3 -26h-234q-18 19 -40.5 45.5t-44.5 55.5t-39 54q-51 -45 -98.5 -84.5t-93.5 -70.5h-244z" />
    <glyph glyph-name="ycircumflex" unicode="&#x177;" horiz-adv-x="1025" 
d="M29 -492q-54 0 -91 5.5t-64 13.5l30 300q23 -6 47.5 -10.5t50.5 -4.5q66 0 105 30t71 91l43 83l-116 1117h360l21 -483q1 -32 1 -64t-0.5 -62.5t-1.5 -61.5h7q9 33 20.5 69t23.5 69.5t20 54.5l204 478h380l-630 -1268q-55 -110 -120.5 -190.5t-152 -123.5t-208.5 -43z
M229 1241l2 24q46 44 95 96t96.5 105.5t86.5 102.5h372q15 -42 39.5 -97t52.5 -109t53 -96l-3 -26h-234q-18 19 -40.5 45.5t-44.5 55.5t-39 54q-51 -45 -98.5 -84.5t-93.5 -70.5h-244z" />
    <glyph glyph-name="Ydieresis" unicode="&#x178;" horiz-adv-x="1119" 
d="M246 0l118 558l-187 904h380l65 -505l274 505h402l-565 -898l-120 -564h-367zM966 1591q-68 0 -109 27.5t-41 93.5q0 88 51 140.5t144 52.5q59 0 101.5 -26.5t42.5 -92.5q0 -88 -49 -141.5t-140 -53.5zM528 1591q-68 0 -108.5 27.5t-40.5 93.5q0 88 51 140.5t144 52.5
q39 0 71.5 -11t52.5 -37.5t20 -70.5q0 -88 -49.5 -141.5t-140.5 -53.5z" />
    <glyph glyph-name="Zacute" unicode="&#x179;" horiz-adv-x="1001" 
d="M-86 0l48 241l655 914h-445l65 307h893l-51 -242l-660 -911h489l-66 -309h-928zM519 1575l3 23q43 45 86 96t84 104.5t76 104.5h401l-1 -16q-23 -25 -72.5 -68t-108.5 -91t-114 -89.5t-89 -63.5h-265z" />
    <glyph glyph-name="zacute" unicode="&#x17a;" horiz-adv-x="897" 
d="M-63 0l42 208l490 637h-333l63 288h752l-49 -227l-478 -618h360l-61 -288h-786zM410 1241l3 23q43 45 86 96t84 104.5t76 104.5h401l-1 -16q-23 -25 -72.5 -68t-108.5 -91t-114 -89.5t-89 -63.5h-265z" />
    <glyph glyph-name="Zdotaccent" unicode="&#x17b;" horiz-adv-x="1001" 
d="M-86 0l48 241l655 914h-445l65 307h893l-51 -242l-660 -911h489l-66 -309h-928zM724 1576q-81 0 -128 34t-47 107q0 96 55.5 151.5t160.5 55.5q51 0 90 -13.5t62 -44.5t23 -84q0 -87 -51 -146.5t-165 -59.5z" />
    <glyph glyph-name="zdotaccent" unicode="&#x17c;" horiz-adv-x="897" 
d="M-63 0l42 208l490 637h-333l63 288h752l-49 -227l-478 -618h360l-61 -288h-786zM596 1242q-81 0 -128 34t-47 107q0 96 55.5 151.5t160.5 55.5q51 0 90 -13.5t62 -44.5t23 -84q0 -87 -51 -146.5t-165 -59.5z" />
    <glyph glyph-name="Zcaron" unicode="&#x17d;" horiz-adv-x="1001" 
d="M-86 0l48 241l655 914h-445l65 307h893l-51 -242l-660 -911h489l-66 -309h-928zM524 1575q-16 45 -40.5 99t-51.5 107.5t-54 95.5l3 26h235q18 -17 40.5 -44t44.5 -55.5t39 -54.5q50 45 97.5 84t93.5 70h245l-3 -24q-42 -38 -94.5 -94t-101.5 -112.5t-81 -97.5h-372z" />
    <glyph glyph-name="zcaron" unicode="&#x17e;" horiz-adv-x="897" 
d="M-63 0l42 208l490 637h-333l63 288h752l-49 -227l-478 -618h360l-61 -288h-786zM393 1241q-16 45 -40.5 99t-51.5 107.5t-54 95.5l3 26h235q18 -17 40.5 -44t44.5 -55.5t39 -54.5q50 45 97.5 84t93.5 70h245l-3 -24q-42 -38 -94.5 -94t-101.5 -112.5t-81 -97.5h-372z" />
    <glyph glyph-name="longs" unicode="&#x17f;" horiz-adv-x="681" 
d="M-51 -492q-46 0 -93.5 6.5t-85.5 18.5v294q22 -8 53.5 -13.5t54.5 -5.5q67 0 96.5 33t44.5 99l269 1257q24 115 72 198t126.5 127.5t192.5 44.5q71 0 139 -14.5t126 -43.5l-109 -264q-26 13 -52.5 20.5t-50.5 7.5q-26 0 -45.5 -15t-33 -43.5t-21.5 -70.5l-266 -1248
q-26 -119 -74.5 -206t-131 -134.5t-211.5 -47.5z" />
    <glyph glyph-name="florin" unicode="&#x192;" horiz-adv-x="1080" 
d="M118 -492q-57 0 -106 9.5t-81 20.5v292q32 -14 65.5 -19.5t53.5 -5.5q46 0 77.5 28t44.5 93l175 828h-132l38 186l154 91l21 86q33 136 86 216t130.5 115t184.5 35q70 0 130 -14t124 -44l-109 -263q-32 14 -57 21.5t-54 7.5q-37 0 -55 -25t-26 -56l-16 -72h188l-62 -284
h-186l-182 -848q-24 -119 -72 -208.5t-129 -139.5t-205 -50z" />
    <glyph glyph-name="Ohorn" unicode="&#x1a0;" horiz-adv-x="1433" 
d="M582 -20q-166 0 -275.5 61.5t-164 179.5t-54.5 288q0 118 21 235.5t63 226.5t103.5 202.5t144 163.5t184 109t223.5 39q139 0 238 -46.5t158 -133.5q31 39 61 107t40 144h342l9 -23q-46 -172 -138 -288t-233 -178q4 -26 5.5 -53.5t1.5 -56.5q0 -119 -20.5 -236.5
t-61 -227t-101.5 -202.5t-142 -163t-181.5 -109t-222.5 -39zM611 294q49 0 91.5 29.5t79 81t64.5 118t48.5 141t30.5 150.5t10 146q0 103 -36 158.5t-103 55.5q-50 0 -93.5 -29.5t-80 -81t-66 -118t-50 -141t-31 -150t-10.5 -145.5q0 -78 16.5 -125t49.5 -68.5t80 -21.5z
" />
    <glyph glyph-name="ohorn" unicode="&#x1a1;" horiz-adv-x="1281" 
d="M458 -20q-126 0 -215 49t-135.5 141.5t-46.5 223.5q0 115 24.5 226t74 207.5t121.5 169.5t166.5 114.5t211.5 41.5q108 0 188.5 -38t130.5 -109q49 26 80 73.5t49 105.5t26 115h333l9 -22q-30 -127 -82 -223.5t-135 -162t-207 -99.5q1 -14 1.5 -27t0.5 -26
q0 -117 -25 -228t-74 -207t-121 -169t-166 -114.5t-209 -41.5zM499 263q32 0 61 30.5t52.5 82t41 115t27 129.5t9.5 126q0 41 -8.5 68.5t-25 41.5t-41.5 14q-33 0 -62.5 -32t-53 -84.5t-40.5 -116t-26.5 -129.5t-9.5 -122q0 -60 19 -91.5t57 -31.5z" />
    <glyph glyph-name="Uhorn" unicode="&#x1af;" horiz-adv-x="1500" 
d="M513 -20q-130 0 -222.5 50t-142 139t-49.5 204q0 33 4 73t12 79l201 937h366l-199 -935q-6 -30 -10 -59t-4 -53q0 -59 24.5 -89t75.5 -30q49 0 85.5 23.5t63 76.5t45.5 142l198 924h366l-41 -192q49 14 80.5 55t50 101.5t26.5 129.5h342l8 -23q-26 -100 -70 -187.5
t-110 -154.5t-158.5 -105.5t-217.5 -40.5l-117 -553q-34 -167 -109.5 -281t-198 -172.5t-299.5 -58.5z" />
    <glyph glyph-name="uhorn" unicode="&#x1b0;" horiz-adv-x="1405" 
d="M340 -20q-92 0 -152.5 38.5t-90 104.5t-29.5 151q0 46 6 97t15 100l141 662h357l-131 -623q-8 -36 -14 -77t-6 -72q0 -39 17 -59t47 -20q34 0 64.5 34t56.5 98t44 153l121 566h357l-25 -118q53 17 82.5 57.5t45 99.5t25.5 127h343l8 -23q-25 -92 -66 -178.5t-105.5 -155
t-158 -110t-223.5 -45.5l-165 -787h-287l9 145h-7q-35 -55 -76.5 -91.5t-91.5 -55t-111 -18.5z" />
    <glyph glyph-name="uni01EA" unicode="&#x1ea;" horiz-adv-x="1343" 
d="M582 -20q-166 0 -275.5 61.5t-164 179.5t-54.5 288q0 115 20.5 231t62 225.5t103 203.5t143.5 165t184.5 111t225.5 40q245 0 364.5 -139.5t119.5 -388.5q0 -106 -18.5 -219t-56.5 -222.5t-97 -206t-140 -170.5t-185 -116.5t-232 -42.5zM611 294q48 0 91 29t79 79.5
t64.5 117t48.5 141t30.5 151t10.5 148.5q0 103 -36 158.5t-103 55.5q-51 0 -95 -30.5t-81 -82.5t-65.5 -119t-48.5 -142t-30.5 -149.5t-10.5 -141.5q0 -78 16.5 -125t49.5 -68.5t80 -21.5zM509 -508q-109 0 -165.5 56t-56.5 137q0 68 29 124t77.5 103t107.5 88h223
q-50 -47 -86.5 -86t-56 -75.5t-20.5 -75.5q0 -19 13 -31.5t32 -12.5q24 0 49.5 5.5t54.5 13.5l-23 -219q-42 -14 -84 -20.5t-94 -6.5z" />
    <glyph glyph-name="uni01EB" unicode="&#x1eb;" horiz-adv-x="1112" 
d="M458 -20q-126 0 -215 49t-135.5 141.5t-46.5 223.5q0 102 22 209t68.5 205.5t117.5 176t168 123t222 45.5t213 -49.5t134.5 -142t46.5 -221.5q0 -106 -23 -214t-69.5 -206t-117.5 -174.5t-167 -121t-218 -44.5zM499 263q33 0 62 31t53 83t41 115.5t26 129.5t9 124
q0 41 -8.5 68.5t-25 41.5t-41.5 14q-34 0 -63.5 -31t-53 -83t-40.5 -115.5t-26 -129.5t-9 -125q0 -60 19 -91.5t57 -31.5zM376 -508q-109 0 -165.5 56t-56.5 137q0 68 29 124t77.5 103t107.5 88h223q-50 -47 -86.5 -86t-56 -75.5t-20.5 -75.5q0 -19 13 -31.5t32 -12.5
q24 0 49.5 5.5t54.5 13.5l-23 -219q-42 -14 -84 -20.5t-94 -6.5z" />
    <glyph glyph-name="uni01EC" unicode="&#x1ec;" horiz-adv-x="1343" 
d="M582 -20q-166 0 -275.5 61.5t-164 179.5t-54.5 288q0 115 20.5 231t62 225.5t103 203.5t143.5 165t184.5 111t225.5 40q245 0 364.5 -139.5t119.5 -388.5q0 -106 -18.5 -219t-56.5 -222.5t-97 -206t-140 -170.5t-185 -116.5t-232 -42.5zM611 294q48 0 91 29t79 79.5
t64.5 117t48.5 141t30.5 151t10.5 148.5q0 103 -36 158.5t-103 55.5q-51 0 -95 -30.5t-81 -82.5t-65.5 -119t-48.5 -142t-30.5 -149.5t-10.5 -141.5q0 -78 16.5 -125t49.5 -68.5t80 -21.5zM561 1589l50 236h621l-49 -236h-622zM509 -508q-109 0 -165.5 56t-56.5 137
q0 68 29 124t77.5 103t107.5 88h223q-50 -47 -86.5 -86t-56 -75.5t-20.5 -75.5q0 -19 13 -31.5t32 -12.5q24 0 49.5 5.5t54.5 13.5l-23 -219q-42 -14 -84 -20.5t-94 -6.5z" />
    <glyph glyph-name="uni01ED" unicode="&#x1ed;" horiz-adv-x="1112" 
d="M458 -20q-126 0 -215 49t-135.5 141.5t-46.5 223.5q0 102 22 209t68.5 205.5t117.5 176t168 123t222 45.5t213 -49.5t134.5 -142t46.5 -221.5q0 -106 -23 -214t-69.5 -206t-117.5 -174.5t-167 -121t-218 -44.5zM499 263q33 0 62 31t53 83t41 115.5t26 129.5t9 124
q0 41 -8.5 68.5t-25 41.5t-41.5 14q-34 0 -63.5 -31t-53 -83t-40.5 -115.5t-26 -129.5t-9 -125q0 -60 19 -91.5t57 -31.5zM367 1241l50 236h621l-49 -236h-622zM376 -508q-109 0 -165.5 56t-56.5 137q0 68 29 124t77.5 103t107.5 88h223q-50 -47 -86.5 -86t-56 -75.5
t-20.5 -75.5q0 -19 13 -31.5t32 -12.5q24 0 49.5 5.5t54.5 13.5l-23 -219q-42 -14 -84 -20.5t-94 -6.5z" />
    <glyph glyph-name="uni01F0" unicode="&#x1f0;" horiz-adv-x="591" 
d="M-80 -492q-46 0 -94 6.5t-86 18.5v294q28 -11 57 -15t50 -4q39 0 67.5 14.5t48.5 46t30 82.5l251 1182h356l-260 -1226q-24 -115 -72 -205t-131.5 -142t-216.5 -52zM242 1241q-16 45 -40.5 99t-51.5 107.5t-54 95.5l3 26h235q18 -17 40.5 -44t44.5 -55.5t39 -54.5
q50 45 97.5 84t93.5 70h245l-3 -24q-42 -38 -94.5 -94t-101.5 -112.5t-81 -97.5h-372z" />
    <glyph glyph-name="Aringacute" unicode="&#x1fa;" horiz-adv-x="1237" 
d="M-120 0l673 1401q-5 20 -8 41.5t-3 45.5q0 116 72.5 183.5t189.5 67.5q112 0 186.5 -68.5t74.5 -179.5q0 -41 -13 -80t-34 -65l92 -1346h-373l-5 280h-344l-117 -280h-391zM515 584h221l-6 342q1 48 0.5 99t3.5 108h-9q-11 -44 -24.5 -86t-25.5 -75zM803 1400q38 0 64 24
t26 63t-25.5 64t-63.5 25q-39 0 -64.5 -25t-25.5 -64t22.5 -63t66.5 -24zM702 1791l1 10q29 25 61.5 53t64 57.5t55.5 56.5h405l-1 -7q-41 -31 -99 -64t-115.5 -61t-95.5 -45h-276z" />
    <glyph glyph-name="aringacute" unicode="&#x1fb;" horiz-adv-x="1120" 
d="M335 -20q-79 0 -142.5 41.5t-99.5 126.5t-36 218q0 85 18 189.5t55 209.5t93.5 193t134 141.5t175.5 53.5q54 0 97.5 -17.5t77.5 -52t57 -88.5h7l53 138h299l-241 -1133h-288l1 129h-8q-32 -43 -68 -76.5t-80.5 -53t-104.5 -19.5zM489 274q44 0 78 44t58 109.5t36 130.5
q14 63 18 101.5t4 68.5q0 61 -17.5 94t-53.5 33q-32 0 -60.5 -30t-52 -80t-40.5 -110t-26.5 -120.5t-9.5 -111.5q0 -63 16.5 -96t49.5 -33zM713 1202q-119 0 -190 68t-71 183q0 117 72.5 184.5t188.5 67.5q111 0 185 -66.5t76 -181.5q0 -115 -72.5 -185t-188.5 -70z
M713 1366q38 0 64 24t26 63t-25.5 64t-64.5 25t-64 -25t-25 -64t22 -63t67 -24zM633 1766l2 13q29 27 64 59.5t69.5 66.5t58.5 63h405l-1 -10q-41 -32 -103.5 -71t-123 -72t-96.5 -49h-275z" />
    <glyph glyph-name="AEacute" unicode="&#x1fc;" horiz-adv-x="1673" 
d="M-126 0l814 1462h1067l-63 -306h-400l-51 -247h371l-67 -306h-371l-62 -292h400l-66 -311h-764l60 280h-325l-151 -280h-392zM586 593h223l118 563h-43zM881 1575l3 23q43 45 86 96t84 104.5t76 104.5h401l-1 -16q-23 -25 -72.5 -68t-108.5 -91t-114 -89.5t-89 -63.5
h-265z" />
    <glyph glyph-name="aeacute" unicode="&#x1fd;" horiz-adv-x="1619" 
d="M326 -20q-75 0 -136 41.5t-97 126.5t-36 218q0 94 19 201.5t57 211t95 188.5t133.5 135.5t171.5 50.5q51 0 94 -14.5t78 -45.5t61 -78h5l39 118h217l-3 -75q44 39 105.5 66.5t142.5 27.5q146 0 232.5 -84t86.5 -220q0 -98 -38 -174t-112 -127.5t-181.5 -78t-247.5 -26.5
h-40q-2 -11 -2.5 -21.5t-0.5 -19.5q0 -80 36.5 -115t109.5 -35q79 0 154 24.5t167 74.5l-30 -275q-82 -48 -160.5 -71.5t-187.5 -23.5q-82 0 -137 23.5t-86 63.5l-21 -67h-227l14 124h-7q-33 -42 -72.5 -74.5t-87.5 -51t-108 -18.5zM489 274q35 0 63 27t49.5 70t36.5 92.5
t23 94.5q14 63 17.5 101.5t3.5 68.5q0 61 -19 94t-55 33q-30 0 -57.5 -28t-50.5 -75.5t-40.5 -106.5t-27 -121.5t-9.5 -120.5q0 -63 16.5 -96t49.5 -33zM1016 679h17q88 0 137 20.5t68.5 53t19.5 67.5q0 32 -20.5 52.5t-57.5 20.5q-44 0 -78 -35t-55.5 -85t-30.5 -94z
M757 1241l3 23q43 45 86 96t84 104.5t76 104.5h401l-1 -16q-23 -25 -72.5 -68t-108.5 -91t-114 -89.5t-89 -63.5h-265z" />
    <glyph glyph-name="Oslashacute" unicode="&#x1fe;" horiz-adv-x="1343" 
d="M215 -101l-153 101l115 161q-45 65 -67 152.5t-22 195.5q0 115 20.5 231t61.5 225.5t102 203.5t142 165t182 111t222 40q83 0 151 -16t123 -45l86 118l152 -102l-103 -143q42 -65 63 -151.5t21 -188.5q0 -106 -18.5 -219t-57 -222.5t-97 -206t-139 -170.5t-182 -116
t-226.5 -43q-83 0 -152 14.5t-125 43.5zM611 294q44 0 83.5 21.5t73 59.5t61 90t47.5 113t33 129t17 137q2 14 3 26.5t1 24.5l-410 -567q17 -18 40 -26t51 -8zM468 553l416 575q-17 23 -40.5 34.5t-53.5 11.5q-44 0 -83 -22t-73 -61.5t-61.5 -92t-48.5 -115t-33.5 -129.5
t-17.5 -135q-1 -16 -2.5 -33t-2.5 -33zM682 1575l3 23q43 45 86 96t84 104.5t76 104.5h401l-1 -16q-23 -25 -72.5 -68t-108.5 -91t-114 -89.5t-89 -63.5h-265z" />
    <glyph glyph-name="oslashacute" unicode="&#x1ff;" horiz-adv-x="1134" 
d="M162 -121l-134 99l111 149q-37 52 -57.5 117.5t-20.5 149.5q0 102 22.5 209t69.5 205.5t119.5 176t171 123t225.5 45.5q61 0 112.5 -12t95.5 -34l90 118l134 -98l-98 -131q33 -51 52 -115t19 -141q0 -106 -23 -214t-70 -206t-119 -174.5t-169 -121t-221 -44.5
q-58 0 -109 11.5t-94 30.5zM510 251q32 0 61.5 17.5t54.5 49.5t45.5 76.5t35 99.5t22.5 117l2 22t2 20l-286 -380q13 -10 29 -16t34 -6zM402 459l296 394q-13 15 -30 23t-39 8q-31 0 -60 -19t-55 -54t-48 -82.5t-37 -104t-22 -118.5q-1 -11 -2.5 -22.5t-2.5 -24.5zM543 1241
l3 23q43 45 86 96t84 104.5t76 104.5h401l-1 -16q-23 -25 -72.5 -68t-108.5 -91t-114 -89.5t-89 -63.5h-265z" />
    <glyph glyph-name="uni0218" unicode="&#x218;" horiz-adv-x="1007" 
d="M366 -20q-109 0 -200.5 23t-162.5 73l37 349q66 -47 159 -85.5t174 -38.5q30 0 56.5 7t47 21.5t32.5 39t12 59.5q0 34 -15.5 64t-47 61t-78.5 70q-65 54 -110 111.5t-68 126.5t-23 156q0 99 33.5 183.5t98.5 148.5t160 99t217 35q100 0 201 -27.5t185 -81.5l-144 -302
q-65 42 -130.5 68.5t-119.5 26.5q-32 0 -56 -9t-39.5 -24.5t-23.5 -37.5t-8 -48q0 -28 11.5 -55.5t42.5 -61t90 -78.5q73 -54 117.5 -113t64.5 -126.5t20 -150.5q0 -101 -34 -189t-100.5 -154t-166.5 -103t-232 -37zM75 -453v26q17 43 36 96t37.5 107t30.5 99h334v-19
q-27 -52 -61 -105.5t-71 -105t-75 -98.5h-231z" />
    <glyph glyph-name="uni0219" unicode="&#x219;" horiz-adv-x="911" 
d="M341 -20q-111 0 -187 16t-140 49v307q77 -45 151.5 -66.5t141.5 -21.5q26 0 53.5 6.5t46.5 22.5t19 44q0 21 -8.5 40.5t-36 45t-84.5 63.5q-65 44 -103 91t-53.5 98t-15.5 111q0 106 46 189t140 130.5t236 47.5q104 0 195 -27t164 -75l-123 -250q-53 41 -116.5 64.5
t-107.5 23.5q-32 0 -50 -16.5t-18 -49.5q0 -19 9.5 -35.5t35 -36t72.5 -49.5q63 -39 104.5 -84t63 -101.5t21.5 -132.5q0 -122 -55 -213t-157 -141t-244 -50zM47 -453v26q17 43 36 96t37.5 107t30.5 99h334v-19q-27 -52 -61 -105.5t-71 -105t-75 -98.5h-231z" />
    <glyph glyph-name="uni021A" unicode="&#x21a;" horiz-adv-x="1005" 
d="M193 0l241 1150h-276l66 312h922l-67 -312h-278l-241 -1150h-367zM94 -453v26q17 43 36 96t37.5 107t30.5 99h334v-19q-27 -52 -61 -105.5t-71 -105t-75 -98.5h-231z" />
    <glyph glyph-name="uni021B" unicode="&#x21b;" horiz-adv-x="818" 
d="M365 -20q-141 0 -205.5 69.5t-64.5 198.5q0 39 6 87t17 97l88 419h-128l38 180l187 90l125 239h245l-49 -227h240l-60 -282h-241l-93 -433q-4 -21 -8 -43t-4 -36q0 -32 15 -46t44 -14q27 0 69 10t85 29v-277q-60 -31 -141.5 -46t-164.5 -15zM75 -453v26q17 43 36 96
t37.5 107t30.5 99h334v-19q-27 -52 -61 -105.5t-71 -105t-75 -98.5h-231z" />
    <glyph glyph-name="uni0237" unicode="&#x237;" horiz-adv-x="591" 
d="M-80 -492q-46 0 -94 6.5t-86 18.5v294q28 -11 57 -15t50 -4q39 0 67.5 14.5t48.5 46t30 82.5l251 1182h356l-260 -1226q-24 -115 -72 -205t-131.5 -142t-216.5 -52z" />
    <glyph glyph-name="uni0259" unicode="&#x259;" horiz-adv-x="1065" 
d="M395 -20q-168 0 -267.5 83t-99.5 221q0 98 38 174t112 128t182 78.5t247 26.5h41q1 11 2 21.5t1 18.5q0 81 -37.5 115.5t-109.5 34.5q-79 0 -153.5 -24.5t-167.5 -75.5l30 277q89 48 176 71t206 23q130 0 221.5 -49.5t140 -142.5t48.5 -222q0 -136 -36 -270.5t-111 -245
t-190 -176.5t-273 -66zM440 239q36 0 68 28t57 76.5t37 109.5h-20q-86 0 -133.5 -20.5t-67 -52.5t-19.5 -69q0 -31 20.5 -51.5t57.5 -20.5z" />
    <glyph glyph-name="uni02BC" unicode="&#x2bc;" horiz-adv-x="516" 
d="M115 920q34 87 67.5 179t64.5 184.5t58 178.5h333l6 -21q-33 -90 -73.5 -181t-85 -177t-89.5 -163h-281z" />
    <glyph glyph-name="circumflex" unicode="&#x2c6;" horiz-adv-x="961" 
d="M228 1241l2 24q46 44 95 96t96.5 105.5t86.5 102.5h372q15 -42 39.5 -97t52.5 -109t53 -96l-3 -26h-234q-18 19 -40.5 45.5t-44.5 55.5t-39 54q-51 -45 -98.5 -84.5t-93.5 -70.5h-244z" />
    <glyph glyph-name="caron" unicode="&#x2c7;" horiz-adv-x="961" 
d="M438 1241q-16 45 -40.5 99t-51.5 107.5t-54 95.5l3 26h235q18 -17 40.5 -44t44.5 -55.5t39 -54.5q50 45 97.5 84t93.5 70h245l-3 -24q-42 -38 -94.5 -94t-101.5 -112.5t-81 -97.5h-372z" />
    <glyph glyph-name="macron" unicode="&#x2c9;" horiz-adv-x="785" 
d="M225 1241l50 236h621l-49 -236h-622z" />
    <glyph glyph-name="breve" unicode="&#x2d8;" horiz-adv-x="875" 
d="M607 1241q-106 0 -175.5 35t-103.5 98t-34 147q0 23 3.5 46.5t7.5 44.5h208q0 -41 13 -71.5t40 -47t67 -16.5q57 0 102 28t67 107h212q-31 -180 -133.5 -275.5t-273.5 -95.5z" />
    <glyph glyph-name="dotaccent" unicode="&#x2d9;" horiz-adv-x="553" 
d="M437 1242q-81 0 -128 34t-47 107q0 96 55.5 151.5t160.5 55.5q51 0 90 -13.5t62 -44.5t23 -84q0 -87 -51 -146.5t-165 -59.5z" />
    <glyph glyph-name="ring" unicode="&#x2da;" horiz-adv-x="700" 
d="M547 1238q-119 0 -190.5 68t-71.5 184t72.5 183.5t189.5 67.5q109 0 185 -67t76 -181q0 -115 -72.5 -185t-188.5 -70zM547 1402q38 0 63.5 24t25.5 63t-25.5 64t-63.5 25q-39 0 -64.5 -25t-25.5 -64t23 -63t67 -24z" />
    <glyph glyph-name="ogonek" unicode="&#x2db;" horiz-adv-x="605" 
d="M123 -508q-109 0 -165.5 56t-56.5 137q0 68 29 124t77.5 103t107.5 88h223q-50 -47 -86.5 -86t-56 -75.5t-20.5 -75.5q0 -19 13 -31.5t32 -12.5q24 0 49.5 5.5t54.5 13.5l-23 -219q-42 -14 -84 -20.5t-94 -6.5z" />
    <glyph glyph-name="tilde" unicode="&#x2dc;" horiz-adv-x="918" 
d="M225 1237q21 108 57 184.5t91.5 117t134.5 40.5q48 0 84 -14.5t66 -33.5t57.5 -34t55.5 -15q30 0 54 23.5t39 75.5h187q-23 -127 -66 -202t-100 -107.5t-123 -32.5q-48 0 -85.5 15t-68 34t-58 33.5t-56.5 14.5q-25 0 -49.5 -24t-33.5 -75h-186z" />
    <glyph glyph-name="hungarumlaut" unicode="&#x2dd;" horiz-adv-x="1054" 
d="M643 1241l3 27q39 57 78 112.5t71.5 104.5t51.5 84h335l-1 -19q-18 -28 -59 -68t-93 -84.5t-104 -85.5t-91 -71h-191zM228 1241l3 27q41 57 80.5 113t72.5 104.5t54 83.5h332l-2 -19q-16 -27 -57 -66.5t-94 -83.5t-108 -86t-98 -73h-183z" />
    <glyph glyph-name="uni02F3" unicode="&#x2f3;" horiz-adv-x="742" 
d="M176 -613q-119 0 -189.5 68t-70.5 184q0 114 71 182.5t189 68.5q108 0 185.5 -67.5t77.5 -180.5q0 -116 -73 -185.5t-190 -69.5zM176 -449q38 0 63 24t25 64q0 38 -24.5 62.5t-63.5 24.5q-40 0 -64 -24.5t-24 -62.5q0 -40 21.5 -64t66.5 -24z" />
    <glyph glyph-name="gravecomb" unicode="&#x300;" 
d="M-524 1241q-34 38 -78 94t-83.5 113.5t-61.5 100.5v20h380q9 -41 20.5 -89.5t28.5 -101.5t38 -111l-1 -26h-243z" />
    <glyph glyph-name="acutecomb" unicode="&#x301;" 
d="M-555 1241l3 23q43 45 86 96t84 104.5t76 104.5h401l-1 -16q-23 -25 -72.5 -68t-108.5 -91t-114 -89.5t-89 -63.5h-265z" />
    <glyph glyph-name="uni0302" unicode="&#x302;" 
d="M-263 1241l2 24q46 44 95 96t96.5 105.5t86.5 102.5h372q15 -42 39.5 -97t52.5 -109t53 -96l-3 -26h-234q-18 19 -40.5 45.5t-44.5 55.5t-39 54q-51 -45 -98.5 -84.5t-93.5 -70.5h-244z" />
    <glyph glyph-name="tildecomb" unicode="&#x303;" 
d="M-861 1237q21 108 57 184.5t91.5 117t134.5 40.5q48 0 84 -14.5t66 -33.5t57.5 -34t55.5 -15q30 0 54 23.5t39 75.5h187q-23 -127 -66 -202t-100 -107.5t-123 -32.5q-48 0 -85.5 15t-68 34t-58 33.5t-56.5 14.5q-25 0 -49.5 -24t-33.5 -75h-186z" />
    <glyph glyph-name="uni0304" unicode="&#x304;" 
d="M-167 1241l50 236h621l-49 -236h-622z" />
    <glyph glyph-name="uni0306" unicode="&#x306;" 
d="M177 1241q-106 0 -175.5 35t-103.5 98t-34 147q0 23 3.5 46.5t7.5 44.5h208q0 -41 13 -71.5t40 -47t67 -16.5q57 0 102 28t67 107h212q-31 -180 -133.5 -275.5t-273.5 -95.5z" />
    <glyph glyph-name="uni0307" unicode="&#x307;" 
d="M156 1242q-81 0 -128 34t-47 107q0 96 55.5 151.5t160.5 55.5q51 0 90 -13.5t62 -44.5t23 -84q0 -87 -51 -146.5t-165 -59.5z" />
    <glyph glyph-name="uni0308" unicode="&#x308;" 
d="M383 1257q-68 0 -109 27.5t-41 93.5q0 88 51 140.5t144 52.5q59 0 101.5 -26.5t42.5 -92.5q0 -88 -49 -141.5t-140 -53.5zM-55 1257q-68 0 -108.5 27.5t-40.5 93.5q0 88 51 140.5t144 52.5q39 0 71.5 -11t52.5 -37.5t20 -70.5q0 -88 -49.5 -141.5t-140.5 -53.5z" />
    <glyph glyph-name="hookabovecomb" unicode="&#x309;" 
d="M-492 1226l9 125q21 6 49 16.5t48.5 30.5t20.5 53q0 27 -16.5 40.5t-46.5 13.5q-19 0 -45.5 -6t-55.5 -19v196q39 17 93 27t106 10q119 0 181 -54t62 -148q0 -88 -50.5 -148.5t-147.5 -90.5l-24 -46h-183z" />
    <glyph glyph-name="uni030A" unicode="&#x30a;" 
d="M197 1238q-119 0 -190.5 68t-71.5 184t72.5 183.5t189.5 67.5q109 0 185 -67t76 -181q0 -115 -72.5 -185t-188.5 -70zM197 1402q38 0 63.5 24t25.5 63t-25.5 64t-63.5 25q-39 0 -64.5 -25t-25.5 -64t23 -63t67 -24z" />
    <glyph glyph-name="uni030B" unicode="&#x30b;" 
d="M169 1241l3 27q39 57 78 112.5t71.5 104.5t51.5 84h335l-1 -19q-18 -28 -59 -68t-93 -84.5t-104 -85.5t-91 -71h-191zM-246 1241l3 27q41 57 80.5 113t72.5 104.5t54 83.5h332l-2 -19q-16 -27 -57 -66.5t-94 -83.5t-108 -86t-98 -73h-183z" />
    <glyph glyph-name="uni030C" unicode="&#x30c;" 
d="M-42 1241q-16 45 -40.5 99t-51.5 107.5t-54 95.5l3 26h235q18 -17 40.5 -44t44.5 -55.5t39 -54.5q50 45 97.5 84t93.5 70h245l-3 -24q-42 -38 -94.5 -94t-101.5 -112.5t-81 -97.5h-372z" />
    <glyph glyph-name="uni030F" unicode="&#x30f;" 
d="M-218 1241q-45 46 -91 101.5t-82 110t-51 95.5l2 21h321q7 -34 17.5 -80t26 -101.5t34.5 -119.5l-3 -27h-174zM-605 1241q-40 43 -85 99.5t-81.5 112t-52.5 95.5l2 21h323q6 -43 17.5 -94t27 -104.5t33.5 -102.5l-3 -27h-181z" />
    <glyph glyph-name="uni0312" unicode="&#x312;" 
d="M-121 920l-8 21q35 91 75.5 181.5t85 177t90.5 162.5h280q-23 -57 -49.5 -128.5t-52 -147t-48.5 -145t-39 -121.5h-334z" />
    <glyph glyph-name="dotbelowcomb" unicode="&#x323;" 
d="M-744 -479q-80 0 -127.5 34t-47.5 108q0 95 55.5 150.5t160.5 55.5q50 0 89.5 -13.5t62 -45t22.5 -83.5q0 -87 -51 -146.5t-164 -59.5z" />
    <glyph glyph-name="uni0326" unicode="&#x326;" 
d="M41 -453v26q17 43 36 96t37.5 107t30.5 99h334v-19q-27 -52 -61 -105.5t-71 -105t-75 -98.5h-231z" />
    <glyph glyph-name="uni0327" unicode="&#x327;" 
d="M-220 -492q-52 0 -96.5 6.5t-83.5 19.5v193q29 -8 69 -15t63 -7q25 0 41.5 6.5t25 19.5t8.5 33q0 29 -26.5 51.5t-97.5 32.5l87 152h181l-33 -55q70 -13 116 -56t46 -125q0 -88 -38 -144.5t-105.5 -84t-156.5 -27.5z" />
    <glyph glyph-name="uni0328" unicode="&#x328;" 
d="M-172 -509q-109 0 -165.5 56t-56.5 137q0 68 29 124t77.5 103t107.5 88h223q-50 -47 -86.5 -86t-56 -75.5t-20.5 -75.5q0 -19 13 -31.5t32 -12.5q24 0 49.5 5.5t54.5 13.5l-23 -219q-42 -14 -84 -20.5t-94 -6.5z" />
    <glyph glyph-name="tonos" unicode="&#x384;" horiz-adv-x="958" 
d="M468 1241l3 27q14 28 31.5 71.5t36.5 92.5t34.5 93t24.5 74h320l-2 -23q-24 -38 -51 -80.5t-56 -85.5t-59.5 -86t-62.5 -83h-219z" />
    <glyph glyph-name="dieresistonos" unicode="&#x385;" horiz-adv-x="974" 
d="M559 1404v21q14 35 33 90.5t35.5 111t23.5 89.5h281l-2 -17q-22 -42 -55 -94t-69.5 -104t-71.5 -97h-175zM352 1257q-61 0 -97.5 27.5t-36.5 93.5q0 88 45 140.5t130 52.5q52 0 90.5 -26.5t38.5 -92.5q0 -88 -44.5 -141.5t-125.5 -53.5zM965 1257q-60 0 -96 27.5
t-36 93.5q0 88 44.5 140.5t129.5 52.5q52 0 90 -26.5t38 -92.5q0 -88 -44.5 -141.5t-125.5 -53.5z" />
    <glyph glyph-name="Alphatonos" unicode="&#x386;" horiz-adv-x="1302" 
d="M-55 0l688 1465h469l73 -1465h-373l-1 280h-348l-117 -280h-391zM580 584h225v400q1 49 1.5 97t4.5 98h-7q-12 -50 -27 -95t-34 -93zM57 1105l3 27q14 28 31.5 71.5t36.5 92.5t34.5 93t24.5 74h320l-2 -23q-24 -38 -51 -80.5t-56 -85.5t-59.5 -86t-62.5 -83h-219z" />
    <glyph glyph-name="anoteleia" unicode="&#x387;" horiz-adv-x="580" 
d="M347 763q-78 0 -122.5 36.5t-44.5 109.5q0 109 66.5 173.5t172.5 64.5q74 0 119 -36.5t45 -109.5q0 -122 -68 -180t-168 -58z" />
    <glyph glyph-name="Epsilontonos" unicode="&#x388;" horiz-adv-x="1284" 
d="M292 0l309 1462h766l-64 -306h-399l-52 -247h371l-67 -306h-371l-62 -292h400l-66 -311h-765zM81 1105l3 27q14 28 31.5 71.5t36.5 92.5t34.5 93t24.5 74h320l-2 -23q-24 -38 -51 -80.5t-56 -85.5t-59.5 -86t-62.5 -83h-219z" />
    <glyph glyph-name="Etatonos" unicode="&#x389;" horiz-adv-x="1587" 
d="M292 0l309 1462h366l-114 -547h300l115 547h367l-310 -1462h-367l127 603h-299l-128 -603h-366zM81 1104l3 27q14 28 31.5 71.5t36.5 92.5t34.5 93t24.5 74h320l-2 -23q-24 -38 -51 -80.5t-56 -85.5t-59.5 -86t-62.5 -83h-219z" />
    <glyph glyph-name="Iotatonos" unicode="&#x38a;" horiz-adv-x="938" 
d="M309 0l310 1462h366l-310 -1462h-366zM81 1105l3 27q14 28 31.5 71.5t36.5 92.5t34.5 93t24.5 74h320l-2 -23q-24 -38 -51 -80.5t-56 -85.5t-59.5 -86t-62.5 -83h-219z" />
    <glyph glyph-name="Omicrontonos" unicode="&#x38c;" horiz-adv-x="1552" 
d="M791 -20q-166 0 -275.5 61.5t-164 179.5t-54.5 288q0 115 20.5 231t62 225.5t103 203.5t143.5 165t184.5 111t225.5 40q245 0 364.5 -139.5t119.5 -388.5q0 -106 -18.5 -219t-56.5 -222.5t-97 -206t-140 -170.5t-185 -116.5t-232 -42.5zM820 294q48 0 91 29t79 79.5
t64.5 117t48.5 141t30.5 151t10.5 148.5q0 103 -36 158.5t-103 55.5q-51 0 -95 -30.5t-81 -82.5t-65.5 -119t-48.5 -142t-30.5 -149.5t-10.5 -141.5q0 -78 16.5 -125t49.5 -68.5t80 -21.5zM81 1105l3 27q14 28 31.5 71.5t36.5 92.5t34.5 93t24.5 74h320l-2 -23
q-24 -38 -51 -80.5t-56 -85.5t-59.5 -86t-62.5 -83h-219z" />
    <glyph glyph-name="Upsilontonos" unicode="&#x38e;" horiz-adv-x="1519" 
d="M646 0l118 558l-187 904h380l65 -505l274 505h402l-565 -898l-120 -564h-367zM92 1105l3 27q14 28 31.5 71.5t36.5 92.5t34.5 93t24.5 74h320l-2 -23q-24 -38 -51 -80.5t-56 -85.5t-59.5 -86t-62.5 -83h-219z" />
    <glyph glyph-name="Omegatonos" unicode="&#x38f;" horiz-adv-x="1611" 
d="M71 1105l3 27q14 28 31.5 71.5t36.5 92.5t34.5 93t24.5 74h320l-2 -23q-24 -38 -51 -80.5t-56 -85.5t-59.5 -86t-62.5 -83h-219zM147 0l66 312h328q-55 41 -97.5 102t-66.5 140.5t-24 173.5q0 128 32 242t92 208.5t145.5 163t193 106t234.5 37.5q169 0 289.5 -61.5
t184.5 -173.5t64 -265q0 -116 -26 -219t-76.5 -189.5t-124.5 -153.5t-171 -111h327l-66 -312h-585l76 354q65 41 114.5 107t84 146t52.5 165t18 163q0 79 -22 132t-64 80t-101 27q-70 0 -122 -37.5t-88.5 -98.5t-58.5 -134.5t-32 -146.5t-10 -133q0 -94 24 -161t70 -109
l-76 -354h-584z" />
    <glyph glyph-name="iotadieresistonos" unicode="&#x390;" horiz-adv-x="730" 
d="M344 -20q-133 0 -206 59t-73 193q0 33 6.5 78t14.5 84l160 739h357l-158 -737q-4 -20 -6.5 -36t-2.5 -32q0 -21 12 -35t35 -14q26 0 64 9t73 25v-270q-60 -32 -131 -47.5t-145 -15.5zM355 1404v21q14 35 33 90.5t35.5 111t23.5 89.5h281l-2 -17q-22 -42 -55 -94
t-69.5 -104t-71.5 -97h-175zM148 1257q-61 0 -97.5 27.5t-36.5 93.5q0 88 45 140.5t130 52.5q52 0 90.5 -26.5t38.5 -92.5q0 -88 -44.5 -141.5t-125.5 -53.5zM761 1257q-60 0 -96 27.5t-36 93.5q0 88 44.5 140.5t129.5 52.5q52 0 90 -26.5t38 -92.5q0 -88 -44.5 -141.5
t-125.5 -53.5z" />
    <glyph glyph-name="Alpha" unicode="&#x391;" horiz-adv-x="1237" 
d="M-120 0l688 1465h469l73 -1465h-373l-1 280h-348l-117 -280h-391zM515 584h225v400q1 49 1.5 97t4.5 98h-7q-12 -50 -27 -95t-34 -93z" />
    <glyph glyph-name="Beta" unicode="&#x392;" horiz-adv-x="1179" 
d="M12 0l309 1462h442q128 0 221 -35t143.5 -105t50.5 -177q0 -92 -31.5 -167t-94 -128.5t-154.5 -83.5v-8q77 -29 123 -100t46 -172q0 -148 -68 -257t-191 -169t-289 -60h-507zM441 297h72q57 0 97.5 27.5t62 72t21.5 97.5q0 61 -27.5 92t-91.5 31h-66zM567 897h64
q57 0 93 25t53 65.5t17 88.5q0 46 -27 71t-83 25h-56z" />
    <glyph glyph-name="Gamma" unicode="&#x393;" horiz-adv-x="962" 
d="M12 0l309 1462h786l-64 -307h-420l-245 -1155h-366z" />
    <glyph glyph-name="uni0394" unicode="&#x394;" horiz-adv-x="1221" 
d="M-63 0l22 210l612 1255h458l70 -1254l-45 -211h-1117zM377 306h359l-4 667q1 52 1 78.5v42t1 32t3 47.5q-5 -22 -16 -57t-22 -67.5t-18 -46.5z" />
    <glyph glyph-name="Epsilon" unicode="&#x395;" horiz-adv-x="1005" 
d="M12 0l309 1462h766l-64 -306h-399l-52 -247h371l-67 -306h-371l-62 -292h400l-66 -311h-765z" />
    <glyph glyph-name="Zeta" unicode="&#x396;" horiz-adv-x="1001" 
d="M-86 0l48 241l655 914h-445l65 307h893l-51 -242l-660 -911h489l-66 -309h-928z" />
    <glyph glyph-name="Eta" unicode="&#x397;" horiz-adv-x="1308" 
d="M12 0l309 1462h366l-114 -547h300l115 547h367l-310 -1462h-367l127 603h-299l-128 -603h-366z" />
    <glyph glyph-name="Theta" unicode="&#x398;" horiz-adv-x="1391" 
d="M612 -20q-178 0 -294 62t-173 183.5t-57 299.5q0 111 21.5 224t64 221t105.5 201t147 164t189 110.5t230 39.5q264 0 389.5 -141t125.5 -397q0 -116 -22 -232.5t-64.5 -225t-105.5 -200.5t-146.5 -161.5t-185.5 -108t-224 -39.5zM629 294q58 0 107 31.5t89 85.5
t70.5 121.5t51 141t31 144.5t10.5 130q0 104 -42.5 165t-123.5 61q-55 0 -103.5 -29.5t-88.5 -81t-71 -117t-52.5 -139t-33 -147.5t-11.5 -141q0 -83 19.5 -132t56.5 -71t91 -22zM534 595l64 292h325l-65 -292h-324z" />
    <glyph glyph-name="Iota" unicode="&#x399;" horiz-adv-x="640" 
d="M11 0l310 1462h366l-310 -1462h-366z" />
    <glyph glyph-name="Kappa" unicode="&#x39a;" horiz-adv-x="1210" 
d="M12 0l309 1462h366l-129 -606l109 172l306 434h418l-507 -682l210 -780h-408l-123 555l-79 -46l-106 -509h-366z" />
    <glyph glyph-name="Lambda" unicode="&#x39b;" horiz-adv-x="1164" 
d="M-118 0l684 1465h415l66 -1465h-373l-4 719q-1 69 1 150t7 141q-24 -73 -45.5 -133t-42.5 -109l-321 -768h-387z" />
    <glyph glyph-name="Mu" unicode="&#x39c;" horiz-adv-x="1691" 
d="M12 0l309 1462h481l10 -941h7l418 941h500l-312 -1462h-342l130 606q19 90 34.5 152t28 104t19.5 72h-7l-422 -934h-324l-8 928h-7q-11 -72 -21.5 -137.5t-20 -122.5t-20.5 -106l-119 -562h-334z" />
    <glyph glyph-name="Nu" unicode="&#x39d;" horiz-adv-x="1429" 
d="M12 0l309 1462h417l218 -909h8q7 49 16 109.5t19 119t18 101.5l124 579h335l-309 -1462h-418l-221 945h-6q-4 -34 -9.5 -80t-12.5 -96.5t-15 -99t-16 -86.5l-124 -583h-333z" />
    <glyph glyph-name="Xi" unicode="&#x39e;" horiz-adv-x="1009" 
d="M-54 0l64 311h872l-64 -311h-872zM156 608l69 306h695l-68 -306h-696zM214 1156l65 306h815l-65 -306h-815z" />
    <glyph glyph-name="Omicron" unicode="&#x39f;" horiz-adv-x="1343" 
d="M582 -20q-166 0 -275.5 61.5t-164 179.5t-54.5 288q0 115 20.5 231t62 225.5t103 203.5t143.5 165t184.5 111t225.5 40q245 0 364.5 -139.5t119.5 -388.5q0 -106 -18.5 -219t-56.5 -222.5t-97 -206t-140 -170.5t-185 -116.5t-232 -42.5zM611 294q48 0 91 29t79 79.5
t64.5 117t48.5 141t30.5 151t10.5 148.5q0 103 -36 158.5t-103 55.5q-51 0 -95 -30.5t-81 -82.5t-65.5 -119t-48.5 -142t-30.5 -149.5t-10.5 -141.5q0 -78 16.5 -125t49.5 -68.5t80 -21.5z" />
    <glyph glyph-name="Pi" unicode="&#x3a0;" horiz-adv-x="1294" 
d="M12 0l309 1462h1020l-310 -1462h-366l242 1150h-286l-243 -1150h-366z" />
    <glyph glyph-name="Rho" unicode="&#x3a1;" horiz-adv-x="1132" 
d="M12 0l309 1462h365q167 0 269 -51t148.5 -140t46.5 -203q0 -118 -38 -223.5t-113 -186t-184.5 -127t-252.5 -46.5h-83l-101 -485h-366zM545 793h44q58 0 100.5 32t65.5 87.5t23 127.5q0 55 -27.5 85t-88.5 30h-39z" />
    <glyph glyph-name="Sigma" unicode="&#x3a3;" horiz-adv-x="1025" 
d="M-59 0l58 281l451 484l-244 423l58 274h846l-64 -307h-422l226 -400l-407 -446h469l-65 -309h-906z" />
    <glyph glyph-name="Tau" unicode="&#x3a4;" horiz-adv-x="1005" 
d="M193 0l241 1150h-276l66 312h922l-67 -312h-278l-241 -1150h-367z" />
    <glyph glyph-name="Upsilon" unicode="&#x3a5;" horiz-adv-x="1119" 
d="M246 0l118 558l-187 904h380l65 -505l274 505h402l-565 -898l-120 -564h-367z" />
    <glyph glyph-name="Phi" unicode="&#x3a6;" horiz-adv-x="1571" 
d="M476 -20l49 225q-145 11 -242.5 68t-146.5 152t-49 217q0 126 38 242t118.5 208t208 148t305.5 63l38 180h350l-38 -180q142 -10 239.5 -70.5t147.5 -156.5t50 -213q0 -133 -39.5 -250.5t-121 -207.5t-208.5 -142.5t-301 -57.5l-48 -225h-350zM587 497l109 513
q-58 -1 -103.5 -30t-77 -77.5t-48 -110t-16.5 -127.5q0 -48 11.5 -85t41.5 -58.5t83 -24.5zM937 498q60 1 105.5 29t76 75.5t46.5 107.5t16 125q0 50 -14.5 88t-44 60.5t-77.5 26.5z" />
    <glyph glyph-name="Chi" unicode="&#x3a7;" horiz-adv-x="1191" 
d="M-123 0l517 754l-183 708h387l85 -416l252 416h409l-490 -722l218 -740h-401l-103 442l-285 -442h-406z" />
    <glyph glyph-name="Psi" unicode="&#x3a8;" horiz-adv-x="1633" 
d="M515 0l84 397h-6q-140 4 -237.5 47.5t-149 127.5t-51.5 209q0 39 6 88.5t15 91.5l107 501h361l-112 -529q-7 -31 -12 -59t-5 -53q0 -47 16.5 -71.5t48 -33.5t77.5 -9h8l160 755h350l-159 -755h14q64 0 105.5 25t67 76t41.5 127l112 527h361l-119 -552
q-27 -125 -69 -219.5t-112 -159t-181 -98t-277 -36.5h-9l-86 -397h-349z" />
    <glyph glyph-name="uni03A9" unicode="&#x3a9;" horiz-adv-x="1381" 
d="M-84 0l66 312h328q-55 41 -97.5 102t-66.5 140.5t-24 173.5q0 128 32 242t92 208.5t145.5 163t193 106t234.5 37.5q169 0 289.5 -61.5t184.5 -173.5t64 -265q0 -116 -26 -219t-76.5 -189.5t-124.5 -153.5t-171 -111h327l-66 -312h-585l76 354q65 41 114.5 107t84 146
t52.5 165t18 163q0 79 -22 132t-64 80t-101 27q-70 0 -122 -37.5t-88.5 -98.5t-58.5 -134.5t-32 -146.5t-10 -133q0 -94 24 -161t70 -109l-76 -354h-584z" />
    <glyph glyph-name="Iotadieresis" unicode="&#x3aa;" horiz-adv-x="640" 
d="M11 0l310 1462h366l-310 -1462h-366zM766 1611q-68 0 -109 27.5t-41 93.5q0 88 51 140.5t144 52.5q59 0 101.5 -26.5t42.5 -92.5q0 -88 -49 -141.5t-140 -53.5zM328 1611q-68 0 -108.5 27.5t-40.5 93.5q0 88 51 140.5t144 52.5q39 0 71.5 -11t52.5 -37.5t20 -70.5
q0 -88 -49.5 -141.5t-140.5 -53.5z" />
    <glyph glyph-name="Upsilondieresis" unicode="&#x3ab;" horiz-adv-x="1119" 
d="M246 0l118 558l-187 904h380l65 -505l274 505h402l-565 -898l-120 -564h-367zM966 1591q-68 0 -109 27.5t-41 93.5q0 88 51 140.5t144 52.5q59 0 101.5 -26.5t42.5 -92.5q0 -88 -49 -141.5t-140 -53.5zM528 1591q-68 0 -108.5 27.5t-40.5 93.5q0 88 51 140.5t144 52.5
q39 0 71.5 -11t52.5 -37.5t20 -70.5q0 -88 -49.5 -141.5t-140.5 -53.5z" />
    <glyph glyph-name="alphatonos" unicode="&#x3ac;" horiz-adv-x="1178" 
d="M347 -20q-136 0 -213 102.5t-77 283.5q0 95 18.5 202.5t56.5 210.5t95.5 188t135.5 135.5t176 50.5q90 0 150 -43t91 -118h7q11 26 25.5 52t31 49t33.5 40h314q-36 -66 -67.5 -143.5t-56 -158t-41.5 -157.5l-56 -257q-5 -23 -9 -48t-4 -41q0 -29 13.5 -39.5t35.5 -10.5
q13 0 31 4.5t34 12.5v-279q-37 -13 -94 -24.5t-105 -11.5q-83 0 -135 22t-80 58t-40 76h-12q-29 -39 -66 -75t-83.5 -58.5t-108.5 -22.5zM488 274q42 0 74 37.5t54.5 95t36.5 115.5q17 73 23 124t6 90q0 62 -18 90.5t-50 28.5q-37 0 -67 -32t-53 -83.5t-38.5 -112.5
t-24 -120t-8.5 -104q0 -64 17.5 -96.5t47.5 -32.5zM580 1241l3 27q14 28 31.5 71.5t36.5 92.5t34.5 93t24.5 74h320l-2 -23q-24 -38 -51 -80.5t-56 -85.5t-59.5 -86t-62.5 -83h-219z" />
    <glyph glyph-name="epsilontonos" unicode="&#x3ad;" horiz-adv-x="1001" 
d="M444 -20q-133 0 -228.5 34t-146.5 102t-51 169q0 73 32.5 136.5t100.5 109.5t175 63v9q-66 25 -107 79t-41 148q0 95 55 168t158 114t246 41q120 0 218 -23.5t186 -73.5l-128 -258q-59 38 -128.5 58.5t-124.5 20.5q-67 0 -104.5 -23.5t-37.5 -70.5q0 -38 34 -56t118 -18
h117l-52 -248h-140q-61 0 -107 -12t-71.5 -36t-25.5 -61t32 -63t119 -26q86 0 157 23.5t138 56.5v-283q-79 -40 -178 -60t-215 -20zM525 1241l3 27q14 28 31.5 71.5t36.5 92.5t34.5 93t24.5 74h320l-2 -23q-24 -38 -51 -80.5t-56 -85.5t-59.5 -86t-62.5 -83h-219z" />
    <glyph glyph-name="etatonos" unicode="&#x3ae;" horiz-adv-x="1140" 
d="M452 -492l233 1117q8 35 14.5 76t6.5 72q0 39 -17 59t-47 20q-42 0 -71.5 -31.5t-51.5 -94t-43 -157.5l-119 -569h-359l241 1133h285l-8 -145h7q35 56 77 92.5t91.5 54.5t109.5 18q84 0 144.5 -34t94.5 -99t34 -161q0 -43 -5.5 -92.5t-16.5 -103.5l-243 -1155h-357z
M569 1241l3 27q14 28 31.5 71.5t36.5 92.5t34.5 93t24.5 74h320l-2 -23q-24 -38 -51 -80.5t-56 -85.5t-59.5 -86t-62.5 -83h-219z" />
    <glyph glyph-name="iotatonos" unicode="&#x3af;" horiz-adv-x="730" 
d="M344 -20q-133 0 -206 59t-73 193q0 33 6.5 78t14.5 84l160 739h357l-158 -737q-4 -20 -6.5 -36t-2.5 -32q0 -21 12 -35t35 -14q26 0 64 9t73 25v-270q-60 -32 -131 -47.5t-145 -15.5zM303 1241l3 27q14 28 31.5 71.5t36.5 92.5t34.5 93t24.5 74h320l-2 -23
q-24 -38 -51 -80.5t-56 -85.5t-59.5 -86t-62.5 -83h-219z" />
    <glyph glyph-name="upsilondieresistonos" unicode="&#x3b0;" horiz-adv-x="1146" 
d="M469 -18q-208 0 -300 96t-92 263q0 41 6.5 88t15.5 96l129 608h356l-136 -646q-7 -30 -10 -58t-3 -49q0 -53 19 -75t53 -22q42 0 76.5 33t61.5 93t47.5 140.5t33.5 175.5t20.5 198.5t8.5 209.5h353q0 -183 -17 -353.5t-58 -315.5t-113.5 -253t-183 -168.5t-267.5 -60.5z
M607 1404v21q14 35 33 90.5t35.5 111t23.5 89.5h281l-2 -17q-22 -42 -55 -94t-69.5 -104t-71.5 -97h-175zM400 1257q-61 0 -97.5 27.5t-36.5 93.5q0 88 45 140.5t130 52.5q52 0 90.5 -26.5t38.5 -92.5q0 -88 -44.5 -141.5t-125.5 -53.5zM1013 1257q-60 0 -96 27.5t-36 93.5
q0 88 44.5 140.5t129.5 52.5q52 0 90 -26.5t38 -92.5q0 -88 -44.5 -141.5t-125.5 -53.5z" />
    <glyph glyph-name="alpha" unicode="&#x3b1;" horiz-adv-x="1178" 
d="M347 -20q-136 0 -213 102.5t-77 283.5q0 95 18.5 202.5t56.5 210.5t95.5 188t135.5 135.5t176 50.5q90 0 150 -43t91 -118h7q11 26 25.5 52t31 49t33.5 40h314q-36 -66 -67.5 -143.5t-56 -158t-41.5 -157.5l-56 -257q-5 -23 -9 -48t-4 -41q0 -29 13.5 -39.5t35.5 -10.5
q13 0 31 4.5t34 12.5v-279q-37 -13 -94 -24.5t-105 -11.5q-83 0 -135 22t-80 58t-40 76h-12q-29 -39 -66 -75t-83.5 -58.5t-108.5 -22.5zM488 274q42 0 74 37.5t54.5 95t36.5 115.5q17 73 23 124t6 90q0 62 -18 90.5t-50 28.5q-37 0 -67 -32t-53 -83.5t-38.5 -112.5
t-24 -120t-8.5 -104q0 -64 17.5 -96.5t47.5 -32.5z" />
    <glyph glyph-name="beta" unicode="&#x3b2;" horiz-adv-x="1177" 
d="M-103 -492l328 1559q36 169 104 280t174 165.5t254 54.5q134 0 226 -44t139.5 -123.5t47.5 -184.5q0 -106 -38 -190t-110.5 -137t-176.5 -70q110 -19 175 -104.5t65 -209.5q0 -102 -30 -195.5t-90.5 -168t-152 -117.5t-214.5 -43q-76 0 -136.5 15t-96.5 39l-112 -526
h-356zM548 279q43 0 76 22.5t55 58t33 76t11 76.5q0 72 -32.5 110.5t-91.5 38.5h-31l60 284h34q34 0 60.5 21t45.5 54.5t28.5 73.5t9.5 77q0 59 -24 82.5t-54 23.5q-29 0 -55 -17.5t-46.5 -59t-36.5 -114.5l-162 -758q19 -22 54 -35.5t66 -13.5z" />
    <glyph glyph-name="gamma" unicode="&#x3b3;" horiz-adv-x="1031" 
d="M28 -492q19 86 44.5 170.5t58.5 168t73 167.5l-93 1119h355l11 -376q1 -52 1 -88t-1 -65.5t-2 -61.5t-2 -76h9q18 59 48.5 135t65.5 153l170 379h383l-527 -1045q-56 -108 -98.5 -209t-72 -193.5t-47.5 -177.5h-376z" />
    <glyph glyph-name="delta" unicode="&#x3b4;" horiz-adv-x="1095" 
d="M456 -20q-147 0 -240 48t-136.5 135.5t-43.5 205.5q0 129 50.5 235t143 184t215.5 123q-52 54 -87.5 124.5t-35.5 164.5q0 120 61.5 202.5t166 125.5t234.5 43q131 0 233 -29.5t184 -84.5l-153 -267q-79 56 -149.5 78.5t-121.5 22.5q-53 0 -76.5 -24t-23.5 -62
q0 -32 20 -63t56.5 -67.5l83.5 -83.5q61 -61 100.5 -125.5t58 -134t18.5 -145.5q0 -130 -36 -240.5t-106 -192.5t-174.5 -127.5t-241.5 -45.5zM481 263q37 0 68 28.5t53 74.5t34.5 99t12.5 101q0 61 -19.5 105t-46.5 72q-38 -19 -71.5 -58t-58.5 -89t-39.5 -103.5
t-14.5 -102.5q0 -57 20.5 -92t61.5 -35z" />
    <glyph glyph-name="epsilon" unicode="&#x3b5;" horiz-adv-x="1001" 
d="M444 -20q-133 0 -228.5 34t-146.5 102t-51 169q0 73 32.5 136.5t100.5 109.5t175 63v9q-66 25 -107 79t-41 148q0 95 55 168t158 114t246 41q120 0 218 -23.5t186 -73.5l-128 -258q-59 38 -128.5 58.5t-124.5 20.5q-67 0 -104.5 -23.5t-37.5 -70.5q0 -38 34 -56t118 -18
h117l-52 -248h-140q-61 0 -107 -12t-71.5 -36t-25.5 -61t32 -63t119 -26q86 0 157 23.5t138 56.5v-283q-79 -40 -178 -60t-215 -20z" />
    <glyph glyph-name="zeta" unicode="&#x3b6;" horiz-adv-x="900" 
d="M240 -372q43 43 81 91t62 95t24 86q0 56 -42.5 87t-117.5 76q-70 42 -114.5 90t-65.5 108.5t-21 138.5q0 121 42.5 241t118.5 234t177.5 219t218.5 196q-28 -7 -66 -10t-71 -3h-208l60 279h769l-46 -213q-162 -130 -279.5 -248.5t-193.5 -225.5t-112.5 -202t-36.5 -177
q0 -45 20.5 -78.5t56.5 -60.5t82 -55q59 -33 108.5 -74t79.5 -92.5t30 -118.5q0 -80 -24.5 -145t-67 -122.5t-96.5 -115.5h-368z" />
    <glyph glyph-name="eta" unicode="&#x3b7;" horiz-adv-x="1140" 
d="M452 -492l233 1117q8 35 14.5 76t6.5 72q0 39 -17 59t-47 20q-42 0 -71.5 -31.5t-51.5 -94t-43 -157.5l-119 -569h-359l241 1133h285l-8 -145h7q35 56 77 92.5t91.5 54.5t109.5 18q84 0 144.5 -34t94.5 -99t34 -161q0 -43 -5.5 -92.5t-16.5 -103.5l-243 -1155h-357z" />
    <glyph glyph-name="theta" unicode="&#x3b8;" horiz-adv-x="1134" 
d="M472 -20q-133 0 -219.5 52.5t-129 154t-42.5 246.5q0 81 12 180t33.5 199.5t50.5 183.5q36 121 88 226.5t121.5 186t159.5 125.5t201 45q119 0 203 -51.5t129 -155t45 -259.5q0 -108 -19 -242t-54.5 -267.5t-86.5 -243.5q-38 -82 -86.5 -151.5t-108 -121t-133.5 -79.5
t-164 -28zM493 253q35 0 65.5 36t56.5 94.5t47.5 127.5t37.5 134h-252q-16 -88 -24 -156.5t-8 -110.5q0 -59 21 -92t56 -33zM506 919h250q11 77 18 141.5t7 115.5q0 65 -19.5 97.5t-53.5 32.5q-28 0 -54.5 -25.5t-51.5 -75t-49 -121.5t-47 -165z" />
    <glyph glyph-name="iota" unicode="&#x3b9;" horiz-adv-x="730" 
d="M344 -20q-133 0 -206 59t-73 193q0 33 6.5 78t14.5 84l160 739h357l-158 -737q-4 -20 -6.5 -36t-2.5 -32q0 -21 12 -35t35 -14q26 0 64 9t73 25v-270q-60 -32 -131 -47.5t-145 -15.5z" />
    <glyph glyph-name="kappa" unicode="&#x3ba;" horiz-adv-x="1128" 
d="M-2 0l240 1133h357l-45 -209q-12 -57 -29 -114t-35 -108h7l344 431h401l-433 -501l217 -632h-397l-114 385l-90 -60l-64 -325h-359z" />
    <glyph glyph-name="lambda" unicode="&#x3bb;" horiz-adv-x="1123" 
d="M839 -20q-111 0 -172 43t-88.5 119.5t-37.5 175.5l-9 103q-3 34 -5 78.5t-1 75.5q-4 -10 -13 -35t-19.5 -53t-18.5 -50t-10 -26l-198 -411h-379l567 1058l-3 77q-4 86 -32 119t-68 33q-20 0 -41 -4t-47 -11l-23 273q45 12 103 19t109 7q123 0 195 -48.5t108 -140
t48 -218.5l62 -696q10 -75 23 -115.5t32.5 -55t47.5 -14.5q15 0 29.5 2t41.5 10v-287q-38 -12 -90 -20t-111 -8z" />
    <glyph glyph-name="uni03BC" unicode="&#x3bc;" horiz-adv-x="1147" 
d="M-106 -492l344 1625h357l-131 -623q-8 -36 -13.5 -74t-5.5 -69q0 -42 16.5 -63.5t45.5 -21.5q37 0 65 21.5t52 80.5t47 169l123 580h357l-239 -1133h-274l2 118h-7q-24 -51 -52.5 -81t-59 -43.5t-64.5 -13.5q-38 0 -64 15.5t-41 46.5h-7q-2 -41 -6.5 -82t-11 -83
t-16.5 -87l-60 -282h-357z" />
    <glyph glyph-name="nu" unicode="&#x3bd;" horiz-adv-x="1073" 
d="M190 0l-78 1133h356l19 -556q1 -53 0.5 -105.5t-3.5 -104.5q67 105 115 215.5t84.5 244.5t68.5 306h371q-40 -212 -112.5 -405.5t-188.5 -374t-286 -353.5h-346z" />
    <glyph glyph-name="xi" unicode="&#x3be;" horiz-adv-x="928" 
d="M240 -372q45 45 86 96.5t67 101.5t26 88q0 39 -34 68.5t-120 71.5q-75 35 -122 81.5t-69.5 107.5t-22.5 139q0 106 35 191t102 146t162 93l1 8q-61 26 -98.5 76.5t-37.5 122.5q0 44 15.5 86t46 78.5t74.5 63.5t101 41q-43 -6 -81.5 -8.5t-76.5 -2.5h-72l62 279h756
l-59 -273h-81q-56 0 -105 -9t-89 -27.5t-69.5 -45.5t-45 -63t-15.5 -80q0 -64 43 -87.5t114 -23.5h111l-62 -283h-83q-99 0 -160 -25t-89.5 -71t-28.5 -108q0 -40 18.5 -66t54 -47.5t87.5 -47.5q66 -32 113.5 -70.5t73.5 -90t26 -123.5q0 -66 -20.5 -129.5t-61.5 -127
t-104 -130.5h-368z" />
    <glyph glyph-name="omicron" unicode="&#x3bf;" horiz-adv-x="1112" 
d="M458 -20q-126 0 -215 49t-135.5 141.5t-46.5 223.5q0 102 22 209t68.5 205.5t117.5 176t168 123t222 45.5t213 -49.5t134.5 -142t46.5 -221.5q0 -106 -23 -214t-69.5 -206t-117.5 -174.5t-167 -121t-218 -44.5zM499 263q33 0 62 31t53 83t41 115.5t26 129.5t9 124
q0 41 -8.5 68.5t-25 41.5t-41.5 14q-34 0 -63.5 -31t-53 -83t-40.5 -115.5t-26 -129.5t-9 -125q0 -60 19 -91.5t57 -31.5z" />
    <glyph glyph-name="pi" unicode="&#x3c0;" horiz-adv-x="1391" 
d="M959 -20q-128 0 -200 61.5t-72 195.5q0 37 6 86t16 91l91 435h-174l-181 -849h-358l182 849h-204l36 179l183 105h1141l-59 -284h-208l-96 -442q-3 -17 -6 -36.5t-3 -37.5q0 -27 14.5 -40.5t37.5 -13.5q33 0 68.5 11t70.5 27v-271q-59 -32 -134.5 -49t-150.5 -17z" />
    <glyph glyph-name="rho" unicode="&#x3c1;" horiz-adv-x="1125" 
d="M-102 -492l223 1071q38 183 100 311.5t168 195.5t277 67q133 0 223 -54t135.5 -148.5t45.5 -218.5q0 -108 -21 -215.5t-61.5 -204t-99.5 -171t-134.5 -118t-167.5 -43.5q-79 0 -135.5 27.5t-85.5 74.5q-5 -56 -17.5 -122t-25.5 -129l-68 -323h-356zM521 278q41 0 72 39.5
t52.5 100.5t35 125.5t19.5 117t6 74.5q0 60 -18.5 92.5t-50.5 32.5q-31 0 -58 -23t-51.5 -86.5t-51.5 -187.5l-45 -215q13 -31 36 -50.5t54 -19.5z" />
    <glyph glyph-name="uni03C2" unicode="&#x3c2;" horiz-adv-x="930" 
d="M236 -372q55 57 92 105t56.5 89t19.5 76q0 29 -13 53t-46.5 50t-95.5 62q-69 42 -110 91t-58.5 109.5t-18.5 136.5q0 113 23.5 222.5t70.5 205t117 169t163.5 115t208.5 41.5q102 0 183 -22t151 -64l-126 -267q-42 24 -89.5 41t-94.5 17t-84.5 -26.5t-66 -71t-48 -96.5
t-29.5 -104t-10 -94q0 -46 19.5 -76t53 -53t77.5 -50q67 -39 113.5 -81t70.5 -95t24 -128q0 -56 -18.5 -113.5t-58.5 -116.5t-107 -125h-369z" />
    <glyph glyph-name="sigma" unicode="&#x3c3;" horiz-adv-x="1179" 
d="M471 -20q-190 0 -300 107.5t-110 306.5q0 118 25.5 228t78 203t134 162t192 107.5t251.5 38.5h515l-62 -284h-224q32 -43 52.5 -102t20.5 -140q0 -86 -23.5 -174.5t-70 -169.5t-115.5 -144.5t-160 -101t-204 -37.5zM510 263q34 0 62 26.5t50 71.5t37.5 103t23.5 121.5
t8 125.5q0 49 -4 82t-11 56h-13q-57 0 -102 -39.5t-75.5 -105.5t-46.5 -145.5t-16 -158.5q0 -72 25.5 -104.5t61.5 -32.5z" />
    <glyph glyph-name="tau" unicode="&#x3c4;" horiz-adv-x="932" 
d="M463 -20q-128 0 -199.5 61.5t-71.5 195.5q0 37 6 85.5t15 91.5l94 435h-248l36 179l179 105h708l-60 -284h-260l-95 -442q-3 -17 -6.5 -36.5t-3.5 -37.5q0 -27 15 -40.5t37 -13.5q29 0 66 11t74 27v-271q-59 -32 -134.5 -49t-151.5 -17z" />
    <glyph glyph-name="upsilon" unicode="&#x3c5;" horiz-adv-x="1146" 
d="M469 -18q-208 0 -300 96t-92 263q0 41 6.5 88t15.5 96l129 608h356l-136 -646q-7 -30 -10 -58t-3 -49q0 -53 19 -75t53 -22q42 0 76.5 33t61.5 93t47.5 140.5t33.5 175.5t20.5 198.5t8.5 209.5h353q0 -183 -17 -353.5t-58 -315.5t-113.5 -253t-183 -168.5t-267.5 -60.5z
" />
    <glyph glyph-name="phi" unicode="&#x3c6;" horiz-adv-x="1562" 
d="M371 -492l100 481q-125 18 -217 75.5t-142.5 155.5t-50.5 235q0 124 37.5 246.5t109 237.5t173.5 215l239 -187q-60 -69 -105 -153.5t-69.5 -174.5t-24.5 -176q0 -47 12.5 -86t37 -65.5t60.5 -38.5l95 454q44 203 153.5 313t316.5 110q188 0 297 -109.5t109 -316.5
q0 -124 -32 -233.5t-92 -199.5t-144.5 -155.5t-189.5 -103t-227 -43.5l-100 -481h-346zM877 273q59 13 103 49t75 86.5t50 109t27.5 117t8.5 109.5q0 52 -18 87t-54 35q-33 0 -57.5 -32t-42.5 -117z" />
    <glyph glyph-name="chi" unicode="&#x3c7;" horiz-adv-x="1075" 
d="M-281 -492l594 904l-38 332q-8 63 -30 86.5t-58 23.5q-23 0 -42.5 -4.5t-42.5 -11.5l-8 282q41 15 103 24t115 9q135 0 203.5 -72.5t88.5 -224.5l10 -56l187 333h396l-520 -787l51 -444q7 -55 27.5 -74.5t48.5 -19.5q16 0 45.5 7t65.5 18v-282q-54 -21 -115.5 -32
t-127.5 -11q-83 0 -140.5 30.5t-91.5 101.5t-47 194l-17 142l-264 -468h-393z" />
    <glyph glyph-name="psi" unicode="&#x3c8;" horiz-adv-x="1598" 
d="M404 -492l100 475q-213 21 -320 118.5t-107 260.5q0 39 6.5 88t16.5 94l124 589h356l-131 -622q-7 -34 -10.5 -61.5t-3.5 -51.5q0 -57 36.5 -83t94.5 -31l269 1271h346l-268 -1270q79 8 133 63.5t87.5 144.5t51 197.5t23.5 223t6 219.5h347q0 -188 -17 -357.5t-61.5 -311
t-124 -247t-204 -166.5t-304.5 -68l-99 -475h-347z" />
    <glyph glyph-name="omega" unicode="&#x3c9;" horiz-adv-x="1608" 
d="M383 -20q-167 0 -249 106t-82 298q0 109 28.5 234t82.5 256t128 259h363q-73 -125 -127.5 -255t-85.5 -252t-31 -227q0 -55 16 -86t56 -31q51 0 78.5 57t54.5 182l60 282h348l-61 -282q-6 -30 -11.5 -58.5t-8.5 -52t-3 -42.5q0 -42 12.5 -64t49.5 -22q43 0 76.5 41.5
t57 110t38.5 150t22 163t7 147.5q0 79 -5 134t-16 105h365q6 -50 9 -101.5t3 -133.5q0 -142 -19.5 -276.5t-60.5 -250.5t-106.5 -204t-157.5 -137.5t-213 -49.5q-94 0 -152.5 27.5t-88 72t-38.5 95.5q-51 -87 -131 -141t-208 -54z" />
    <glyph glyph-name="iotadieresis" unicode="&#x3ca;" horiz-adv-x="730" 
d="M344 -20q-133 0 -206 59t-73 193q0 33 6.5 78t14.5 84l160 739h357l-158 -737q-4 -20 -6.5 -36t-2.5 -32q0 -21 12 -35t35 -14q26 0 64 9t73 25v-270q-60 -32 -131 -47.5t-145 -15.5zM669 1257q-68 0 -109 27.5t-41 93.5q0 88 51 140.5t144 52.5q59 0 101.5 -26.5
t42.5 -92.5q0 -88 -49 -141.5t-140 -53.5zM231 1257q-68 0 -108.5 27.5t-40.5 93.5q0 88 51 140.5t144 52.5q39 0 71.5 -11t52.5 -37.5t20 -70.5q0 -88 -49.5 -141.5t-140.5 -53.5z" />
    <glyph glyph-name="upsilondieresis" unicode="&#x3cb;" horiz-adv-x="1146" 
d="M469 -18q-208 0 -300 96t-92 263q0 41 6.5 88t15.5 96l129 608h356l-136 -646q-7 -30 -10 -58t-3 -49q0 -53 19 -75t53 -22q42 0 76.5 33t61.5 93t47.5 140.5t33.5 175.5t20.5 198.5t8.5 209.5h353q0 -183 -17 -353.5t-58 -315.5t-113.5 -253t-183 -168.5t-267.5 -60.5z
M921 1257q-68 0 -109 27.5t-41 93.5q0 88 51 140.5t144 52.5q59 0 101.5 -26.5t42.5 -92.5q0 -88 -49 -141.5t-140 -53.5zM483 1257q-68 0 -108.5 27.5t-40.5 93.5q0 88 51 140.5t144 52.5q39 0 71.5 -11t52.5 -37.5t20 -70.5q0 -88 -49.5 -141.5t-140.5 -53.5z" />
    <glyph glyph-name="omicrontonos" unicode="&#x3cc;" horiz-adv-x="1112" 
d="M458 -20q-126 0 -215 49t-135.5 141.5t-46.5 223.5q0 102 22 209t68.5 205.5t117.5 176t168 123t222 45.5t213 -49.5t134.5 -142t46.5 -221.5q0 -106 -23 -214t-69.5 -206t-117.5 -174.5t-167 -121t-218 -44.5zM499 263q33 0 62 31t53 83t41 115.5t26 129.5t9 124
q0 41 -8.5 68.5t-25 41.5t-41.5 14q-34 0 -63.5 -31t-53 -83t-40.5 -115.5t-26 -129.5t-9 -125q0 -60 19 -91.5t57 -31.5zM540 1241l3 27q14 28 31.5 71.5t36.5 92.5t34.5 93t24.5 74h320l-2 -23q-24 -38 -51 -80.5t-56 -85.5t-59.5 -86t-62.5 -83h-219z" />
    <glyph glyph-name="upsilontonos" unicode="&#x3cd;" horiz-adv-x="1146" 
d="M469 -18q-208 0 -300 96t-92 263q0 41 6.5 88t15.5 96l129 608h356l-136 -646q-7 -30 -10 -58t-3 -49q0 -53 19 -75t53 -22q42 0 76.5 33t61.5 93t47.5 140.5t33.5 175.5t20.5 198.5t8.5 209.5h353q0 -183 -17 -353.5t-58 -315.5t-113.5 -253t-183 -168.5t-267.5 -60.5z
M542 1241l3 27q14 28 31.5 71.5t36.5 92.5t34.5 93t24.5 74h320l-2 -23q-24 -38 -51 -80.5t-56 -85.5t-59.5 -86t-62.5 -83h-219z" />
    <glyph glyph-name="omegatonos" unicode="&#x3ce;" horiz-adv-x="1608" 
d="M383 -20q-167 0 -249 106t-82 298q0 109 28.5 234t82.5 256t128 259h363q-73 -125 -127.5 -255t-85.5 -252t-31 -227q0 -55 16 -86t56 -31q51 0 78.5 57t54.5 182l60 282h348l-61 -282q-6 -30 -11.5 -58.5t-8.5 -52t-3 -42.5q0 -42 12.5 -64t49.5 -22q43 0 76.5 41.5
t57 110t38.5 150t22 163t7 147.5q0 79 -5 134t-16 105h365q6 -50 9 -101.5t3 -133.5q0 -142 -19.5 -276.5t-60.5 -250.5t-106.5 -204t-157.5 -137.5t-213 -49.5q-94 0 -152.5 27.5t-88 72t-38.5 95.5q-51 -87 -131 -141t-208 -54zM787 1241l3 27q14 28 31.5 71.5t36.5 92.5
t34.5 93t24.5 74h320l-2 -23q-24 -38 -51 -80.5t-56 -85.5t-59.5 -86t-62.5 -83h-219z" />
    <glyph glyph-name="uni03D1" unicode="&#x3d1;" horiz-adv-x="1329" 
d="M531 -20q-121 0 -209 32.5t-136.5 94.5t-48.5 152q0 31 7 60.5t14 56.5q6 22 10.5 43.5t4.5 38.5q0 21 -6.5 31t-22.5 10q-13 0 -29.5 -6.5t-35.5 -16.5v264q35 17 94 34.5t135 17.5q100 0 158.5 -52.5t58.5 -141.5q0 -31 -6.5 -66.5t-14.5 -69.5q-8 -35 -16 -66.5
t-8 -56.5q0 -37 21 -59.5t64 -22.5q35 0 67.5 18t61.5 54t55 89.5t47.5 125t39.5 161.5q-160 9 -265.5 68t-158 154.5t-52.5 211.5q0 126 55 225t159 156t250 57q161 0 255 -63t134.5 -169.5t40.5 -238.5q0 -27 -2.5 -55.5t-6.5 -60.5h122l-61 -283h-112
q-33 -144 -75 -259.5t-97 -203t-126 -146.5t-161.5 -88.5t-203.5 -29.5zM885 990q6 36 8.5 73.5t2.5 65.5q0 76 -20 123.5t-65 47.5q-32 0 -53.5 -22.5t-32.5 -57t-11 -72.5q0 -45 18.5 -79t56 -54.5t96.5 -24.5z" />
    <glyph glyph-name="uni03D2" unicode="&#x3d2;" horiz-adv-x="1143" 
d="M246 0l118 558l-187 904h377l64 -499q27 53 56.5 105.5t61 103t65.5 98t70 88.5q54 60 114 88.5t132 28.5q57 0 101 -9t84 -27l-66 -290q-11 8 -29 14.5t-41 6.5q-33 0 -63.5 -24t-69.5 -81q-32 -44 -68 -99.5t-74.5 -120t-78.5 -137t-81 -152.5l-118 -556h-367z" />
    <glyph glyph-name="uni03D6" unicode="&#x3d6;" horiz-adv-x="1835" 
d="M471 -20q-167 0 -249.5 106t-82.5 298q0 72 14.5 151.5t40 160t57.5 153.5h-181l36 179l181 105h1594l-58 -284h-187q3 -19 4 -38.5t1 -45.5q0 -129 -22.5 -246t-66.5 -215.5t-110 -171t-152.5 -112.5t-192.5 -40q-125 0 -200.5 48.5t-84.5 151.5q-54 -93 -133.5 -146.5
t-207.5 -53.5zM569 282q38 0 62 29.5t40 83.5t31 126l27 123h349l-27 -123q-7 -30 -12 -58.5t-8.5 -52t-3.5 -42.5q0 -42 13 -64t49 -22q42 1 74 30.5t55 79.5t38 112t22 127t7 124q0 23 -0.5 46.5t-3.5 47.5h-669q-34 -76 -60 -153.5t-40 -152t-14 -144.5q0 -55 16 -86
t55 -31z" />
    <glyph glyph-name="uni0400" unicode="&#x400;" horiz-adv-x="1005" 
d="M12 0l309 1462h766l-64 -306h-399l-52 -247h371l-67 -306h-371l-62 -292h400l-66 -311h-765zM643 1575q-34 38 -78 94t-83.5 113.5t-61.5 100.5v20h380q9 -41 20.5 -89.5t28.5 -101.5t38 -111l-1 -26h-243z" />
    <glyph glyph-name="uni0401" unicode="&#x401;" horiz-adv-x="1005" 
d="M12 0l309 1462h766l-64 -306h-399l-52 -247h371l-67 -306h-371l-62 -292h400l-66 -311h-765zM951 1591q-68 0 -109 27.5t-41 93.5q0 88 51 140.5t144 52.5q59 0 101.5 -26.5t42.5 -92.5q0 -88 -49 -141.5t-140 -53.5zM513 1591q-68 0 -108.5 27.5t-40.5 93.5
q0 88 51 140.5t144 52.5q39 0 71.5 -11t52.5 -37.5t20 -70.5q0 -88 -49.5 -141.5t-140.5 -53.5z" />
    <glyph glyph-name="uni0402" unicode="&#x402;" horiz-adv-x="1391" 
d="M864 -20q-46 0 -101 9.5t-90 28.5l29 290q23 -14 48.5 -19.5t47.5 -5.5q31 0 49.5 12.5t29.5 37.5t18 62l24 110q3 17 5 36t2 30q0 33 -17 53.5t-64 20.5h-150l-135 -645h-367l241 1150h-273l66 312h916l-67 -312h-275l-41 -193h188q168 0 255.5 -84t87.5 -214
q0 -36 -4 -79t-13 -85l-35 -174q-25 -127 -72.5 -202t-121.5 -107t-181 -32z" />
    <glyph glyph-name="uni0403" unicode="&#x403;" horiz-adv-x="962" 
d="M12 0l309 1462h786l-64 -307h-420l-245 -1155h-366zM535 1575l3 23q43 45 86 96t84 104.5t76 104.5h401l-1 -16q-23 -25 -72.5 -68t-108.5 -91t-114 -89.5t-89 -63.5h-265z" />
    <glyph glyph-name="uni0404" unicode="&#x404;" horiz-adv-x="1145" 
d="M558 -20q-159 0 -263.5 65t-156 184t-51.5 279q0 136 30 274.5t89.5 264.5t148 224.5t206 155.5t264.5 57q126 0 231.5 -27.5t192.5 -85.5l-155 -292q-74 46 -136.5 69.5t-127.5 23.5q-55 0 -100 -25t-82 -65.5t-65 -89t-47 -96.5h410l-65 -304h-411q-1 -21 -2.5 -42
t-1.5 -41q0 -72 18 -120.5t54 -72.5t90 -24q48 0 98.5 11t107.5 31t124 47v-313q-61 -29 -130.5 -48.5t-139 -29.5t-130.5 -10z" />
    <glyph glyph-name="uni0405" unicode="&#x405;" horiz-adv-x="1007" 
d="M366 -20q-109 0 -200.5 23t-162.5 73l37 349q66 -47 159 -85.5t174 -38.5q30 0 56.5 7t47 21.5t32.5 39t12 59.5q0 34 -15.5 64t-47 61t-78.5 70q-65 54 -110 111.5t-68 126.5t-23 156q0 99 33.5 183.5t98.5 148.5t160 99t217 35q100 0 201 -27.5t185 -81.5l-144 -302
q-65 42 -130.5 68.5t-119.5 26.5q-32 0 -56 -9t-39.5 -24.5t-23.5 -37.5t-8 -48q0 -28 11.5 -55.5t42.5 -61t90 -78.5q73 -54 117.5 -113t64.5 -126.5t20 -150.5q0 -101 -34 -189t-100.5 -154t-166.5 -103t-232 -37z" />
    <glyph glyph-name="uni0406" unicode="&#x406;" horiz-adv-x="640" 
d="M11 0l310 1462h366l-310 -1462h-366z" />
    <glyph glyph-name="uni0407" unicode="&#x407;" horiz-adv-x="640" 
d="M11 0l310 1462h366l-310 -1462h-366zM766 1611q-68 0 -109 27.5t-41 93.5q0 88 51 140.5t144 52.5q59 0 101.5 -26.5t42.5 -92.5q0 -88 -49 -141.5t-140 -53.5zM328 1611q-68 0 -108.5 27.5t-40.5 93.5q0 88 51 140.5t144 52.5q39 0 71.5 -11t52.5 -37.5t20 -70.5
q0 -88 -49.5 -141.5t-140.5 -53.5z" />
    <glyph glyph-name="uni0408" unicode="&#x408;" horiz-adv-x="664" 
d="M-123 -460q-58 0 -108.5 7t-94.5 20l32 309q33 -11 67.5 -18.5t73.5 -7.5q60 0 99.5 32.5t65.5 90.5t41 134l290 1355h367l-299 -1404q-40 -187 -109.5 -301t-173.5 -165.5t-251 -51.5z" />
    <glyph glyph-name="uni0409" unicode="&#x409;" horiz-adv-x="1778" 
d="M55 -20q-36 0 -72 6t-69 18v300q29 -11 51.5 -16t42.5 -5q27 0 53.5 10.5t55 48t61.5 117.5q27 62 58.5 154t69 215.5t82 281.5t96.5 352h866l-112 -531h29q145 0 241.5 -47t144.5 -133.5t48 -205.5q0 -109 -34.5 -207t-106 -174t-182.5 -120t-265 -44h-436l242 1145
h-167q-28 -100 -62 -218t-68.5 -232.5t-65 -206t-51.5 -138.5q-59 -137 -119 -218t-138 -116.5t-193 -35.5zM1105 301h52q41 0 72.5 16t54 45t34 69t11.5 89q0 51 -29.5 81t-85.5 30h-40z" />
    <glyph glyph-name="uni040A" unicode="&#x40a;" horiz-adv-x="1748" 
d="M12 0l309 1462h366l-113 -539h266l115 539h365l-112 -531h29q145 0 241.5 -47t145 -133.5t48.5 -205.5q0 -111 -35 -209.5t-107 -174t-183 -118.5t-263 -43h-440l131 614h-267l-130 -614h-366zM1077 301h51q54 0 92 27.5t58.5 77t20.5 114.5q0 51 -29.5 81t-85.5 30h-40z
" />
    <glyph glyph-name="uni040B" unicode="&#x40b;" horiz-adv-x="1386" 
d="M193 0l241 1150h-273l66 312h916l-67 -312h-275l-41 -193h168q170 0 256.5 -89.5t86.5 -231.5q0 -40 -6.5 -90.5t-16.5 -103.5l-91 -442h-365l106 505q4 17 5.5 36t1.5 30q0 33 -16.5 53.5t-63.5 20.5h-130l-135 -645h-367z" />
    <glyph glyph-name="uni040C" unicode="&#x40c;" horiz-adv-x="1194" 
d="M12 0l309 1462h366l-147 -691l439 691h403l-493 -718l188 -744h-395l-151 731l-153 -731h-366zM653 1575l3 23q43 45 86 96t84 104.5t76 104.5h401l-1 -16q-23 -25 -72.5 -68t-108.5 -91t-114 -89.5t-89 -63.5h-265z" />
    <glyph glyph-name="uni040D" unicode="&#x40d;" horiz-adv-x="1447" 
d="M12 0l309 1462h345l-122 -568q-9 -43 -21.5 -96t-28 -111t-33.5 -117h8l578 892h446l-309 -1462h-345l120 567q9 45 22 100t29.5 118t35.5 128h-8l-580 -913h-446zM841 1575q-34 38 -78 94t-83.5 113.5t-61.5 100.5v20h380q9 -41 20.5 -89.5t28.5 -101.5t38 -111l-1 -26
h-243z" />
    <glyph glyph-name="uni040E" unicode="&#x40e;" horiz-adv-x="1151" 
d="M225 -20q-60 0 -110 8.5t-94 21.5v303q34 -15 79.5 -22.5t86.5 -7.5t69.5 8.5t49 25.5t37 42.5t32.5 58.5l-193 1044h374l65 -457q4 -27 8 -65.5t8 -75.5t6 -63q18 50 41 107t49 113l203 441h399l-580 -1079q-63 -119 -135.5 -210t-167.5 -142t-227 -51zM768 1570
q-128 0 -211 35.5t-123.5 104t-40.5 166.5q0 12 2.5 33t5.5 37h290q-3 -18 -5 -37.5t-2 -34.5q0 -56 29 -82.5t81 -26.5q62 0 103.5 43t62.5 138h295q-23 -118 -83 -202.5t-159.5 -129t-244.5 -44.5z" />
    <glyph glyph-name="uni040F" unicode="&#x40f;" horiz-adv-x="1294" 
d="M245 -456l98 456h-331l309 1462h366l-242 -1150h287l242 1150h367l-310 -1462h-333l-96 -456h-357z" />
    <glyph glyph-name="uni0410" unicode="&#x410;" horiz-adv-x="1237" 
d="M-120 0l688 1465h469l73 -1465h-373l-1 280h-348l-117 -280h-391zM515 584h225v400q1 49 1.5 97t4.5 98h-7q-12 -50 -27 -95t-34 -93z" />
    <glyph glyph-name="uni0411" unicode="&#x411;" horiz-adv-x="1115" 
d="M12 0l308 1462h796l-65 -310h-430l-47 -221h30q145 0 241.5 -47t145 -133.5t48.5 -205.5q0 -109 -35 -207t-106.5 -174t-183 -120t-264.5 -44h-438zM443 301h52q53 0 91.5 27.5t59 77t20.5 114.5q0 51 -29.5 81t-86.5 30h-39z" />
    <glyph glyph-name="uni0412" unicode="&#x412;" horiz-adv-x="1179" 
d="M12 0l309 1462h442q128 0 221 -35t143.5 -105t50.5 -177q0 -92 -31.5 -167t-94 -128.5t-154.5 -83.5v-8q77 -29 123 -100t46 -172q0 -148 -68 -257t-191 -169t-289 -60h-507zM441 297h72q57 0 97.5 27.5t62 72t21.5 97.5q0 61 -27.5 92t-91.5 31h-66zM567 897h64
q57 0 93 25t53 65.5t17 88.5q0 46 -27 71t-83 25h-56z" />
    <glyph glyph-name="uni0413" unicode="&#x413;" horiz-adv-x="962" 
d="M12 0l309 1462h786l-64 -307h-420l-245 -1155h-366z" />
    <glyph glyph-name="uni0414" unicode="&#x414;" horiz-adv-x="1430" 
d="M-210 -456l160 768h132q68 112 134.5 242.5t128.5 277t118 305t101 325.5h831l-245 -1150h193l-163 -768h-358l98 456h-676l-97 -456h-357zM477 312h307l181 843h-143q-31 -104 -68 -211t-80.5 -213t-92.5 -211.5t-104 -207.5z" />
    <glyph glyph-name="uni0415" unicode="&#x415;" horiz-adv-x="1005" 
d="M12 0l309 1462h766l-64 -306h-399l-52 -247h371l-67 -306h-371l-62 -292h400l-66 -311h-765z" />
    <glyph glyph-name="uni0416" unicode="&#x416;" horiz-adv-x="1738" 
d="M-134 0l500 767l-182 695h379l159 -691l146 691h358l-148 -691l440 691h401l-492 -718l188 -744h-394l-151 731l-154 -731h-358l156 732l-438 -732h-410z" />
    <glyph glyph-name="uni0417" unicode="&#x417;" horiz-adv-x="1122" 
d="M406 -20q-129 0 -231 18.5t-166 54.5v331q71 -49 168.5 -73.5t191.5 -24.5q57 0 104.5 9t82.5 31t54 59.5t19 93.5q0 74 -58.5 103t-156.5 29h-126l66 304h129q89 0 144 18.5t81 55t26 90.5q0 40 -33.5 69.5t-102.5 29.5q-77 0 -147 -30.5t-136 -81.5l-126 258
q112 77 233.5 118t279.5 41q128 0 219.5 -42t140.5 -118.5t50 -180.5q0 -104 -44 -181.5t-123 -125t-186 -63.5l-1 -8q67 -13 122.5 -51.5t89 -102t33.5 -154.5q0 -110 -40 -198t-117 -150t-187.5 -95t-252.5 -33z" />
    <glyph glyph-name="uni0418" unicode="&#x418;" horiz-adv-x="1447" 
d="M12 0l309 1462h345l-122 -568q-9 -43 -21.5 -96t-28 -111t-33.5 -117h8l578 892h446l-309 -1462h-345l120 567q9 45 22 100t29.5 118t35.5 128h-8l-580 -913h-446z" />
    <glyph glyph-name="uni0419" unicode="&#x419;" horiz-adv-x="1447" 
d="M12 0l309 1462h345l-122 -568q-9 -43 -21.5 -96t-28 -111t-33.5 -117h8l578 892h446l-309 -1462h-345l120 567q9 45 22 100t29.5 118t35.5 128h-8l-580 -913h-446zM922 1570q-128 0 -211 35.5t-123.5 104t-40.5 166.5q0 12 2.5 33t5.5 37h290q-3 -18 -5 -37.5t-2 -34.5
q0 -56 29 -82.5t81 -26.5q62 0 103.5 43t62.5 138h295q-23 -118 -83 -202.5t-159.5 -129t-244.5 -44.5z" />
    <glyph glyph-name="uni041A" unicode="&#x41a;" horiz-adv-x="1194" 
d="M12 0l309 1462h366l-147 -691l439 691h403l-493 -718l188 -744h-395l-151 731l-153 -731h-366z" />
    <glyph glyph-name="uni041B" unicode="&#x41b;" horiz-adv-x="1313" 
d="M55 -20q-36 0 -72 6t-69 18v300q29 -11 51.5 -16t42.5 -5q27 0 54.5 12t58.5 54t66 130q21 53 52 148.5t69.5 225t83 284t92.5 325.5h876l-307 -1462h-367l241 1145h-175q-19 -68 -43.5 -156t-52.5 -182t-55.5 -182.5t-52.5 -160t-43 -114.5q-59 -137 -119 -218
t-138 -116.5t-193 -35.5z" />
    <glyph glyph-name="uni041C" unicode="&#x41c;" horiz-adv-x="1691" 
d="M12 0l309 1462h481l10 -941h7l418 941h500l-312 -1462h-342l130 606q19 90 34.5 152t28 104t19.5 72h-7l-422 -934h-324l-8 928h-7q-11 -72 -21.5 -137.5t-20 -122.5t-20.5 -106l-119 -562h-334z" />
    <glyph glyph-name="uni041D" unicode="&#x41d;" horiz-adv-x="1308" 
d="M12 0l309 1462h366l-114 -547h300l115 547h367l-310 -1462h-367l127 603h-299l-128 -603h-366z" />
    <glyph glyph-name="uni041E" unicode="&#x41e;" horiz-adv-x="1343" 
d="M582 -20q-166 0 -275.5 61.5t-164 179.5t-54.5 288q0 115 20.5 231t62 225.5t103 203.5t143.5 165t184.5 111t225.5 40q245 0 364.5 -139.5t119.5 -388.5q0 -106 -18.5 -219t-56.5 -222.5t-97 -206t-140 -170.5t-185 -116.5t-232 -42.5zM611 294q48 0 91 29t79 79.5
t64.5 117t48.5 141t30.5 151t10.5 148.5q0 103 -36 158.5t-103 55.5q-51 0 -95 -30.5t-81 -82.5t-65.5 -119t-48.5 -142t-30.5 -149.5t-10.5 -141.5q0 -78 16.5 -125t49.5 -68.5t80 -21.5z" />
    <glyph glyph-name="uni041F" unicode="&#x41f;" horiz-adv-x="1294" 
d="M12 0l309 1462h1020l-310 -1462h-366l242 1150h-286l-243 -1150h-366z" />
    <glyph glyph-name="uni0420" unicode="&#x420;" horiz-adv-x="1132" 
d="M12 0l309 1462h365q167 0 269 -51t148.5 -140t46.5 -203q0 -118 -38 -223.5t-113 -186t-184.5 -127t-252.5 -46.5h-83l-101 -485h-366zM545 793h44q58 0 100.5 32t65.5 87.5t23 127.5q0 55 -27.5 85t-88.5 30h-39z" />
    <glyph glyph-name="uni0421" unicode="&#x421;" horiz-adv-x="1128" 
d="M546 -20q-153 0 -255 65t-153 181.5t-51 272.5q0 138 29 278t86.5 267t144.5 226.5t202.5 156.5t260.5 57q119 0 223 -28.5t194 -89.5l-154 -287q-71 46 -131.5 69.5t-123.5 23.5q-69 0 -125 -44t-98.5 -117t-71 -160t-43 -174.5t-14.5 -159.5q0 -116 42.5 -170.5
t120.5 -54.5q79 0 154 22.5t161 61.5v-313q-93 -44 -195.5 -63.5t-202.5 -19.5z" />
    <glyph glyph-name="uni0422" unicode="&#x422;" horiz-adv-x="1005" 
d="M193 0l241 1150h-276l66 312h922l-67 -312h-278l-241 -1150h-367z" />
    <glyph glyph-name="uni0423" unicode="&#x423;" horiz-adv-x="1151" 
d="M225 -20q-60 0 -110 8.5t-94 21.5v303q34 -15 79.5 -22.5t86.5 -7.5t69.5 8.5t49 25.5t37 42.5t32.5 58.5l-193 1044h374l65 -457q4 -27 8 -65.5t8 -75.5t6 -63q18 50 41 107t49 113l203 441h399l-580 -1079q-63 -119 -135.5 -210t-167.5 -142t-227 -51z" />
    <glyph glyph-name="uni0424" unicode="&#x424;" horiz-adv-x="1571" 
d="M476 -20l49 225q-145 11 -242.5 68t-146.5 152t-49 217q0 126 38 242t118.5 208t208 148t305.5 63l38 180h350l-38 -180q142 -10 239.5 -70.5t147.5 -156.5t50 -213q0 -133 -39.5 -250.5t-121 -207.5t-208.5 -142.5t-301 -57.5l-48 -225h-350zM587 497l109 513
q-58 -1 -103.5 -30t-77 -77.5t-48 -110t-16.5 -127.5q0 -48 11.5 -85t41.5 -58.5t83 -24.5zM937 498q60 1 105.5 29t76 75.5t46.5 107.5t16 125q0 50 -14.5 88t-44 60.5t-77.5 26.5z" />
    <glyph glyph-name="uni0425" unicode="&#x425;" horiz-adv-x="1191" 
d="M-123 0l517 754l-183 708h387l85 -416l252 416h409l-490 -722l218 -740h-401l-103 442l-285 -442h-406z" />
    <glyph glyph-name="uni0426" unicode="&#x426;" horiz-adv-x="1404" 
d="M798 -456l98 456h-884l309 1462h366l-244 -1150h301l244 1150h367l-247 -1160h209l-163 -758h-356z" />
    <glyph glyph-name="uni0427" unicode="&#x427;" horiz-adv-x="1251" 
d="M624 0l112 528q-67 -33 -145.5 -54.5t-155.5 -21.5q-99 0 -165 37.5t-99 106t-33 161.5q0 30 5.5 71t13.5 83l111 551h368l-103 -499q-6 -30 -10 -53.5t-4 -44.5q0 -51 25 -76t66 -25q44 0 95 18.5t92 43.5l135 636h367l-309 -1462h-366z" />
    <glyph glyph-name="uni0428" unicode="&#x428;" horiz-adv-x="1864" 
d="M12 0l306 1462h366l-241 -1150h248l242 1150h364l-242 -1150h248l241 1150h367l-306 -1462h-1593z" />
    <glyph glyph-name="uni0429" unicode="&#x429;" horiz-adv-x="1963" 
d="M1357 -456l99 456h-1444l306 1462h366l-241 -1150h248l242 1150h364l-242 -1150h248l241 1150h367l-244 -1160h209l-161 -758h-358z" />
    <glyph glyph-name="uni042A" unicode="&#x42a;" horiz-adv-x="1295" 
d="M191 0l243 1150h-276l66 312h643l-112 -531h29q145 0 241 -47t144.5 -133.5t48.5 -205.5q0 -109 -34.5 -207t-106 -174t-182.5 -120t-265 -44h-439zM623 301h51q54 0 92 27.5t58.5 77t20.5 114.5q0 51 -29.5 81t-85.5 30h-39z" />
    <glyph glyph-name="uni042B" unicode="&#x42b;" horiz-adv-x="1727" 
d="M12 0l308 1462h366l-112 -531h30q145 0 241.5 -47t145 -133.5t48.5 -205.5q0 -110 -35 -208.5t-107 -174t-183 -119t-264 -43.5h-438zM443 301h52q40 0 71.5 16t54 45t34 69t11.5 89q0 51 -29.5 81t-86.5 30h-39zM1097 0l310 1462h367l-311 -1462h-366z" />
    <glyph glyph-name="uni042C" unicode="&#x42c;" horiz-adv-x="1115" 
d="M12 0l309 1462h365l-112 -531h30q145 0 241.5 -47t145 -133.5t48.5 -205.5q0 -110 -35 -208.5t-107 -174t-183 -119t-264 -43.5h-438zM443 301h52q40 0 71.5 16t54 45t34 69t11.5 89q0 51 -29.5 81t-86.5 30h-39z" />
    <glyph glyph-name="uni042D" unicode="&#x42d;" horiz-adv-x="1145" 
d="M367 -20q-101 0 -187 18.5t-157 62.5v318q50 -30 108.5 -49.5t115 -28.5t99.5 -9q79 0 142 35.5t111.5 103t81.5 161.5h-422l66 304h413q1 8 1.5 21t0.5 21q0 77 -18.5 129t-58 78.5t-101.5 26.5q-67 0 -131 -19.5t-143 -61.5l-91 286q92 50 205 78.5t222 28.5
q158 0 266.5 -65.5t164 -191t55.5 -306.5q0 -117 -27.5 -246.5t-84.5 -252.5t-145 -223t-209 -159.5t-277 -59.5z" />
    <glyph glyph-name="uni042E" unicode="&#x42e;" horiz-adv-x="1908" 
d="M1163 -20q-162 0 -269.5 61.5t-160.5 179.5t-53 288q0 23 1 46.5t2 46.5h-177l-128 -602h-366l309 1462h366l-114 -548h169q33 110 90 212.5t138.5 183.5t187.5 128t240 47q231 0 354 -135.5t123 -392.5q0 -105 -18 -217.5t-55 -222t-95 -206.5t-137 -171.5t-180.5 -117
t-226.5 -42.5zM1187 294q49 0 91 32t76.5 87t61.5 124t45.5 144t28 147t9.5 132q0 103 -35 158.5t-101 55.5q-49 0 -92.5 -31.5t-79 -85t-63 -121.5t-46.5 -143t-28.5 -148t-9.5 -136q0 -78 16 -125t48 -68.5t79 -21.5z" />
    <glyph glyph-name="uni042F" unicode="&#x42f;" horiz-adv-x="1183" 
d="M-139 0l454 642q-53 48 -83.5 116t-30.5 169q0 119 37.5 217.5t111.5 169.5t182 109.5t249 38.5h449l-310 -1462h-367l114 536h-43l-340 -536h-423zM683 824h45l73 343h-60q-42 0 -73.5 -18.5t-53 -50t-32.5 -72t-11 -83.5q0 -60 31.5 -89.5t80.5 -29.5z" />
    <glyph glyph-name="uni0430" unicode="&#x430;" horiz-adv-x="1120" 
d="M335 -20q-79 0 -142.5 41.5t-99.5 126.5t-36 218q0 85 18 189.5t55 209.5t93.5 193t134 141.5t175.5 53.5q54 0 97.5 -17.5t77.5 -52t57 -88.5h7l53 138h299l-241 -1133h-288l1 129h-8q-32 -43 -68 -76.5t-80.5 -53t-104.5 -19.5zM489 274q44 0 78 44t58 109.5t36 130.5
q14 63 18 101.5t4 68.5q0 61 -17.5 94t-53.5 33q-32 0 -60.5 -30t-52 -80t-40.5 -110t-26.5 -120.5t-9.5 -111.5q0 -63 16.5 -96t49.5 -33z" />
    <glyph glyph-name="uni0431" unicode="&#x431;" horiz-adv-x="1104" 
d="M469 -20q-118 0 -209.5 49t-143.5 154.5t-52 273.5q0 114 17.5 236.5t57 242.5t104.5 226.5t160.5 187.5t224.5 125q47 19 104 34t124.5 27t145.5 21t167 16l19 -314q-61 -6 -126.5 -13t-129 -15.5t-120.5 -19.5q-101 -19 -164.5 -60.5t-98.5 -100.5t-53 -133h7
q48 65 114.5 102.5t142.5 37.5q90 0 152.5 -42t96 -124.5t33.5 -203.5q0 -122 -37 -246.5t-109.5 -229t-179.5 -168t-247 -63.5zM491 274q30 0 57 25.5t50 68t40 95t26.5 107.5t9.5 104q0 45 -12 77t-49 32q-26 0 -57.5 -23.5t-59.5 -55.5t-46 -61q-12 -51 -19.5 -107
t-7.5 -100q0 -59 9 -95t24.5 -51.5t34.5 -15.5z" />
    <glyph glyph-name="uni0432" unicode="&#x432;" horiz-adv-x="1130" 
d="M494 -20q-125 0 -223 48t-154 142t-56 232q0 109 22 216.5t69 204t120.5 171t175.5 117t234 42.5q121 0 211 -35.5t139.5 -103t49.5 -164.5q0 -73 -30 -125.5t-85.5 -87t-130.5 -54.5l-1 -8q69 -15 120.5 -70.5t51.5 -157.5q0 -105 -56.5 -188t-170 -131t-286.5 -48z
M529 234q31 0 57.5 14.5t43.5 42.5t17 66q0 37 -12.5 62.5t-37.5 38.5t-64 13h-109q-3 -26 -4.5 -40.5t-1.5 -41.5q0 -88 31.5 -121.5t79.5 -33.5zM478 714h108q51 0 79.5 14t40.5 38.5t12 54.5q0 38 -17.5 58t-48.5 20q-43 0 -75 -25t-55.5 -66.5t-43.5 -93.5z" />
    <glyph glyph-name="uni0433" unicode="&#x433;" horiz-adv-x="935" 
d="M405 -20q-103 0 -190 28.5t-140.5 97.5t-55.5 190q0 71 20.5 129.5t61.5 107t103.5 87.5t146.5 69q67 26 106.5 48.5t57 46.5t17.5 52q0 25 -20 37.5t-56 12.5q-58 0 -113 -21.5t-102 -47.5l-85 241q78 44 170.5 69.5t191.5 25.5q114 0 198.5 -35t131.5 -104.5t47 -173.5
q0 -80 -21 -141.5t-64 -109.5t-109 -86.5t-157 -72.5q-60 -25 -93.5 -44t-47 -36.5t-13.5 -41.5q0 -25 24.5 -36.5t68.5 -11.5q40 0 90.5 10.5t103 28.5t97.5 40v-276q-82 -42 -174.5 -62.5t-194.5 -20.5z" />
    <glyph glyph-name="uni0434" unicode="&#x434;" horiz-adv-x="1151" 
d="M482 -20q-138 0 -232 48.5t-141.5 139t-47.5 214.5q0 96 18.5 191.5t56.5 180.5t93.5 151.5t128.5 104.5t164 38q51 0 95.5 -16.5t79 -44t55.5 -63.5h7q5 31 6 60.5t1 52.5q0 140 -42 196t-137 56q-49 0 -102 -16.5t-107 -45.5l-71 276q78 35 168 55t189 20
q149 0 252.5 -64t157 -187.5t53.5 -303.5q0 -107 -13.5 -225.5t-43.5 -235.5t-79.5 -221.5t-121 -186t-167.5 -128t-220 -46.5zM510 268q33 0 61 28.5t51.5 75t41.5 103t31 113t20 102.5q-8 18 -24 36.5t-38 31t-51 12.5q-31 0 -59 -23.5t-50 -63.5t-38.5 -90.5
t-25.5 -105.5t-9 -107q0 -48 21.5 -80t68.5 -32z" />
    <glyph glyph-name="uni0435" unicode="&#x435;" horiz-adv-x="1065" 
d="M470 -20q-129 0 -221 50t-140.5 143t-48.5 221q0 136 35.5 270.5t110.5 245t190.5 176.5t274.5 66q167 0 266.5 -82.5t99.5 -221.5q0 -98 -38 -174t-112 -127.5t-181.5 -78t-247.5 -26.5h-40q-2 -11 -2.5 -21.5t-0.5 -19.5q0 -80 36.5 -115t108.5 -35q80 0 148.5 21.5
t155.5 68.5v-259q-91 -53 -183 -77.5t-211 -24.5zM462 679h17q87 0 136 20t69 52.5t20 68.5q0 32 -20.5 52.5t-57.5 20.5t-69.5 -27.5t-56.5 -76t-38 -110.5z" />
    <glyph glyph-name="uni0436" unicode="&#x436;" horiz-adv-x="1922" 
d="M94 -20q-38 0 -73 4t-69 11l75 287q14 -3 29 -5t32 -2q45 0 82 28t64 75.5t45 105t27 117.5t9 113q0 71 -21 106.5t-65 35.5q-24 0 -48.5 -6t-51.5 -16v288q34 15 83 23t98 8q165 0 262.5 -100.5t97.5 -296.5q0 -12 -0.5 -23.5t-1.5 -24.5h146l92 425h344l-91 -425h130
q28 97 74 178.5t112 141t152 92.5t192 33q38 0 73 -3.5t69 -10.5l-74 -288q-15 3 -30 5t-32 2q-42 0 -78 -26t-63.5 -71t-46.5 -101.5t-29 -118.5t-10 -122q0 -70 22 -106t65 -36q24 0 48.5 6t50.5 16v-289q-34 -14 -83 -22t-98 -8q-107 0 -188 43t-125.5 132.5t-44.5 229.5
q0 14 0.5 29t1.5 29h-145l-94 -443h-345l94 443h-128q-32 -115 -82.5 -202t-118 -145t-151 -87t-183.5 -29z" />
    <glyph glyph-name="uni0437" unicode="&#x437;" horiz-adv-x="1010" 
d="M378 -20q-113 0 -209.5 20.5t-165.5 58.5v294q85 -46 173 -68t171 -22q49 0 92 10.5t70.5 33.5t27.5 60q0 47 -37 71.5t-133 24.5h-123l52 244h122q59 0 101 9.5t64.5 30t22.5 52.5q0 40 -21.5 59t-77.5 19q-54 0 -127 -18t-144 -53l-80 256q105 50 207.5 70.5
t215.5 20.5t199.5 -29.5t136 -92.5t49.5 -166q0 -68 -27 -120t-79.5 -89t-131.5 -62l-1 -9q87 -22 130 -84t43 -145q0 -107 -59 -192.5t-175 -134.5t-286 -49z" />
    <glyph glyph-name="uni0438" unicode="&#x438;" horiz-adv-x="1140" 
d="M340 -20q-92 0 -152.5 38.5t-90 104.5t-29.5 151q0 46 6 97t15 100l141 662h357l-131 -623q-8 -36 -14 -77t-6 -72q0 -39 17 -59t47 -20q34 0 64.5 34t56.5 98t44 153l121 566h357l-239 -1133h-287l9 145h-7q-35 -55 -76.5 -91.5t-91.5 -55t-111 -18.5z" />
    <glyph glyph-name="uni0439" unicode="&#x439;" horiz-adv-x="1140" 
d="M340 -20q-92 0 -152.5 38.5t-90 104.5t-29.5 151q0 46 6 97t15 100l141 662h357l-131 -623q-8 -36 -14 -77t-6 -72q0 -39 17 -59t47 -20q34 0 64.5 34t56.5 98t44 153l121 566h357l-239 -1133h-287l9 145h-7q-35 -55 -76.5 -91.5t-91.5 -55t-111 -18.5zM700 1236
q-128 0 -211 35.5t-123.5 104t-40.5 166.5q0 12 2.5 33t5.5 37h290q-3 -18 -5 -37.5t-2 -34.5q0 -56 29 -82.5t81 -26.5q62 0 103.5 43t62.5 138h295q-23 -118 -83 -202.5t-159.5 -129t-244.5 -44.5z" />
    <glyph glyph-name="uni043A" unicode="&#x43a;" horiz-adv-x="1146" 
d="M-2 0l239 1133h357l-110 -527l356 527h399l-406 -565l190 -568h-388l-164 546l-114 -546h-359z" />
    <glyph glyph-name="uni043B" unicode="&#x43b;" horiz-adv-x="1205" 
d="M84 -20q-39 0 -75 8t-70 23v291q22 -14 42.5 -18.5t38.5 -4.5q25 0 46.5 15.5t42 54.5t42.5 105.5t47 168.5q34 131 79.5 230.5t114 166t168 100t241.5 33.5q123 0 220 -15t180 -36l-230 -1102h-357l181 863q-10 2 -20.5 2.5t-20.5 0.5q-55 0 -94.5 -33t-74 -117
t-75.5 -238q-28 -108 -61.5 -199t-81 -158t-116 -104t-167.5 -37z" />
    <glyph glyph-name="uni043C" unicode="&#x43c;" horiz-adv-x="1542" 
d="M3 0l241 1133h475l22 -660h7l299 660h499l-241 -1133h-337l84 396q25 113 42 180t26 110h-5l-312 -686h-300l-27 686h-6q-11 -83 -21.5 -155.5t-23.5 -132.5l-86 -398h-336z" />
    <glyph glyph-name="uni043D" unicode="&#x43d;" horiz-adv-x="1147" 
d="M-2 0l242 1133h357l-87 -412h194l88 412h357l-239 -1133h-358l93 440h-195l-93 -440h-359z" />
    <glyph glyph-name="uni043E" unicode="&#x43e;" horiz-adv-x="1112" 
d="M458 -20q-126 0 -215 49t-135.5 141.5t-46.5 223.5q0 102 22 209t68.5 205.5t117.5 176t168 123t222 45.5t213 -49.5t134.5 -142t46.5 -221.5q0 -106 -23 -214t-69.5 -206t-117.5 -174.5t-167 -121t-218 -44.5zM499 263q33 0 62 31t53 83t41 115.5t26 129.5t9 124
q0 41 -8.5 68.5t-25 41.5t-41.5 14q-34 0 -63.5 -31t-53 -83t-40.5 -115.5t-26 -129.5t-9 -125q0 -60 19 -91.5t57 -31.5z" />
    <glyph glyph-name="uni043F" unicode="&#x43f;" horiz-adv-x="1140" 
d="M-2 0l241 1133h285l-8 -145h7q35 56 77 92.5t91.5 54.5t109.5 18q84 0 144.5 -34t94.5 -99t34 -161q0 -43 -5.5 -92.5t-16.5 -103.5l-140 -663h-358l131 625q8 35 14.5 76t6.5 72q0 39 -17 59t-47 20q-36 0 -67 -34t-55.5 -97.5t-43.5 -151.5l-119 -569h-359z" />
    </font>
</defs>
</svg>
