<?xml version="1.0" standalone="no"?>
<!DOCTYPE svg PUBLIC "-//W3C//DTD SVG 1.1//EN" "http://www.w3.org/Graphics/SVG/1.1/DTD/svg11.dtd" >
<svg xmlns="http://www.w3.org/2000/svg" xmlns:xlink="http://www.w3.org/1999/xlink" version="1.1">
<metadata>
Created by FontForge 20170731 at Wed Feb 10 17:54:37 2021
 By Aleksey,,,
Copyright 2020 The Open Sans Project Authors (https://github.com/googlefonts/opensans)
</metadata>
<defs>
<font id="OpenSansSemiCondensed-Italic" horiz-adv-x="1007" >
  <font-face 
    font-family="Open Sans SemiCondensed"
    font-weight="400"
    font-style="italic"
    font-stretch="semi-condensed"
    units-per-em="2048"
    panose-1="0 0 0 0 0 0 0 0 0 0"
    ascent="1638"
    descent="-410"
    x-height="1096"
    cap-height="1462"
    bbox="-876 -538 2145 2165"
    underline-thickness="50"
    underline-position="-175"
    slope="-12"
    unicode-range="U+000D-FFFD"
  />
<missing-glyph horiz-adv-x="1229" 
 />
    <glyph glyph-name="f_f" unicode="ff" horiz-adv-x="1094" 
d="M-127 -492q-34 0 -63 5t-53 13v136q23 -8 48 -13t53 -5q68 0 105 56.5t62 176.5l232 1093h-155l15 77l166 53l26 115q21 93 48 159.5t64.5 109.5t89.5 63t123 20q44 0 89 -9.5t77 -25.5l-50 -122q-24 10 -51.5 17t-58.5 7q-72 0 -111 -52t-64 -170l-25 -116h386l26 120
q20 92 46.5 158.5t64 109.5t90 63t124.5 20q45 0 89.5 -9.5t76.5 -25.5l-50 -122q-24 10 -52 17t-57 7q-72 0 -111 -52t-65 -170l-26 -116h194l-27 -126h-193l-236 -1108q-22 -104 -57 -184t-94.5 -125t-153.5 -45q-33 0 -62.5 5t-52.5 13v136q21 -8 47.5 -13t54.5 -5
q68 0 104.5 57t60.5 176l232 1093h-385l-237 -1108q-22 -104 -57.5 -184t-94 -125t-152.5 -45z" />
    <glyph glyph-name="fi" unicode="fi" horiz-adv-x="997" 
d="M-127 -492q-34 0 -63 5t-53 13v136q23 -8 48 -13t53 -5q74 0 108 60.5t59 172.5l232 1093h-155l15 77l166 53l26 115q21 93 48 159.5t64.5 109.5t89.5 63t123 20q44 0 89 -9.5t77 -25.5l-50 -122q-24 10 -51.5 17t-58.5 7q-72 0 -111 -52t-64 -170l-25 -116h192l-26 -126
h-192l-237 -1108q-22 -104 -57.5 -184t-94 -125t-152.5 -45zM575 0l233 1096h157l-233 -1096h-157zM938 1287q-38 0 -60.5 21.5t-22.5 61.5q0 34 13 64.5t38 50t62 19.5q39 0 59 -20.5t20 -59.5q0 -59 -31.5 -98t-77.5 -39z" />
    <glyph glyph-name="fl" unicode="fl" horiz-adv-x="996" 
d="M-127 -492q-34 0 -63 5t-53 13v136q23 -8 48 -13t53 -5q74 0 108 60.5t59 172.5l232 1093h-155l15 77l166 53l26 115q21 93 48 159.5t64.5 109.5t89.5 63t123 20q44 0 89 -9.5t77 -25.5l-50 -122q-24 10 -51.5 17t-58.5 7q-72 0 -111 -52t-64 -170l-25 -116h192l-26 -126
h-192l-237 -1108q-22 -104 -57.5 -184t-94 -125t-152.5 -45zM575 0l332 1556h156l-331 -1556h-157z" />
    <glyph glyph-name="f_f_i" unicode="ffi" horiz-adv-x="1541" 
d="M-127 -492q-34 0 -63 5t-53 13v136q23 -8 48 -13t53 -5q68 0 105 56.5t62 176.5l232 1093h-155l15 77l166 53l26 115q21 93 48 159.5t64.5 109.5t89.5 63t123 20q44 0 89 -9.5t77 -25.5l-50 -122q-24 10 -51.5 17t-58.5 7q-72 0 -111 -52t-64 -170l-25 -116h386l26 120
q20 92 46.5 158.5t64 109.5t90 63t124.5 20q45 0 89.5 -9.5t76.5 -25.5l-50 -122q-24 10 -52 17t-57 7q-72 0 -111 -52t-65 -170l-26 -116h194l-27 -126h-193l-236 -1108q-22 -104 -57 -184t-94.5 -125t-153.5 -45q-33 0 -62.5 5t-52.5 13v136q21 -8 47.5 -13t54.5 -5
q68 0 104.5 57t60.5 176l232 1093h-385l-237 -1108q-22 -104 -57.5 -184t-94 -125t-152.5 -45zM1120 0l233 1096h157l-234 -1096h-156zM1481 1287q-36 0 -58.5 21.5t-22.5 61.5q0 34 12.5 64.5t37.5 50t61 19.5q40 0 60 -20.5t20 -59.5q0 -59 -32 -98t-78 -39z" />
    <glyph glyph-name="f_f_l" unicode="ffl" horiz-adv-x="1541" 
d="M-127 -492q-34 0 -63 5t-53 13v136q23 -8 48 -13t53 -5q68 0 105 56.5t62 176.5l232 1093h-155l15 77l166 53l26 115q21 93 48 159.5t64.5 109.5t89.5 63t123 20q44 0 89 -9.5t77 -25.5l-50 -122q-24 10 -51.5 17t-58.5 7q-72 0 -111 -52t-64 -170l-25 -116h386l26 120
q20 92 46.5 158.5t64 109.5t90 63t124.5 20q45 0 89.5 -9.5t76.5 -25.5l-50 -122q-24 10 -52 17t-57 7q-72 0 -111 -52t-65 -170l-26 -116h194l-27 -126h-193l-236 -1108q-22 -104 -57 -184t-94.5 -125t-153.5 -45q-33 0 -62.5 5t-52.5 13v136q21 -8 47.5 -13t54.5 -5
q68 0 104.5 57t60.5 176l232 1093h-385l-237 -1108q-22 -104 -57.5 -184t-94 -125t-152.5 -45zM1122 0l331 1556h156l-332 -1556h-155z" />
    <glyph glyph-name=".notdef" horiz-adv-x="1229" 
 />
    <glyph glyph-name=".null" horiz-adv-x="0" 
 />
    <glyph glyph-name="nonmarkingreturn" horiz-adv-x="682" 
 />
    <glyph glyph-name="NULL" horiz-adv-x="0" 
 />
    <glyph glyph-name="NULL" horiz-adv-x="0" 
 />
    <glyph glyph-name="CR" unicode="&#xd;" horiz-adv-x="440" 
 />
    <glyph glyph-name="space" unicode=" " horiz-adv-x="440" 
 />
    <glyph glyph-name="exclam" unicode="!" horiz-adv-x="499" 
d="M141 404l199 1058h187l-258 -1058h-128zM124 -21q-42 0 -66.5 24.5t-24.5 69.5q0 61 33.5 108.5t102.5 47.5q39 0 62.5 -25t23.5 -70q0 -60 -34.5 -107.5t-96.5 -47.5z" />
    <glyph glyph-name="quotedbl" unicode="&#x22;" horiz-adv-x="730" 
d="M536 934l81 528h173l-145 -528h-109zM213 934l81 528h172l-144 -528h-109z" />
    <glyph glyph-name="numbersign" unicode="#" horiz-adv-x="1085" 
d="M105 0l131 441h-204l16 123h224l108 352h-218l17 121h237l126 425h127l-128 -425h246l128 425h122l-125 -425h206l-18 -121h-226l-107 -352h221l-16 -123h-241l-133 -441h-127l137 441h-247l-132 -441h-124zM398 564h246l104 352h-244z" />
    <glyph glyph-name="dollar" unicode="$" horiz-adv-x="959" 
d="M272 -119l47 218q-84 4 -158 23t-125 46l9 152q59 -36 139 -60t163 -27l99 466q-67 36 -120.5 78.5t-84 100t-30.5 139.5q0 115 49 193t135 121t195 51l38 172h101l-36 -172q78 -5 141.5 -25t115.5 -49l-64 -129q-46 27 -101.5 47t-120.5 24l-95 -450q75 -40 129 -84
t83.5 -101t29.5 -137q0 -115 -50.5 -195t-139 -125.5t-201.5 -57.5l-47 -219h-101zM449 238q66 8 114 37t74.5 76.5t26.5 109.5q0 40 -12.5 71.5t-41 60t-74.5 57.5zM479 850l84 399q-65 -7 -111.5 -35t-71.5 -74.5t-25 -110.5q0 -36 13.5 -67.5t41 -58.5t69.5 -53z" />
    <glyph glyph-name="percent" unicode="%" horiz-adv-x="1427" 
d="M209 0l921 1462h135l-919 -1462h-137zM329 565q-94 0 -145.5 67t-51.5 197q0 64 11.5 149t37.5 173.5t68.5 163.5t103.5 121.5t142 46.5q95 0 147 -64.5t52 -189.5q0 -60 -12 -145t-38.5 -175t-69 -168t-103.5 -127t-142 -49zM343 685q47 0 83.5 42.5t62.5 109.5
t43 141.5t25.5 140t8.5 104.5q0 75 -21 108.5t-63 33.5q-46 0 -82.5 -40.5t-63 -104.5t-43.5 -137.5t-25.5 -140.5t-8.5 -112q0 -75 21.5 -110t62.5 -35zM981 -21q-95 0 -146.5 66.5t-51.5 196.5q0 68 12.5 154t38.5 173.5t68.5 162t103 120t141.5 45.5q95 0 147.5 -64.5
t52.5 -188.5q0 -62 -12.5 -147t-39 -175t-69.5 -168t-104 -126.5t-141 -48.5zM994 99q47 0 83 42.5t63 109.5t44 141.5t25.5 140.5t8.5 105q0 74 -22 107.5t-64 33.5q-46 0 -82.5 -41t-62.5 -105.5t-43 -138t-25 -140.5t-8 -109q0 -75 21 -110.5t62 -35.5z" />
    <glyph glyph-name="ampersand" unicode="&#x26;" horiz-adv-x="1117" 
d="M338 -20q-140 0 -225 82.5t-85 233.5q0 113 42.5 203t121.5 165t189 141q-32 66 -53.5 139t-21.5 151q0 109 39.5 197t115.5 140t185 52q75 0 132 -29t89.5 -84.5t32.5 -133.5q0 -102 -43.5 -183.5t-118.5 -149t-169 -129.5l195 -380q49 58 87.5 134t65.5 158h156
q-27 -77 -63 -151.5t-80 -143t-94 -128.5l146 -264h-183l-79 154q-78 -73 -166 -123.5t-216 -50.5zM367 116q62 0 112.5 21.5t93 57t82.5 76.5l-218 427q-72 -48 -129 -103.5t-89.5 -124t-32.5 -155.5q0 -63 22.5 -107.5t63 -68t95.5 -23.5zM513 881q43 30 85 65.5t76.5 78
t54.5 91t20 104.5q0 61 -30.5 99t-87.5 38q-58 0 -97 -34.5t-58.5 -91t-19.5 -125.5q0 -62 14 -116.5t43 -108.5z" />
    <glyph glyph-name="quotesingle" unicode="'" horiz-adv-x="407" 
d="M216 934l81 528h173l-144 -528h-110z" />
    <glyph glyph-name="parenleft" unicode="(" horiz-adv-x="553" 
d="M187 -324q-41 76 -69.5 169.5t-43 195t-14.5 203.5q0 177 33 343.5t97 321t156 294.5t208 264h141q-109 -129 -198.5 -271.5t-153.5 -296.5t-98.5 -318.5t-34.5 -336.5q0 -105 11.5 -205.5t35 -191.5t56.5 -171h-126z" />
    <glyph glyph-name="parenright" unicode=")" horiz-adv-x="553" 
d="M-152 -324q111 129 200 271.5t152.5 296.5t97.5 318.5t34 337.5q0 103 -11 204t-34 193.5t-57 169.5h128q41 -79 69 -171t42 -192.5t14 -204.5q0 -179 -33 -346t-97 -320.5t-155.5 -293t-208.5 -263.5h-141z" />
    <glyph glyph-name="asterisk" unicode="*" horiz-adv-x="927" 
d="M679 759l-104 322l-211 -272l-108 105l252 233l-297 96l50 139l292 -151l29 332l154 -26l-88 -321l327 37l1 -146l-314 16l158 -307z" />
    <glyph glyph-name="plus" unicode="+" horiz-adv-x="1023" 
d="M607 789h359v-133h-359v-418h-134v418h-361v133h361v421h134v-421z" />
    <glyph glyph-name="comma" unicode="," horiz-adv-x="456" 
d="M-89 -266q34 75 70.5 163t69 175.5t55.5 158.5h167l7 -21q-32 -76 -72.5 -158.5t-85.5 -163.5t-91 -154h-120z" />
    <glyph glyph-name="hyphen" unicode="-" horiz-adv-x="586" 
d="M45 477l30 149h455l-30 -149h-455z" />
    <glyph glyph-name="period" unicode="." horiz-adv-x="459" 
d="M124 -21q-42 0 -66 24t-24 68q0 62 34 110t102 48q39 0 62.5 -24.5t23.5 -69.5q0 -61 -35.5 -108.5t-96.5 -47.5z" />
    <glyph glyph-name="slash" unicode="/" horiz-adv-x="697" 
d="M-96 -2l801 1467h155l-801 -1467h-155z" />
    <glyph glyph-name="zero" unicode="0" horiz-adv-x="959" 
d="M379 -20q-146 0 -221.5 105.5t-75.5 313.5q0 91 13.5 206t42 237t73.5 236.5t107 206t143 145.5t182 54q76 0 132 -25.5t93 -76t55 -126t18 -173.5q0 -105 -14.5 -226.5t-43.5 -245t-74.5 -236.5t-108 -202t-142.5 -141t-179 -52zM395 120q63 0 115.5 47.5t96 128.5
t76.5 182.5t55 210t33.5 211.5t11.5 187q0 127 -37 191.5t-114 64.5q-61 0 -113.5 -47.5t-96.5 -127.5t-78 -180t-57.5 -206t-36 -206t-12.5 -178q0 -140 38 -209t119 -69z" />
    <glyph glyph-name="one" unicode="1" horiz-adv-x="959" 
d="M335 0l211 991q11 51 21 96t21.5 89.5t24.5 93.5q-23 -24 -47 -44.5t-54 -41.5l-181 -134l-74 111l405 301h143l-311 -1462h-159z" />
    <glyph glyph-name="two" unicode="2" horiz-adv-x="959" 
d="M-30 0l26 128l413 427q81 84 147.5 158t114.5 144t73.5 142t25.5 151q0 91 -47.5 142.5t-136.5 51.5q-50 0 -95 -15.5t-87 -41.5t-84 -58l-69 112q74 64 161.5 103t197.5 39q101 0 173.5 -38t111.5 -107t39 -162q0 -120 -47 -228t-137.5 -219t-222.5 -241l-331 -337v-7
h567l-29 -144h-764z" />
    <glyph glyph-name="three" unicode="3" horiz-adv-x="959" 
d="M321 -20q-99 0 -175.5 18t-140.5 50v157q61 -39 145 -63.5t169 -24.5q79 0 140 24.5t103 68t63.5 102.5t21.5 128q0 83 -30.5 138t-88 82.5t-141.5 27.5h-100l28 135h101q77 0 142.5 24.5t114 69t75.5 106t27 134.5q0 90 -49 139.5t-135 49.5q-79 0 -148 -29t-136 -78
l-63 117q76 56 164.5 91.5t201.5 35.5q104 0 177 -37t111.5 -104.5t38.5 -158.5q0 -105 -42.5 -193t-119.5 -148t-183 -83l-1 -7q98 -23 160 -99.5t62 -202.5q0 -92 -30.5 -176.5t-91.5 -150.5t-153.5 -104.5t-216.5 -38.5z" />
    <glyph glyph-name="four" unicode="4" horiz-adv-x="959" 
d="M471 0l72 331h-554l26 135l744 1004h179l-211 -999h184l-30 -140h-185l-70 -331h-155zM169 471h403l109 504q12 54 26 110.5t28.5 109t24.5 92.5h-7q-31 -55 -64 -105t-61 -88z" />
    <glyph glyph-name="five" unicode="5" horiz-adv-x="959" 
d="M309 -20q-58 0 -110 8t-96 23t-78 35v160q57 -40 130 -64.5t155 -24.5q93 0 162 30.5t114.5 84t67.5 123t22 146.5q0 125 -62 193t-177 68q-52 0 -98 -9.5t-100 -25.5l-61 58l190 677h586l-31 -145h-446l-127 -442q32 8 69.5 13.5t82.5 5.5q105 0 181 -44t117 -126.5
t41 -198.5q0 -101 -30 -198t-93.5 -175.5t-164.5 -125t-244 -46.5z" />
    <glyph glyph-name="six" unicode="6" horiz-adv-x="959" 
d="M413 -20q-104 0 -176 47.5t-109.5 138.5t-37.5 220q0 111 17.5 230.5t52.5 236.5t86.5 221t118.5 184q51 63 116 114.5t146 81t177 29.5q53 0 97 -5.5t78 -16.5l-35 -139q-30 11 -67 17t-83 6q-114 0 -210.5 -63t-171 -194t-123.5 -335h6q35 50 81 87t101.5 58t119.5 21
q131 0 203 -90.5t72 -244.5q0 -102 -27.5 -208t-84 -196t-143 -145t-204.5 -55zM426 118q72 0 126.5 42.5t90 111t53 147t17.5 150.5q0 104 -43.5 160t-127.5 56q-65 0 -118 -30t-90 -75.5t-55 -93.5q-11 -26 -18.5 -60t-11 -72t-3.5 -78q0 -55 10.5 -102t32.5 -82t56 -54.5
t81 -19.5z" />
    <glyph glyph-name="seven" unicode="7" horiz-adv-x="959" 
d="M119 0l704 1320h-615l30 142h776l-22 -122l-705 -1340h-168z" />
    <glyph glyph-name="eight" unicode="8" horiz-adv-x="959" 
d="M403 -20q-119 0 -200.5 44t-122.5 120t-41 174q0 111 43.5 195.5t125.5 149t194 115.5q-48 44 -82.5 92t-53.5 105t-19 126q0 113 50 199.5t139 135t206 48.5q107 0 178 -40t106.5 -107.5t35.5 -151.5q0 -101 -42 -179.5t-115.5 -138t-167.5 -104.5q65 -49 110 -104
t68.5 -120t23.5 -146q0 -110 -49.5 -204t-147 -151.5t-239.5 -57.5zM412 113q90 0 149.5 38.5t89.5 101t31 135.5q0 65 -21 118.5t-61.5 100t-97.5 88.5q-86 -36 -154.5 -84t-108.5 -116.5t-40 -166.5q0 -96 58.5 -155.5t154.5 -59.5zM539 841q87 39 146 86.5t89.5 107
t30.5 131.5q0 87 -49 135.5t-129 48.5q-68 0 -118.5 -30t-79 -85t-28.5 -132q0 -87 37.5 -149t100.5 -113z" />
    <glyph glyph-name="nine" unicode="9" horiz-adv-x="959" 
d="M251 -20q-58 0 -110 8t-94 20v146q41 -15 93 -25t111 -10q88 0 161 36.5t132 109t105 182.5t79 258h-7q-33 -48 -77.5 -84t-98 -56.5t-114.5 -20.5q-93 0 -156 42.5t-95.5 120t-32.5 181.5q0 84 19 169t56.5 161.5t93.5 136t129 94t164 34.5q101 0 172 -46t108 -136
t37 -221q0 -105 -15.5 -219t-45 -226t-72.5 -212t-97 -176q-40 -62 -88 -111t-104 -84t-119 -53.5t-134 -18.5zM475 679q54 0 100 20t82 57.5t59 87.5q27 44 40.5 106.5t13.5 141.5q0 78 -19.5 134.5t-58 87.5t-95.5 31q-71 0 -126 -40t-92 -105t-56 -143t-19 -154
q0 -108 44 -166t127 -58z" />
    <glyph glyph-name="colon" unicode=":" horiz-adv-x="461" 
d="M291 863q-41 0 -65 24t-24 67q0 42 15 78t45.5 58.5t74.5 22.5q41 0 64 -24.5t23 -68.5q0 -63 -35 -110t-98 -47zM114 -21q-41 0 -65.5 24t-24.5 68q0 62 34 110t102 48q39 0 62.5 -24.5t23.5 -69.5q0 -61 -35 -108.5t-97 -47.5z" />
    <glyph glyph-name="semicolon" unicode=";" horiz-adv-x="461" 
d="M-100 -266q37 82 73 168.5t67.5 170.5t55.5 158h166l8 -21q-32 -76 -72 -158.5t-85.5 -163.5t-92.5 -154h-120zM297 863q-42 0 -66 24t-24 67q0 42 15 78t45.5 58.5t75.5 22.5q40 0 63 -24.5t23 -68.5q0 -63 -35 -110t-97 -47z" />
    <glyph glyph-name="less" unicode="&#x3c;" horiz-adv-x="1023" 
d="M969 259l-858 418v94l858 439v-148l-681 -335l681 -321v-147z" />
    <glyph glyph-name="equal" unicode="=" horiz-adv-x="1023" 
d="M118 867v133h843v-133h-843zM118 443v132h843v-132h-843z" />
    <glyph glyph-name="greater" unicode="&#x3e;" horiz-adv-x="1023" 
d="M112 406l681 319l-681 337v148l858 -439v-94l-858 -418v147z" />
    <glyph glyph-name="question" unicode="?" horiz-adv-x="728" 
d="M190 404q18 95 44 163t67.5 125t105.5 119t116 115t82.5 112.5t30.5 139.5t-42.5 122.5t-119.5 42.5q-65 0 -124.5 -23t-114.5 -54l-48 123q72 44 152.5 69t158.5 25q139 0 218 -72t79 -208q0 -92 -32 -167t-90.5 -143t-137.5 -139q-69 -64 -111 -112.5t-65.5 -102.5
t-39.5 -135h-129zM185 -21q-42 0 -66.5 24t-24.5 68q0 62 34 110t102 48q39 0 62.5 -24.5t23.5 -69.5q0 -61 -35 -108.5t-96 -47.5z" />
    <glyph glyph-name="at" unicode="@" horiz-adv-x="1459" 
d="M614 -179q-125 0 -224 40t-168.5 115.5t-106 183t-36.5 242.5q0 157 37.5 311t109.5 290t176 240t236.5 163.5t291.5 59.5q164 0 273 -70t163 -191.5t54 -274.5q0 -100 -19 -201t-53.5 -191t-83.5 -160.5t-109.5 -110.5t-130.5 -40q-93 0 -129.5 49t-42.5 124h-5
q-38 -76 -97.5 -126t-137.5 -50q-92 0 -144.5 62.5t-52.5 182.5q0 83 21 168t60.5 162t95 137t124.5 94.5t148 34.5q74 0 129 -14t99 -33l-105 -415q-15 -57 -23 -96t-8 -68q0 -53 21 -77t57 -24q46 0 86 37.5t72 100t55 139t35 155t12 147.5q0 132 -39.5 230t-124 151.5
t-218.5 53.5q-131 0 -241 -52.5t-195.5 -144t-145.5 -211.5t-91 -256t-31 -277q0 -144 46 -251t139 -165.5t233 -58.5q88 0 176 20.5t161 52.5v-113q-81 -36 -170.5 -55.5t-178.5 -19.5zM643 338q73 0 128 84t97 238l73 279q-18 7 -42 12t-53 5q-66 0 -121 -44.5t-95 -115.5
t-62 -153.5t-22 -159.5q0 -75 25.5 -110t71.5 -35z" />
    <glyph glyph-name="A" unicode="A" horiz-adv-x="979" 
d="M-124 0l706 1465h185l95 -1465h-162l-28 472h-399l-222 -472h-175zM339 617h327l-15 432q-4 62 -7 128t-2 119h-6q-21 -55 -47.5 -118t-59.5 -132z" />
    <glyph glyph-name="B" unicode="B" horiz-adv-x="1049" 
d="M44 0l309 1462h320q113 0 196 -33.5t128.5 -101t45.5 -171.5q0 -96 -35 -176.5t-103 -136t-167 -77.5v-8q91 -25 145 -99t54 -184q0 -143 -62 -250t-176 -166t-271 -59h-384zM234 140h199q111 0 185.5 43t113 118.5t38.5 174.5q0 104 -58.5 162.5t-178.5 58.5h-182z
M380 833h184q93 0 163 37.5t109 106t39 157.5q0 93 -54.5 141t-173.5 48h-163z" />
    <glyph glyph-name="C" unicode="C" horiz-adv-x="992" 
d="M533 -20q-135 0 -229 60.5t-143 175.5t-49 280q0 128 28.5 266t85 266.5t141.5 231.5t199 163.5t256 60.5q87 0 159 -18.5t132 -57.5l-73 -132q-45 30 -99 47t-120 17q-110 0 -196.5 -54t-151.5 -143.5t-107.5 -199.5t-63.5 -224t-21 -215q0 -187 72.5 -284t211.5 -97
q65 0 129.5 15t128.5 39v-144q-66 -25 -136 -39t-154 -14z" />
    <glyph glyph-name="D" unicode="D" horiz-adv-x="1154" 
d="M44 0l309 1462h285q223 0 345.5 -125.5t122.5 -381.5q0 -141 -29.5 -279t-89.5 -259.5t-151.5 -215.5t-216 -147.5t-282.5 -53.5h-293zM233 143h120q118 0 212 46t163.5 126t116 183.5t69.5 220t23 232.5q0 195 -84 282.5t-235 87.5h-134z" />
    <glyph glyph-name="E" unicode="E" horiz-adv-x="901" 
d="M43 0l310 1462h632l-31 -143h-471l-103 -483h442l-30 -142h-442l-117 -550h472l-30 -144h-632z" />
    <glyph glyph-name="F" unicode="F" horiz-adv-x="840" 
d="M43 0l310 1462h633l-30 -143h-473l-115 -546h442l-30 -143h-443l-134 -630h-160z" />
    <glyph glyph-name="G" unicode="G" horiz-adv-x="1196" 
d="M581 -20q-227 0 -348 131.5t-121 376.5q0 167 34.5 316.5t98.5 273.5t154 215.5t201.5 141t239.5 49.5q111 0 199.5 -24t162.5 -64l-71 -140q-67 39 -140.5 61.5t-157.5 22.5q-122 0 -223 -68.5t-175 -187t-114.5 -269.5t-40.5 -317q0 -119 35 -202.5t105 -128t176 -44.5
q63 0 118 9.5t99 24.5l100 467h-241l30 141h402l-154 -716q-85 -31 -176.5 -50t-192.5 -19z" />
    <glyph glyph-name="H" unicode="H" horiz-adv-x="1186" 
d="M44 0l310 1462h160l-133 -625h538l133 625h159l-310 -1462h-159l146 693h-538l-146 -693h-160z" />
    <glyph glyph-name="I" unicode="I" horiz-adv-x="488" 
d="M43 0l311 1462h158l-310 -1462h-159z" />
    <glyph glyph-name="J" unicode="J" horiz-adv-x="477" 
d="M-166 -387q-46 0 -83 7t-62 17l20 142q28 -10 58.5 -16t63.5 -6q56 0 97.5 27.5t70.5 82.5t47 137l309 1458h160l-313 -1481q-28 -130 -78 -211t-122.5 -119t-167.5 -38z" />
    <glyph glyph-name="K" unicode="K" horiz-adv-x="982" 
d="M43 0l310 1462h160l-155 -728l121 154l490 574h185l-552 -653l261 -809h-175l-216 700l-148 -129l-121 -571h-160z" />
    <glyph glyph-name="L" unicode="L" horiz-adv-x="832" 
d="M43 0l310 1462h160l-280 -1317h467l-29 -145h-628z" />
    <glyph glyph-name="M" unicode="M" horiz-adv-x="1513" 
d="M42 0l310 1462h226l99 -1215h6l610 1215h244l-307 -1462h-160l203 960q13 56 25 107.5t23 97t21 83.5h-4l-635 -1248h-143l-108 1247h-6q-6 -42 -14 -92t-17 -103t-20 -104l-200 -948h-153z" />
    <glyph glyph-name="N" unicode="N" horiz-adv-x="1240" 
d="M42 0l310 1462h179l330 -1204h5q10 61 22 128.5t25 133t24 118.5l175 824h154l-310 -1462h-176l-334 1215h-5q-6 -44 -15 -97t-19.5 -109t-21 -108.5t-20.5 -95.5l-169 -805h-154z" />
    <glyph glyph-name="O" unicode="O" horiz-adv-x="1240" 
d="M537 -20q-141 0 -235.5 58t-142.5 169.5t-48 270.5q0 117 19.5 236t57 232t94 210.5t130 171t165 115t199.5 41.5q201 0 308 -126.5t107 -366.5q0 -108 -17 -224.5t-52 -230t-88.5 -213.5t-126 -177t-165 -121.5t-205.5 -44.5zM545 124q79 0 145 38.5t119 105.5
t93.5 153.5t67.5 184t40.5 197t13.5 191.5q0 170 -68 258.5t-193 88.5q-81 0 -148.5 -39.5t-121.5 -107.5t-94 -155t-66.5 -184t-40 -193.5t-13.5 -182.5q0 -116 31 -195.5t90.5 -119.5t144.5 -40z" />
    <glyph glyph-name="P" unicode="P" horiz-adv-x="987" 
d="M44 0l309 1462h270q132 0 216.5 -43t125.5 -121t41 -184q0 -121 -36.5 -220t-107.5 -169.5t-175.5 -109t-239.5 -38.5h-121l-122 -577h-160zM355 718h103q123 0 208 45.5t130 131.5t45 207q0 112 -60 166t-182 54h-115z" />
    <glyph glyph-name="Q" unicode="Q" horiz-adv-x="1240" 
d="M712 -348l-157 331q-9 -1 -17 -1.5t-17 -0.5q-135 3 -226 61.5t-137.5 169t-46.5 266.5q0 117 19.5 236t57 232t94 210.5t130 171t165 115t199.5 41.5q201 0 308 -126.5t107 -366.5q0 -111 -18.5 -231.5t-55.5 -237.5t-94 -219t-134 -177.5t-175 -112.5l194 -361h-196z
M545 124q80 0 146 38.5t119.5 105.5t93.5 153.5t66.5 184t40 197t13.5 191.5q0 170 -68 258.5t-193 88.5q-81 0 -148.5 -39.5t-121.5 -107.5t-94 -155t-66.5 -184t-40 -193.5t-13.5 -182.5q0 -116 31 -195.5t90.5 -119.5t144.5 -40z" />
    <glyph glyph-name="R" unicode="R" 
d="M44 0l309 1462h266q192 0 290.5 -87t98.5 -253q0 -115 -36.5 -212t-111.5 -165t-188 -98l185 -647h-174l-162 614h-188l-129 -614h-160zM363 751h136q88 0 152.5 28t106.5 76.5t63 113t21 137.5q0 113 -61 164t-182 51h-115z" />
    <glyph glyph-name="S" unicode="S" horiz-adv-x="897" 
d="M305 -20q-98 0 -174.5 16.5t-134.5 48.5l9 164q58 -34 134.5 -58.5t169.5 -24.5q63 0 118 17t96.5 51.5t65 87t23.5 121.5q0 58 -19.5 102.5t-63.5 89t-120 101.5q-65 51 -115 102t-78.5 115.5t-28.5 152.5q0 98 33.5 175.5t94 131.5t141.5 82t176 28q94 0 174 -22
t142 -58l-69 -141q-51 31 -116.5 53t-136.5 22q-57 0 -106 -17t-85.5 -50t-57.5 -80.5t-21 -109.5q0 -63 22 -108t65 -86t108 -92q71 -52 122 -105t79 -118t28 -155q0 -103 -33 -183.5t-95.5 -137t-150 -86t-196.5 -29.5z" />
    <glyph glyph-name="T" unicode="T" horiz-adv-x="858" 
d="M225 0l280 1318h-331l32 144h821l-30 -144h-330l-280 -1318h-162z" />
    <glyph glyph-name="U" unicode="U" horiz-adv-x="1173" 
d="M485 -20q-120 0 -202.5 41.5t-124.5 120t-42 191.5q0 36 5.5 83t16.5 99l202 947h160l-203 -956q-10 -43 -15 -87t-5 -76q0 -106 57 -162.5t165 -56.5q98 0 164 40.5t108.5 122.5t69.5 206l208 969h160l-211 -983q-32 -155 -94 -267t-164 -172t-255 -60z" />
    <glyph glyph-name="V" unicode="V" horiz-adv-x="970" 
d="M268 0l-84 1462h161l45 -951q3 -50 4.5 -101.5t1.5 -104t-3 -106.5h4q15 42 33.5 88t41.5 98t50 110l449 967h175l-701 -1462h-177z" />
    <glyph glyph-name="W" unicode="W" horiz-adv-x="1536" 
d="M215 0l-15 1462h158l3 -930q0 -85 -3.5 -163t-7.5 -144h5q27 74 59.5 158.5t67.5 163.5l392 915h155l7 -899q1 -94 -0.5 -181t-4.5 -158h5q19 54 38.5 107t39.5 106.5t42 107.5l379 917h167l-621 -1462h-177l-7 961q-1 37 -1 78.5t1.5 83t2.5 80.5h-5q-17 -55 -39 -110.5
t-53 -125.5l-411 -967h-177z" />
    <glyph glyph-name="X" unicode="X" horiz-adv-x="908" 
d="M-114 0l520 772l-180 690h164l133 -559l368 559h173l-476 -704l188 -758h-169l-137 622l-410 -622h-174z" />
    <glyph glyph-name="Y" unicode="Y" horiz-adv-x="876" 
d="M230 0l119 557l-168 905h164l118 -718l419 718h176l-550 -906l-117 -556h-161z" />
    <glyph glyph-name="Z" unicode="Z" horiz-adv-x="884" 
d="M-52 0l26 125l798 1193h-528l31 144h715l-25 -126l-800 -1191h563l-29 -145h-751z" />
    <glyph glyph-name="bracketleft" unicode="[" horiz-adv-x="587" 
d="M-35 -326l382 1794h389l-29 -130h-241l-327 -1534h243l-29 -130h-388z" />
    <glyph glyph-name="backslash" unicode="\" horiz-adv-x="705" 
d="M417 -2l-204 1467h143l206 -1467h-145z" />
    <glyph glyph-name="bracketright" unicode="]" horiz-adv-x="587" 
d="M-140 -326l26 130h242l325 1534h-241l28 130h389l-383 -1794h-386z" />
    <glyph glyph-name="asciicircum" unicode="^" horiz-adv-x="990" 
d="M54 618l458 850h98l338 -850h-143l-260 660l-343 -660h-148z" />
    <glyph glyph-name="underscore" unicode="_" horiz-adv-x="708" 
d="M-180 -304l24 124h710l-25 -124h-709z" />
    <glyph glyph-name="grave" unicode="`" horiz-adv-x="529" 
d="M498 1241q-33 38 -72.5 94t-74 113.5t-52.5 100.5v19h174q14 -49 33.5 -101t42.5 -103t47 -100l-1 -23h-97z" />
    <glyph glyph-name="a" unicode="a" 
d="M330 -20q-79 0 -136.5 39t-88 115.5t-30.5 185.5q0 107 21 218.5t61.5 214.5t100.5 185t137 130t171 48q60 0 105.5 -23t76 -64t47.5 -93h8l54 160h126l-232 -1096h-126l23 186h-6q-41 -58 -89 -105t-103.5 -74t-119.5 -27zM380 114q74 0 136.5 56t110.5 148t76 199
q20 79 29.5 144t9.5 122q0 91 -43 144.5t-118 53.5q-62 0 -115.5 -40t-95.5 -108t-72 -153t-46 -177t-16 -179q0 -105 37 -157.5t107 -52.5z" />
    <glyph glyph-name="b" unicode="b" horiz-adv-x="1014" 
d="M451 -20q-63 0 -110.5 24t-78.5 64.5t-47 89.5h-7l-57 -158h-122l330 1556h156l-93 -436q-9 -43 -19.5 -85.5t-19.5 -74.5t-14 -46h6q41 58 88 103t102 71.5t119 26.5q80 0 137 -38.5t88.5 -113.5t31.5 -186q0 -104 -20.5 -215t-60 -214.5t-98.5 -186.5t-137 -132
t-174 -49zM439 113q63 0 116 41.5t95 111t71 155.5t44 177t15 174q0 106 -37 157.5t-110 51.5q-50 0 -96.5 -29.5t-87 -81t-73.5 -118t-56.5 -141t-36.5 -150t-13 -143.5q0 -96 42 -150.5t127 -54.5z" />
    <glyph glyph-name="c" unicode="c" horiz-adv-x="783" 
d="M408 -20q-103 0 -177.5 42t-114.5 124t-40 204q0 107 21.5 216t64 207.5t105.5 176t146 122t186 44.5q62 0 119 -12t104 -36l-53 -131q-34 19 -78.5 31.5t-91.5 12.5q-86 0 -153 -55.5t-114 -147t-71.5 -201t-24.5 -218.5q0 -80 23 -134.5t67 -82.5t107 -28
q55 0 107.5 17t105.5 44v-136q-46 -25 -107 -42t-131 -17z" />
    <glyph glyph-name="d" unicode="d" horiz-adv-x="1019" 
d="M329 -20q-79 0 -136 38.5t-87.5 114.5t-30.5 187q0 105 20.5 216t60 214.5t98.5 186t136.5 130.5t172.5 48q63 0 109.5 -23t77.5 -62t47 -89h8q6 41 12.5 80t14 78t15.5 78l80 379h155l-329 -1556h-128l21 184h-5q-43 -59 -90 -105t-102 -72.5t-120 -26.5zM381 113
q52 0 99 31t87.5 85t73.5 122.5t56 144t35.5 149.5t12.5 139q0 92 -40 144.5t-126 52.5q-64 0 -117.5 -41.5t-95.5 -111.5t-71 -156t-44 -177t-15 -173q0 -104 36.5 -156.5t108.5 -52.5z" />
    <glyph glyph-name="e" unicode="e" horiz-adv-x="895" 
d="M414 -20q-105 0 -181 44t-116.5 127.5t-40.5 201.5q0 149 37 286t105 245t161.5 170t206.5 62q125 0 193 -61.5t68 -175.5q0 -86 -36.5 -158t-108.5 -124t-180 -80.5t-252 -28.5h-26q-4 -29 -7 -61t-3 -62q0 -125 53 -189.5t159 -64.5q67 0 125.5 18.5t125.5 53.5v-134
q-62 -33 -129.5 -51t-153.5 -18zM267 613h15q127 0 219.5 29t143.5 86t51 140q0 53 -30.5 85t-94.5 32q-62 0 -121.5 -46t-107 -129.5t-75.5 -196.5z" />
    <glyph glyph-name="f" unicode="f" horiz-adv-x="550" 
d="M-127 -492q-34 0 -63 5t-53 13v136q23 -8 48 -13t53 -5q74 0 108 60.5t59 172.5l232 1093h-155l15 77l166 53l26 115q21 93 48 159.5t64.5 109.5t89.5 63t123 20q44 0 89 -9.5t77 -25.5l-50 -122q-24 10 -51.5 17t-58.5 7q-72 0 -111 -52t-64 -170l-25 -116h192l-26 -126
h-192l-237 -1108q-22 -104 -57.5 -184t-94 -125t-152.5 -45z" />
    <glyph glyph-name="g" unicode="g" horiz-adv-x="922" 
d="M249 -492q-172 0 -267.5 68t-95.5 200q1 108 71 191t210 134q-35 17 -53.5 49t-18.5 72q0 60 43 111t127 98q-52 29 -83.5 88.5t-31.5 139.5q0 105 39.5 201t112.5 159q48 45 112 70.5t137 25.5q40 0 74 -6.5t61 -15.5h306l-22 -98l-173 -24q18 -27 27 -64t8 -81
q0 -92 -31.5 -177t-88.5 -146q-52 -54 -122.5 -85t-157.5 -31q-23 0 -42.5 0.5t-31.5 0.5q-65 -26 -96 -63.5t-31 -73.5q0 -33 23 -50q14 -10 36 -15t52 -8l134 -6q100 -7 162 -38t90.5 -85t28.5 -130q0 -107 -48 -190.5t-134 -136.5q-64 -40 -147.5 -61.5t-178.5 -22.5z
M255 -373q75 1 138 18.5t109 50.5q49 35 77.5 87t28.5 113q0 28 -7.5 50.5t-25.5 40.5q-21 21 -60.5 33.5t-98.5 16.5l-144 8q-67 -9 -121 -46.5t-86 -92.5t-32 -116q0 -85 57.5 -124.5t164.5 -38.5zM437 497q73 0 126.5 46.5t85 123.5t33.5 167q2 44 -7 77.5t-29 54.5
q-17 18 -41.5 27t-56.5 9q-55 0 -99.5 -28.5t-77 -76.5t-51 -107t-20.5 -120q0 -38 7 -69.5t23 -52.5q33 -51 107 -51z" />
    <glyph glyph-name="h" unicode="h" horiz-adv-x="1005" 
d="M30 0l330 1556h156l-89 -410q-7 -37 -16.5 -75.5t-20 -76.5t-20.5 -75h7q34 53 78.5 97.5t102.5 71.5t128 27q72 0 124 -27t80 -80.5t28 -133.5q0 -41 -8 -92t-18 -101l-146 -681h-156l144 682q11 49 18 92.5t7 78.5q0 60 -30.5 93t-93.5 33q-66 0 -130.5 -45.5
t-117.5 -141t-85 -248.5l-115 -544h-157z" />
    <glyph glyph-name="i" unicode="i" horiz-adv-x="451" 
d="M29 0l233 1096h157l-233 -1096h-157zM392 1287q-38 0 -60.5 21.5t-22.5 61.5q0 34 13 64.5t38 50t62 19.5q39 0 59 -20.5t20 -59.5q0 -59 -31.5 -98t-77.5 -39z" />
    <glyph glyph-name="j" unicode="j" horiz-adv-x="453" 
d="M-150 -492q-33 0 -62 5t-51 13v137q21 -8 47.5 -13t53.5 -5q45 0 76 23t53 74.5t39 136.5l257 1217h156l-262 -1231q-22 -108 -57 -188.5t-94.5 -124.5t-155.5 -44zM393 1287q-38 0 -60 21.5t-22 61.5q0 34 12.5 64.5t37.5 50t62 19.5q40 0 59.5 -20.5t19.5 -59.5
q0 -59 -31.5 -98t-77.5 -39z" />
    <glyph glyph-name="k" unicode="k" horiz-adv-x="863" 
d="M29 0l331 1556h157l-150 -696q-14 -67 -27.5 -121.5t-25.5 -97.5t-21 -78h4l463 533h179l-401 -456l205 -640h-169l-163 526l-144 -136l-80 -390h-158z" />
    <glyph glyph-name="l" unicode="l" horiz-adv-x="449" 
d="M29 0l332 1556h156l-331 -1556h-157z" />
    <glyph glyph-name="m" unicode="m" horiz-adv-x="1513" 
d="M29 0l233 1096h128l-24 -178h8q33 53 76.5 98t99 72.5t123.5 27.5q97 0 149.5 -51t64.5 -145h5q35 53 81 98t103.5 71.5t125.5 26.5q106 0 165.5 -60t59.5 -177q0 -38 -5.5 -78t-14.5 -80l-153 -721h-157l153 717q8 41 13 75t5 60q0 61 -30 94.5t-90 33.5
q-48 0 -93.5 -26t-84.5 -74t-69.5 -116.5t-48.5 -152.5l-130 -611h-156l154 725q8 39 11.5 70.5t3.5 53.5q0 62 -27.5 96.5t-87.5 34.5q-53 0 -101.5 -30t-90 -87t-74 -138t-53.5 -184l-114 -541h-158z" />
    <glyph glyph-name="n" unicode="n" horiz-adv-x="1005" 
d="M26 0l233 1099h134l-24 -180h4q34 53 79 98.5t103 73.5t129 28t124.5 -27t83 -80t29.5 -132q0 -44 -8 -96t-18 -98l-147 -686h-162l146 688q10 48 17.5 90.5t7.5 77.5q0 59 -30.5 89.5t-90.5 30.5q-68 0 -132 -47.5t-116.5 -144.5t-84.5 -247l-114 -537h-163z" />
    <glyph glyph-name="o" unicode="o" horiz-adv-x="988" 
d="M407 -18q-104 0 -178 44.5t-113.5 128.5t-39.5 202q0 93 19.5 196.5t58.5 203t99.5 180.5t143 129t187.5 48q104 0 177.5 -45t113 -129.5t39.5 -203.5q0 -101 -20 -207t-60.5 -204t-101.5 -175t-142 -122.5t-183 -45.5zM419 116q60 0 111.5 35.5t92.5 97.5t70 142.5
t44.5 171.5t15.5 184q0 65 -18 118t-57 84.5t-102 31.5q-66 0 -120 -39t-95.5 -105t-69 -148t-42 -169.5t-14.5 -167.5q0 -113 47.5 -174.5t136.5 -61.5z" />
    <glyph glyph-name="p" unicode="p" horiz-adv-x="1014" 
d="M-70 -483l333 1579h129l-25 -187h7q42 61 89.5 107.5t103 72.5t119.5 26q79 0 136 -38t88 -113.5t31 -188.5q0 -106 -20.5 -218t-60.5 -214.5t-99 -184.5t-136.5 -130t-172.5 -48q-62 0 -108.5 23.5t-77.5 63.5t-48 89h-7q-6 -44 -14.5 -100t-18.5 -98l-94 -441h-154z
M438 114q64 0 117 40.5t95 109.5t71 155t44.5 177.5t15.5 176.5q0 106 -37 158t-110 52q-50 0 -96.5 -30t-86.5 -82.5t-73.5 -119.5t-57 -142.5t-36.5 -151t-13 -143.5q0 -93 41.5 -146.5t125.5 -53.5z" />
    <glyph glyph-name="q" unicode="q" horiz-adv-x="1019" 
d="M494 -489l101 475q5 24 13.5 57.5t18.5 69t18 67.5h-6q-40 -57 -87.5 -102.5t-102.5 -71.5t-120 -26q-79 0 -136 38t-87.5 113.5t-30.5 185.5q0 103 20 214.5t60 215.5t99.5 187.5t137.5 132.5t175 49q65 0 110.5 -23.5t76 -64t45.5 -93.5h7l55 161h125l-336 -1585h-156z
M382 114q50 0 96 30t86.5 82.5t73.5 119.5t57 142.5t37 151t13 143.5q0 88 -41.5 143t-124.5 55q-64 0 -117.5 -41.5t-95.5 -110.5t-70.5 -155t-44 -177t-15.5 -174q0 -106 36.5 -157.5t109.5 -51.5z" />
    <glyph glyph-name="r" unicode="r" horiz-adv-x="682" 
d="M30 0l232 1096h125l-25 -196h8q36 62 78 111t95 77t120 28q25 0 49.5 -3t47.5 -10l-39 -152q-22 6 -43.5 9t-45.5 3q-65 0 -119 -37t-96 -98.5t-71 -136.5t-45 -150l-114 -541h-157z" />
    <glyph glyph-name="s" unicode="s" horiz-adv-x="761" 
d="M260 -20q-86 0 -153.5 17.5t-112.5 42.5v153q45 -30 115 -54.5t141 -24.5t119.5 22t73.5 63.5t25 98.5q0 42 -14.5 74t-48 65t-90.5 76q-60 44 -102 87.5t-63.5 94t-21.5 114.5q0 90 41 159t117 108.5t180 39.5q88 0 161.5 -21t125.5 -51l-60 -125q-45 27 -101 45.5
t-124 18.5q-84 0 -133 -43.5t-49 -115.5q0 -38 12.5 -69t44.5 -62t88 -71q61 -48 105.5 -91t68.5 -94t24 -124q0 -104 -44 -178.5t-127 -114.5t-198 -40z" />
    <glyph glyph-name="t" unicode="t" horiz-adv-x="575" 
d="M287 -20q-96 0 -150.5 50t-54.5 156q0 30 4.5 67t13.5 78l135 639h-133l16 81l149 54l103 243h102l-54 -252h218l-27 -126h-217l-136 -644q-7 -31 -12.5 -62t-5.5 -56q0 -43 20 -68.5t68 -25.5q29 0 58 5.5t59 16.5v-124q-28 -13 -73 -22.5t-83 -9.5z" />
    <glyph glyph-name="u" unicode="u" 
d="M316 -20q-73 0 -125.5 27.5t-80.5 81t-28 131.5q0 41 7 87.5t16 91.5l150 697h157l-149 -698q-9 -44 -15 -83t-6 -72q0 -60 29.5 -93.5t92.5 -33.5q69 0 134 48t118.5 147t85.5 249l113 536h155l-231 -1096h-128l21 177h-8q-33 -52 -79 -96.5t-103 -72.5t-126 -28z" />
    <glyph glyph-name="v" unicode="v" horiz-adv-x="808" 
d="M183 0l-73 1096h157l31 -627q3 -43 5 -101t3 -111.5t-1 -83.5h7q17 43 38 90.5t42.5 94.5t39.5 86l313 652h165l-539 -1096h-188z" />
    <glyph glyph-name="w" unicode="w" horiz-adv-x="1279" 
d="M137 0l-14 1096h153v-623q1 -85 -2 -157t-7 -127h5q13 38 30.5 84t36.5 92t36 83l280 648h171l10 -621q1 -65 -0.5 -143.5t-3.5 -145.5h5q16 47 35 98.5t41 107.5t46 114l245 590h162l-473 -1096h-184l-6 655q-1 42 -0.5 83t2 84t2.5 90h-6q-13 -39 -26.5 -74t-29 -72
t-36.5 -84l-291 -682h-181z" />
    <glyph glyph-name="x" unicode="x" horiz-adv-x="838" 
d="M-84 0l414 567l-170 529h160l121 -407l283 407h177l-397 -539l185 -557h-162l-133 433l-302 -433h-176z" />
    <glyph glyph-name="y" unicode="y" horiz-adv-x="815" 
d="M-74 -493q-42 0 -70 6t-53 15l10 133q23 -7 49.5 -12.5t57.5 -5.5q71 0 119 49.5t95 142.5l79 162l-96 1099h157l39 -596q5 -52 7.5 -110t3.5 -112t-1 -96h6q14 37 35 88t44.5 103t41.5 89l302 634h165l-639 -1299q-46 -93 -95 -158t-110.5 -98.5t-146.5 -33.5z" />
    <glyph glyph-name="z" unicode="z" horiz-adv-x="739" 
d="M-52 0l22 107l595 863h-385l26 126h558l-25 -119l-586 -850h426l-27 -127h-604z" />
    <glyph glyph-name="braceleft" unicode="{" horiz-adv-x="690" 
d="M430 -324q-146 1 -217 57.5t-71 170.5q0 29 5 59t11 63l55 255q6 26 9.5 49.5t3.5 46.5q0 69 -45 102t-143 33l29 130q114 0 178 46t86 153l72 336q23 109 69.5 171t123 88t189.5 26h20l-29 -131q-101 0 -152.5 -38t-74.5 -140l-72 -330q-22 -103 -79.5 -167.5
t-168.5 -82.5v-5q75 -19 110.5 -67.5t35.5 -121.5q0 -23 -3.5 -52.5t-11.5 -59.5l-53 -252q-5 -25 -8.5 -47t-3.5 -41q0 -67 38.5 -92.5t117.5 -26.5l-3 -132h-18z" />
    <glyph glyph-name="bar" unicode="|" horiz-adv-x="935" 
d="M419 -490v2050h135v-2050h-135z" />
    <glyph glyph-name="braceright" unicode="}" horiz-adv-x="689" 
d="M-101 -324l2 132q72 0 120.5 16.5t78.5 55.5t44 106l72 330q22 103 79.5 167t168.5 82v5q-75 20 -110 68t-35 121q0 24 4 53t10 59l55 252q6 25 9 47.5t3 40.5q0 66 -42.5 93t-125.5 27l25 131h14q96 0 158 -24.5t92 -74.5t30 -126q0 -28 -4.5 -59.5t-11.5 -64.5
l-56 -255q-5 -27 -9 -50t-4 -45q0 -70 45.5 -103t142.5 -33l-28 -131q-76 0 -129.5 -20t-86.5 -63.5t-48 -114.5l-72 -336q-23 -111 -69.5 -173t-122.5 -87.5t-188 -25.5h-11z" />
    <glyph glyph-name="asciitilde" unicode="~" horiz-adv-x="1023" 
d="M516 659q-58 29 -104 43t-88 14q-51 0 -107.5 -33t-105.5 -87v149q45 51 100.5 77.5t121.5 26.5q59 0 111 -15t122 -48q62 -29 106 -42.5t86 -13.5q53 0 110 33t102 85v-147q-43 -49 -98.5 -76.5t-121.5 -27.5q-60 0 -111 14t-123 48z" />
    <glyph glyph-name="uni00A0" unicode="&#xa0;" horiz-adv-x="440" 
 />
    <glyph glyph-name="exclamdown" unicode="&#xa1;" horiz-adv-x="499" 
d="M-29 -375l264 1063h114l-192 -1063h-186zM333 863q-41 0 -64.5 24t-23.5 68q0 64 35 110.5t98 46.5q40 0 64 -23.5t24 -69.5q0 -38 -15 -74.5t-44.5 -59t-73.5 -22.5z" />
    <glyph glyph-name="cent" unicode="&#xa2;" horiz-adv-x="959" 
d="M358 -20l44 212q-108 26 -167.5 116t-59.5 244q0 100 19 201.5t56.5 196t93.5 171.5t129 128t164 65l34 169h112l-36 -168q49 -4 93.5 -16t80.5 -29l-53 -132q-34 18 -78 31t-91 13q-84 0 -151.5 -55t-115 -146.5t-72.5 -202t-25 -221.5q0 -120 51 -181t143 -61
q55 0 106 15.5t99 41.5l17 -129q-48 -28 -109 -43t-128 -19l-42 -201h-114z" />
    <glyph glyph-name="sterling" unicode="&#xa3;" horiz-adv-x="961" 
d="M-35 0l27 133q54 17 98.5 53t77 95t51.5 146l50 234h-169l26 124h169l72 345q27 119 77.5 197t126.5 116.5t177 38.5q86 0 156 -23t124 -60l-69 -126q-41 28 -94.5 49.5t-119.5 21.5q-85 0 -141.5 -54.5t-84.5 -183.5l-68 -321h297l-26 -124h-297l-50 -232
q-25 -121 -72.5 -185.5t-107.5 -98.5h598l-31 -145h-797z" />
    <glyph glyph-name="currency" unicode="&#xa4;" horiz-adv-x="1091" 
d="M932 286l-134 131q-49 -35 -105.5 -54.5t-117.5 -19.5q-62 0 -120 20t-106 56l-131 -131l-79 81l131 131q-37 49 -56 105t-19 118q0 60 19 117t56 107l-133 133l81 82l132 -133q50 36 107.5 55.5t117.5 19.5q61 0 117.5 -19.5t105.5 -55.5l133 133l82 -81l-133 -132
q36 -49 56 -106.5t20 -119.5t-20 -119t-55 -106l131 -132zM574 461q74 0 135 35.5t96.5 95.5t35.5 131q1 73 -35.5 133.5t-97.5 96.5t-133 36t-132.5 -36t-96 -96t-35.5 -134q0 -73 35.5 -132.5t95.5 -94.5t132 -35z" />
    <glyph glyph-name="yen" unicode="&#xa5;" horiz-adv-x="955" 
d="M270 0l59 273h-249l26 118h247l37 174h-248l27 119h205l-134 778h156l106 -706l401 706h169l-463 -778h209l-25 -119h-252l-37 -174h252l-24 -118h-251l-60 -273h-151z" />
    <glyph glyph-name="brokenbar" unicode="&#xa6;" horiz-adv-x="935" 
d="M419 781v778h135v-778h-135zM419 -490v779h135v-779h-135z" />
    <glyph glyph-name="section" unicode="&#xa7;" horiz-adv-x="846" 
d="M286 30q-87 0 -154.5 17.5t-109.5 41.5v139q50 -33 120.5 -55.5t140.5 -22.5q109 0 172 49.5t63 133.5q0 36 -18 64.5t-54 56.5t-93 59q-59 32 -107.5 70t-76.5 88t-28 119q0 70 28 124t77.5 93.5t112.5 68.5q-48 38 -75.5 86.5t-27.5 114.5q0 79 41.5 143t118.5 102
t183 39q85 0 156 -18.5t126 -50.5l-56 -112q-54 29 -110 45.5t-114 16.5q-51 0 -96 -17.5t-73.5 -53t-28.5 -88.5q0 -58 40.5 -95.5t120.5 -80.5q66 -37 113.5 -75.5t72.5 -84.5t25 -106q0 -67 -25.5 -123t-71.5 -101t-108 -81q41 -33 68 -78.5t27 -109.5q0 -93 -45 -165
t-130 -112.5t-204 -40.5zM488 596q61 37 103 93t42 126q0 41 -18.5 73t-59.5 62t-107 64q-45 -16 -83 -44.5t-60.5 -68t-22.5 -89.5q0 -44 21 -78.5t66.5 -66.5t118.5 -71z" />
    <glyph glyph-name="dieresis" unicode="&#xa8;" horiz-adv-x="1052" 
d="M818 1296q-34 0 -54.5 19.5t-20.5 57.5q0 47 27 83.5t77 36.5q35 0 53 -19t18 -53q0 -55 -29.5 -90t-70.5 -35zM484 1296q-34 0 -54 19.5t-20 57.5q0 47 26.5 83.5t75.5 36.5q24 0 39 -8.5t23 -24.5t8 -39q0 -55 -28.5 -90t-69.5 -35z" />
    <glyph glyph-name="copyright" unicode="&#xa9;" horiz-adv-x="1702" 
d="M851 -20q-168 0 -306.5 57.5t-238 160t-153.5 239t-54 294.5q0 166 57 303.5t159.5 238t239.5 155.5t296 55q162 0 299.5 -57t239 -159t157.5 -239t56 -297q0 -162 -56 -299.5t-157.5 -238.5t-239 -157t-299.5 -56zM883 275q-198 0 -302.5 121t-104.5 333q0 137 49 239.5
t142 159.5t224 57q66 0 130.5 -15t123.5 -44l-53 -111q-51 25 -101 37.5t-98 12.5q-129 0 -201 -88t-72 -245q0 -167 67 -251.5t204 -84.5q50 0 106.5 12.5t110.5 35.5v-119q-51 -23 -105.5 -36.5t-119.5 -13.5zM851 82q138 0 255.5 49t204 137t134.5 206.5t48 256.5
t-47.5 255.5t-134 206.5t-203.5 138t-257 49q-142 0 -259.5 -48.5t-203.5 -136.5t-133 -206.5t-47 -257.5t48 -257.5t134.5 -206t204 -136.5t256.5 -49z" />
    <glyph glyph-name="ordfeminine" unicode="&#xaa;" horiz-adv-x="618" 
d="M325 789q-45 0 -85 24t-64 75t-24 131q0 84 20.5 165.5t60 148t98 106t134.5 39.5q62 0 95.5 -30t47.5 -73h8l34 90h84l-140 -663h-87l14 107h-6q-35 -53 -79.5 -86.5t-110.5 -33.5zM356 889q43 0 76.5 24t58.5 63.5t41.5 86.5t24.5 93t8 84q0 65 -25 102t-78 37
q-44 0 -80.5 -30.5t-62.5 -81t-39.5 -112.5t-13.5 -125q0 -73 24 -107t66 -34z" />
    <glyph glyph-name="guillemotleft" unicode="&#xab;" horiz-adv-x="897" 
d="M277 124l-208 418l2 27l365 385l90 -73l-291 -337l155 -371zM643 124l-202 400l2 27l355 398l93 -68l-283 -353l148 -355z" />
    <glyph glyph-name="logicalnot" unicode="&#xac;" horiz-adv-x="1023" 
d="M956 789v-534h-132v401h-711v133h843z" />
    <glyph glyph-name="uni00AD" unicode="&#xad;" horiz-adv-x="585" 
d="M45 477l30 149h455l-30 -149h-455z" />
    <glyph glyph-name="registered" unicode="&#xae;" horiz-adv-x="1702" 
d="M579 291v885h250q157 0 237.5 -64t80.5 -196q0 -93 -43.5 -151t-113.5 -86l217 -388h-156l-189 353h-143v-353h-140zM718 755h105q83 0 132 40t49 116q0 78 -45 113t-137 35h-104v-304zM851 -20q-168 0 -306.5 57.5t-238 160t-153.5 239t-54 294.5q0 166 57 303.5
t159.5 238t239.5 155.5t296 55q162 0 299.5 -57t239 -159t157.5 -239t56 -297q0 -162 -56 -299.5t-157.5 -238.5t-239 -157t-299.5 -56zM851 82q138 0 255.5 49t204 137t134.5 206.5t48 256.5t-47.5 255.5t-134 206.5t-203.5 138t-257 49q-142 0 -259.5 -48.5t-203.5 -136.5
t-133 -206.5t-47 -257.5t48 -257.5t134.5 -206t204 -136.5t256.5 -49z" />
    <glyph glyph-name="overscore" unicode="&#xaf;" horiz-adv-x="812" 
d="M199 1556l29 123h809l-28 -123h-810z" />
    <glyph glyph-name="degree" unicode="&#xb0;" horiz-adv-x="812" 
d="M405 898q-88 0 -155.5 36t-105.5 102t-38 154t38 154t105.5 102t155.5 36t155.5 -36t106.5 -102t39 -154t-39 -154t-107 -102t-155 -36zM407 1005q87 0 134 51t47 134q0 84 -47.5 135t-133.5 51q-91 0 -137 -52t-46 -134q0 -84 48 -134.5t135 -50.5z" />
    <glyph glyph-name="plusminus" unicode="&#xb1;" horiz-adv-x="1023" 
d="M113 0v133h855v-133h-855zM607 808h359v-133h-359v-418h-134v418h-361v133h361v421h134v-421z" />
    <glyph glyph-name="uni00B2" unicode="&#xb2;" horiz-adv-x="640" 
d="M110 852l20 104l258 250q69 66 117 119.5t73 103.5t25 104q0 51 -28.5 80t-79.5 29q-47 0 -90 -21t-86 -56l-52 88q54 47 117.5 71.5t135.5 24.5q108 0 160 -58t52 -139q0 -72 -29 -135.5t-83 -125t-130 -130.5l-207 -196h356l-24 -113h-505z" />
    <glyph glyph-name="uni00B3" unicode="&#xb3;" horiz-adv-x="640" 
d="M335 838q-62 0 -115 13t-92 36v121q44 -28 97.5 -45.5t112.5 -17.5q96 0 146.5 49t50.5 128q0 67 -41 100.5t-113 33.5h-79l22 103h76q63 0 108.5 22t70 60t24.5 87q0 55 -30 84.5t-86 28.5q-49 0 -91.5 -17t-84.5 -47l-50 88q48 38 110.5 61.5t137.5 23.5
q74 0 122.5 -26t73 -70.5t24.5 -102.5q0 -91 -51.5 -151.5t-142.5 -87.5l-1 -7q58 -19 92.5 -66t34.5 -117q0 -83 -37.5 -147t-110 -100.5t-178.5 -36.5z" />
    <glyph glyph-name="acute" unicode="&#xb4;" horiz-adv-x="517" 
d="M234 1241l1 22q42 47 84.5 100.5t81 107t65.5 98.5h183l-1 -18q-21 -29 -59.5 -70.5t-84 -87t-90.5 -85.5t-80 -67h-100z" />
    <glyph glyph-name="uni00B5" unicode="&#xb5;" horiz-adv-x="1011" 
d="M-75 -491l335 1587h156l-146 -697q-10 -46 -15.5 -81.5t-5.5 -63.5q0 -65 30.5 -101t92.5 -36q67 0 130.5 44.5t116.5 141.5t87 253l117 540h154l-233 -1096h-125l17 170h-7q-33 -53 -76 -96t-95.5 -68.5t-117.5 -25.5q-54 0 -90 24t-57 69h-6q-3 -27 -8 -63t-11.5 -71.5
t-11.5 -63.5l-77 -366h-154z" />
    <glyph glyph-name="paragraph" unicode="&#xb6;" horiz-adv-x="1132" 
d="M615 -260l-1 880q-22 -8 -47.5 -12t-59.5 -4q-79 0 -139.5 32t-101 92.5t-60.5 148.5t-20 199q0 123 25 213.5t72 149.5t115 88t154 29h455v-1816h-107v1693h-178v-1693h-107z" />
    <glyph glyph-name="periodcentered" unicode="&#xb7;" horiz-adv-x="463" 
d="M241 592q-42 0 -66 24t-24 68q0 62 34 110t102 48q39 0 62.5 -24.5t23.5 -69.5q0 -61 -35.5 -108.5t-96.5 -47.5z" />
    <glyph glyph-name="cedilla" unicode="&#xb8;" horiz-adv-x="404" 
d="M-51 -492q-32 0 -60 4t-51 9v99q19 -5 43.5 -8t51.5 -3q51 0 86.5 14t54 40.5t18.5 64.5q0 45 -37 69t-106 32l103 171h100l-67 -113q58 -13 97.5 -50.5t39.5 -105.5q0 -67 -33.5 -117t-95 -78t-144.5 -28z" />
    <glyph glyph-name="uni00B9" unicode="&#xb9;" horiz-adv-x="640" 
d="M343 851l126 581q8 41 19.5 84t20.5 76q-19 -17 -38.5 -33.5t-40.5 -30.5l-115 -77l-51 85l281 192h113l-187 -877h-128z" />
    <glyph glyph-name="ordmasculine" unicode="&#xba;" horiz-adv-x="628" 
d="M377 787q-100 0 -158.5 65t-58.5 186q0 79 20 157t60 142.5t100 103.5t140 39q104 0 159 -65t55 -181q0 -78 -19 -157t-58 -144.5t-99 -105.5t-141 -40zM388 888q50 0 86 30.5t60 80.5t35.5 109.5t11.5 117.5q0 76 -28 114t-83 38q-48 0 -85 -29.5t-62 -78.5t-37 -108
t-12 -119q0 -78 29 -116.5t85 -38.5z" />
    <glyph glyph-name="guillemotright" unicode="&#xbb;" horiz-adv-x="898" 
d="M458 124l-90 73l290 336l-155 371l114 50l208 -419l-3 -28zM95 129l-94 68l284 351l-149 356l113 50l201 -401l-1 -29z" />
    <glyph glyph-name="onequarter" unicode="&#xbc;" horiz-adv-x="1395" 
d="M122 0l1087 1462h141l-1086 -1462h-142zM291 586l126 581q8 41 19.5 84t20.5 76q-19 -17 -38.5 -33.5t-40.5 -30.5l-115 -77l-51 85l281 192h113l-187 -877h-128zM1012 1l41 200h-333l19 95l454 588h129l-123 -575h110l-22 -108h-111l-43 -200h-121zM866 309h210l51 233
q10 48 20 91.5t20 81.5q-16 -27 -44 -67t-53 -73z" />
    <glyph glyph-name="onehalf" unicode="&#xbd;" horiz-adv-x="1512" 
d="M118 0l1087 1462h141l-1086 -1462h-142zM291 586l126 581q8 41 19.5 84t20.5 76q-19 -17 -38.5 -33.5t-40.5 -30.5l-115 -77l-51 85l281 192h113l-187 -877h-128zM810 1l20 104l258 250q69 66 117 119.5t73 103.5t25 104q0 51 -28.5 80t-79.5 29q-47 0 -90 -21t-86 -56
l-52 88q54 47 117.5 71.5t135.5 24.5q108 0 160 -58t52 -139q0 -72 -29 -135.5t-83 -125t-130 -130.5l-207 -196h356l-24 -113h-505z" />
    <glyph glyph-name="threequarters" unicode="&#xbe;" horiz-adv-x="1460" 
d="M285 572q-62 0 -115 13t-92 36v121q44 -28 97.5 -45.5t112.5 -17.5q96 0 146.5 49t50.5 128q0 67 -41 100.5t-113 33.5h-79l22 103h76q63 0 108.5 22t70 60t24.5 87q0 55 -30 84.5t-86 28.5q-49 0 -91.5 -17t-84.5 -47l-50 88q48 38 110.5 61.5t137.5 23.5
q74 0 122.5 -26t73 -70.5t24.5 -102.5q0 -91 -51.5 -151.5t-142.5 -87.5l-1 -7q58 -19 92.5 -66t34.5 -117q0 -83 -37.5 -147t-110 -100.5t-178.5 -36.5zM198 0l1087 1462h141l-1086 -1462h-142zM1076 0l41 200h-333l19 95l454 588h129l-123 -575h110l-22 -108h-111
l-43 -200h-121zM930 308h210l51 233q10 48 20 91.5t20 81.5q-16 -27 -44 -67t-53 -73z" />
    <glyph glyph-name="questiondown" unicode="&#xbf;" horiz-adv-x="725" 
d="M536 682q-17 -95 -43 -163t-67.5 -125t-105.5 -119t-116 -115t-83 -112t-31 -140q0 -80 43 -122.5t119 -42.5q66 0 125.5 23t114.5 54l47 -123q-71 -44 -151.5 -69t-159.5 -25q-138 0 -217.5 72.5t-79.5 207.5q0 92 32.5 167t91 143.5t136.5 138.5q71 65 112 113t65 102
t40 135h128zM542 1107q42 0 66 -24t24 -68q0 -62 -33.5 -110t-102.5 -48q-39 0 -62 24.5t-23 69.5q0 62 34.5 109t96.5 47z" />
    <glyph glyph-name="Agrave" unicode="&#xc0;" horiz-adv-x="979" 
d="M-124 0l706 1465h185l95 -1465h-162l-28 472h-399l-222 -472h-175zM339 617h327l-15 432q-4 62 -7 128t-2 119h-6q-21 -55 -47.5 -118t-59.5 -132zM711 1615q-33 38 -72.5 94t-74 113.5t-52.5 100.5v19h174q14 -49 33.5 -101t42.5 -103t47 -100l-1 -23h-97z" />
    <glyph glyph-name="Aacute" unicode="&#xc1;" horiz-adv-x="979" 
d="M-124 0l706 1465h185l95 -1465h-162l-28 472h-399l-222 -472h-175zM339 617h327l-15 432q-4 62 -7 128t-2 119h-6q-21 -55 -47.5 -118t-59.5 -132zM604 1614l1 22q42 47 84.5 100.5t81 107t65.5 98.5h183l-1 -18q-21 -29 -59.5 -70.5t-84 -87t-90.5 -85.5t-80 -67h-100z
" />
    <glyph glyph-name="Acircumflex" unicode="&#xc2;" horiz-adv-x="979" 
d="M-124 0l706 1465h185l95 -1465h-162l-28 472h-399l-222 -472h-175zM339 617h327l-15 432q-4 62 -7 128t-2 119h-6q-21 -55 -47.5 -118t-59.5 -132zM406 1614l3 23q41 41 91 94.5t96.5 108.5t76.5 102h145q14 -45 39 -101.5t53 -111t49 -92.5l-2 -23h-93
q-21 25 -44.5 56.5t-47 66.5t-46.5 73q-57 -57 -114 -107.5t-107 -88.5h-99z" />
    <glyph glyph-name="Atilde" unicode="&#xc3;" horiz-adv-x="979" 
d="M-124 0l706 1465h185l95 -1465h-162l-28 472h-399l-222 -472h-175zM339 617h327l-15 432q-4 62 -7 128t-2 119h-6q-21 -55 -47.5 -118t-59.5 -132zM385 1618q18 81 46.5 137.5t70 85.5t97.5 29q43 0 78 -18t65 -41.5t57 -41.5t54 -18q38 0 61 26.5t43 94.5h99
q-19 -87 -49 -143t-70.5 -82.5t-91.5 -26.5q-40 0 -73.5 18t-63.5 42t-58.5 42t-59.5 18q-40 0 -64 -30t-43 -92h-98z" />
    <glyph glyph-name="Adieresis" unicode="&#xc4;" horiz-adv-x="979" 
d="M-124 0l706 1465h185l95 -1465h-162l-28 472h-399l-222 -472h-175zM339 617h327l-15 432q-4 62 -7 128t-2 119h-6q-21 -55 -47.5 -118t-59.5 -132zM871 1669q-34 0 -54.5 19.5t-20.5 57.5q0 47 27 83.5t77 36.5q35 0 53 -19t18 -53q0 -55 -29.5 -90t-70.5 -35zM537 1669
q-34 0 -54 19.5t-20 57.5q0 47 26.5 83.5t75.5 36.5q24 0 39 -8.5t23 -24.5t8 -39q0 -55 -28.5 -90t-69.5 -35z" />
    <glyph glyph-name="Aring" unicode="&#xc5;" horiz-adv-x="979" 
d="M-124 0l706 1465h185l95 -1465h-162l-28 472h-399l-222 -472h-175zM339 617h327l-15 432q-4 62 -7 128t-2 119h-6q-21 -55 -47.5 -118t-59.5 -132zM712 1597q-96 0 -153.5 55.5t-57.5 152.5q0 95 59 150.5t152 55.5q95 0 153.5 -55.5t58.5 -147.5q0 -97 -58.5 -154
t-153.5 -57zM713 1689q52 0 84 31.5t32 84.5q0 52 -32 84t-84 32t-83.5 -32t-31.5 -84q0 -53 29.5 -84.5t85.5 -31.5z" />
    <glyph glyph-name="AE" unicode="&#xc6;" horiz-adv-x="1399" 
d="M-127 0l812 1462h799l-29 -143h-474l-103 -483h444l-30 -142h-443l-116 -550h472l-30 -144h-634l101 473h-335l-257 -473h-177zM386 617h286l149 701h-56z" />
    <glyph glyph-name="Ccedilla" unicode="&#xc7;" horiz-adv-x="992" 
d="M533 -20q-135 0 -229 60.5t-143 175.5t-49 280q0 128 28.5 266t85 266.5t141.5 231.5t199 163.5t256 60.5q87 0 159 -18.5t132 -57.5l-73 -132q-45 30 -99 47t-120 17q-110 0 -196.5 -54t-151.5 -143.5t-107.5 -199.5t-63.5 -224t-21 -215q0 -187 72.5 -284t211.5 -97
q65 0 129.5 15t128.5 39v-144q-66 -25 -136 -39t-154 -14zM353 -492q-32 0 -60 4t-51 9v99q19 -5 43.5 -8t51.5 -3q51 0 86.5 14t54 40.5t18.5 64.5q0 45 -37 69t-106 32l103 171h100l-67 -113q58 -13 97.5 -50.5t39.5 -105.5q0 -67 -33.5 -117t-95 -78t-144.5 -28z" />
    <glyph glyph-name="Egrave" unicode="&#xc8;" horiz-adv-x="901" 
d="M43 0l310 1462h632l-31 -143h-471l-103 -483h442l-30 -142h-442l-117 -550h472l-30 -144h-632zM691 1615q-33 38 -72.5 94t-74 113.5t-52.5 100.5v19h174q14 -49 33.5 -101t42.5 -103t47 -100l-1 -23h-97z" />
    <glyph glyph-name="Eacute" unicode="&#xc9;" horiz-adv-x="901" 
d="M43 0l310 1462h632l-31 -143h-471l-103 -483h442l-30 -142h-442l-117 -550h472l-30 -144h-632zM583 1613l1 22q42 47 84.5 100.5t81 107t65.5 98.5h183l-1 -18q-21 -29 -59.5 -70.5t-84 -87t-90.5 -85.5t-80 -67h-100z" />
    <glyph glyph-name="Ecircumflex" unicode="&#xca;" horiz-adv-x="901" 
d="M43 0l310 1462h632l-31 -143h-471l-103 -483h442l-30 -142h-442l-117 -550h472l-30 -144h-632zM404 1594l3 23q41 41 91 94.5t96.5 108.5t76.5 102h145q14 -45 39 -101.5t53 -111t49 -92.5l-2 -23h-93q-21 25 -44.5 56.5t-47 66.5t-46.5 73q-57 -57 -114 -107.5
t-107 -88.5h-99z" />
    <glyph glyph-name="Edieresis" unicode="&#xcb;" horiz-adv-x="901" 
d="M43 0l310 1462h632l-31 -143h-471l-103 -483h442l-30 -142h-442l-117 -550h472l-30 -144h-632zM863 1649q-34 0 -54.5 19.5t-20.5 57.5q0 47 27 83.5t77 36.5q35 0 53 -19t18 -53q0 -55 -29.5 -90t-70.5 -35zM529 1649q-34 0 -54 19.5t-20 57.5q0 47 26.5 83.5t75.5 36.5
q24 0 39 -8.5t23 -24.5t8 -39q0 -55 -28.5 -90t-69.5 -35z" />
    <glyph glyph-name="Igrave" unicode="&#xcc;" horiz-adv-x="488" 
d="M43 0l311 1462h158l-310 -1462h-159zM458 1615q-33 38 -72.5 94t-74 113.5t-52.5 100.5v19h174q14 -49 33.5 -101t42.5 -103t47 -100l-1 -23h-97z" />
    <glyph glyph-name="Iacute" unicode="&#xcd;" horiz-adv-x="488" 
d="M43 0l311 1462h158l-310 -1462h-159zM373 1615l1 22q42 47 84.5 100.5t81 107t65.5 98.5h183l-1 -18q-21 -29 -59.5 -70.5t-84 -87t-90.5 -85.5t-80 -67h-100z" />
    <glyph glyph-name="Icircumflex" unicode="&#xce;" horiz-adv-x="488" 
d="M43 0l311 1462h158l-310 -1462h-159zM183 1616l3 23q41 41 91 94.5t96.5 108.5t76.5 102h145q14 -45 39 -101.5t53 -111t49 -92.5l-2 -23h-93q-21 25 -44.5 56.5t-47 66.5t-46.5 73q-57 -57 -114 -107.5t-107 -88.5h-99z" />
    <glyph glyph-name="Idieresis" unicode="&#xcf;" horiz-adv-x="488" 
d="M43 0l311 1462h158l-310 -1462h-159zM648 1670q-34 0 -54.5 19.5t-20.5 57.5q0 47 27 83.5t77 36.5q35 0 53 -19t18 -53q0 -55 -29.5 -90t-70.5 -35zM314 1670q-34 0 -54 19.5t-20 57.5q0 47 26.5 83.5t75.5 36.5q24 0 39 -8.5t23 -24.5t8 -39q0 -55 -28.5 -90t-69.5 -35
z" />
    <glyph glyph-name="Eth" unicode="&#xd0;" horiz-adv-x="1155" 
d="M44 0l140 674h-125l29 136h126l139 652h285q223 0 345.5 -125.5t122.5 -381.5q0 -142 -29.5 -280t-90 -259.5t-152 -215t-215.5 -147t-282 -53.5h-293zM233 143h120q121 0 215.5 48t164 131t115 187.5t67.5 218.5t22 223q0 195 -84 282.5t-235 87.5h-134l-109 -511h254
l-30 -136h-255z" />
    <glyph glyph-name="Ntilde" unicode="&#xd1;" horiz-adv-x="1240" 
d="M42 0l310 1462h179l330 -1204h5q10 61 22 128.5t25 133t24 118.5l175 824h154l-310 -1462h-176l-334 1215h-5q-6 -44 -15 -97t-19.5 -109t-21 -108.5t-20.5 -95.5l-169 -805h-154zM520 1598q18 81 46.5 137.5t70 85.5t97.5 29q43 0 78 -18t65 -41.5t57 -41.5t54 -18
q38 0 61 26.5t43 94.5h99q-19 -87 -49 -143t-70.5 -82.5t-91.5 -26.5q-40 0 -73.5 18t-63.5 42t-58.5 42t-59.5 18q-40 0 -64 -30t-43 -92h-98z" />
    <glyph glyph-name="Ograve" unicode="&#xd2;" horiz-adv-x="1240" 
d="M537 -20q-141 0 -235.5 58t-142.5 169.5t-48 270.5q0 117 19.5 236t57 232t94 210.5t130 171t165 115t199.5 41.5q201 0 308 -126.5t107 -366.5q0 -108 -17 -224.5t-52 -230t-88.5 -213.5t-126 -177t-165 -121.5t-205.5 -44.5zM545 124q79 0 145 38.5t119 105.5
t93.5 153.5t67.5 184t40.5 197t13.5 191.5q0 170 -68 258.5t-193 88.5q-81 0 -148.5 -39.5t-121.5 -107.5t-94 -155t-66.5 -184t-40 -193.5t-13.5 -182.5q0 -116 31 -195.5t90.5 -119.5t144.5 -40zM841 1615q-33 38 -72.5 94t-74 113.5t-52.5 100.5v19h174q14 -49 33.5 -101
t42.5 -103t47 -100l-1 -23h-97z" />
    <glyph glyph-name="Oacute" unicode="&#xd3;" horiz-adv-x="1240" 
d="M537 -20q-141 0 -235.5 58t-142.5 169.5t-48 270.5q0 117 19.5 236t57 232t94 210.5t130 171t165 115t199.5 41.5q201 0 308 -126.5t107 -366.5q0 -108 -17 -224.5t-52 -230t-88.5 -213.5t-126 -177t-165 -121.5t-205.5 -44.5zM545 124q79 0 145 38.5t119 105.5
t93.5 153.5t67.5 184t40.5 197t13.5 191.5q0 170 -68 258.5t-193 88.5q-81 0 -148.5 -39.5t-121.5 -107.5t-94 -155t-66.5 -184t-40 -193.5t-13.5 -182.5q0 -116 31 -195.5t90.5 -119.5t144.5 -40zM733 1613l1 22q42 47 84.5 100.5t81 107t65.5 98.5h183l-1 -18
q-21 -29 -59.5 -70.5t-84 -87t-90.5 -85.5t-80 -67h-100z" />
    <glyph glyph-name="Ocircumflex" unicode="&#xd4;" horiz-adv-x="1240" 
d="M537 -20q-141 0 -235.5 58t-142.5 169.5t-48 270.5q0 117 19.5 236t57 232t94 210.5t130 171t165 115t199.5 41.5q201 0 308 -126.5t107 -366.5q0 -108 -17 -224.5t-52 -230t-88.5 -213.5t-126 -177t-165 -121.5t-205.5 -44.5zM545 124q79 0 145 38.5t119 105.5
t93.5 153.5t67.5 184t40.5 197t13.5 191.5q0 170 -68 258.5t-193 88.5q-81 0 -148.5 -39.5t-121.5 -107.5t-94 -155t-66.5 -184t-40 -193.5t-13.5 -182.5q0 -116 31 -195.5t90.5 -119.5t144.5 -40zM531 1594l3 23q41 41 91 94.5t96.5 108.5t76.5 102h145q14 -45 39 -101.5
t53 -111t49 -92.5l-2 -23h-93q-21 25 -44.5 56.5t-47 66.5t-46.5 73q-57 -57 -114 -107.5t-107 -88.5h-99z" />
    <glyph glyph-name="Otilde" unicode="&#xd5;" horiz-adv-x="1240" 
d="M537 -20q-141 0 -235.5 58t-142.5 169.5t-48 270.5q0 117 19.5 236t57 232t94 210.5t130 171t165 115t199.5 41.5q201 0 308 -126.5t107 -366.5q0 -108 -17 -224.5t-52 -230t-88.5 -213.5t-126 -177t-165 -121.5t-205.5 -44.5zM545 124q79 0 145 38.5t119 105.5
t93.5 153.5t67.5 184t40.5 197t13.5 191.5q0 170 -68 258.5t-193 88.5q-81 0 -148.5 -39.5t-121.5 -107.5t-94 -155t-66.5 -184t-40 -193.5t-13.5 -182.5q0 -116 31 -195.5t90.5 -119.5t144.5 -40zM510 1598q18 81 46.5 137.5t70 85.5t97.5 29q43 0 78 -18t65 -41.5
t57 -41.5t54 -18q38 0 61 26.5t43 94.5h99q-19 -87 -49 -143t-70.5 -82.5t-91.5 -26.5q-40 0 -73.5 18t-63.5 42t-58.5 42t-59.5 18q-40 0 -64 -30t-43 -92h-98z" />
    <glyph glyph-name="Odieresis" unicode="&#xd6;" horiz-adv-x="1240" 
d="M537 -20q-141 0 -235.5 58t-142.5 169.5t-48 270.5q0 117 19.5 236t57 232t94 210.5t130 171t165 115t199.5 41.5q201 0 308 -126.5t107 -366.5q0 -108 -17 -224.5t-52 -230t-88.5 -213.5t-126 -177t-165 -121.5t-205.5 -44.5zM545 124q79 0 145 38.5t119 105.5
t93.5 153.5t67.5 184t40.5 197t13.5 191.5q0 170 -68 258.5t-193 88.5q-81 0 -148.5 -39.5t-121.5 -107.5t-94 -155t-66.5 -184t-40 -193.5t-13.5 -182.5q0 -116 31 -195.5t90.5 -119.5t144.5 -40zM999 1649q-34 0 -54.5 19.5t-20.5 57.5q0 47 27 83.5t77 36.5q35 0 53 -19
t18 -53q0 -55 -29.5 -90t-70.5 -35zM665 1649q-34 0 -54 19.5t-20 57.5q0 47 26.5 83.5t75.5 36.5q24 0 39 -8.5t23 -24.5t8 -39q0 -55 -28.5 -90t-69.5 -35z" />
    <glyph glyph-name="multiply" unicode="&#xd7;" horiz-adv-x="1023" 
d="M858 1135l93 -92l-318 -320l314 -317l-91 -92l-318 315l-314 -316l-93 93l315 317l-316 315l93 95l317 -318z" />
    <glyph glyph-name="Oslash" unicode="&#xd8;" horiz-adv-x="1241" 
d="M139 -88l-95 68l138 193q-36 60 -53.5 137t-17.5 168q0 117 19.5 236t57 232t94 210.5t130.5 171t165.5 115t199.5 41.5q86 0 154.5 -26t120.5 -80l119 166l97 -70l-141 -194q32 -54 48 -128.5t16 -160.5q0 -108 -17 -224.5t-52 -230t-88.5 -213.5t-126 -177t-165 -121.5
t-205.5 -44.5q-87 0 -155.5 24.5t-120.5 74.5zM545 124q77 0 142.5 36.5t118 100.5t92.5 147.5t67 178.5t41.5 192.5t15.5 189.5q1 40 -3.5 76t-13.5 64l-650 -895q31 -44 79 -67t111 -23zM302 340l654 904q-33 48 -80.5 73t-112.5 25q-80 0 -146.5 -38t-119.5 -103
t-93 -149.5t-67 -178.5t-41 -188.5t-15 -180.5q-1 -47 4.5 -88.5t16.5 -75.5z" />
    <glyph glyph-name="Ugrave" unicode="&#xd9;" horiz-adv-x="1173" 
d="M485 -20q-120 0 -202.5 41.5t-124.5 120t-42 191.5q0 36 5.5 83t16.5 99l202 947h160l-203 -956q-10 -43 -15 -87t-5 -76q0 -106 57 -162.5t165 -56.5q98 0 164 40.5t108.5 122.5t69.5 206l208 969h160l-211 -983q-32 -155 -94 -267t-164 -172t-255 -60zM809 1615
q-33 38 -72.5 94t-74 113.5t-52.5 100.5v19h174q14 -49 33.5 -101t42.5 -103t47 -100l-1 -23h-97z" />
    <glyph glyph-name="Uacute" unicode="&#xda;" horiz-adv-x="1173" 
d="M485 -20q-120 0 -202.5 41.5t-124.5 120t-42 191.5q0 36 5.5 83t16.5 99l202 947h160l-203 -956q-10 -43 -15 -87t-5 -76q0 -106 57 -162.5t165 -56.5q98 0 164 40.5t108.5 122.5t69.5 206l208 969h160l-211 -983q-32 -155 -94 -267t-164 -172t-255 -60zM699 1613l1 22
q42 47 84.5 100.5t81 107t65.5 98.5h183l-1 -18q-21 -29 -59.5 -70.5t-84 -87t-90.5 -85.5t-80 -67h-100z" />
    <glyph glyph-name="Ucircumflex" unicode="&#xdb;" horiz-adv-x="1173" 
d="M485 -20q-120 0 -202.5 41.5t-124.5 120t-42 191.5q0 36 5.5 83t16.5 99l202 947h160l-203 -956q-10 -43 -15 -87t-5 -76q0 -106 57 -162.5t165 -56.5q98 0 164 40.5t108.5 122.5t69.5 206l208 969h160l-211 -983q-32 -155 -94 -267t-164 -172t-255 -60zM509 1594l3 23
q41 41 91 94.5t96.5 108.5t76.5 102h145q14 -45 39 -101.5t53 -111t49 -92.5l-2 -23h-93q-21 25 -44.5 56.5t-47 66.5t-46.5 73q-57 -57 -114 -107.5t-107 -88.5h-99z" />
    <glyph glyph-name="Udieresis" unicode="&#xdc;" horiz-adv-x="1173" 
d="M485 -20q-120 0 -202.5 41.5t-124.5 120t-42 191.5q0 36 5.5 83t16.5 99l202 947h160l-203 -956q-10 -43 -15 -87t-5 -76q0 -106 57 -162.5t165 -56.5q98 0 164 40.5t108.5 122.5t69.5 206l208 969h160l-211 -983q-32 -155 -94 -267t-164 -172t-255 -60zM969 1649
q-34 0 -54.5 19.5t-20.5 57.5q0 47 27 83.5t77 36.5q35 0 53 -19t18 -53q0 -55 -29.5 -90t-70.5 -35zM635 1649q-34 0 -54 19.5t-20 57.5q0 47 26.5 83.5t75.5 36.5q24 0 39 -8.5t23 -24.5t8 -39q0 -55 -28.5 -90t-69.5 -35z" />
    <glyph glyph-name="Yacute" unicode="&#xdd;" horiz-adv-x="876" 
d="M230 0l119 557l-168 905h164l118 -718l419 718h176l-550 -906l-117 -556h-161zM553 1613l1 22q42 47 84.5 100.5t81 107t65.5 98.5h183l-1 -18q-21 -29 -59.5 -70.5t-84 -87t-90.5 -85.5t-80 -67h-100z" />
    <glyph glyph-name="Thorn" unicode="&#xde;" horiz-adv-x="984" 
d="M43 0l310 1462h160l-54 -256h108q132 0 217 -42t127 -119.5t42 -183.5q0 -123 -38 -222.5t-110.5 -170t-177.5 -108.5t-239 -38h-117l-68 -322h-160zM301 462h102q120 0 206 45t132 131t46 210q0 112 -59.5 164.5t-181.5 52.5h-118z" />
    <glyph glyph-name="germandbls" unicode="&#xdf;" horiz-adv-x="1005" 
d="M-155 -492q-34 0 -62 5t-51 13v138q21 -8 46 -13t52 -5q67 0 103.5 53t60.5 166l279 1314q28 129 80.5 215.5t134 129.5t193.5 43q138 0 216.5 -67.5t78.5 -182.5q0 -68 -23 -121.5t-62.5 -99t-88.5 -90.5q-61 -54 -103.5 -101.5t-42.5 -109.5q0 -31 16.5 -61t40 -58.5
t43.5 -56.5q54 -59 90 -123.5t36 -153.5q0 -116 -47.5 -197t-130 -123t-189.5 -42q-72 0 -130 16t-95 43l9 148q42 -32 97.5 -52.5t111.5 -20.5q103 0 158 59t55 152q0 42 -11.5 77t-34.5 69t-58 74q-59 65 -89 119.5t-30 116.5q0 60 21.5 107t58 87.5t81.5 78.5
q46 39 82 76t57 79t21 96q0 61 -41 94.5t-110 33.5q-65 0 -112 -29t-78 -86t-50 -143l-278 -1311q-22 -105 -57 -185.5t-94 -125.5t-154 -45z" />
    <glyph glyph-name="agrave" unicode="&#xe0;" 
d="M330 -20q-79 0 -136.5 39t-88 115.5t-30.5 185.5q0 107 21 218.5t61.5 214.5t100.5 185t137 130t171 48q60 0 105.5 -23t76 -64t47.5 -93h8l54 160h126l-232 -1096h-126l23 186h-6q-41 -58 -89 -105t-103.5 -74t-119.5 -27zM380 114q74 0 136.5 56t110.5 148t76 199
q20 79 29.5 144t9.5 122q0 91 -43 144.5t-118 53.5q-62 0 -115.5 -40t-95.5 -108t-72 -153t-46 -177t-16 -179q0 -105 37 -157.5t107 -52.5zM650 1247q-33 38 -72.5 94t-74 113.5t-52.5 100.5v19h174q14 -49 33.5 -101t42.5 -103t47 -100l-1 -23h-97z" />
    <glyph glyph-name="aacute" unicode="&#xe1;" 
d="M330 -20q-79 0 -136.5 39t-88 115.5t-30.5 185.5q0 107 21 218.5t61.5 214.5t100.5 185t137 130t171 48q60 0 105.5 -23t76 -64t47.5 -93h8l54 160h126l-232 -1096h-126l23 186h-6q-41 -58 -89 -105t-103.5 -74t-119.5 -27zM380 114q74 0 136.5 56t110.5 148t76 199
q20 79 29.5 144t9.5 122q0 91 -43 144.5t-118 53.5q-62 0 -115.5 -40t-95.5 -108t-72 -153t-46 -177t-16 -179q0 -105 37 -157.5t107 -52.5zM538 1246l1 22q42 47 84.5 100.5t81 107t65.5 98.5h183l-1 -18q-21 -29 -59.5 -70.5t-84 -87t-90.5 -85.5t-80 -67h-100z" />
    <glyph glyph-name="acircumflex" unicode="&#xe2;" 
d="M330 -20q-79 0 -136.5 39t-88 115.5t-30.5 185.5q0 107 21 218.5t61.5 214.5t100.5 185t137 130t171 48q60 0 105.5 -23t76 -64t47.5 -93h8l54 160h126l-232 -1096h-126l23 186h-6q-41 -58 -89 -105t-103.5 -74t-119.5 -27zM380 114q74 0 136.5 56t110.5 148t76 199
q20 79 29.5 144t9.5 122q0 91 -43 144.5t-118 53.5q-62 0 -115.5 -40t-95.5 -108t-72 -153t-46 -177t-16 -179q0 -105 37 -157.5t107 -52.5zM360 1243l3 23q41 41 91 94.5t96.5 108.5t76.5 102h145q14 -45 39 -101.5t53 -111t49 -92.5l-2 -23h-93q-21 25 -44.5 56.5
t-47 66.5t-46.5 73q-57 -57 -114 -107.5t-107 -88.5h-99z" />
    <glyph glyph-name="atilde" unicode="&#xe3;" 
d="M330 -20q-79 0 -136.5 39t-88 115.5t-30.5 185.5q0 107 21 218.5t61.5 214.5t100.5 185t137 130t171 48q60 0 105.5 -23t76 -64t47.5 -93h8l54 160h126l-232 -1096h-126l23 186h-6q-41 -58 -89 -105t-103.5 -74t-119.5 -27zM380 114q74 0 136.5 56t110.5 148t76 199
q20 79 29.5 144t9.5 122q0 91 -43 144.5t-118 53.5q-62 0 -115.5 -40t-95.5 -108t-72 -153t-46 -177t-16 -179q0 -105 37 -157.5t107 -52.5zM337 1247q18 81 46.5 137.5t70 85.5t97.5 29q43 0 78 -18t65 -41.5t57 -41.5t54 -18q38 0 61 26.5t43 94.5h99q-19 -87 -49 -143
t-70.5 -82.5t-91.5 -26.5q-40 0 -73.5 18t-63.5 42t-58.5 42t-59.5 18q-40 0 -64 -30t-43 -92h-98z" />
    <glyph glyph-name="adieresis" unicode="&#xe4;" 
d="M330 -20q-79 0 -136.5 39t-88 115.5t-30.5 185.5q0 107 21 218.5t61.5 214.5t100.5 185t137 130t171 48q60 0 105.5 -23t76 -64t47.5 -93h8l54 160h126l-232 -1096h-126l23 186h-6q-41 -58 -89 -105t-103.5 -74t-119.5 -27zM380 114q74 0 136.5 56t110.5 148t76 199
q20 79 29.5 144t9.5 122q0 91 -43 144.5t-118 53.5q-62 0 -115.5 -40t-95.5 -108t-72 -153t-46 -177t-16 -179q0 -105 37 -157.5t107 -52.5zM825 1298q-34 0 -54.5 19.5t-20.5 57.5q0 47 27 83.5t77 36.5q35 0 53 -19t18 -53q0 -55 -29.5 -90t-70.5 -35zM491 1298
q-34 0 -54 19.5t-20 57.5q0 47 26.5 83.5t75.5 36.5q24 0 39 -8.5t23 -24.5t8 -39q0 -55 -28.5 -90t-69.5 -35z" />
    <glyph glyph-name="aring" unicode="&#xe5;" 
d="M330 -20q-79 0 -136.5 39t-88 115.5t-30.5 185.5q0 107 21 218.5t61.5 214.5t100.5 185t137 130t171 48q60 0 105.5 -23t76 -64t47.5 -93h8l54 160h126l-232 -1096h-126l23 186h-6q-41 -58 -89 -105t-103.5 -74t-119.5 -27zM380 114q74 0 136.5 56t110.5 148t76 199
q20 79 29.5 144t9.5 122q0 91 -43 144.5t-118 53.5q-62 0 -115.5 -40t-95.5 -108t-72 -153t-46 -177t-16 -179q0 -105 37 -157.5t107 -52.5zM668 1245q-96 0 -153.5 55.5t-57.5 152.5q0 95 59 150.5t152 55.5q95 0 153.5 -55.5t58.5 -147.5q0 -97 -58.5 -154t-153.5 -57z
M669 1337q52 0 84 31.5t32 84.5q0 52 -32 84t-84 32t-83.5 -32t-31.5 -84q0 -53 29.5 -84.5t85.5 -31.5z" />
    <glyph glyph-name="ae" unicode="&#xe6;" horiz-adv-x="1467" 
d="M310 -20q-72 0 -124.5 39t-81.5 115t-29 185q0 119 22.5 234.5t65 217t102.5 179t133.5 122t159.5 44.5q55 0 96.5 -22t70 -61.5t44.5 -91.5h7l50 155h109l-30 -143q49 69 121 116t167 47q102 0 170 -60t68 -177q0 -87 -36.5 -159t-108.5 -124t-180 -80t-251 -28h-29
q-4 -29 -7 -61t-3 -62q0 -118 51.5 -186t164.5 -68q65 0 126.5 20.5t128.5 54.5l-8 -138q-66 -34 -132 -51t-144 -17q-98 0 -167 42.5t-98 125.5l-31 -148h-110l26 183h-5q-43 -62 -89.5 -107.5t-99.5 -70.5t-119 -25zM365 113q52 0 99.5 31t88 86t72 128t52.5 156
q20 79 28.5 146t8.5 125q0 90 -36 143t-102 53q-58 0 -109.5 -38t-93.5 -104t-73 -150.5t-47.5 -178.5t-16.5 -187q0 -105 33.5 -157.5t95.5 -52.5zM849 613h17q126 0 219 29.5t143.5 86t50.5 138.5q0 58 -31.5 88t-85.5 30q-68 0 -128 -46t-107.5 -129.5t-77.5 -196.5z" />
    <glyph glyph-name="ccedilla" unicode="&#xe7;" horiz-adv-x="783" 
d="M408 -20q-103 0 -177.5 42t-114.5 124t-40 204q0 107 21.5 216t64 207.5t105.5 176t146 122t186 44.5q62 0 119 -12t104 -36l-53 -131q-34 19 -78.5 31.5t-91.5 12.5q-86 0 -153 -55.5t-114 -147t-71.5 -201t-24.5 -218.5q0 -80 23 -134.5t67 -82.5t107 -28
q55 0 107.5 17t105.5 44v-136q-46 -25 -107 -42t-131 -17zM209 -492q-32 0 -60 4t-51 9v99q19 -5 43.5 -8t51.5 -3q51 0 86.5 14t54 40.5t18.5 64.5q0 45 -37 69t-106 32l103 171h100l-67 -113q58 -13 97.5 -50.5t39.5 -105.5q0 -67 -33.5 -117t-95 -78t-144.5 -28z" />
    <glyph glyph-name="egrave" unicode="&#xe8;" horiz-adv-x="895" 
d="M414 -20q-105 0 -181 44t-116.5 127.5t-40.5 201.5q0 149 37 286t105 245t161.5 170t206.5 62q125 0 193 -61.5t68 -175.5q0 -86 -36.5 -158t-108.5 -124t-180 -80.5t-252 -28.5h-26q-4 -29 -7 -61t-3 -62q0 -125 53 -189.5t159 -64.5q67 0 125.5 18.5t125.5 53.5v-134
q-62 -33 -129.5 -51t-153.5 -18zM267 613h15q127 0 219.5 29t143.5 86t51 140q0 53 -30.5 85t-94.5 32q-62 0 -121.5 -46t-107 -129.5t-75.5 -196.5zM599 1241q-33 38 -72.5 94t-74 113.5t-52.5 100.5v19h174q14 -49 33.5 -101t42.5 -103t47 -100l-1 -23h-97z" />
    <glyph glyph-name="eacute" unicode="&#xe9;" horiz-adv-x="895" 
d="M414 -20q-105 0 -181 44t-116.5 127.5t-40.5 201.5q0 149 37 286t105 245t161.5 170t206.5 62q125 0 193 -61.5t68 -175.5q0 -86 -36.5 -158t-108.5 -124t-180 -80.5t-252 -28.5h-26q-4 -29 -7 -61t-3 -62q0 -125 53 -189.5t159 -64.5q67 0 125.5 18.5t125.5 53.5v-134
q-62 -33 -129.5 -51t-153.5 -18zM267 613h15q127 0 219.5 29t143.5 86t51 140q0 53 -30.5 85t-94.5 32q-62 0 -121.5 -46t-107 -129.5t-75.5 -196.5zM490 1240l1 22q42 47 84.5 100.5t81 107t65.5 98.5h183l-1 -18q-21 -29 -59.5 -70.5t-84 -87t-90.5 -85.5t-80 -67h-100z
" />
    <glyph glyph-name="ecircumflex" unicode="&#xea;" horiz-adv-x="895" 
d="M414 -20q-105 0 -181 44t-116.5 127.5t-40.5 201.5q0 149 37 286t105 245t161.5 170t206.5 62q125 0 193 -61.5t68 -175.5q0 -86 -36.5 -158t-108.5 -124t-180 -80.5t-252 -28.5h-26q-4 -29 -7 -61t-3 -62q0 -125 53 -189.5t159 -64.5q67 0 125.5 18.5t125.5 53.5v-134
q-62 -33 -129.5 -51t-153.5 -18zM267 613h15q127 0 219.5 29t143.5 86t51 140q0 53 -30.5 85t-94.5 32q-62 0 -121.5 -46t-107 -129.5t-75.5 -196.5zM320 1241l3 23q41 41 91 94.5t96.5 108.5t76.5 102h145q14 -45 39 -101.5t53 -111t49 -92.5l-2 -23h-93q-21 25 -44.5 56.5
t-47 66.5t-46.5 73q-57 -57 -114 -107.5t-107 -88.5h-99z" />
    <glyph glyph-name="edieresis" unicode="&#xeb;" horiz-adv-x="895" 
d="M414 -20q-105 0 -181 44t-116.5 127.5t-40.5 201.5q0 149 37 286t105 245t161.5 170t206.5 62q125 0 193 -61.5t68 -175.5q0 -86 -36.5 -158t-108.5 -124t-180 -80.5t-252 -28.5h-26q-4 -29 -7 -61t-3 -62q0 -125 53 -189.5t159 -64.5q67 0 125.5 18.5t125.5 53.5v-134
q-62 -33 -129.5 -51t-153.5 -18zM267 613h15q127 0 219.5 29t143.5 86t51 140q0 53 -30.5 85t-94.5 32q-62 0 -121.5 -46t-107 -129.5t-75.5 -196.5zM786 1296q-34 0 -54.5 19.5t-20.5 57.5q0 47 27 83.5t77 36.5q35 0 53 -19t18 -53q0 -55 -29.5 -90t-70.5 -35zM452 1296
q-34 0 -54 19.5t-20 57.5q0 47 26.5 83.5t75.5 36.5q24 0 39 -8.5t23 -24.5t8 -39q0 -55 -28.5 -90t-69.5 -35z" />
    <glyph glyph-name="igrave" unicode="&#xec;" horiz-adv-x="451" 
d="M29 0l233 1096h157l-233 -1096h-157zM369 1247q-33 38 -72.5 94t-74 113.5t-52.5 100.5v19h174q14 -49 33.5 -101t42.5 -103t47 -100l-1 -23h-97z" />
    <glyph glyph-name="iacute" unicode="&#xed;" horiz-adv-x="451" 
d="M29 0l233 1096h157l-233 -1096h-157zM260 1246l1 22q42 47 84.5 100.5t81 107t65.5 98.5h183l-1 -18q-21 -29 -59.5 -70.5t-84 -87t-90.5 -85.5t-80 -67h-100z" />
    <glyph glyph-name="icircumflex" unicode="&#xee;" horiz-adv-x="451" 
d="M29 0l233 1096h157l-233 -1096h-157zM79 1241l3 23q41 41 91 94.5t96.5 108.5t76.5 102h145q14 -45 39 -101.5t53 -111t49 -92.5l-2 -23h-93q-21 25 -44.5 56.5t-47 66.5t-46.5 73q-57 -57 -114 -107.5t-107 -88.5h-99z" />
    <glyph glyph-name="idieresis" unicode="&#xef;" horiz-adv-x="451" 
d="M29 0l233 1096h157l-233 -1096h-157zM543 1296q-34 0 -54.5 19.5t-20.5 57.5q0 47 27 83.5t77 36.5q35 0 53 -19t18 -53q0 -55 -29.5 -90t-70.5 -35zM209 1296q-34 0 -54 19.5t-20 57.5q0 47 26.5 83.5t75.5 36.5q24 0 39 -8.5t23 -24.5t8 -39q0 -55 -28.5 -90t-69.5 -35
z" />
    <glyph glyph-name="eth" unicode="&#xf0;" horiz-adv-x="990" 
d="M382 -20q-102 0 -175.5 42.5t-112.5 122.5t-39 194q0 109 31 219.5t91.5 203.5t148.5 149.5t203 56.5q100 0 153.5 -51.5t76.5 -120.5l5 1q1 136 -27 253t-108 218l-236 -136l-52 90l221 128q-27 28 -64 59t-83 61l84 100q48 -30 94.5 -66.5t90.5 -81.5l230 134l57 -88
l-218 -127q47 -67 81.5 -145t53 -168.5t18.5 -197.5q0 -108 -16.5 -226t-53 -228.5t-97 -200t-149 -142.5t-208.5 -53zM394 113q67 0 120 32t91.5 85t64 117.5t38 131.5t12.5 125q0 47 -11 88.5t-33 73.5t-57.5 50t-85.5 18q-79 0 -139 -44t-99.5 -116.5t-59.5 -158.5
t-20 -171q0 -109 44 -170t135 -61z" />
    <glyph glyph-name="ntilde" unicode="&#xf1;" horiz-adv-x="1005" 
d="M26 0l233 1099h134l-24 -180h4q34 53 79 98.5t103 73.5t129 28t124.5 -27t83 -80t29.5 -132q0 -44 -8 -96t-18 -98l-147 -686h-162l146 688q10 48 17.5 90.5t7.5 77.5q0 59 -30.5 89.5t-90.5 30.5q-68 0 -132 -47.5t-116.5 -144.5t-84.5 -247l-114 -537h-163zM334 1247
q18 81 46.5 137.5t70 85.5t97.5 29q43 0 78 -18t65 -41.5t57 -41.5t54 -18q38 0 61 26.5t43 94.5h99q-19 -87 -49 -143t-70.5 -82.5t-91.5 -26.5q-40 0 -73.5 18t-63.5 42t-58.5 42t-59.5 18q-40 0 -64 -30t-43 -92h-98z" />
    <glyph glyph-name="ograve" unicode="&#xf2;" horiz-adv-x="988" 
d="M407 -18q-104 0 -178 44.5t-113.5 128.5t-39.5 202q0 93 19.5 196.5t58.5 203t99.5 180.5t143 129t187.5 48q104 0 177.5 -45t113 -129.5t39.5 -203.5q0 -101 -20 -207t-60.5 -204t-101.5 -175t-142 -122.5t-183 -45.5zM419 116q60 0 111.5 35.5t92.5 97.5t70 142.5
t44.5 171.5t15.5 184q0 65 -18 118t-57 84.5t-102 31.5q-66 0 -120 -39t-95.5 -105t-69 -148t-42 -169.5t-14.5 -167.5q0 -113 47.5 -174.5t136.5 -61.5zM622 1241q-33 38 -72.5 94t-74 113.5t-52.5 100.5v19h174q14 -49 33.5 -101t42.5 -103t47 -100l-1 -23h-97z" />
    <glyph glyph-name="oacute" unicode="&#xf3;" horiz-adv-x="988" 
d="M407 -18q-104 0 -178 44.5t-113.5 128.5t-39.5 202q0 93 19.5 196.5t58.5 203t99.5 180.5t143 129t187.5 48q104 0 177.5 -45t113 -129.5t39.5 -203.5q0 -101 -20 -207t-60.5 -204t-101.5 -175t-142 -122.5t-183 -45.5zM419 116q60 0 111.5 35.5t92.5 97.5t70 142.5
t44.5 171.5t15.5 184q0 65 -18 118t-57 84.5t-102 31.5q-66 0 -120 -39t-95.5 -105t-69 -148t-42 -169.5t-14.5 -167.5q0 -113 47.5 -174.5t136.5 -61.5zM513 1240l1 22q42 47 84.5 100.5t81 107t65.5 98.5h183l-1 -18q-21 -29 -59.5 -70.5t-84 -87t-90.5 -85.5t-80 -67
h-100z" />
    <glyph glyph-name="ocircumflex" unicode="&#xf4;" horiz-adv-x="988" 
d="M407 -18q-104 0 -178 44.5t-113.5 128.5t-39.5 202q0 93 19.5 196.5t58.5 203t99.5 180.5t143 129t187.5 48q104 0 177.5 -45t113 -129.5t39.5 -203.5q0 -101 -20 -207t-60.5 -204t-101.5 -175t-142 -122.5t-183 -45.5zM419 116q60 0 111.5 35.5t92.5 97.5t70 142.5
t44.5 171.5t15.5 184q0 65 -18 118t-57 84.5t-102 31.5q-66 0 -120 -39t-95.5 -105t-69 -148t-42 -169.5t-14.5 -167.5q0 -113 47.5 -174.5t136.5 -61.5zM328 1241l3 23q41 41 91 94.5t96.5 108.5t76.5 102h145q14 -45 39 -101.5t53 -111t49 -92.5l-2 -23h-93
q-21 25 -44.5 56.5t-47 66.5t-46.5 73q-57 -57 -114 -107.5t-107 -88.5h-99z" />
    <glyph glyph-name="otilde" unicode="&#xf5;" horiz-adv-x="988" 
d="M407 -18q-104 0 -178 44.5t-113.5 128.5t-39.5 202q0 93 19.5 196.5t58.5 203t99.5 180.5t143 129t187.5 48q104 0 177.5 -45t113 -129.5t39.5 -203.5q0 -101 -20 -207t-60.5 -204t-101.5 -175t-142 -122.5t-183 -45.5zM419 116q60 0 111.5 35.5t92.5 97.5t70 142.5
t44.5 171.5t15.5 184q0 65 -18 118t-57 84.5t-102 31.5q-66 0 -120 -39t-95.5 -105t-69 -148t-42 -169.5t-14.5 -167.5q0 -113 47.5 -174.5t136.5 -61.5zM300 1245q18 81 46.5 137.5t70 85.5t97.5 29q43 0 78 -18t65 -41.5t57 -41.5t54 -18q38 0 61 26.5t43 94.5h99
q-19 -87 -49 -143t-70.5 -82.5t-91.5 -26.5q-40 0 -73.5 18t-63.5 42t-58.5 42t-59.5 18q-40 0 -64 -30t-43 -92h-98z" />
    <glyph glyph-name="odieresis" unicode="&#xf6;" horiz-adv-x="988" 
d="M407 -18q-104 0 -178 44.5t-113.5 128.5t-39.5 202q0 93 19.5 196.5t58.5 203t99.5 180.5t143 129t187.5 48q104 0 177.5 -45t113 -129.5t39.5 -203.5q0 -101 -20 -207t-60.5 -204t-101.5 -175t-142 -122.5t-183 -45.5zM419 116q60 0 111.5 35.5t92.5 97.5t70 142.5
t44.5 171.5t15.5 184q0 65 -18 118t-57 84.5t-102 31.5q-66 0 -120 -39t-95.5 -105t-69 -148t-42 -169.5t-14.5 -167.5q0 -113 47.5 -174.5t136.5 -61.5zM793 1296q-34 0 -54.5 19.5t-20.5 57.5q0 47 27 83.5t77 36.5q35 0 53 -19t18 -53q0 -55 -29.5 -90t-70.5 -35z
M459 1296q-34 0 -54 19.5t-20 57.5q0 47 26.5 83.5t75.5 36.5q24 0 39 -8.5t23 -24.5t8 -39q0 -55 -28.5 -90t-69.5 -35z" />
    <glyph glyph-name="divide" unicode="&#xf7;" horiz-adv-x="1023" 
d="M112 656v133h855v-133h-855zM541 244q-47 0 -75 30t-28 90q0 62 28 90.5t75 28.5q46 0 73.5 -28.5t27.5 -90.5q0 -61 -28.5 -90.5t-72.5 -29.5zM541 961q-47 0 -75 29.5t-28 89.5q0 62 27.5 90.5t75.5 28.5q46 0 73.5 -28.5t27.5 -90.5q0 -61 -28.5 -90t-72.5 -29z" />
    <glyph glyph-name="oslash" unicode="&#xf8;" horiz-adv-x="989" 
d="M104 -99l-91 64l118 163q-26 45 -40 102t-14 127q0 90 19 193t57.5 203t99 181.5t143 130.5t188.5 49q65 0 116 -17.5t91 -51.5l98 137l92 -63l-117 -155q25 -43 36.5 -100.5t11.5 -119.5q0 -94 -19 -198.5t-58 -204t-99 -181t-142 -130t-186 -48.5q-60 0 -111 16t-91 47
zM419 111q59 0 110 33t92 91t71 134t46.5 163t18.5 177q1 27 -1.5 52t-7.5 42l-458 -638q22 -27 55.5 -40.5t73.5 -13.5zM242 279l464 645q-20 28 -51.5 43.5t-78.5 15.5q-63 0 -116 -36t-95 -97.5t-71.5 -139.5t-45.5 -163.5t-17 -167.5q0 -31 3 -57t8 -43z" />
    <glyph glyph-name="ugrave" unicode="&#xf9;" 
d="M316 -20q-73 0 -125.5 27.5t-80.5 81t-28 131.5q0 41 7 87.5t16 91.5l150 697h157l-149 -698q-9 -44 -15 -83t-6 -72q0 -60 29.5 -93.5t92.5 -33.5q69 0 134 48t118.5 147t85.5 249l113 536h155l-231 -1096h-128l21 177h-8q-33 -52 -79 -96.5t-103 -72.5t-126 -28z
M647 1241q-33 38 -72.5 94t-74 113.5t-52.5 100.5v19h174q14 -49 33.5 -101t42.5 -103t47 -100l-1 -23h-97z" />
    <glyph glyph-name="uacute" unicode="&#xfa;" 
d="M316 -20q-73 0 -125.5 27.5t-80.5 81t-28 131.5q0 41 7 87.5t16 91.5l150 697h157l-149 -698q-9 -44 -15 -83t-6 -72q0 -60 29.5 -93.5t92.5 -33.5q69 0 134 48t118.5 147t85.5 249l113 536h155l-231 -1096h-128l21 177h-8q-33 -52 -79 -96.5t-103 -72.5t-126 -28z
M537 1240l1 22q42 47 84.5 100.5t81 107t65.5 98.5h183l-1 -18q-21 -29 -59.5 -70.5t-84 -87t-90.5 -85.5t-80 -67h-100z" />
    <glyph glyph-name="ucircumflex" unicode="&#xfb;" 
d="M316 -20q-73 0 -125.5 27.5t-80.5 81t-28 131.5q0 41 7 87.5t16 91.5l150 697h157l-149 -698q-9 -44 -15 -83t-6 -72q0 -60 29.5 -93.5t92.5 -33.5q69 0 134 48t118.5 147t85.5 249l113 536h155l-231 -1096h-128l21 177h-8q-33 -52 -79 -96.5t-103 -72.5t-126 -28z
M356 1241l3 23q41 41 91 94.5t96.5 108.5t76.5 102h145q14 -45 39 -101.5t53 -111t49 -92.5l-2 -23h-93q-21 25 -44.5 56.5t-47 66.5t-46.5 73q-57 -57 -114 -107.5t-107 -88.5h-99z" />
    <glyph glyph-name="udieresis" unicode="&#xfc;" 
d="M316 -20q-73 0 -125.5 27.5t-80.5 81t-28 131.5q0 41 7 87.5t16 91.5l150 697h157l-149 -698q-9 -44 -15 -83t-6 -72q0 -60 29.5 -93.5t92.5 -33.5q69 0 134 48t118.5 147t85.5 249l113 536h155l-231 -1096h-128l21 177h-8q-33 -52 -79 -96.5t-103 -72.5t-126 -28z
M814 1296q-34 0 -54.5 19.5t-20.5 57.5q0 47 27 83.5t77 36.5q35 0 53 -19t18 -53q0 -55 -29.5 -90t-70.5 -35zM480 1296q-34 0 -54 19.5t-20 57.5q0 47 26.5 83.5t75.5 36.5q24 0 39 -8.5t23 -24.5t8 -39q0 -55 -28.5 -90t-69.5 -35z" />
    <glyph glyph-name="yacute" unicode="&#xfd;" horiz-adv-x="815" 
d="M-74 -493q-42 0 -70 6t-53 15l10 133q23 -7 49.5 -12.5t57.5 -5.5q71 0 119 49.5t95 142.5l79 162l-96 1099h157l39 -596q5 -52 7.5 -110t3.5 -112t-1 -96h6q14 37 35 88t44.5 103t41.5 89l302 634h165l-639 -1299q-46 -93 -95 -158t-110.5 -98.5t-146.5 -33.5zM424 1240
l1 22q42 47 84.5 100.5t81 107t65.5 98.5h183l-1 -18q-21 -29 -59.5 -70.5t-84 -87t-90.5 -85.5t-80 -67h-100z" />
    <glyph glyph-name="thorn" unicode="&#xfe;" horiz-adv-x="1014" 
d="M-70 -483l431 2039h155l-97 -450q-11 -55 -23.5 -103t-23.5 -86h7q40 57 86.5 101.5t101.5 70.5t118 26q119 0 187.5 -86t68.5 -254q0 -106 -20.5 -217.5t-60 -214.5t-98.5 -185t-136.5 -130t-172.5 -48q-62 0 -109 23.5t-78.5 64t-48.5 89.5h-7q-3 -36 -11 -85.5
t-15 -85.5l-100 -469h-154zM438 114q66 0 120 42.5t95.5 113t70 157t43 176.5t14.5 170q0 106 -37 158t-110 52q-71 0 -135.5 -56t-114.5 -149t-77 -202q-18 -70 -27 -138.5t-9 -123.5q0 -93 41.5 -146.5t125.5 -53.5z" />
    <glyph glyph-name="ydieresis" unicode="&#xff;" horiz-adv-x="815" 
d="M-74 -493q-42 0 -70 6t-53 15l10 133q23 -7 49.5 -12.5t57.5 -5.5q71 0 119 49.5t95 142.5l79 162l-96 1099h157l39 -596q5 -52 7.5 -110t3.5 -112t-1 -96h6q14 37 35 88t44.5 103t41.5 89l302 634h165l-639 -1299q-46 -93 -95 -158t-110.5 -98.5t-146.5 -33.5zM697 1296
q-34 0 -54.5 19.5t-20.5 57.5q0 47 27 83.5t77 36.5q35 0 53 -19t18 -53q0 -55 -29.5 -90t-70.5 -35zM363 1296q-34 0 -54 19.5t-20 57.5q0 47 26.5 83.5t75.5 36.5q24 0 39 -8.5t23 -24.5t8 -39q0 -55 -28.5 -90t-69.5 -35z" />
    <glyph glyph-name="Amacron" unicode="&#x100;" horiz-adv-x="979" 
d="M-124 0l706 1465h185l95 -1465h-162l-28 472h-399l-222 -472h-175zM339 617h327l-15 432q-4 62 -7 128t-2 119h-6q-21 -55 -47.5 -118t-59.5 -132zM433 1619l26 126h515l-27 -126h-514z" />
    <glyph glyph-name="amacron" unicode="&#x101;" 
d="M330 -20q-79 0 -136.5 39t-88 115.5t-30.5 185.5q0 107 21 218.5t61.5 214.5t100.5 185t137 130t171 48q60 0 105.5 -23t76 -64t47.5 -93h8l54 160h126l-232 -1096h-126l23 186h-6q-41 -58 -89 -105t-103.5 -74t-119.5 -27zM380 114q74 0 136.5 56t110.5 148t76 199
q20 79 29.5 144t9.5 122q0 91 -43 144.5t-118 53.5q-62 0 -115.5 -40t-95.5 -108t-72 -153t-46 -177t-16 -179q0 -105 37 -157.5t107 -52.5zM385 1248l26 126h515l-27 -126h-514z" />
    <glyph glyph-name="Abreve" unicode="&#x102;" horiz-adv-x="979" 
d="M-124 0l706 1465h185l95 -1465h-162l-28 472h-399l-222 -472h-175zM339 617h327l-15 432q-4 62 -7 128t-2 119h-6q-21 -55 -47.5 -118t-59.5 -132zM697 1614q-72 0 -122.5 25.5t-77 73t-26.5 113.5q0 15 1 29t3 27h98q0 -46 13 -77t43 -47t80 -16q77 0 119 35t60 105h103
q-28 -135 -102 -201.5t-192 -66.5z" />
    <glyph glyph-name="abreve" unicode="&#x103;" 
d="M330 -20q-79 0 -136.5 39t-88 115.5t-30.5 185.5q0 107 21 218.5t61.5 214.5t100.5 185t137 130t171 48q60 0 105.5 -23t76 -64t47.5 -93h8l54 160h126l-232 -1096h-126l23 186h-6q-41 -58 -89 -105t-103.5 -74t-119.5 -27zM380 114q74 0 136.5 56t110.5 148t76 199
q20 79 29.5 144t9.5 122q0 91 -43 144.5t-118 53.5q-62 0 -115.5 -40t-95.5 -108t-72 -153t-46 -177t-16 -179q0 -105 37 -157.5t107 -52.5zM650 1243q-72 0 -122.5 25.5t-77 73t-26.5 113.5q0 15 1 29t3 27h98q0 -46 13 -77t43 -47t80 -16q77 0 119 35t60 105h103
q-28 -135 -102 -201.5t-192 -66.5z" />
    <glyph glyph-name="Aogonek" unicode="&#x104;" horiz-adv-x="979" 
d="M-124 0l706 1465h185l95 -1465h-162l-28 472h-399l-222 -472h-175zM339 617h327l-15 432q-4 62 -7 128t-2 119h-6q-21 -55 -47.5 -118t-59.5 -132zM668 -450q-75 0 -119.5 40t-44.5 113q0 61 25.5 111t73 96t113.5 92l108 -2q-51 -43 -93.5 -86t-67 -88t-24.5 -95
q0 -35 18.5 -53t51.5 -18q19 0 39 3.5t40 7.5l-11 -105q-24 -8 -52 -12t-57 -4z" />
    <glyph glyph-name="aogonek" unicode="&#x105;" 
d="M330 -20q-79 0 -136.5 39t-88 115.5t-30.5 185.5q0 107 21 218.5t61.5 214.5t100.5 185t137 130t171 48q60 0 105.5 -23t76 -64t47.5 -93h8l54 160h126l-232 -1096h-126l23 186h-6q-41 -58 -89 -105t-103.5 -74t-119.5 -27zM380 114q74 0 136.5 56t110.5 148t76 199
q20 79 29.5 144t9.5 122q0 91 -43 144.5t-118 53.5q-62 0 -115.5 -40t-95.5 -108t-72 -153t-46 -177t-16 -179q0 -105 37 -157.5t107 -52.5zM581 -450q-75 0 -119.5 40t-44.5 113q0 61 25.5 111t73 96t113.5 92l108 -2q-51 -43 -93.5 -86t-67 -88t-24.5 -95q0 -35 18.5 -53
t51.5 -18q19 0 39 3.5t40 7.5l-11 -105q-24 -8 -52 -12t-57 -4z" />
    <glyph glyph-name="Cacute" unicode="&#x106;" horiz-adv-x="992" 
d="M533 -20q-135 0 -229 60.5t-143 175.5t-49 280q0 128 28.5 266t85 266.5t141.5 231.5t199 163.5t256 60.5q87 0 159 -18.5t132 -57.5l-73 -132q-45 30 -99 47t-120 17q-110 0 -196.5 -54t-151.5 -143.5t-107.5 -199.5t-63.5 -224t-21 -215q0 -187 72.5 -284t211.5 -97
q65 0 129.5 15t128.5 39v-144q-66 -25 -136 -39t-154 -14zM676 1613l1 22q42 47 84.5 100.5t81 107t65.5 98.5h183l-1 -18q-21 -29 -59.5 -70.5t-84 -87t-90.5 -85.5t-80 -67h-100z" />
    <glyph glyph-name="cacute" unicode="&#x107;" horiz-adv-x="783" 
d="M408 -20q-103 0 -177.5 42t-114.5 124t-40 204q0 107 21.5 216t64 207.5t105.5 176t146 122t186 44.5q62 0 119 -12t104 -36l-53 -131q-34 19 -78.5 31.5t-91.5 12.5q-86 0 -153 -55.5t-114 -147t-71.5 -201t-24.5 -218.5q0 -80 23 -134.5t67 -82.5t107 -28
q55 0 107.5 17t105.5 44v-136q-46 -25 -107 -42t-131 -17zM450 1246l1 22q42 47 84.5 100.5t81 107t65.5 98.5h183l-1 -18q-21 -29 -59.5 -70.5t-84 -87t-90.5 -85.5t-80 -67h-100z" />
    <glyph glyph-name="Ccircumflex" unicode="&#x108;" horiz-adv-x="992" 
d="M533 -20q-135 0 -229 60.5t-143 175.5t-49 280q0 128 28.5 266t85 266.5t141.5 231.5t199 163.5t256 60.5q87 0 159 -18.5t132 -57.5l-73 -132q-45 30 -99 47t-120 17q-110 0 -196.5 -54t-151.5 -143.5t-107.5 -199.5t-63.5 -224t-21 -215q0 -187 72.5 -284t211.5 -97
q65 0 129.5 15t128.5 39v-144q-66 -25 -136 -39t-154 -14zM530 1594l3 23q41 41 91 94.5t96.5 108.5t76.5 102h145q14 -45 39 -101.5t53 -111t49 -92.5l-2 -23h-93q-21 25 -44.5 56.5t-47 66.5t-46.5 73q-57 -57 -114 -107.5t-107 -88.5h-99z" />
    <glyph glyph-name="ccircumflex" unicode="&#x109;" horiz-adv-x="783" 
d="M408 -20q-103 0 -177.5 42t-114.5 124t-40 204q0 107 21.5 216t64 207.5t105.5 176t146 122t186 44.5q62 0 119 -12t104 -36l-53 -131q-34 19 -78.5 31.5t-91.5 12.5q-86 0 -153 -55.5t-114 -147t-71.5 -201t-24.5 -218.5q0 -80 23 -134.5t67 -82.5t107 -28
q55 0 107.5 17t105.5 44v-136q-46 -25 -107 -42t-131 -17zM297 1241l3 23q41 41 91 94.5t96.5 108.5t76.5 102h145q14 -45 39 -101.5t53 -111t49 -92.5l-2 -23h-93q-21 25 -44.5 56.5t-47 66.5t-46.5 73q-57 -57 -114 -107.5t-107 -88.5h-99z" />
    <glyph glyph-name="Cdot" unicode="&#x10a;" horiz-adv-x="992" 
d="M533 -20q-135 0 -229 60.5t-143 175.5t-49 280q0 128 28.5 266t85 266.5t141.5 231.5t199 163.5t256 60.5q87 0 159 -18.5t132 -57.5l-73 -132q-45 30 -99 47t-120 17q-110 0 -196.5 -54t-151.5 -143.5t-107.5 -199.5t-63.5 -224t-21 -215q0 -187 72.5 -284t211.5 -97
q65 0 129.5 15t128.5 39v-144q-66 -25 -136 -39t-154 -14zM851 1644q-38 0 -61 22.5t-23 62.5q0 52 29.5 92t82.5 40q28 0 46 -9.5t27 -28t9 -45.5q0 -57 -31.5 -95.5t-78.5 -38.5z" />
    <glyph glyph-name="cdot" unicode="&#x10b;" horiz-adv-x="783" 
d="M408 -20q-103 0 -177.5 42t-114.5 124t-40 204q0 107 21.5 216t64 207.5t105.5 176t146 122t186 44.5q62 0 119 -12t104 -36l-53 -131q-34 19 -78.5 31.5t-91.5 12.5q-86 0 -153 -55.5t-114 -147t-71.5 -201t-24.5 -218.5q0 -80 23 -134.5t67 -82.5t107 -28
q55 0 107.5 17t105.5 44v-136q-46 -25 -107 -42t-131 -17zM618 1287q-38 0 -61 22.5t-23 62.5q0 52 29.5 92t82.5 40q28 0 46 -9.5t27 -28t9 -45.5q0 -57 -31.5 -95.5t-78.5 -38.5z" />
    <glyph glyph-name="Ccaron" unicode="&#x10c;" horiz-adv-x="992" 
d="M533 -20q-135 0 -229 60.5t-143 175.5t-49 280q0 128 28.5 266t85 266.5t141.5 231.5t199 163.5t256 60.5q87 0 159 -18.5t132 -57.5l-73 -132q-45 30 -99 47t-120 17q-110 0 -196.5 -54t-151.5 -143.5t-107.5 -199.5t-63.5 -224t-21 -215q0 -187 72.5 -284t211.5 -97
q65 0 129.5 15t128.5 39v-144q-66 -25 -136 -39t-154 -14zM754 1594q-14 44 -39 101t-52.5 112t-49.5 92l2 23h92q21 -22 43.5 -52.5t47 -67t47.5 -76.5q58 58 115.5 108.5t108.5 87.5h98l-2 -23q-35 -33 -87 -89t-102 -114.5t-77 -101.5h-145z" />
    <glyph glyph-name="ccaron" unicode="&#x10d;" horiz-adv-x="783" 
d="M408 -20q-103 0 -177.5 42t-114.5 124t-40 204q0 107 21.5 216t64 207.5t105.5 176t146 122t186 44.5q62 0 119 -12t104 -36l-53 -131q-34 19 -78.5 31.5t-91.5 12.5q-86 0 -153 -55.5t-114 -147t-71.5 -201t-24.5 -218.5q0 -80 23 -134.5t67 -82.5t107 -28
q55 0 107.5 17t105.5 44v-136q-46 -25 -107 -42t-131 -17zM519 1241q-14 44 -39 101t-52.5 112t-49.5 92l2 23h92q21 -22 43.5 -52.5t47 -67t47.5 -76.5q58 58 115.5 108.5t108.5 87.5h98l-2 -23q-35 -33 -87 -89t-102 -114.5t-77 -101.5h-145z" />
    <glyph glyph-name="Dcaron" unicode="&#x10e;" horiz-adv-x="1154" 
d="M44 0l309 1462h285q223 0 345.5 -125.5t122.5 -381.5q0 -141 -29.5 -279t-89.5 -259.5t-151.5 -215.5t-216 -147.5t-282.5 -53.5h-293zM233 143h120q118 0 212 46t163.5 126t116 183.5t69.5 220t23 232.5q0 195 -84 282.5t-235 87.5h-134zM678 1594q-14 44 -39 101
t-52.5 112t-49.5 92l2 23h92q21 -22 43.5 -52.5t47 -67t47.5 -76.5q58 58 115.5 108.5t108.5 87.5h98l-2 -23q-35 -33 -87 -89t-102 -114.5t-77 -101.5h-145z" />
    <glyph glyph-name="dcaron" unicode="&#x10f;" horiz-adv-x="1114" 
d="M328 -20q-79 0 -136 38.5t-87.5 114.5t-30.5 187q0 105 20.5 216t60 214.5t98.5 186t136.5 130.5t172.5 48q63 0 109.5 -23t77.5 -62t47 -89h8q6 41 12.5 80t14 78t15.5 78l80 379h155l-329 -1556h-128l21 184h-5q-43 -59 -90 -105t-102 -72.5t-120 -26.5zM380 113
q52 0 99 31t87.5 85t73.5 122.5t56 144t35.5 149.5t12.5 139q0 92 -40 144.5t-126 52.5q-64 0 -117.5 -41.5t-95.5 -111.5t-71 -156t-44 -177t-15 -173q0 -104 36.5 -156.5t108.5 -52.5zM1101 1229v21q25 45 50.5 99.5t47.5 109t35 97.5h153l-1 -19q-15 -38 -47.5 -94.5
t-72 -114t-75.5 -99.5h-90z" />
    <glyph glyph-name="Dcroat" unicode="&#x110;" horiz-adv-x="1155" 
d="M44 0l140 674h-125l29 136h126l139 652h285q223 0 345.5 -125.5t122.5 -381.5q0 -142 -29.5 -280t-90 -259.5t-152 -215t-215.5 -147t-282 -53.5h-293zM233 143h120q121 0 215.5 48t164 131t115 187.5t67.5 218.5t22 223q0 195 -84 282.5t-235 87.5h-134l-109 -511h254
l-30 -136h-255z" />
    <glyph glyph-name="dcroat" unicode="&#x111;" horiz-adv-x="1019" 
d="M329 -20q-78 0 -135 39t-88 115t-31 186q0 105 20 216t59.5 214.5t98 186t136 131t171.5 48.5q64 0 111 -22.5t78.5 -62t47.5 -88.5h8q5 30 10 62t11 65t12 64l24 116h-286l24 121h290l37 185h155l-38 -185h134l-25 -121h-135l-265 -1250h-128l21 184h-5
q-43 -59 -90 -105t-101.5 -72.5t-120.5 -26.5zM382 113q52 0 99 31.5t87.5 85.5t73 122.5t55.5 143.5t35.5 149.5t12.5 138.5q0 93 -41 145.5t-126 52.5q-64 0 -117.5 -41.5t-95.5 -111.5t-70.5 -156.5t-43.5 -177.5t-15 -173q0 -104 37 -156.5t109 -52.5z" />
    <glyph glyph-name="Emacron" unicode="&#x112;" horiz-adv-x="901" 
d="M43 0l310 1462h632l-31 -143h-471l-103 -483h442l-30 -142h-442l-117 -550h472l-30 -144h-632zM428 1599l26 126h515l-27 -126h-514z" />
    <glyph glyph-name="emacron" unicode="&#x113;" horiz-adv-x="895" 
d="M414 -20q-105 0 -181 44t-116.5 127.5t-40.5 201.5q0 149 37 286t105 245t161.5 170t206.5 62q125 0 193 -61.5t68 -175.5q0 -86 -36.5 -158t-108.5 -124t-180 -80.5t-252 -28.5h-26q-4 -29 -7 -61t-3 -62q0 -125 53 -189.5t159 -64.5q67 0 125.5 18.5t125.5 53.5v-134
q-62 -33 -129.5 -51t-153.5 -18zM267 613h15q127 0 219.5 29t143.5 86t51 140q0 53 -30.5 85t-94.5 32q-62 0 -121.5 -46t-107 -129.5t-75.5 -196.5zM349 1246l26 126h515l-27 -126h-514z" />
    <glyph glyph-name="Ebreve" unicode="&#x114;" horiz-adv-x="901" 
d="M43 0l310 1462h632l-31 -143h-471l-103 -483h442l-30 -142h-442l-117 -550h472l-30 -144h-632zM691 1594q-72 0 -122.5 25.5t-77 73t-26.5 113.5q0 15 1 29t3 27h98q0 -46 13 -77t43 -47t80 -16q77 0 119 35t60 105h103q-28 -135 -102 -201.5t-192 -66.5z" />
    <glyph glyph-name="ebreve" unicode="&#x115;" horiz-adv-x="895" 
d="M414 -20q-105 0 -181 44t-116.5 127.5t-40.5 201.5q0 149 37 286t105 245t161.5 170t206.5 62q125 0 193 -61.5t68 -175.5q0 -86 -36.5 -158t-108.5 -124t-180 -80.5t-252 -28.5h-26q-4 -29 -7 -61t-3 -62q0 -125 53 -189.5t159 -64.5q67 0 125.5 18.5t125.5 53.5v-134
q-62 -33 -129.5 -51t-153.5 -18zM267 613h15q127 0 219.5 29t143.5 86t51 140q0 53 -30.5 85t-94.5 32q-62 0 -121.5 -46t-107 -129.5t-75.5 -196.5zM624 1241q-72 0 -122.5 25.5t-77 73t-26.5 113.5q0 15 1 29t3 27h98q0 -46 13 -77t43 -47t80 -16q77 0 119 35t60 105h103
q-28 -135 -102 -201.5t-192 -66.5z" />
    <glyph glyph-name="Edotaccent" unicode="&#x116;" horiz-adv-x="901" 
d="M43 0l310 1462h632l-31 -143h-471l-103 -483h442l-30 -142h-442l-117 -550h472l-30 -144h-632zM712 1625q-38 0 -61 22.5t-23 62.5q0 52 29.5 92t82.5 40q28 0 46 -9.5t27 -28t9 -45.5q0 -57 -31.5 -95.5t-78.5 -38.5z" />
    <glyph glyph-name="edotaccent" unicode="&#x117;" horiz-adv-x="895" 
d="M414 -20q-105 0 -181 44t-116.5 127.5t-40.5 201.5q0 149 37 286t105 245t161.5 170t206.5 62q125 0 193 -61.5t68 -175.5q0 -86 -36.5 -158t-108.5 -124t-180 -80.5t-252 -28.5h-26q-4 -29 -7 -61t-3 -62q0 -125 53 -189.5t159 -64.5q67 0 125.5 18.5t125.5 53.5v-134
q-62 -33 -129.5 -51t-153.5 -18zM267 613h15q127 0 219.5 29t143.5 86t51 140q0 53 -30.5 85t-94.5 32q-62 0 -121.5 -46t-107 -129.5t-75.5 -196.5zM641 1287q-38 0 -61 22.5t-23 62.5q0 52 29.5 92t82.5 40q28 0 46 -9.5t27 -28t9 -45.5q0 -57 -31.5 -95.5t-78.5 -38.5z
" />
    <glyph glyph-name="Eogonek" unicode="&#x118;" horiz-adv-x="901" 
d="M43 0l310 1462h632l-31 -143h-471l-103 -483h442l-30 -142h-442l-117 -550h472l-30 -144h-632zM457 -450q-75 0 -119.5 40t-44.5 113q0 61 25.5 111t73 96t113.5 92l108 -2q-51 -43 -93.5 -86t-67 -88t-24.5 -95q0 -35 18.5 -53t51.5 -18q19 0 39 3.5t40 7.5l-11 -105
q-24 -8 -52 -12t-57 -4z" />
    <glyph glyph-name="eogonek" unicode="&#x119;" horiz-adv-x="895" 
d="M480 -434q-74 0 -117.5 40.5t-43.5 113.5q0 61 25 111t71.5 95.5t112.5 91.5l140 24q-61 -48 -109 -97.5t-75.5 -99t-27.5 -98.5q0 -35 17.5 -52.5t49.5 -17.5q19 0 39 3t39 7l-11 -105q-25 -9 -53 -12.5t-57 -3.5zM413 -20q-105 0 -181 44t-116.5 127.5t-40.5 201.5
q0 149 37 286t105 245t161.5 170t206.5 62q125 0 193 -61.5t68 -175.5q0 -86 -36.5 -158t-108.5 -124t-180 -80.5t-252 -28.5h-26q-4 -29 -7 -61t-3 -62q0 -125 53 -189.5t159 -64.5q67 0 125.5 18.5t125.5 53.5v-134q-62 -33 -129.5 -51t-153.5 -18zM266 613h15
q127 0 219.5 29t143.5 86t51 140q0 53 -30.5 85t-94.5 32q-62 0 -121.5 -46t-107 -129.5t-75.5 -196.5z" />
    <glyph glyph-name="Ecaron" unicode="&#x11a;" horiz-adv-x="901" 
d="M43 0l310 1462h632l-31 -143h-471l-103 -483h442l-30 -142h-442l-117 -550h472l-30 -144h-632zM609 1594q-14 44 -39 101t-52.5 112t-49.5 92l2 23h92q21 -22 43.5 -52.5t47 -67t47.5 -76.5q58 58 115.5 108.5t108.5 87.5h98l-2 -23q-35 -33 -87 -89t-102 -114.5
t-77 -101.5h-145z" />
    <glyph glyph-name="ecaron" unicode="&#x11b;" horiz-adv-x="895" 
d="M414 -20q-105 0 -181 44t-116.5 127.5t-40.5 201.5q0 149 37 286t105 245t161.5 170t206.5 62q125 0 193 -61.5t68 -175.5q0 -86 -36.5 -158t-108.5 -124t-180 -80.5t-252 -28.5h-26q-4 -29 -7 -61t-3 -62q0 -125 53 -189.5t159 -64.5q67 0 125.5 18.5t125.5 53.5v-134
q-62 -33 -129.5 -51t-153.5 -18zM267 613h15q127 0 219.5 29t143.5 86t51 140q0 53 -30.5 85t-94.5 32q-62 0 -121.5 -46t-107 -129.5t-75.5 -196.5zM532 1241q-14 44 -39 101t-52.5 112t-49.5 92l2 23h92q21 -22 43.5 -52.5t47 -67t47.5 -76.5q58 58 115.5 108.5
t108.5 87.5h98l-2 -23q-35 -33 -87 -89t-102 -114.5t-77 -101.5h-145z" />
    <glyph glyph-name="Gcircumflex" unicode="&#x11c;" horiz-adv-x="1196" 
d="M581 -20q-227 0 -348 131.5t-121 376.5q0 167 34.5 316.5t98.5 273.5t154 215.5t201.5 141t239.5 49.5q111 0 199.5 -24t162.5 -64l-71 -140q-67 39 -140.5 61.5t-157.5 22.5q-122 0 -223 -68.5t-175 -187t-114.5 -269.5t-40.5 -317q0 -119 35 -202.5t105 -128t176 -44.5
q63 0 118 9.5t99 24.5l100 467h-241l30 141h402l-154 -716q-85 -31 -176.5 -50t-192.5 -19zM575 1594l3 23q41 41 91 94.5t96.5 108.5t76.5 102h145q14 -45 39 -101.5t53 -111t49 -92.5l-2 -23h-93q-21 25 -44.5 56.5t-47 66.5t-46.5 73q-57 -57 -114 -107.5t-107 -88.5h-99
z" />
    <glyph glyph-name="gcircumflex" unicode="&#x11d;" horiz-adv-x="922" 
d="M249 -492q-172 0 -267.5 68t-95.5 200q1 108 71 191t210 134q-35 17 -53.5 49t-18.5 72q0 60 43 111t127 98q-52 29 -83.5 88.5t-31.5 139.5q0 105 39.5 201t112.5 159q48 45 112 70.5t137 25.5q40 0 74 -6.5t61 -15.5h306l-22 -98l-173 -24q18 -27 27 -64t8 -81
q0 -92 -31.5 -177t-88.5 -146q-52 -54 -122.5 -85t-157.5 -31q-23 0 -42.5 0.5t-31.5 0.5q-65 -26 -96 -63.5t-31 -73.5q0 -33 23 -50q14 -10 36 -15t52 -8l134 -6q100 -7 162 -38t90.5 -85t28.5 -130q0 -107 -48 -190.5t-134 -136.5q-64 -40 -147.5 -61.5t-178.5 -22.5z
M255 -373q75 1 138 18.5t109 50.5q49 35 77.5 87t28.5 113q0 28 -7.5 50.5t-25.5 40.5q-21 21 -60.5 33.5t-98.5 16.5l-144 8q-67 -9 -121 -46.5t-86 -92.5t-32 -116q0 -85 57.5 -124.5t164.5 -38.5zM437 497q73 0 126.5 46.5t85 123.5t33.5 167q2 44 -7 77.5t-29 54.5
q-17 18 -41.5 27t-56.5 9q-55 0 -99.5 -28.5t-77 -76.5t-51 -107t-20.5 -120q0 -38 7 -69.5t23 -52.5q33 -51 107 -51zM336 1243l3 23q41 41 91 94.5t96.5 108.5t76.5 102h145q14 -45 39 -101.5t53 -111t49 -92.5l-2 -23h-93q-21 25 -44.5 56.5t-47 66.5t-46.5 73
q-57 -57 -114 -107.5t-107 -88.5h-99z" />
    <glyph glyph-name="Gbreve" unicode="&#x11e;" horiz-adv-x="1196" 
d="M581 -20q-227 0 -348 131.5t-121 376.5q0 167 34.5 316.5t98.5 273.5t154 215.5t201.5 141t239.5 49.5q111 0 199.5 -24t162.5 -64l-71 -140q-67 39 -140.5 61.5t-157.5 22.5q-122 0 -223 -68.5t-175 -187t-114.5 -269.5t-40.5 -317q0 -119 35 -202.5t105 -128t176 -44.5
q63 0 118 9.5t99 24.5l100 467h-241l30 141h402l-154 -716q-85 -31 -176.5 -50t-192.5 -19zM870 1594q-72 0 -122.5 25.5t-77 73t-26.5 113.5q0 15 1 29t3 27h98q0 -46 13 -77t43 -47t80 -16q77 0 119 35t60 105h103q-28 -135 -102 -201.5t-192 -66.5z" />
    <glyph glyph-name="gbreve" unicode="&#x11f;" horiz-adv-x="922" 
d="M249 -492q-172 0 -267.5 68t-95.5 200q1 108 71 191t210 134q-35 17 -53.5 49t-18.5 72q0 60 43 111t127 98q-52 29 -83.5 88.5t-31.5 139.5q0 105 39.5 201t112.5 159q48 45 112 70.5t137 25.5q40 0 74 -6.5t61 -15.5h306l-22 -98l-173 -24q18 -27 27 -64t8 -81
q0 -92 -31.5 -177t-88.5 -146q-52 -54 -122.5 -85t-157.5 -31q-23 0 -42.5 0.5t-31.5 0.5q-65 -26 -96 -63.5t-31 -73.5q0 -33 23 -50q14 -10 36 -15t52 -8l134 -6q100 -7 162 -38t90.5 -85t28.5 -130q0 -107 -48 -190.5t-134 -136.5q-64 -40 -147.5 -61.5t-178.5 -22.5z
M255 -373q75 1 138 18.5t109 50.5q49 35 77.5 87t28.5 113q0 28 -7.5 50.5t-25.5 40.5q-21 21 -60.5 33.5t-98.5 16.5l-144 8q-67 -9 -121 -46.5t-86 -92.5t-32 -116q0 -85 57.5 -124.5t164.5 -38.5zM437 497q73 0 126.5 46.5t85 123.5t33.5 167q2 44 -7 77.5t-29 54.5
q-17 18 -41.5 27t-56.5 9q-55 0 -99.5 -28.5t-77 -76.5t-51 -107t-20.5 -120q0 -38 7 -69.5t23 -52.5q33 -51 107 -51zM572 1243q-72 0 -122.5 25.5t-77 73t-26.5 113.5q0 15 1 29t3 27h98q0 -46 13 -77t43 -47t80 -16q77 0 119 35t60 105h103q-28 -135 -102 -201.5
t-192 -66.5z" />
    <glyph glyph-name="Gdot" unicode="&#x120;" horiz-adv-x="1196" 
d="M581 -20q-227 0 -348 131.5t-121 376.5q0 167 34.5 316.5t98.5 273.5t154 215.5t201.5 141t239.5 49.5q111 0 199.5 -24t162.5 -64l-71 -140q-67 39 -140.5 61.5t-157.5 22.5q-122 0 -223 -68.5t-175 -187t-114.5 -269.5t-40.5 -317q0 -119 35 -202.5t105 -128t176 -44.5
q63 0 118 9.5t99 24.5l100 467h-241l30 141h402l-154 -716q-85 -31 -176.5 -50t-192.5 -19zM894 1640q-38 0 -61 22.5t-23 62.5q0 52 29.5 92t82.5 40q28 0 46 -9.5t27 -28t9 -45.5q0 -57 -31.5 -95.5t-78.5 -38.5z" />
    <glyph glyph-name="gdot" unicode="&#x121;" horiz-adv-x="922" 
d="M249 -492q-172 0 -267.5 68t-95.5 200q1 108 71 191t210 134q-35 17 -53.5 49t-18.5 72q0 60 43 111t127 98q-52 29 -83.5 88.5t-31.5 139.5q0 105 39.5 201t112.5 159q48 45 112 70.5t137 25.5q40 0 74 -6.5t61 -15.5h306l-22 -98l-173 -24q18 -27 27 -64t8 -81
q0 -92 -31.5 -177t-88.5 -146q-52 -54 -122.5 -85t-157.5 -31q-23 0 -42.5 0.5t-31.5 0.5q-65 -26 -96 -63.5t-31 -73.5q0 -33 23 -50q14 -10 36 -15t52 -8l134 -6q100 -7 162 -38t90.5 -85t28.5 -130q0 -107 -48 -190.5t-134 -136.5q-64 -40 -147.5 -61.5t-178.5 -22.5z
M255 -373q75 1 138 18.5t109 50.5q49 35 77.5 87t28.5 113q0 28 -7.5 50.5t-25.5 40.5q-21 21 -60.5 33.5t-98.5 16.5l-144 8q-67 -9 -121 -46.5t-86 -92.5t-32 -116q0 -85 57.5 -124.5t164.5 -38.5zM437 497q73 0 126.5 46.5t85 123.5t33.5 167q2 44 -7 77.5t-29 54.5
q-17 18 -41.5 27t-56.5 9q-55 0 -99.5 -28.5t-77 -76.5t-51 -107t-20.5 -120q0 -38 7 -69.5t23 -52.5q33 -51 107 -51zM597 1289q-38 0 -61 22.5t-23 62.5q0 52 29.5 92t82.5 40q28 0 46 -9.5t27 -28t9 -45.5q0 -57 -31.5 -95.5t-78.5 -38.5z" />
    <glyph glyph-name="uni0122" unicode="&#x122;" horiz-adv-x="1196" 
d="M581 -20q-227 0 -348 131.5t-121 376.5q0 167 34.5 316.5t98.5 273.5t154 215.5t201.5 141t239.5 49.5q111 0 199.5 -24t162.5 -64l-71 -140q-67 39 -140.5 61.5t-157.5 22.5q-122 0 -223 -68.5t-175 -187t-114.5 -269.5t-40.5 -317q0 -119 35 -202.5t105 -128t176 -44.5
q63 0 118 9.5t99 24.5l100 467h-241l30 141h402l-154 -716q-85 -31 -176.5 -50t-192.5 -19zM323 -453v28q23 34 52 87.5t55 111t41 101.5h151v-20q-14 -39 -49 -96t-78 -114.5t-83 -97.5h-89z" />
    <glyph glyph-name="uni0123" unicode="&#x123;" horiz-adv-x="922" 
d="M492 1241v21q16 40 50.5 96.5t77 113.5t82.5 97h88l1 -25q-22 -31 -51.5 -86.5t-56 -115t-40.5 -101.5h-151zM249 -492q-172 0 -267.5 68t-95.5 200q1 108 71 191t210 134q-35 17 -53.5 49t-18.5 72q0 60 43 111t127 98q-52 29 -83.5 88.5t-31.5 139.5q0 105 39.5 201
t112.5 159q48 45 112 70.5t137 25.5q40 0 74 -6.5t61 -15.5h306l-22 -98l-173 -24q18 -27 27 -64t8 -81q0 -92 -31.5 -177t-88.5 -146q-52 -54 -122.5 -85t-157.5 -31q-23 0 -42.5 0.5t-31.5 0.5q-65 -26 -96 -63.5t-31 -73.5q0 -33 23 -50q14 -10 36 -15t52 -8l134 -6
q100 -7 162 -38t90.5 -85t28.5 -130q0 -107 -48 -190.5t-134 -136.5q-64 -40 -147.5 -61.5t-178.5 -22.5zM255 -373q75 1 138 18.5t109 50.5q49 35 77.5 87t28.5 113q0 28 -7.5 50.5t-25.5 40.5q-21 21 -60.5 33.5t-98.5 16.5l-144 8q-67 -9 -121 -46.5t-86 -92.5t-32 -116
q0 -85 57.5 -124.5t164.5 -38.5zM437 497q73 0 126.5 46.5t85 123.5t33.5 167q2 44 -7 77.5t-29 54.5q-17 18 -41.5 27t-56.5 9q-55 0 -99.5 -28.5t-77 -76.5t-51 -107t-20.5 -120q0 -38 7 -69.5t23 -52.5q33 -51 107 -51z" />
    <glyph glyph-name="Hcircumflex" unicode="&#x124;" horiz-adv-x="1186" 
d="M44 0l310 1462h160l-133 -625h538l133 625h159l-310 -1462h-159l146 693h-538l-146 -693h-160zM512 1594l3 23q41 41 91 94.5t96.5 108.5t76.5 102h145q14 -45 39 -101.5t53 -111t49 -92.5l-2 -23h-93q-21 25 -44.5 56.5t-47 66.5t-46.5 73q-57 -57 -114 -107.5
t-107 -88.5h-99z" />
    <glyph glyph-name="hcircumflex" unicode="&#x125;" horiz-adv-x="1005" 
d="M30 0l330 1556h156l-89 -410q-7 -37 -16.5 -75.5t-20 -76.5t-20.5 -75h7q34 53 78.5 97.5t102.5 71.5t128 27q72 0 124 -27t80 -80.5t28 -133.5q0 -41 -8 -92t-18 -101l-146 -681h-156l144 682q11 49 18 92.5t7 78.5q0 60 -30.5 93t-93.5 33q-66 0 -130.5 -45.5
t-117.5 -141t-85 -248.5l-115 -544h-157zM176 1701l3 23q41 41 91 94.5t96.5 108.5t76.5 102h145q14 -45 39 -101.5t53 -111t49 -92.5l-2 -23h-93q-21 25 -44.5 56.5t-47 66.5t-46.5 73q-57 -57 -114 -107.5t-107 -88.5h-99z" />
    <glyph glyph-name="Hbar" unicode="&#x126;" horiz-adv-x="1184" 
d="M43 0l229 1082h-161l26 129h162l54 251h160l-55 -251h538l54 251h162l-53 -251h157l-27 -129h-158l-229 -1082h-161l146 693h-537l-147 -693h-160zM380 835h537l52 247h-537z" />
    <glyph glyph-name="hbar" unicode="&#x127;" 
d="M30 0l267 1250h-140l27 121h136l40 185h156l-40 -185h276l-26 -121h-275q-20 -90 -36 -155t-27.5 -111t-20.5 -79h7q34 53 78.5 98t102 72.5t128.5 27.5q73 0 124.5 -27.5t79.5 -82t28 -134.5q0 -40 -8.5 -90.5t-18.5 -101.5l-142 -667h-156l142 667q11 49 18 92.5
t7 78.5q0 61 -31.5 94.5t-93.5 33.5q-67 0 -131.5 -46t-117.5 -142.5t-84 -247.5l-112 -530h-157z" />
    <glyph glyph-name="Itilde" unicode="&#x128;" horiz-adv-x="488" 
d="M43 0l311 1462h158l-310 -1462h-159zM166 1619q18 81 46.5 137.5t70 85.5t97.5 29q43 0 78 -18t65 -41.5t57 -41.5t54 -18q38 0 61 26.5t43 94.5h99q-19 -87 -49 -143t-70.5 -82.5t-91.5 -26.5q-40 0 -73.5 18t-63.5 42t-58.5 42t-59.5 18q-40 0 -64 -30t-43 -92h-98z
" />
    <glyph glyph-name="itilde" unicode="&#x129;" horiz-adv-x="451" 
d="M29 0l233 1096h157l-233 -1096h-157zM57 1245q18 81 46.5 137.5t70 85.5t97.5 29q43 0 78 -18t65 -41.5t57 -41.5t54 -18q38 0 61 26.5t43 94.5h99q-19 -87 -49 -143t-70.5 -82.5t-91.5 -26.5q-40 0 -73.5 18t-63.5 42t-58.5 42t-59.5 18q-40 0 -64 -30t-43 -92h-98z" />
    <glyph glyph-name="Imacron" unicode="&#x12a;" horiz-adv-x="488" 
d="M43 0l311 1462h158l-310 -1462h-159zM207 1620l26 126h515l-27 -126h-514z" />
    <glyph glyph-name="imacron" unicode="&#x12b;" horiz-adv-x="451" 
d="M29 0l233 1096h157l-233 -1096h-157zM106 1246l26 126h515l-27 -126h-514z" />
    <glyph glyph-name="Ibreve" unicode="&#x12c;" horiz-adv-x="488" 
d="M43 0l311 1462h158l-310 -1462h-159zM468 1615q-72 0 -122.5 25.5t-77 73t-26.5 113.5q0 15 1 29t3 27h98q0 -46 13 -77t43 -47t80 -16q77 0 119 35t60 105h103q-28 -135 -102 -201.5t-192 -66.5z" />
    <glyph glyph-name="ibreve" unicode="&#x12d;" horiz-adv-x="451" 
d="M29 0l233 1096h157l-233 -1096h-157zM373 1241q-72 0 -122.5 25.5t-77 73t-26.5 113.5q0 15 1 29t3 27h98q0 -46 13 -77t43 -47t80 -16q77 0 119 35t60 105h103q-28 -135 -102 -201.5t-192 -66.5z" />
    <glyph glyph-name="Iogonek" unicode="&#x12e;" horiz-adv-x="488" 
d="M43 0l311 1462h158l-310 -1462h-159zM45 -450q-75 0 -119.5 40t-44.5 113q0 61 25.5 111t73 96t113.5 92l108 -2q-51 -43 -93.5 -86t-67 -88t-24.5 -95q0 -35 18.5 -53t51.5 -18q19 0 39 3.5t40 7.5l-11 -105q-24 -8 -52 -12t-57 -4z" />
    <glyph glyph-name="iogonek" unicode="&#x12f;" horiz-adv-x="451" 
d="M29 0l233 1096h157l-233 -1096h-157zM392 1287q-38 0 -60.5 21.5t-22.5 61.5q0 34 13 64.5t38 50t62 19.5q39 0 59 -20.5t20 -59.5q0 -59 -31.5 -98t-77.5 -39zM37 -450q-75 0 -119.5 40t-44.5 113q0 61 25.5 111t73 96t113.5 92l108 -2q-51 -43 -93.5 -86t-67 -88
t-24.5 -95q0 -35 18.5 -53t51.5 -18q19 0 39 3.5t40 7.5l-11 -105q-24 -8 -52 -12t-57 -4z" />
    <glyph glyph-name="Idotaccent" unicode="&#x130;" horiz-adv-x="488" 
d="M43 0l311 1462h158l-310 -1462h-159zM484 1661q-38 0 -61 22.5t-23 62.5q0 52 29.5 92t82.5 40q28 0 46 -9.5t27 -28t9 -45.5q0 -57 -31.5 -95.5t-78.5 -38.5z" />
    <glyph glyph-name="dotlessi" unicode="&#x131;" horiz-adv-x="451" 
d="M29 0l233 1096h157l-233 -1096h-157z" />
    <glyph glyph-name="IJ" unicode="&#x132;" horiz-adv-x="964" 
d="M43 0l311 1462h158l-310 -1462h-159zM322 -387q-46 0 -83 7t-62 17l20 142q28 -10 58.5 -16t63.5 -6q56 0 97.5 27.5t70.5 82.5t47 137l309 1458h160l-313 -1481q-28 -130 -78 -211t-122.5 -119t-167.5 -38z" />
    <glyph glyph-name="ij" unicode="&#x133;" horiz-adv-x="901" 
d="M29 0l233 1096h157l-233 -1096h-157zM392 1287q-38 0 -60.5 21.5t-22.5 61.5q0 34 13 64.5t38 50t62 19.5q39 0 59 -20.5t20 -59.5q0 -59 -31.5 -98t-77.5 -39zM300 -492q-33 0 -62 5t-51 13v137q21 -8 47.5 -13t53.5 -5q45 0 76 23t53 74.5t39 136.5l257 1217h156
l-262 -1231q-22 -108 -57 -188.5t-94.5 -124.5t-155.5 -44zM843 1287q-38 0 -60 21.5t-22 61.5q0 34 12.5 64.5t37.5 50t62 19.5q40 0 59.5 -20.5t19.5 -59.5q0 -59 -31.5 -98t-77.5 -39z" />
    <glyph glyph-name="Jcircumflex" unicode="&#x134;" horiz-adv-x="477" 
d="M-166 -387q-46 0 -83 7t-62 17l20 142q28 -10 58.5 -16t63.5 -6q56 0 97.5 27.5t70.5 82.5t47 137l309 1458h160l-313 -1481q-28 -130 -78 -211t-122.5 -119t-167.5 -38zM164 1594l3 23q41 41 91 94.5t96.5 108.5t76.5 102h145q14 -45 39 -101.5t53 -111t49 -92.5l-2 -23
h-93q-21 25 -44.5 56.5t-47 66.5t-46.5 73q-57 -57 -114 -107.5t-107 -88.5h-99z" />
    <glyph glyph-name="jcircumflex" unicode="&#x135;" horiz-adv-x="451" 
d="M-150 -492q-33 0 -62 5t-51 13v137q21 -8 47.5 -13t53.5 -5q45 0 76 23t53 74.5t39 136.5l257 1217h156l-262 -1231q-22 -108 -57 -188.5t-94.5 -124.5t-155.5 -44zM78 1241l3 23q41 41 91 94.5t96.5 108.5t76.5 102h145q14 -45 39 -101.5t53 -111t49 -92.5l-2 -23h-93
q-21 25 -44.5 56.5t-47 66.5t-46.5 73q-57 -57 -114 -107.5t-107 -88.5h-99z" />
    <glyph glyph-name="uni0136" unicode="&#x136;" horiz-adv-x="982" 
d="M43 0l310 1462h160l-155 -728l121 154l490 574h185l-552 -653l261 -809h-175l-216 700l-148 -129l-121 -571h-160zM192 -453v28q23 34 52 87.5t55 111t41 101.5h151v-20q-14 -39 -49 -96t-78 -114.5t-83 -97.5h-89z" />
    <glyph glyph-name="uni0137" unicode="&#x137;" horiz-adv-x="863" 
d="M29 0l331 1556h157l-150 -696q-14 -67 -27.5 -121.5t-25.5 -97.5t-21 -78h4l463 533h179l-401 -456l205 -640h-169l-163 526l-144 -136l-80 -390h-158zM140 -453v28q23 34 52 87.5t55 111t41 101.5h151v-20q-14 -39 -49 -96t-78 -114.5t-83 -97.5h-89z" />
    <glyph glyph-name="kgreenlandic" unicode="&#x138;" horiz-adv-x="863" 
d="M29 0l234 1096h157l-64 -289q-14 -62 -30.5 -125.5t-32.5 -119.5h4l463 534h179l-401 -456l205 -640h-169l-163 526l-144 -136l-80 -390h-158z" />
    <glyph glyph-name="Lacute" unicode="&#x139;" horiz-adv-x="832" 
d="M43 0l310 1462h160l-280 -1317h467l-29 -145h-628zM442 1613l1 22q42 47 84.5 100.5t81 107t65.5 98.5h183l-1 -18q-21 -29 -59.5 -70.5t-84 -87t-90.5 -85.5t-80 -67h-100z" />
    <glyph glyph-name="lacute" unicode="&#x13a;" horiz-adv-x="449" 
d="M29 0l332 1556h156l-331 -1556h-157zM357 1707l1 22q42 47 84.5 100.5t81 107t65.5 98.5h183l-1 -18q-21 -29 -59.5 -70.5t-84 -87t-90.5 -85.5t-80 -67h-100z" />
    <glyph glyph-name="uni013B" unicode="&#x13b;" horiz-adv-x="832" 
d="M43 0l310 1462h160l-280 -1317h467l-29 -145h-628zM133 -453v28q23 34 52 87.5t55 111t41 101.5h151v-20q-14 -39 -49 -96t-78 -114.5t-83 -97.5h-89z" />
    <glyph glyph-name="uni013C" unicode="&#x13c;" horiz-adv-x="449" 
d="M29 0l332 1556h156l-331 -1556h-157zM-99 -453v28q23 34 52 87.5t55 111t41 101.5h151v-20q-14 -39 -49 -96t-78 -114.5t-83 -97.5h-89z" />
    <glyph glyph-name="Lcaron" unicode="&#x13d;" horiz-adv-x="832" 
d="M43 0l310 1462h160l-280 -1317h467l-29 -145h-628zM638 1132v21q25 45 50.5 99.5t47.5 109t35 97.5h153l-1 -19q-15 -38 -47.5 -94.5t-72 -114t-75.5 -99.5h-90z" />
    <glyph glyph-name="lcaron" unicode="&#x13e;" horiz-adv-x="549" 
d="M29 0l332 1556h156l-331 -1556h-157zM536 1229v21q25 45 50.5 99.5t47.5 109t35 97.5h153l-1 -19q-15 -38 -47.5 -94.5t-72 -114t-75.5 -99.5h-90z" />
    <glyph glyph-name="Ldot" unicode="&#x13f;" horiz-adv-x="832" 
d="M43 0l310 1462h160l-280 -1317h467l-29 -145h-628zM659 634q-38 0 -61 22.5t-23 62.5q0 52 29.5 92t82.5 40q28 0 46 -9.5t27 -28t9 -45.5q0 -57 -31.5 -95.5t-78.5 -38.5z" />
    <glyph glyph-name="ldot" unicode="&#x140;" horiz-adv-x="583" 
d="M29 0l332 1556h156l-331 -1556h-157zM542 607q-38 0 -61 22.5t-23 62.5q0 52 29.5 92t82.5 40q28 0 46 -9.5t27 -28t9 -45.5q0 -57 -31.5 -95.5t-78.5 -38.5z" />
    <glyph glyph-name="Lslash" unicode="&#x141;" horiz-adv-x="836" 
d="M49 0l115 539l-119 -69l-58 106l210 124l161 762h161l-138 -649l220 128l59 -103l-314 -187l-106 -506h468l-30 -145h-629z" />
    <glyph glyph-name="lslash" unicode="&#x142;" horiz-adv-x="473" 
d="M36 0l134 629l-120 -70l-51 104l202 119l166 774h156l-144 -679l136 78l50 -103l-218 -126l-155 -726h-156z" />
    <glyph glyph-name="Nacute" unicode="&#x143;" horiz-adv-x="1240" 
d="M42 0l310 1462h179l330 -1204h5q10 61 22 128.5t25 133t24 118.5l175 824h154l-310 -1462h-176l-334 1215h-5q-6 -44 -15 -97t-19.5 -109t-21 -108.5t-20.5 -95.5l-169 -805h-154zM740 1613l1 22q42 47 84.5 100.5t81 107t65.5 98.5h183l-1 -18q-21 -29 -59.5 -70.5
t-84 -87t-90.5 -85.5t-80 -67h-100z" />
    <glyph glyph-name="nacute" unicode="&#x144;" horiz-adv-x="1005" 
d="M26 0l233 1099h134l-24 -180h4q34 53 79 98.5t103 73.5t129 28t124.5 -27t83 -80t29.5 -132q0 -44 -8 -96t-18 -98l-147 -686h-162l146 688q10 48 17.5 90.5t7.5 77.5q0 59 -30.5 89.5t-90.5 30.5q-68 0 -132 -47.5t-116.5 -144.5t-84.5 -247l-114 -537h-163zM541 1242
l1 22q42 47 84.5 100.5t81 107t65.5 98.5h183l-1 -18q-21 -29 -59.5 -70.5t-84 -87t-90.5 -85.5t-80 -67h-100z" />
    <glyph glyph-name="uni0145" unicode="&#x145;" horiz-adv-x="1240" 
d="M42 0l310 1462h179l330 -1204h5q10 61 22 128.5t25 133t24 118.5l175 824h154l-310 -1462h-176l-334 1215h-5q-6 -44 -15 -97t-19.5 -109t-21 -108.5t-20.5 -95.5l-169 -805h-154zM296 -453v28q23 34 52 87.5t55 111t41 101.5h151v-20q-14 -39 -49 -96t-78 -114.5
t-83 -97.5h-89z" />
    <glyph glyph-name="uni0146" unicode="&#x146;" horiz-adv-x="1005" 
d="M26 0l233 1099h134l-24 -180h4q34 53 79 98.5t103 73.5t129 28t124.5 -27t83 -80t29.5 -132q0 -44 -8 -96t-18 -98l-147 -686h-162l146 688q10 48 17.5 90.5t7.5 77.5q0 59 -30.5 89.5t-90.5 30.5q-68 0 -132 -47.5t-116.5 -144.5t-84.5 -247l-114 -537h-163zM182 -453
v28q23 34 52 87.5t55 111t41 101.5h151v-20q-14 -39 -49 -96t-78 -114.5t-83 -97.5h-89z" />
    <glyph glyph-name="Ncaron" unicode="&#x147;" horiz-adv-x="1240" 
d="M42 0l310 1462h179l330 -1204h5q10 61 22 128.5t25 133t24 118.5l175 824h154l-310 -1462h-176l-334 1215h-5q-6 -44 -15 -97t-19.5 -109t-21 -108.5t-20.5 -95.5l-169 -805h-154zM749 1594q-14 44 -39 101t-52.5 112t-49.5 92l2 23h92q21 -22 43.5 -52.5t47 -67
t47.5 -76.5q58 58 115.5 108.5t108.5 87.5h98l-2 -23q-35 -33 -87 -89t-102 -114.5t-77 -101.5h-145z" />
    <glyph glyph-name="ncaron" unicode="&#x148;" horiz-adv-x="1005" 
d="M26 0l233 1099h134l-24 -180h4q34 53 79 98.5t103 73.5t129 28t124.5 -27t83 -80t29.5 -132q0 -44 -8 -96t-18 -98l-147 -686h-162l146 688q10 48 17.5 90.5t7.5 77.5q0 59 -30.5 89.5t-90.5 30.5q-68 0 -132 -47.5t-116.5 -144.5t-84.5 -247l-114 -537h-163zM562 1241
q-14 44 -39 101t-52.5 112t-49.5 92l2 23h92q21 -22 43.5 -52.5t47 -67t47.5 -76.5q58 58 115.5 108.5t108.5 87.5h98l-2 -23q-35 -33 -87 -89t-102 -114.5t-77 -101.5h-145z" />
    <glyph glyph-name="napostrophe" unicode="&#x149;" horiz-adv-x="1122" 
d="M143 0l233 1099h134l-24 -180h4q34 53 79 98.5t103 73.5t129 28t124.5 -27t83 -80t29.5 -132q0 -44 -8 -96t-18 -98l-147 -686h-162l146 688q10 48 17.5 90.5t7.5 77.5q0 59 -30.5 89.5t-90.5 30.5q-68 0 -132 -47.5t-116.5 -144.5t-84.5 -247l-114 -537h-163zM58 965
q37 80 74 166t69 171t55 160h164l8 -22q-31 -76 -71 -157.5t-85.5 -162.5t-92.5 -155h-121z" />
    <glyph glyph-name="Eng" unicode="&#x14a;" horiz-adv-x="1240" 
d="M582 -385q-40 0 -78 7t-61 19l18 141q27 -10 58 -16t66 -6q54 0 95.5 25t70.5 77t44 132l-346 1229h-7q-5 -34 -11.5 -74.5t-14 -84t-16 -89t-18.5 -89.5l-186 -886h-154l310 1462h181l330 -1184h6q8 48 17.5 102.5t20.5 112t23 112.5l181 857h155l-308 -1458
q-27 -128 -74.5 -214.5t-121 -130.5t-180.5 -44z" />
    <glyph glyph-name="eng" unicode="&#x14b;" horiz-adv-x="1004" 
d="M408 -492q-34 0 -62 5.5t-51 12.5v137q22 -8 48.5 -13t53.5 -5q43 0 73.5 23t53 74.5t40.5 136.5l171 808q10 48 17 91t7 78q0 58 -30 90.5t-93 32.5q-68 0 -133 -47.5t-117.5 -144t-84.5 -244.5l-114 -543h-158l233 1096h128l-24 -180h8q34 53 79 98.5t103 73.5t128 28
t122.5 -26t82 -78t29.5 -132q0 -44 -7.5 -94t-17.5 -99l-176 -823q-26 -121 -63 -200t-95.5 -117.5t-150.5 -38.5z" />
    <glyph glyph-name="Omacron" unicode="&#x14c;" horiz-adv-x="1240" 
d="M537 -20q-141 0 -235.5 58t-142.5 169.5t-48 270.5q0 117 19.5 236t57 232t94 210.5t130 171t165 115t199.5 41.5q201 0 308 -126.5t107 -366.5q0 -108 -17 -224.5t-52 -230t-88.5 -213.5t-126 -177t-165 -121.5t-205.5 -44.5zM545 124q79 0 145 38.5t119 105.5
t93.5 153.5t67.5 184t40.5 197t13.5 191.5q0 170 -68 258.5t-193 88.5q-81 0 -148.5 -39.5t-121.5 -107.5t-94 -155t-66.5 -184t-40 -193.5t-13.5 -182.5q0 -116 31 -195.5t90.5 -119.5t144.5 -40zM562 1599l26 126h515l-27 -126h-514z" />
    <glyph glyph-name="omacron" unicode="&#x14d;" horiz-adv-x="988" 
d="M407 -18q-104 0 -178 44.5t-113.5 128.5t-39.5 202q0 93 19.5 196.5t58.5 203t99.5 180.5t143 129t187.5 48q104 0 177.5 -45t113 -129.5t39.5 -203.5q0 -101 -20 -207t-60.5 -204t-101.5 -175t-142 -122.5t-183 -45.5zM419 116q60 0 111.5 35.5t92.5 97.5t70 142.5
t44.5 171.5t15.5 184q0 65 -18 118t-57 84.5t-102 31.5q-66 0 -120 -39t-95.5 -105t-69 -148t-42 -169.5t-14.5 -167.5q0 -113 47.5 -174.5t136.5 -61.5zM352 1246l26 126h515l-27 -126h-514z" />
    <glyph glyph-name="Obreve" unicode="&#x14e;" horiz-adv-x="1240" 
d="M537 -20q-141 0 -235.5 58t-142.5 169.5t-48 270.5q0 117 19.5 236t57 232t94 210.5t130 171t165 115t199.5 41.5q201 0 308 -126.5t107 -366.5q0 -108 -17 -224.5t-52 -230t-88.5 -213.5t-126 -177t-165 -121.5t-205.5 -44.5zM545 124q79 0 145 38.5t119 105.5
t93.5 153.5t67.5 184t40.5 197t13.5 191.5q0 170 -68 258.5t-193 88.5q-81 0 -148.5 -39.5t-121.5 -107.5t-94 -155t-66.5 -184t-40 -193.5t-13.5 -182.5q0 -116 31 -195.5t90.5 -119.5t144.5 -40zM828 1594q-72 0 -122.5 25.5t-77 73t-26.5 113.5q0 15 1 29t3 27h98
q0 -46 13 -77t43 -47t80 -16q77 0 119 35t60 105h103q-28 -135 -102 -201.5t-192 -66.5z" />
    <glyph glyph-name="obreve" unicode="&#x14f;" horiz-adv-x="988" 
d="M407 -18q-104 0 -178 44.5t-113.5 128.5t-39.5 202q0 93 19.5 196.5t58.5 203t99.5 180.5t143 129t187.5 48q104 0 177.5 -45t113 -129.5t39.5 -203.5q0 -101 -20 -207t-60.5 -204t-101.5 -175t-142 -122.5t-183 -45.5zM419 116q60 0 111.5 35.5t92.5 97.5t70 142.5
t44.5 171.5t15.5 184q0 65 -18 118t-57 84.5t-102 31.5q-66 0 -120 -39t-95.5 -105t-69 -148t-42 -169.5t-14.5 -167.5q0 -113 47.5 -174.5t136.5 -61.5zM625 1241q-72 0 -122.5 25.5t-77 73t-26.5 113.5q0 15 1 29t3 27h98q0 -46 13 -77t43 -47t80 -16q77 0 119 35t60 105
h103q-28 -135 -102 -201.5t-192 -66.5z" />
    <glyph glyph-name="Ohungarumlaut" unicode="&#x150;" horiz-adv-x="1240" 
d="M537 -20q-141 0 -235.5 58t-142.5 169.5t-48 270.5q0 117 19.5 236t57 232t94 210.5t130 171t165 115t199.5 41.5q201 0 308 -126.5t107 -366.5q0 -108 -17 -224.5t-52 -230t-88.5 -213.5t-126 -177t-165 -121.5t-205.5 -44.5zM545 124q79 0 145 38.5t119 105.5
t93.5 153.5t67.5 184t40.5 197t13.5 191.5q0 170 -68 258.5t-193 88.5q-81 0 -148.5 -39.5t-121.5 -107.5t-94 -155t-66.5 -184t-40 -193.5t-13.5 -182.5q0 -116 31 -195.5t90.5 -119.5t144.5 -40zM908 1594l2 23q43 50 86 104.5t80.5 106.5t61.5 94h166l-1 -18
q-22 -30 -59 -71t-81 -85.5t-89.5 -84.5t-82.5 -69h-83zM586 1594l2 23q43 50 86 104.5t80 107t62 93.5h166l-1 -18q-21 -31 -58 -72t-81.5 -84.5t-90 -83.5t-84.5 -70h-81z" />
    <glyph glyph-name="ohungarumlaut" unicode="&#x151;" horiz-adv-x="988" 
d="M407 -18q-104 0 -178 44.5t-113.5 128.5t-39.5 202q0 93 19.5 196.5t58.5 203t99.5 180.5t143 129t187.5 48q104 0 177.5 -45t113 -129.5t39.5 -203.5q0 -101 -20 -207t-60.5 -204t-101.5 -175t-142 -122.5t-183 -45.5zM419 116q60 0 111.5 35.5t92.5 97.5t70 142.5
t44.5 171.5t15.5 184q0 65 -18 118t-57 84.5t-102 31.5q-66 0 -120 -39t-95.5 -105t-69 -148t-42 -169.5t-14.5 -167.5q0 -113 47.5 -174.5t136.5 -61.5zM712 1241l2 23q43 50 86 104.5t80.5 106.5t61.5 94h166l-1 -18q-22 -30 -59 -71t-81 -85.5t-89.5 -84.5t-82.5 -69h-83
zM390 1241l2 23q43 50 86 104.5t80 107t62 93.5h166l-1 -18q-21 -31 -58 -72t-81.5 -84.5t-90 -83.5t-84.5 -70h-81z" />
    <glyph glyph-name="OE" unicode="&#x152;" horiz-adv-x="1469" 
d="M538 -13q-141 0 -236 59t-143 169t-48 260q0 135 26 276.5t78 271t131 232.5t185.5 163.5t240.5 60.5q61 0 109.5 -4t85.5 -13h590l-29 -143h-473l-104 -483h443l-29 -142h-443l-117 -550h474l-31 -144h-569q-28 -5 -63.5 -9t-77.5 -4zM557 130q26 0 48 3t40 8l250 1178
q-26 7 -58.5 11.5t-73.5 4.5q-94 0 -171 -51t-135.5 -139t-98 -198.5t-59.5 -230t-20 -233.5t31 -192.5t93 -119.5t154 -41z" />
    <glyph glyph-name="oe" unicode="&#x153;" horiz-adv-x="1530" 
d="M397 -18q-149 0 -235 99t-86 278q0 89 19 191.5t57.5 202t98.5 181.5t143 131t191 49q124 0 191 -63.5t91 -173.5q66 112 159.5 175.5t201.5 63.5q114 0 185 -59t71 -178q0 -86 -36 -158t-107.5 -124t-179 -80.5t-250.5 -28.5h-32q-4 -29 -6.5 -61t-2.5 -62
q0 -125 53.5 -189.5t161.5 -64.5q66 0 125.5 20t123.5 53v-134q-65 -34 -134.5 -52t-148.5 -18q-78 0 -138.5 26t-101.5 77.5t-61 129.5q-58 -106 -146.5 -168.5t-206.5 -62.5zM414 115q66 0 119.5 37.5t94 102t68.5 146t42 172t14 177.5q0 109 -43.5 169.5t-134.5 60.5
q-65 0 -118 -38t-94.5 -102.5t-69.5 -145t-42.5 -168t-14.5 -169.5q0 -120 46.5 -181t132.5 -61zM900 613h19q128 0 220.5 29.5t142.5 87.5t50 142q0 50 -28.5 81.5t-86.5 31.5q-70 0 -133.5 -49t-111 -133t-72.5 -190z" />
    <glyph glyph-name="Racute" unicode="&#x154;" 
d="M44 0l309 1462h266q192 0 290.5 -87t98.5 -253q0 -115 -36.5 -212t-111.5 -165t-188 -98l185 -647h-174l-162 614h-188l-129 -614h-160zM363 751h136q88 0 152.5 28t106.5 76.5t63 113t21 137.5q0 113 -61 164t-182 51h-115zM618 1613l1 22q42 47 84.5 100.5t81 107
t65.5 98.5h183l-1 -18q-21 -29 -59.5 -70.5t-84 -87t-90.5 -85.5t-80 -67h-100z" />
    <glyph glyph-name="racute" unicode="&#x155;" horiz-adv-x="682" 
d="M30 0l232 1096h125l-25 -196h8q36 62 78 111t95 77t120 28q25 0 49.5 -3t47.5 -10l-39 -152q-22 6 -43.5 9t-45.5 3q-65 0 -119 -37t-96 -98.5t-71 -136.5t-45 -150l-114 -541h-157zM406 1240l1 22q42 47 84.5 100.5t81 107t65.5 98.5h183l-1 -18q-21 -29 -59.5 -70.5
t-84 -87t-90.5 -85.5t-80 -67h-100z" />
    <glyph glyph-name="uni0156" unicode="&#x156;" 
d="M44 0l309 1462h266q192 0 290.5 -87t98.5 -253q0 -115 -36.5 -212t-111.5 -165t-188 -98l185 -647h-174l-162 614h-188l-129 -614h-160zM363 751h136q88 0 152.5 28t106.5 76.5t63 113t21 137.5q0 113 -61 164t-182 51h-115zM199 -453v28q23 34 52 87.5t55 111t41 101.5
h151v-20q-14 -39 -49 -96t-78 -114.5t-83 -97.5h-89z" />
    <glyph glyph-name="uni0157" unicode="&#x157;" horiz-adv-x="682" 
d="M30 0l232 1096h125l-25 -196h8q36 62 78 111t95 77t120 28q25 0 49.5 -3t47.5 -10l-39 -152q-22 6 -43.5 9t-45.5 3q-65 0 -119 -37t-96 -98.5t-71 -136.5t-45 -150l-114 -541h-157zM-52 -453v28q23 34 52 87.5t55 111t41 101.5h151v-20q-14 -39 -49 -96t-78 -114.5
t-83 -97.5h-89z" />
    <glyph glyph-name="Rcaron" unicode="&#x158;" 
d="M44 0l309 1462h266q192 0 290.5 -87t98.5 -253q0 -115 -36.5 -212t-111.5 -165t-188 -98l185 -647h-174l-162 614h-188l-129 -614h-160zM363 751h136q88 0 152.5 28t106.5 76.5t63 113t21 137.5q0 113 -61 164t-182 51h-115zM623 1594q-14 44 -39 101t-52.5 112t-49.5 92
l2 23h92q21 -22 43.5 -52.5t47 -67t47.5 -76.5q58 58 115.5 108.5t108.5 87.5h98l-2 -23q-35 -33 -87 -89t-102 -114.5t-77 -101.5h-145z" />
    <glyph glyph-name="rcaron" unicode="&#x159;" horiz-adv-x="682" 
d="M30 0l232 1096h125l-25 -196h8q36 62 78 111t95 77t120 28q25 0 49.5 -3t47.5 -10l-39 -152q-22 6 -43.5 9t-45.5 3q-65 0 -119 -37t-96 -98.5t-71 -136.5t-45 -150l-114 -541h-157zM456 1241q-14 44 -39 101t-52.5 112t-49.5 92l2 23h92q21 -22 43.5 -52.5t47 -67
t47.5 -76.5q58 58 115.5 108.5t108.5 87.5h98l-2 -23q-35 -33 -87 -89t-102 -114.5t-77 -101.5h-145z" />
    <glyph glyph-name="Sacute" unicode="&#x15a;" horiz-adv-x="897" 
d="M305 -20q-98 0 -174.5 16.5t-134.5 48.5l9 164q58 -34 134.5 -58.5t169.5 -24.5q63 0 118 17t96.5 51.5t65 87t23.5 121.5q0 58 -19.5 102.5t-63.5 89t-120 101.5q-65 51 -115 102t-78.5 115.5t-28.5 152.5q0 98 33.5 175.5t94 131.5t141.5 82t176 28q94 0 174 -22
t142 -58l-69 -141q-51 31 -116.5 53t-136.5 22q-57 0 -106 -17t-85.5 -50t-57.5 -80.5t-21 -109.5q0 -63 22 -108t65 -86t108 -92q71 -52 122 -105t79 -118t28 -155q0 -103 -33 -183.5t-95.5 -137t-150 -86t-196.5 -29.5zM552 1613l1 22q42 47 84.5 100.5t81 107t65.5 98.5
h183l-1 -18q-21 -29 -59.5 -70.5t-84 -87t-90.5 -85.5t-80 -67h-100z" />
    <glyph glyph-name="sacute" unicode="&#x15b;" horiz-adv-x="761" 
d="M260 -20q-86 0 -153.5 17.5t-112.5 42.5v153q45 -30 115 -54.5t141 -24.5t119.5 22t73.5 63.5t25 98.5q0 42 -14.5 74t-48 65t-90.5 76q-60 44 -102 87.5t-63.5 94t-21.5 114.5q0 90 41 159t117 108.5t180 39.5q88 0 161.5 -21t125.5 -51l-60 -125q-45 27 -101 45.5
t-124 18.5q-84 0 -133 -43.5t-49 -115.5q0 -38 12.5 -69t44.5 -62t88 -71q61 -48 105.5 -91t68.5 -94t24 -124q0 -104 -44 -178.5t-127 -114.5t-198 -40zM402 1240l1 22q42 47 84.5 100.5t81 107t65.5 98.5h183l-1 -18q-21 -29 -59.5 -70.5t-84 -87t-90.5 -85.5t-80 -67
h-100z" />
    <glyph glyph-name="Scircumflex" unicode="&#x15c;" horiz-adv-x="897" 
d="M305 -20q-98 0 -174.5 16.5t-134.5 48.5l9 164q58 -34 134.5 -58.5t169.5 -24.5q63 0 118 17t96.5 51.5t65 87t23.5 121.5q0 58 -19.5 102.5t-63.5 89t-120 101.5q-65 51 -115 102t-78.5 115.5t-28.5 152.5q0 98 33.5 175.5t94 131.5t141.5 82t176 28q94 0 174 -22
t142 -58l-69 -141q-51 31 -116.5 53t-136.5 22q-57 0 -106 -17t-85.5 -50t-57.5 -80.5t-21 -109.5q0 -63 22 -108t65 -86t108 -92q71 -52 122 -105t79 -118t28 -155q0 -103 -33 -183.5t-95.5 -137t-150 -86t-196.5 -29.5zM361 1594l3 23q41 41 91 94.5t96.5 108.5t76.5 102
h145q14 -45 39 -101.5t53 -111t49 -92.5l-2 -23h-93q-21 25 -44.5 56.5t-47 66.5t-46.5 73q-57 -57 -114 -107.5t-107 -88.5h-99z" />
    <glyph glyph-name="scircumflex" unicode="&#x15d;" horiz-adv-x="761" 
d="M260 -20q-86 0 -153.5 17.5t-112.5 42.5v153q45 -30 115 -54.5t141 -24.5t119.5 22t73.5 63.5t25 98.5q0 42 -14.5 74t-48 65t-90.5 76q-60 44 -102 87.5t-63.5 94t-21.5 114.5q0 90 41 159t117 108.5t180 39.5q88 0 161.5 -21t125.5 -51l-60 -125q-45 27 -101 45.5
t-124 18.5q-84 0 -133 -43.5t-49 -115.5q0 -38 12.5 -69t44.5 -62t88 -71q61 -48 105.5 -91t68.5 -94t24 -124q0 -104 -44 -178.5t-127 -114.5t-198 -40zM219 1241l3 23q41 41 91 94.5t96.5 108.5t76.5 102h145q14 -45 39 -101.5t53 -111t49 -92.5l-2 -23h-93
q-21 25 -44.5 56.5t-47 66.5t-46.5 73q-57 -57 -114 -107.5t-107 -88.5h-99z" />
    <glyph glyph-name="Scedilla" unicode="&#x15e;" horiz-adv-x="897" 
d="M305 -20q-98 0 -174.5 16.5t-134.5 48.5l9 164q58 -34 134.5 -58.5t169.5 -24.5q63 0 118 17t96.5 51.5t65 87t23.5 121.5q0 58 -19.5 102.5t-63.5 89t-120 101.5q-65 51 -115 102t-78.5 115.5t-28.5 152.5q0 98 33.5 175.5t94 131.5t141.5 82t176 28q94 0 174 -22
t142 -58l-69 -141q-51 31 -116.5 53t-136.5 22q-57 0 -106 -17t-85.5 -50t-57.5 -80.5t-21 -109.5q0 -63 22 -108t65 -86t108 -92q71 -52 122 -105t79 -118t28 -155q0 -103 -33 -183.5t-95.5 -137t-150 -86t-196.5 -29.5zM182 -492q-32 0 -60 4t-51 9v99q19 -5 43.5 -8
t51.5 -3q51 0 86.5 14t54 40.5t18.5 64.5q0 45 -37 69t-106 32l103 171h100l-67 -113q58 -13 97.5 -50.5t39.5 -105.5q0 -67 -33.5 -117t-95 -78t-144.5 -28z" />
    <glyph glyph-name="scedilla" unicode="&#x15f;" horiz-adv-x="761" 
d="M260 -20q-86 0 -153.5 17.5t-112.5 42.5v153q45 -30 115 -54.5t141 -24.5t119.5 22t73.5 63.5t25 98.5q0 42 -14.5 74t-48 65t-90.5 76q-60 44 -102 87.5t-63.5 94t-21.5 114.5q0 90 41 159t117 108.5t180 39.5q88 0 161.5 -21t125.5 -51l-60 -125q-45 27 -101 45.5
t-124 18.5q-84 0 -133 -43.5t-49 -115.5q0 -38 12.5 -69t44.5 -62t88 -71q61 -48 105.5 -91t68.5 -94t24 -124q0 -104 -44 -178.5t-127 -114.5t-198 -40zM116 -492q-32 0 -60 4t-51 9v99q19 -5 43.5 -8t51.5 -3q51 0 86.5 14t54 40.5t18.5 64.5q0 45 -37 69t-106 32l103 171
h100l-67 -113q58 -13 97.5 -50.5t39.5 -105.5q0 -67 -33.5 -117t-95 -78t-144.5 -28z" />
    <glyph glyph-name="Scaron" unicode="&#x160;" horiz-adv-x="897" 
d="M305 -20q-98 0 -174.5 16.5t-134.5 48.5l9 164q58 -34 134.5 -58.5t169.5 -24.5q63 0 118 17t96.5 51.5t65 87t23.5 121.5q0 58 -19.5 102.5t-63.5 89t-120 101.5q-65 51 -115 102t-78.5 115.5t-28.5 152.5q0 98 33.5 175.5t94 131.5t141.5 82t176 28q94 0 174 -22
t142 -58l-69 -141q-51 31 -116.5 53t-136.5 22q-57 0 -106 -17t-85.5 -50t-57.5 -80.5t-21 -109.5q0 -63 22 -108t65 -86t108 -92q71 -52 122 -105t79 -118t28 -155q0 -103 -33 -183.5t-95.5 -137t-150 -86t-196.5 -29.5zM579 1594q-14 44 -39 101t-52.5 112t-49.5 92l2 23
h92q21 -22 43.5 -52.5t47 -67t47.5 -76.5q58 58 115.5 108.5t108.5 87.5h98l-2 -23q-35 -33 -87 -89t-102 -114.5t-77 -101.5h-145z" />
    <glyph glyph-name="scaron" unicode="&#x161;" horiz-adv-x="761" 
d="M260 -20q-86 0 -153.5 17.5t-112.5 42.5v153q45 -30 115 -54.5t141 -24.5t119.5 22t73.5 63.5t25 98.5q0 42 -14.5 74t-48 65t-90.5 76q-60 44 -102 87.5t-63.5 94t-21.5 114.5q0 90 41 159t117 108.5t180 39.5q88 0 161.5 -21t125.5 -51l-60 -125q-45 27 -101 45.5
t-124 18.5q-84 0 -133 -43.5t-49 -115.5q0 -38 12.5 -69t44.5 -62t88 -71q61 -48 105.5 -91t68.5 -94t24 -124q0 -104 -44 -178.5t-127 -114.5t-198 -40zM433 1241q-14 44 -39 101t-52.5 112t-49.5 92l2 23h92q21 -22 43.5 -52.5t47 -67t47.5 -76.5q58 58 115.5 108.5
t108.5 87.5h98l-2 -23q-35 -33 -87 -89t-102 -114.5t-77 -101.5h-145z" />
    <glyph glyph-name="uni0162" unicode="&#x162;" horiz-adv-x="858" 
d="M225 0l280 1318h-331l32 144h821l-30 -144h-330l-280 -1318h-162zM166 -492q-32 0 -60 4t-51 9v99q19 -5 43.5 -8t51.5 -3q51 0 86.5 14t54 40.5t18.5 64.5q0 45 -37 69t-106 32l103 171h100l-67 -113q58 -13 97.5 -50.5t39.5 -105.5q0 -67 -33.5 -117t-95 -78
t-144.5 -28z" />
    <glyph glyph-name="uni0163" unicode="&#x163;" horiz-adv-x="575" 
d="M287 -20q-96 0 -150.5 50t-54.5 156q0 30 4.5 67t13.5 78l135 639h-133l16 81l149 54l103 243h102l-54 -252h218l-27 -126h-217l-136 -644q-7 -31 -12.5 -62t-5.5 -56q0 -43 20 -68.5t68 -25.5q29 0 58 5.5t59 16.5v-124q-28 -13 -73 -22.5t-83 -9.5zM114 -492
q-32 0 -60 4t-51 9v99q19 -5 43.5 -8t51.5 -3q51 0 86.5 14t54 40.5t18.5 64.5q0 45 -37 69t-106 32l103 171h100l-67 -113q58 -13 97.5 -50.5t39.5 -105.5q0 -67 -33.5 -117t-95 -78t-144.5 -28z" />
    <glyph glyph-name="Tcaron" unicode="&#x164;" horiz-adv-x="858" 
d="M225 0l280 1318h-331l32 144h821l-30 -144h-330l-280 -1318h-162zM559 1594q-14 44 -39 101t-52.5 112t-49.5 92l2 23h92q21 -22 43.5 -52.5t47 -67t47.5 -76.5q58 58 115.5 108.5t108.5 87.5h98l-2 -23q-35 -33 -87 -89t-102 -114.5t-77 -101.5h-145z" />
    <glyph glyph-name="tcaron" unicode="&#x165;" horiz-adv-x="584" 
d="M287 -20q-96 0 -150.5 50t-54.5 156q0 30 4.5 67t13.5 78l135 639h-133l16 81l149 54l103 243h102l-54 -252h218l-27 -126h-217l-136 -644q-7 -31 -12.5 -62t-5.5 -56q0 -43 20 -68.5t68 -25.5q29 0 58 5.5t59 16.5v-124q-28 -13 -73 -22.5t-83 -9.5zM533 1217v21
q25 45 50.5 99.5t47.5 109t35 97.5h153l-1 -19q-15 -38 -47.5 -94.5t-72 -114t-75.5 -99.5h-90z" />
    <glyph glyph-name="Tbar" unicode="&#x166;" horiz-adv-x="856" 
d="M225 0l146 683h-237l28 129h234l109 506h-330l31 144h821l-30 -144h-330l-109 -506h244l-26 -129h-245l-144 -683h-162z" />
    <glyph glyph-name="tbar" unicode="&#x167;" horiz-adv-x="572" 
d="M286 -20q-95 0 -150 50t-55 155q0 29 5 65.5t13 77.5l52 248h-123l26 121h123l58 273h-133l16 81l149 54l103 243h101l-54 -252h219l-27 -126h-218l-58 -273h204l-25 -121h-204l-53 -250q-7 -31 -12 -61t-5 -54q0 -45 21 -71t69 -26q28 0 56 5.5t59 16.5v-124
q-28 -13 -73 -22.5t-84 -9.5z" />
    <glyph glyph-name="Utilde" unicode="&#x168;" horiz-adv-x="1173" 
d="M485 -20q-120 0 -202.5 41.5t-124.5 120t-42 191.5q0 36 5.5 83t16.5 99l202 947h160l-203 -956q-10 -43 -15 -87t-5 -76q0 -106 57 -162.5t165 -56.5q98 0 164 40.5t108.5 122.5t69.5 206l208 969h160l-211 -983q-32 -155 -94 -267t-164 -172t-255 -60zM486 1598
q18 81 46.5 137.5t70 85.5t97.5 29q43 0 78 -18t65 -41.5t57 -41.5t54 -18q38 0 61 26.5t43 94.5h99q-19 -87 -49 -143t-70.5 -82.5t-91.5 -26.5q-40 0 -73.5 18t-63.5 42t-58.5 42t-59.5 18q-40 0 -64 -30t-43 -92h-98z" />
    <glyph glyph-name="utilde" unicode="&#x169;" 
d="M316 -20q-73 0 -125.5 27.5t-80.5 81t-28 131.5q0 41 7 87.5t16 91.5l150 697h157l-149 -698q-9 -44 -15 -83t-6 -72q0 -60 29.5 -93.5t92.5 -33.5q69 0 134 48t118.5 147t85.5 249l113 536h155l-231 -1096h-128l21 177h-8q-33 -52 -79 -96.5t-103 -72.5t-126 -28z
M336 1245q18 81 46.5 137.5t70 85.5t97.5 29q43 0 78 -18t65 -41.5t57 -41.5t54 -18q38 0 61 26.5t43 94.5h99q-19 -87 -49 -143t-70.5 -82.5t-91.5 -26.5q-40 0 -73.5 18t-63.5 42t-58.5 42t-59.5 18q-40 0 -64 -30t-43 -92h-98z" />
    <glyph glyph-name="Umacron" unicode="&#x16a;" horiz-adv-x="1173" 
d="M485 -20q-120 0 -202.5 41.5t-124.5 120t-42 191.5q0 36 5.5 83t16.5 99l202 947h160l-203 -956q-10 -43 -15 -87t-5 -76q0 -106 57 -162.5t165 -56.5q98 0 164 40.5t108.5 122.5t69.5 206l208 969h160l-211 -983q-32 -155 -94 -267t-164 -172t-255 -60zM534 1599l26 126
h515l-27 -126h-514z" />
    <glyph glyph-name="umacron" unicode="&#x16b;" 
d="M316 -20q-73 0 -125.5 27.5t-80.5 81t-28 131.5q0 41 7 87.5t16 91.5l150 697h157l-149 -698q-9 -44 -15 -83t-6 -72q0 -60 29.5 -93.5t92.5 -33.5q69 0 134 48t118.5 147t85.5 249l113 536h155l-231 -1096h-128l21 177h-8q-33 -52 -79 -96.5t-103 -72.5t-126 -28z
M381 1246l26 126h515l-27 -126h-514z" />
    <glyph glyph-name="Ubreve" unicode="&#x16c;" horiz-adv-x="1173" 
d="M485 -20q-120 0 -202.5 41.5t-124.5 120t-42 191.5q0 36 5.5 83t16.5 99l202 947h160l-203 -956q-10 -43 -15 -87t-5 -76q0 -106 57 -162.5t165 -56.5q98 0 164 40.5t108.5 122.5t69.5 206l208 969h160l-211 -983q-32 -155 -94 -267t-164 -172t-255 -60zM795 1594
q-72 0 -122.5 25.5t-77 73t-26.5 113.5q0 15 1 29t3 27h98q0 -46 13 -77t43 -47t80 -16q77 0 119 35t60 105h103q-28 -135 -102 -201.5t-192 -66.5z" />
    <glyph glyph-name="ubreve" unicode="&#x16d;" 
d="M316 -20q-73 0 -125.5 27.5t-80.5 81t-28 131.5q0 41 7 87.5t16 91.5l150 697h157l-149 -698q-9 -44 -15 -83t-6 -72q0 -60 29.5 -93.5t92.5 -33.5q69 0 134 48t118.5 147t85.5 249l113 536h155l-231 -1096h-128l21 177h-8q-33 -52 -79 -96.5t-103 -72.5t-126 -28z
M646 1241q-72 0 -122.5 25.5t-77 73t-26.5 113.5q0 15 1 29t3 27h98q0 -46 13 -77t43 -47t80 -16q77 0 119 35t60 105h103q-28 -135 -102 -201.5t-192 -66.5z" />
    <glyph glyph-name="Uring" unicode="&#x16e;" horiz-adv-x="1173" 
d="M485 -20q-120 0 -202.5 41.5t-124.5 120t-42 191.5q0 36 5.5 83t16.5 99l202 947h160l-203 -956q-10 -43 -15 -87t-5 -76q0 -106 57 -162.5t165 -56.5q98 0 164 40.5t108.5 122.5t69.5 206l208 969h160l-211 -983q-32 -155 -94 -267t-164 -172t-255 -60zM812 1598
q-96 0 -153.5 55.5t-57.5 152.5q0 95 59 150.5t152 55.5q95 0 153.5 -55.5t58.5 -147.5q0 -97 -58.5 -154t-153.5 -57zM813 1690q52 0 84 31.5t32 84.5q0 52 -32 84t-84 32t-83.5 -32t-31.5 -84q0 -53 29.5 -84.5t85.5 -31.5z" />
    <glyph glyph-name="uring" unicode="&#x16f;" 
d="M316 -20q-73 0 -125.5 27.5t-80.5 81t-28 131.5q0 41 7 87.5t16 91.5l150 697h157l-149 -698q-9 -44 -15 -83t-6 -72q0 -60 29.5 -93.5t92.5 -33.5q69 0 134 48t118.5 147t85.5 249l113 536h155l-231 -1096h-128l21 177h-8q-33 -52 -79 -96.5t-103 -72.5t-126 -28z
M663 1245q-96 0 -153.5 55.5t-57.5 152.5q0 95 59 150.5t152 55.5q95 0 153.5 -55.5t58.5 -147.5q0 -97 -58.5 -154t-153.5 -57zM664 1337q52 0 84 31.5t32 84.5q0 52 -32 84t-84 32t-83.5 -32t-31.5 -84q0 -53 29.5 -84.5t85.5 -31.5z" />
    <glyph glyph-name="Uhungarumlaut" unicode="&#x170;" horiz-adv-x="1173" 
d="M485 -20q-120 0 -202.5 41.5t-124.5 120t-42 191.5q0 36 5.5 83t16.5 99l202 947h160l-203 -956q-10 -43 -15 -87t-5 -76q0 -106 57 -162.5t165 -56.5q98 0 164 40.5t108.5 122.5t69.5 206l208 969h160l-211 -983q-32 -155 -94 -267t-164 -172t-255 -60zM887 1594l2 23
q43 50 86 104.5t80.5 106.5t61.5 94h166l-1 -18q-22 -30 -59 -71t-81 -85.5t-89.5 -84.5t-82.5 -69h-83zM565 1594l2 23q43 50 86 104.5t80 107t62 93.5h166l-1 -18q-21 -31 -58 -72t-81.5 -84.5t-90 -83.5t-84.5 -70h-81z" />
    <glyph glyph-name="uhungarumlaut" unicode="&#x171;" 
d="M316 -20q-73 0 -125.5 27.5t-80.5 81t-28 131.5q0 41 7 87.5t16 91.5l150 697h157l-149 -698q-9 -44 -15 -83t-6 -72q0 -60 29.5 -93.5t92.5 -33.5q69 0 134 48t118.5 147t85.5 249l113 536h155l-231 -1096h-128l21 177h-8q-33 -52 -79 -96.5t-103 -72.5t-126 -28z
M732 1241l2 23q43 50 86 104.5t80.5 106.5t61.5 94h166l-1 -18q-22 -30 -59 -71t-81 -85.5t-89.5 -84.5t-82.5 -69h-83zM410 1241l2 23q43 50 86 104.5t80 107t62 93.5h166l-1 -18q-21 -31 -58 -72t-81.5 -84.5t-90 -83.5t-84.5 -70h-81z" />
    <glyph glyph-name="Uogonek" unicode="&#x172;" horiz-adv-x="1173" 
d="M485 -20q-120 0 -202.5 41.5t-124.5 120t-42 191.5q0 36 5.5 83t16.5 99l202 947h160l-203 -956q-10 -43 -15 -87t-5 -76q0 -106 57 -162.5t165 -56.5q98 0 164 40.5t108.5 122.5t69.5 206l208 969h160l-211 -983q-32 -155 -94 -267t-164 -172t-255 -60zM456 -450
q-75 0 -119.5 40t-44.5 113q0 61 25.5 111t73 96t113.5 92l108 -2q-51 -43 -93.5 -86t-67 -88t-24.5 -95q0 -35 18.5 -53t51.5 -18q19 0 39 3.5t40 7.5l-11 -105q-24 -8 -52 -12t-57 -4z" />
    <glyph glyph-name="uogonek" unicode="&#x173;" 
d="M316 -20q-73 0 -125.5 27.5t-80.5 81t-28 131.5q0 41 7 87.5t16 91.5l150 697h157l-149 -698q-9 -44 -15 -83t-6 -72q0 -60 29.5 -93.5t92.5 -33.5q69 0 134 48t118.5 147t85.5 249l113 536h155l-231 -1096h-128l21 177h-8q-33 -52 -79 -96.5t-103 -72.5t-126 -28z
M575 -450q-75 0 -119.5 40t-44.5 113q0 61 25.5 111t73 96t113.5 92l108 -2q-51 -43 -93.5 -86t-67 -88t-24.5 -95q0 -35 18.5 -53t51.5 -18q19 0 39 3.5t40 7.5l-11 -105q-24 -8 -52 -12t-57 -4z" />
    <glyph glyph-name="Wcircumflex" unicode="&#x174;" horiz-adv-x="1536" 
d="M215 0l-15 1462h158l3 -930q0 -85 -3.5 -163t-7.5 -144h5q27 74 59.5 158.5t67.5 163.5l392 915h155l7 -899q1 -94 -0.5 -181t-4.5 -158h5q19 54 38.5 107t39.5 106.5t42 107.5l379 917h167l-621 -1462h-177l-7 961q-1 37 -1 78.5t1.5 83t2.5 80.5h-5q-17 -55 -39 -110.5
t-53 -125.5l-411 -967h-177zM680 1594l3 23q41 41 91 94.5t96.5 108.5t76.5 102h145q14 -45 39 -101.5t53 -111t49 -92.5l-2 -23h-93q-21 25 -44.5 56.5t-47 66.5t-46.5 73q-57 -57 -114 -107.5t-107 -88.5h-99z" />
    <glyph glyph-name="wcircumflex" unicode="&#x175;" horiz-adv-x="1279" 
d="M137 0l-14 1096h153v-623q1 -85 -2 -157t-7 -127h5q13 38 30.5 84t36.5 92t36 83l280 648h171l10 -621q1 -65 -0.5 -143.5t-3.5 -145.5h5q16 47 35 98.5t41 107.5t46 114l245 590h162l-473 -1096h-184l-6 655q-1 42 -0.5 83t2 84t2.5 90h-6q-13 -39 -26.5 -74t-29 -72
t-36.5 -84l-291 -682h-181zM481 1241l3 23q41 41 91 94.5t96.5 108.5t76.5 102h145q14 -45 39 -101.5t53 -111t49 -92.5l-2 -23h-93q-21 25 -44.5 56.5t-47 66.5t-46.5 73q-57 -57 -114 -107.5t-107 -88.5h-99z" />
    <glyph glyph-name="Ycircumflex" unicode="&#x176;" horiz-adv-x="876" 
d="M230 0l119 557l-168 905h164l118 -718l419 718h176l-550 -906l-117 -556h-161zM355 1594l3 23q41 41 91 94.5t96.5 108.5t76.5 102h145q14 -45 39 -101.5t53 -111t49 -92.5l-2 -23h-93q-21 25 -44.5 56.5t-47 66.5t-46.5 73q-57 -57 -114 -107.5t-107 -88.5h-99z" />
    <glyph glyph-name="ycircumflex" unicode="&#x177;" horiz-adv-x="815" 
d="M-74 -493q-42 0 -70 6t-53 15l10 133q23 -7 49.5 -12.5t57.5 -5.5q71 0 119 49.5t95 142.5l79 162l-96 1099h157l39 -596q5 -52 7.5 -110t3.5 -112t-1 -96h6q14 37 35 88t44.5 103t41.5 89l302 634h165l-639 -1299q-46 -93 -95 -158t-110.5 -98.5t-146.5 -33.5zM236 1241
l3 23q41 41 91 94.5t96.5 108.5t76.5 102h145q14 -45 39 -101.5t53 -111t49 -92.5l-2 -23h-93q-21 25 -44.5 56.5t-47 66.5t-46.5 73q-57 -57 -114 -107.5t-107 -88.5h-99z" />
    <glyph glyph-name="Ydieresis" unicode="&#x178;" horiz-adv-x="876" 
d="M230 0l119 557l-168 905h164l118 -718l419 718h176l-550 -906l-117 -556h-161zM814 1649q-34 0 -54.5 19.5t-20.5 57.5q0 47 27 83.5t77 36.5q35 0 53 -19t18 -53q0 -55 -29.5 -90t-70.5 -35zM480 1649q-34 0 -54 19.5t-20 57.5q0 47 26.5 83.5t75.5 36.5q24 0 39 -8.5
t23 -24.5t8 -39q0 -55 -28.5 -90t-69.5 -35z" />
    <glyph glyph-name="Zacute" unicode="&#x179;" horiz-adv-x="884" 
d="M-52 0l26 125l798 1193h-528l31 144h715l-25 -126l-800 -1191h563l-29 -145h-751zM555 1613l1 22q42 47 84.5 100.5t81 107t65.5 98.5h183l-1 -18q-21 -29 -59.5 -70.5t-84 -87t-90.5 -85.5t-80 -67h-100z" />
    <glyph glyph-name="zacute" unicode="&#x17a;" horiz-adv-x="739" 
d="M-52 0l22 107l595 863h-385l26 126h558l-25 -119l-586 -850h426l-27 -127h-604zM403 1240l1 22q42 47 84.5 100.5t81 107t65.5 98.5h183l-1 -18q-21 -29 -59.5 -70.5t-84 -87t-90.5 -85.5t-80 -67h-100z" />
    <glyph glyph-name="Zdotaccent" unicode="&#x17b;" horiz-adv-x="884" 
d="M-52 0l26 125l798 1193h-528l31 144h715l-25 -126l-800 -1191h563l-29 -145h-751zM664 1640q-38 0 -61 22.5t-23 62.5q0 52 29.5 92t82.5 40q28 0 46 -9.5t27 -28t9 -45.5q0 -57 -31.5 -95.5t-78.5 -38.5z" />
    <glyph glyph-name="zdotaccent" unicode="&#x17c;" horiz-adv-x="739" 
d="M-52 0l22 107l595 863h-385l26 126h558l-25 -119l-586 -850h426l-27 -127h-604zM528 1287q-38 0 -61 22.5t-23 62.5q0 52 29.5 92t82.5 40q28 0 46 -9.5t27 -28t9 -45.5q0 -57 -31.5 -95.5t-78.5 -38.5z" />
    <glyph glyph-name="Zcaron" unicode="&#x17d;" horiz-adv-x="884" 
d="M-52 0l26 125l798 1193h-528l31 144h715l-25 -126l-800 -1191h563l-29 -145h-751zM574 1594q-14 44 -39 101t-52.5 112t-49.5 92l2 23h92q21 -22 43.5 -52.5t47 -67t47.5 -76.5q58 58 115.5 108.5t108.5 87.5h98l-2 -23q-35 -33 -87 -89t-102 -114.5t-77 -101.5h-145z
" />
    <glyph glyph-name="zcaron" unicode="&#x17e;" horiz-adv-x="739" 
d="M-52 0l22 107l595 863h-385l26 126h558l-25 -119l-586 -850h426l-27 -127h-604zM430 1241q-14 44 -39 101t-52.5 112t-49.5 92l2 23h92q21 -22 43.5 -52.5t47 -67t47.5 -76.5q58 58 115.5 108.5t108.5 87.5h98l-2 -23q-35 -33 -87 -89t-102 -114.5t-77 -101.5h-145z" />
    <glyph glyph-name="longs" unicode="&#x17f;" horiz-adv-x="489" 
d="M-153 -492q-33 0 -61 5t-52 13v137q22 -8 47 -13t53 -5q69 0 106 59t61 174l284 1339q25 117 64 194.5t102.5 116.5t158.5 39q45 0 90 -10t77 -25l-50 -123q-23 11 -51.5 17.5t-57.5 6.5q-52 0 -86 -27t-55.5 -78.5t-36.5 -125.5l-285 -1339q-23 -105 -58.5 -185
t-95 -125t-154.5 -45z" />
    <glyph glyph-name="florin" unicode="&#x192;" horiz-adv-x="959" 
d="M70 -492q-37 0 -66.5 6t-53.5 16v135q26 -10 54.5 -16t55.5 -6q64 0 101.5 54.5t62.5 174.5l205 963h-166l15 75l177 54l36 167q27 131 69 208t105.5 110.5t153.5 33.5q45 0 89.5 -11t80.5 -27l-51 -124q-29 13 -57 20t-59 7q-72 0 -111.5 -51.5t-65.5 -173.5l-33 -163
h204l-27 -125h-204l-207 -972q-25 -117 -63 -196t-96.5 -119t-148.5 -40z" />
    <glyph glyph-name="Ohorn" unicode="&#x1a0;" horiz-adv-x="1244" 
d="M537 -20q-141 0 -235.5 58t-142.5 169.5t-48 270.5q0 118 19.5 237.5t57.5 232t94.5 210t130 171t164.5 114.5t199 41q129 0 219 -54t138 -161q79 33 120 104.5t59 182.5h156l8 -21q-31 -141 -103.5 -232t-204.5 -141q11 -38 17 -80t6 -91q0 -117 -18 -237t-54.5 -233.5
t-91.5 -211.5t-127.5 -171.5t-163 -115.5t-199.5 -42zM545 124q79 0 144.5 38.5t119 106t93.5 154t67.5 184t41 197t13.5 190.5q0 170 -68 258.5t-193 88.5q-78 0 -144 -37.5t-120 -103t-95 -150.5t-68.5 -181.5t-42 -196t-14.5 -193.5q0 -116 31 -195.5t90.5 -119.5
t144.5 -40z" />
    <glyph glyph-name="ohorn" unicode="&#x1a1;" 
d="M402 -18q-103 0 -177 44.5t-113.5 128.5t-39.5 202q0 102 20.5 208.5t61.5 204.5t102.5 175.5t142 123t180.5 45.5q95 0 164 -38.5t109 -112.5q54 23 88.5 64t55 99t32.5 131h155l7 -22q-19 -94 -57 -166t-97.5 -122t-145.5 -80q10 -31 14.5 -64t4.5 -67
q0 -103 -20.5 -209.5t-61.5 -204t-102.5 -174t-142 -121.5t-180.5 -45zM415 115q60 0 111.5 36.5t92.5 99.5t70 144.5t44 172.5t15 182q0 65 -18 117t-57 82.5t-102 30.5q-64 0 -117.5 -39t-95 -105t-70 -148.5t-43.5 -170t-15 -168.5q0 -114 47.5 -174t137.5 -60z" />
    <glyph glyph-name="Uhorn" unicode="&#x1af;" horiz-adv-x="1261" 
d="M488 -20q-121 0 -204 42t-125.5 121t-42.5 192q0 37 6 84.5t16 95.5l202 947h160l-203 -957q-10 -44 -15 -84.5t-5 -71.5q0 -107 54.5 -166t167.5 -59q96 0 162 40t109 122t71 208l208 968h160l-45 -204q52 13 91 49t66.5 98.5t41.5 150.5h155l8 -21q-17 -83 -50 -150
t-82 -116.5t-112.5 -81t-141.5 -43.5l-142 -665q-32 -155 -93.5 -267t-163 -172t-253.5 -60z" />
    <glyph glyph-name="uhorn" unicode="&#x1b0;" horiz-adv-x="1099" 
d="M312 -20q-72 0 -124 27.5t-79.5 82t-27.5 133.5q0 40 7 86t16 93l149 694h157l-150 -698q-9 -44 -14.5 -82.5t-5.5 -68.5q0 -63 29.5 -96.5t91.5 -33.5q69 0 134.5 48t118.5 146.5t85 248.5l114 536h155l-28 -137q53 12 92 48t65.5 98.5t40.5 151.5h155l8 -22
q-17 -82 -50 -148.5t-81.5 -116.5t-112.5 -81.5t-142 -44.5l-179 -844h-127l20 177h-7q-34 -52 -80 -96.5t-103 -72.5t-127 -28z" />
    <glyph glyph-name="uni01EA" unicode="&#x1ea;" horiz-adv-x="1240" 
d="M537 -20q-141 0 -235.5 58t-142.5 169.5t-48 270.5q0 117 19.5 236t57 232t94 210.5t130 171t165 115t199.5 41.5q201 0 308 -126.5t107 -366.5q0 -108 -17 -224.5t-52 -230t-88.5 -213.5t-126 -177t-165 -121.5t-205.5 -44.5zM545 124q79 0 145 38.5t119 105.5
t93.5 153.5t67.5 184t40.5 197t13.5 191.5q0 170 -68 258.5t-193 88.5q-81 0 -148.5 -39.5t-121.5 -107.5t-94 -155t-66.5 -184t-40 -193.5t-13.5 -182.5q0 -116 31 -195.5t90.5 -119.5t144.5 -40zM474 -450q-75 0 -119.5 40t-44.5 113q0 61 25.5 111t73 96t113.5 92l108 -2
q-51 -43 -93.5 -86t-67 -88t-24.5 -95q0 -35 18.5 -53t51.5 -18q19 0 39 3.5t40 7.5l-11 -105q-24 -8 -52 -12t-57 -4z" />
    <glyph glyph-name="uni01EB" unicode="&#x1eb;" horiz-adv-x="988" 
d="M407 -18q-104 0 -178 44.5t-113.5 128.5t-39.5 202q0 93 19.5 196.5t58.5 203t99.5 180.5t143 129t187.5 48q104 0 177.5 -45t113 -129.5t39.5 -203.5q0 -101 -20 -207t-60.5 -204t-101.5 -175t-142 -122.5t-183 -45.5zM419 116q60 0 111.5 35.5t92.5 97.5t70 142.5
t44.5 171.5t15.5 184q0 65 -18 118t-57 84.5t-102 31.5q-66 0 -120 -39t-95.5 -105t-69 -148t-42 -169.5t-14.5 -167.5q0 -113 47.5 -174.5t136.5 -61.5zM337 -450q-75 0 -119.5 40t-44.5 113q0 61 25.5 111t73 96t113.5 92l108 -2q-51 -43 -93.5 -86t-67 -88t-24.5 -95
q0 -35 18.5 -53t51.5 -18q19 0 39 3.5t40 7.5l-11 -105q-24 -8 -52 -12t-57 -4z" />
    <glyph glyph-name="uni01EC" unicode="&#x1ec;" horiz-adv-x="1240" 
d="M537 -20q-141 0 -235.5 58t-142.5 169.5t-48 270.5q0 117 19.5 236t57 232t94 210.5t130 171t165 115t199.5 41.5q201 0 308 -126.5t107 -366.5q0 -108 -17 -224.5t-52 -230t-88.5 -213.5t-126 -177t-165 -121.5t-205.5 -44.5zM545 124q79 0 145 38.5t119 105.5
t93.5 153.5t67.5 184t40.5 197t13.5 191.5q0 170 -68 258.5t-193 88.5q-81 0 -148.5 -39.5t-121.5 -107.5t-94 -155t-66.5 -184t-40 -193.5t-13.5 -182.5q0 -116 31 -195.5t90.5 -119.5t144.5 -40zM567 1612l26 126h515l-27 -126h-514zM474 -450q-75 0 -119.5 40t-44.5 113
q0 61 25.5 111t73 96t113.5 92l108 -2q-51 -43 -93.5 -86t-67 -88t-24.5 -95q0 -35 18.5 -53t51.5 -18q19 0 39 3.5t40 7.5l-11 -105q-24 -8 -52 -12t-57 -4z" />
    <glyph glyph-name="uni01ED" unicode="&#x1ed;" horiz-adv-x="988" 
d="M407 -18q-104 0 -178 44.5t-113.5 128.5t-39.5 202q0 93 19.5 196.5t58.5 203t99.5 180.5t143 129t187.5 48q104 0 177.5 -45t113 -129.5t39.5 -203.5q0 -101 -20 -207t-60.5 -204t-101.5 -175t-142 -122.5t-183 -45.5zM419 116q60 0 111.5 35.5t92.5 97.5t70 142.5
t44.5 171.5t15.5 184q0 65 -18 118t-57 84.5t-102 31.5q-66 0 -120 -39t-95.5 -105t-69 -148t-42 -169.5t-14.5 -167.5q0 -113 47.5 -174.5t136.5 -61.5zM358 1246l26 126h515l-27 -126h-514zM337 -450q-75 0 -119.5 40t-44.5 113q0 61 25.5 111t73 96t113.5 92l108 -2
q-51 -43 -93.5 -86t-67 -88t-24.5 -95q0 -35 18.5 -53t51.5 -18q19 0 39 3.5t40 7.5l-11 -105q-24 -8 -52 -12t-57 -4z" />
    <glyph glyph-name="uni01F0" unicode="&#x1f0;" horiz-adv-x="451" 
d="M-150 -492q-33 0 -62 5t-51 13v137q21 -8 47.5 -13t53.5 -5q45 0 76 23t53 74.5t39 136.5l257 1217h156l-262 -1231q-22 -108 -57 -188.5t-94.5 -124.5t-155.5 -44zM290 1241q-14 44 -39 101t-52.5 112t-49.5 92l2 23h92q21 -22 43.5 -52.5t47 -67t47.5 -76.5
q58 58 115.5 108.5t108.5 87.5h98l-2 -23q-35 -33 -87 -89t-102 -114.5t-77 -101.5h-145z" />
    <glyph glyph-name="Aringacute" unicode="&#x1fa;" horiz-adv-x="979" 
d="M-122 0l627 1282q-30 23 -46.5 59.5t-16.5 84.5q0 96 60 151.5t153 55.5q95 0 154 -57t59 -147q0 -63 -28 -108t-75 -68l99 -1253h-161l-35 462h-394l-221 -462h-175zM341 607h322l-22 384q-3 55 -7 109t-5 102h-17q-18 -47 -42 -100.5t-51 -109.5zM655 1311
q51 0 83 31.5t32 82.5q0 52 -31.5 84t-83.5 32q-51 0 -82.5 -32t-31.5 -84q0 -51 28.5 -82.5t85.5 -31.5zM601 1687v17q37 37 76 80.5t76 89t66 87.5h195v-17q-30 -34 -83 -82t-112 -95.5t-108 -79.5h-110z" />
    <glyph glyph-name="aringacute" unicode="&#x1fb;" horiz-adv-x="1008" 
d="M331 -20q-80 0 -137.5 38.5t-88 113.5t-30.5 184q0 106 21 218t61.5 216t100.5 186.5t137.5 131t171.5 48.5q59 0 104 -22t76 -61.5t49 -90.5h8l53 154h126l-232 -1096h-125l21 182h-7q-41 -58 -89.5 -103.5t-103 -72t-116.5 -26.5zM378 114q74 0 137.5 56t112 148
t77.5 199q20 79 28.5 143.5t8.5 122.5q0 91 -43 144t-118 53q-62 0 -115.5 -40t-95.5 -108.5t-72 -154.5t-45.5 -179.5t-15.5 -181.5q0 -100 35 -151t106 -51zM651 1195q-96 0 -154 55.5t-58 150.5q0 96 60 152t152 56q93 0 152.5 -55t60.5 -149q0 -97 -59 -153.5
t-154 -56.5zM651 1286q50 0 83 31.5t33 83.5q0 54 -32.5 85.5t-83.5 31.5q-52 0 -83.5 -31.5t-31.5 -85.5t28.5 -84.5t86.5 -30.5zM612 1682l1 18q34 35 72 77.5t74.5 88.5t66.5 90h200v-16q-28 -32 -80.5 -79t-112.5 -95t-113 -84h-108z" />
    <glyph glyph-name="AEacute" unicode="&#x1fc;" horiz-adv-x="1399" 
d="M-127 0l812 1462h799l-29 -143h-474l-103 -483h444l-30 -142h-443l-116 -550h472l-30 -144h-634l101 473h-335l-257 -473h-177zM386 617h286l149 701h-56zM816 1613l1 22q42 47 84.5 100.5t81 107t65.5 98.5h183l-1 -18q-21 -29 -59.5 -70.5t-84 -87t-90.5 -85.5t-80 -67
h-100z" />
    <glyph glyph-name="aeacute" unicode="&#x1fd;" horiz-adv-x="1467" 
d="M310 -20q-72 0 -124.5 39t-81.5 115t-29 185q0 119 22.5 234.5t65 217t102.5 179t133.5 122t159.5 44.5q55 0 96.5 -22t70 -61.5t44.5 -91.5h7l50 155h109l-30 -143q49 69 121 116t167 47q102 0 170 -60t68 -177q0 -87 -36.5 -159t-108.5 -124t-180 -80t-251 -28h-29
q-4 -29 -7 -61t-3 -62q0 -118 51.5 -186t164.5 -68q65 0 126.5 20.5t128.5 54.5l-8 -138q-66 -34 -132 -51t-144 -17q-98 0 -167 42.5t-98 125.5l-31 -148h-110l26 183h-5q-43 -62 -89.5 -107.5t-99.5 -70.5t-119 -25zM365 113q52 0 99.5 31t88 86t72 128t52.5 156
q20 79 28.5 146t8.5 125q0 90 -36 143t-102 53q-58 0 -109.5 -38t-93.5 -104t-73 -150.5t-47.5 -178.5t-16.5 -187q0 -105 33.5 -157.5t95.5 -52.5zM849 613h17q126 0 219 29.5t143.5 86t50.5 138.5q0 58 -31.5 88t-85.5 30q-68 0 -128 -46t-107.5 -129.5t-77.5 -196.5z
M768 1240l1 22q42 47 84.5 100.5t81 107t65.5 98.5h183l-1 -18q-21 -29 -59.5 -70.5t-84 -87t-90.5 -85.5t-80 -67h-100z" />
    <glyph glyph-name="Oslashacute" unicode="&#x1fe;" horiz-adv-x="1241" 
d="M139 -88l-95 68l138 193q-36 60 -53.5 137t-17.5 168q0 117 19.5 236t57 232t94 210.5t130.5 171t165.5 115t199.5 41.5q86 0 154.5 -26t120.5 -80l119 166l97 -70l-141 -194q32 -54 48 -128.5t16 -160.5q0 -108 -17 -224.5t-52 -230t-88.5 -213.5t-126 -177t-165 -121.5
t-205.5 -44.5q-87 0 -155.5 24.5t-120.5 74.5zM545 124q77 0 142.5 36.5t118 100.5t92.5 147.5t67 178.5t41.5 192.5t15.5 189.5q1 40 -3.5 76t-13.5 64l-650 -895q31 -44 79 -67t111 -23zM302 340l654 904q-33 48 -80.5 73t-112.5 25q-80 0 -146.5 -38t-119.5 -103
t-93 -149.5t-67 -178.5t-41 -188.5t-15 -180.5q-1 -47 4.5 -88.5t16.5 -75.5zM741 1602l1 22q42 47 84.5 100.5t81 107t65.5 98.5h183l-1 -18q-21 -29 -59.5 -70.5t-84 -87t-90.5 -85.5t-80 -67h-100z" />
    <glyph glyph-name="oslashacute" unicode="&#x1ff;" horiz-adv-x="989" 
d="M104 -99l-91 64l118 163q-26 45 -40 102t-14 127q0 90 19 193t57.5 203t99 181.5t143 130.5t188.5 49q65 0 116 -17.5t91 -51.5l98 137l92 -63l-117 -155q25 -43 36.5 -100.5t11.5 -119.5q0 -94 -19 -198.5t-58 -204t-99 -181t-142 -130t-186 -48.5q-60 0 -111 16t-91 47
zM419 111q59 0 110 33t92 91t71 134t46.5 163t18.5 177q1 27 -1.5 52t-7.5 42l-458 -638q22 -27 55.5 -40.5t73.5 -13.5zM242 279l464 645q-20 28 -51.5 43.5t-78.5 15.5q-63 0 -116 -36t-95 -97.5t-71.5 -139.5t-45.5 -163.5t-17 -167.5q0 -31 3 -57t8 -43zM546 1240l1 22
q42 47 84.5 100.5t81 107t65.5 98.5h183l-1 -18q-21 -29 -59.5 -70.5t-84 -87t-90.5 -85.5t-80 -67h-100z" />
    <glyph glyph-name="uni0218" unicode="&#x218;" horiz-adv-x="897" 
d="M305 -20q-98 0 -174.5 16.5t-134.5 48.5l9 164q58 -34 134.5 -58.5t169.5 -24.5q63 0 118 17t96.5 51.5t65 87t23.5 121.5q0 58 -19.5 102.5t-63.5 89t-120 101.5q-65 51 -115 102t-78.5 115.5t-28.5 152.5q0 98 33.5 175.5t94 131.5t141.5 82t176 28q94 0 174 -22
t142 -58l-69 -141q-51 31 -116.5 53t-136.5 22q-57 0 -106 -17t-85.5 -50t-57.5 -80.5t-21 -109.5q0 -63 22 -108t65 -86t108 -92q71 -52 122 -105t79 -118t28 -155q0 -103 -33 -183.5t-95.5 -137t-150 -86t-196.5 -29.5zM127 -453v28q23 34 52 87.5t55 111t41 101.5h151
v-20q-14 -39 -49 -96t-78 -114.5t-83 -97.5h-89z" />
    <glyph glyph-name="uni0219" unicode="&#x219;" horiz-adv-x="761" 
d="M260 -20q-86 0 -153.5 17.5t-112.5 42.5v153q45 -30 115 -54.5t141 -24.5t119.5 22t73.5 63.5t25 98.5q0 42 -14.5 74t-48 65t-90.5 76q-60 44 -102 87.5t-63.5 94t-21.5 114.5q0 90 41 159t117 108.5t180 39.5q88 0 161.5 -21t125.5 -51l-60 -125q-45 27 -101 45.5
t-124 18.5q-84 0 -133 -43.5t-49 -115.5q0 -38 12.5 -69t44.5 -62t88 -71q61 -48 105.5 -91t68.5 -94t24 -124q0 -104 -44 -178.5t-127 -114.5t-198 -40zM57 -453v28q23 34 52 87.5t55 111t41 101.5h151v-20q-14 -39 -49 -96t-78 -114.5t-83 -97.5h-89z" />
    <glyph glyph-name="uni021A" unicode="&#x21a;" horiz-adv-x="858" 
d="M225 0l280 1318h-331l32 144h821l-30 -144h-330l-280 -1318h-162zM105 -453v28q23 34 52 87.5t55 111t41 101.5h151v-20q-14 -39 -49 -96t-78 -114.5t-83 -97.5h-89z" />
    <glyph glyph-name="uni021B" unicode="&#x21b;" horiz-adv-x="575" 
d="M287 -20q-96 0 -150.5 50t-54.5 156q0 30 4.5 67t13.5 78l135 639h-133l16 81l149 54l103 243h102l-54 -252h218l-27 -126h-217l-136 -644q-7 -31 -12.5 -62t-5.5 -56q0 -43 20 -68.5t68 -25.5q29 0 58 5.5t59 16.5v-124q-28 -13 -73 -22.5t-83 -9.5zM-1 -453v28
q23 34 52 87.5t55 111t41 101.5h151v-20q-14 -39 -49 -96t-78 -114.5t-83 -97.5h-89z" />
    <glyph glyph-name="uni0237" unicode="&#x237;" horiz-adv-x="451" 
d="M-150 -492q-33 0 -62 5t-51 13v137q21 -8 47.5 -13t53.5 -5q45 0 76 23t53 74.5t39 136.5l257 1217h156l-262 -1231q-22 -108 -57 -188.5t-94.5 -124.5t-155.5 -44z" />
    <glyph glyph-name="uni0259" unicode="&#x259;" horiz-adv-x="895" 
d="M296 -20q-125 0 -193 61.5t-68 175.5q0 86 36 158t108.5 124t180.5 80.5t251 28.5h27q5 30 7.5 61.5t2.5 61.5q0 124 -53 189t-160 65q-67 0 -127 -19t-129 -56l8 138q63 32 129 50t153 18q106 0 181.5 -44t115.5 -127.5t40 -201.5q0 -150 -37 -287t-105.5 -244
t-162 -169.5t-205.5 -62.5zM312 110q62 0 121 46t107 130t74 196h-17q-126 0 -218.5 -29t-142.5 -85.5t-50 -139.5q0 -54 31 -86t95 -32z" />
    <glyph glyph-name="uni02BC" unicode="&#x2bc;" horiz-adv-x="343" 
d="M117 965q37 80 74 166t69 171t55 160h164l8 -22q-31 -76 -71 -157.5t-85.5 -162.5t-92.5 -155h-121z" />
    <glyph glyph-name="circumflex" unicode="&#x2c6;" horiz-adv-x="717" 
d="M232 1241l3 23q41 41 91 94.5t96.5 108.5t76.5 102h145q14 -45 39 -101.5t53 -111t49 -92.5l-2 -23h-93q-21 25 -44.5 56.5t-47 66.5t-46.5 73q-57 -57 -114 -107.5t-107 -88.5h-99z" />
    <glyph glyph-name="caron" unicode="&#x2c7;" horiz-adv-x="718" 
d="M438 1241q-14 44 -39 101t-52.5 112t-49.5 92l2 23h92q21 -22 43.5 -52.5t47 -67t47.5 -76.5q58 58 115.5 108.5t108.5 87.5h98l-2 -23q-35 -33 -87 -89t-102 -114.5t-77 -101.5h-145z" />
    <glyph glyph-name="macron" unicode="&#x2c9;" horiz-adv-x="679" 
d="M231 1246l26 126h515l-27 -126h-514z" />
    <glyph glyph-name="breve" unicode="&#x2d8;" horiz-adv-x="680" 
d="M508 1241q-72 0 -122.5 25.5t-77 73t-26.5 113.5q0 15 1 29t3 27h98q0 -46 13 -77t43 -47t80 -16q77 0 119 35t60 105h103q-28 -135 -102 -201.5t-192 -66.5z" />
    <glyph glyph-name="dotaccent" unicode="&#x2d9;" horiz-adv-x="355" 
d="M345 1287q-38 0 -61 22.5t-23 62.5q0 52 29.5 92t82.5 40q28 0 46 -9.5t27 -28t9 -45.5q0 -57 -31.5 -95.5t-78.5 -38.5z" />
    <glyph glyph-name="ring" unicode="&#x2da;" horiz-adv-x="600" 
d="M492 1245q-96 0 -153.5 55.5t-57.5 152.5q0 95 59 150.5t152 55.5q95 0 153.5 -55.5t58.5 -147.5q0 -97 -58.5 -154t-153.5 -57zM493 1337q52 0 84 31.5t32 84.5q0 52 -32 84t-84 32t-83.5 -32t-31.5 -84q0 -53 29.5 -84.5t85.5 -31.5z" />
    <glyph glyph-name="ogonek" unicode="&#x2db;" horiz-adv-x="474" 
d="M73 -450q-75 0 -119.5 40t-44.5 113q0 61 25.5 111t73 96t113.5 92l108 -2q-51 -43 -93.5 -86t-67 -88t-24.5 -95q0 -35 18.5 -53t51.5 -18q19 0 39 3.5t40 7.5l-11 -105q-24 -8 -52 -12t-57 -4z" />
    <glyph glyph-name="tilde" unicode="&#x2dc;" horiz-adv-x="782" 
d="M230 1245q18 81 46.5 137.5t70 85.5t97.5 29q43 0 78 -18t65 -41.5t57 -41.5t54 -18q38 0 61 26.5t43 94.5h99q-19 -87 -49 -143t-70.5 -82.5t-91.5 -26.5q-40 0 -73.5 18t-63.5 42t-58.5 42t-59.5 18q-40 0 -64 -30t-43 -92h-98z" />
    <glyph glyph-name="hungarumlaut" unicode="&#x2dd;" horiz-adv-x="818" 
d="M555 1241l2 23q43 50 86 104.5t80.5 106.5t61.5 94h166l-1 -18q-22 -30 -59 -71t-81 -85.5t-89.5 -84.5t-82.5 -69h-83zM233 1241l2 23q43 50 86 104.5t80 107t62 93.5h166l-1 -18q-21 -31 -58 -72t-81.5 -84.5t-90 -83.5t-84.5 -70h-81z" />
    <glyph glyph-name="uni02F3" unicode="&#x2f3;" horiz-adv-x="669" 
d="M166 -536q-96 0 -153.5 55t-57.5 151q0 94 58.5 150t152.5 56q90 0 152 -55.5t62 -148.5q0 -95 -59.5 -151.5t-154.5 -56.5zM165 -445q53 0 84 31.5t31 83.5q0 51 -31 83t-84 32t-83.5 -32t-30.5 -83q0 -53 29 -84t85 -31z" />
    <glyph glyph-name="gravecomb" unicode="&#x300;" horiz-adv-x="0" 
d="M-466 1241q-33 38 -72.5 94t-74 113.5t-52.5 100.5v19h174q14 -49 33.5 -101t42.5 -103t47 -100l-1 -23h-97z" />
    <glyph glyph-name="acutecomb" unicode="&#x301;" horiz-adv-x="0" 
d="M-476 1241l1 22q42 47 84.5 100.5t81 107t65.5 98.5h183l-1 -18q-21 -29 -59.5 -70.5t-84 -87t-90.5 -85.5t-80 -67h-100z" />
    <glyph glyph-name="uni0302" unicode="&#x302;" horiz-adv-x="0" 
d="M-135 1241l3 23q41 41 91 94.5t96.5 108.5t76.5 102h145q14 -45 39 -101.5t53 -111t49 -92.5l-2 -23h-93q-21 25 -44.5 56.5t-47 66.5t-46.5 73q-57 -57 -114 -107.5t-107 -88.5h-99z" />
    <glyph glyph-name="tildecomb" unicode="&#x303;" horiz-adv-x="0" 
d="M-766 1245q18 81 46.5 137.5t70 85.5t97.5 29q43 0 78 -18t65 -41.5t57 -41.5t54 -18q38 0 61 26.5t43 94.5h99q-19 -87 -49 -143t-70.5 -82.5t-91.5 -26.5q-40 0 -73.5 18t-63.5 42t-58.5 42t-59.5 18q-40 0 -64 -30t-43 -92h-98z" />
    <glyph glyph-name="uni0304" unicode="&#x304;" horiz-adv-x="0" 
d="M-112 1246l26 126h515l-27 -126h-514z" />
    <glyph glyph-name="uni0306" unicode="&#x306;" horiz-adv-x="0" 
d="M160 1241q-72 0 -122.5 25.5t-77 73t-26.5 113.5q0 15 1 29t3 27h98q0 -46 13 -77t43 -47t80 -16q77 0 119 35t60 105h103q-28 -135 -102 -201.5t-192 -66.5z" />
    <glyph glyph-name="uni0307" unicode="&#x307;" horiz-adv-x="0" 
d="M174 1287q-38 0 -61 22.5t-23 62.5q0 52 29.5 92t82.5 40q28 0 46 -9.5t27 -28t9 -45.5q0 -57 -31.5 -95.5t-78.5 -38.5z" />
    <glyph glyph-name="uni0308" unicode="&#x308;" horiz-adv-x="0" 
d="M335 1296q-34 0 -54.5 19.5t-20.5 57.5q0 47 27 83.5t77 36.5q35 0 53 -19t18 -53q0 -55 -29.5 -90t-70.5 -35zM1 1296q-34 0 -54 19.5t-20 57.5q0 47 26.5 83.5t75.5 36.5q24 0 39 -8.5t23 -24.5t8 -39q0 -55 -28.5 -90t-69.5 -35z" />
    <glyph glyph-name="hookabovecomb" unicode="&#x309;" horiz-adv-x="0" 
d="M-496 1210l26 173q55 7 92.5 21.5t57 39t19.5 59.5q0 40 -27.5 57t-72.5 17q-27 0 -51 -3t-41 -7v97q26 8 56.5 12.5t64.5 4.5q92 0 146.5 -42.5t54.5 -119.5q0 -83 -53.5 -132.5t-146.5 -67.5l-29 -109h-96z" />
    <glyph glyph-name="uni030A" unicode="&#x30a;" horiz-adv-x="0" 
d="M193 1245q-96 0 -153.5 55.5t-57.5 152.5q0 95 59 150.5t152 55.5q95 0 153.5 -55.5t58.5 -147.5q0 -97 -58.5 -154t-153.5 -57zM194 1337q52 0 84 31.5t32 84.5q0 52 -32 84t-84 32t-83.5 -32t-31.5 -84q0 -53 29.5 -84.5t85.5 -31.5z" />
    <glyph glyph-name="uni030B" unicode="&#x30b;" horiz-adv-x="0" 
d="M181 1241l2 23q43 50 86 104.5t80.5 106.5t61.5 94h166l-1 -18q-22 -30 -59 -71t-81 -85.5t-89.5 -84.5t-82.5 -69h-83zM-141 1241l2 23q43 50 86 104.5t80 107t62 93.5h166l-1 -18q-21 -31 -58 -72t-81.5 -84.5t-90 -83.5t-84.5 -70h-81z" />
    <glyph glyph-name="uni030C" unicode="&#x30c;" horiz-adv-x="0" 
d="M81 1241q-14 44 -39 101t-52.5 112t-49.5 92l2 23h92q21 -22 43.5 -52.5t47 -67t47.5 -76.5q58 58 115.5 108.5t108.5 87.5h98l-2 -23q-35 -33 -87 -89t-102 -114.5t-77 -101.5h-145z" />
    <glyph glyph-name="uni030F" unicode="&#x30f;" horiz-adv-x="0" 
d="M-367 1241q-37 41 -75.5 96t-70.5 111.5t-51 101.5l1 18h163q15 -51 34.5 -103t42.5 -103t46 -98l-2 -23h-88zM-675 1241q-35 40 -73.5 95.5t-71.5 112t-51 101.5l1 18h164q14 -49 33.5 -102.5t43 -105.5t48.5 -96l-3 -23h-91z" />
    <glyph glyph-name="uni0312" unicode="&#x312;" horiz-adv-x="0" 
d="M-28 965l-8 22q33 78 73.5 160t85.5 163t91 152h121q-25 -54 -53 -118t-55 -131.5t-50.5 -131.5t-40.5 -116h-164z" />
    <glyph glyph-name="dotbelowcomb" unicode="&#x323;" horiz-adv-x="0" 
d="M-707 -350q-37 0 -60 21.5t-23 63.5q0 51 29 91.5t82 40.5q28 0 46 -10t27 -28.5t9 -44.5q0 -57 -31.5 -95.5t-78.5 -38.5z" />
    <glyph glyph-name="uni0326" unicode="&#x326;" horiz-adv-x="0" 
d="M133 -453v28q23 34 52 87.5t55 111t41 101.5h151v-20q-14 -39 -49 -96t-78 -114.5t-83 -97.5h-89z" />
    <glyph glyph-name="uni0327" unicode="&#x327;" horiz-adv-x="0" 
d="M-259 -492q-32 0 -60 4t-51 9v99q19 -5 43.5 -8t51.5 -3q51 0 86.5 14t54 40.5t18.5 64.5q0 45 -37 69t-106 32l103 171h100l-67 -113q58 -13 97.5 -50.5t39.5 -105.5q0 -67 -33.5 -117t-95 -78t-144.5 -28z" />
    <glyph glyph-name="uni0328" unicode="&#x328;" horiz-adv-x="0" 
d="M-142 -450q-75 0 -119.5 40t-44.5 113q0 61 25.5 111t73 96t113.5 92l108 -2q-51 -43 -93.5 -86t-67 -88t-24.5 -95q0 -35 18.5 -53t51.5 -18q19 0 39 3.5t40 7.5l-11 -105q-24 -8 -52 -12t-57 -4z" />
    <glyph glyph-name="tonos" unicode="&#x384;" horiz-adv-x="1075" 
d="M557 1241l2 25q19 34 42.5 80t47.5 96.5t45 98.5t35 84h164l-2 -24q-14 -29 -42.5 -75.5t-64 -99.5t-70 -102t-60.5 -83h-97z" />
    <glyph glyph-name="dieresistonos" unicode="&#x385;" horiz-adv-x="960" 
d="M548 1391v21q21 39 48 94t52 111.5t41 98.5h160l-1 -19q-23 -40 -61.5 -96.5t-82 -113t-81.5 -96.5h-75zM389 1296q-34 0 -53.5 20t-19.5 57q0 47 26.5 84t74.5 37q35 0 51.5 -19.5t16.5 -53.5q0 -55 -29 -90t-67 -35zM816 1296q-33 0 -52.5 20t-19.5 57q0 47 26 84
t74 37q33 0 51 -19.5t18 -53.5q0 -55 -28.5 -90t-68.5 -35z" />
    <glyph glyph-name="Alphatonos" unicode="&#x386;" horiz-adv-x="985" 
d="M-118 0l706 1465h185l95 -1465h-162l-28 472h-399l-222 -472h-175zM345 617h327l-15 432q-4 62 -7 128t-2 119h-6q-21 -55 -47.5 -118t-59.5 -132zM85 1079l2 25q19 34 42.5 80t47.5 96.5t45 98.5t35 84h164l-2 -24q-14 -29 -42.5 -75.5t-64 -99.5t-70 -102t-60.5 -83
h-97z" />
    <glyph glyph-name="anoteleia" unicode="&#x387;" horiz-adv-x="465" 
d="M293 862q-42 0 -66 24t-24 68q0 62 34 110t102 48q39 0 62.5 -24.5t23.5 -69.5q0 -61 -35.5 -108.5t-96.5 -47.5z" />
    <glyph glyph-name="Epsilontonos" unicode="&#x388;" horiz-adv-x="1083" 
d="M225 0l310 1462h632l-31 -143h-471l-103 -483h442l-30 -142h-442l-117 -550h472l-30 -144h-632zM91 1079l2 25q19 34 42.5 80t47.5 96.5t45 98.5t35 84h164l-2 -24q-14 -29 -42.5 -75.5t-64 -99.5t-70 -102t-60.5 -83h-97z" />
    <glyph glyph-name="Etatonos" unicode="&#x389;" horiz-adv-x="1353" 
d="M210 0l310 1462h160l-133 -625h538l133 625h159l-310 -1462h-159l146 693h-538l-146 -693h-160zM81 1079l2 25q19 34 42.5 80t47.5 96.5t45 98.5t35 84h164l-2 -24q-14 -29 -42.5 -75.5t-64 -99.5t-70 -102t-60.5 -83h-97z" />
    <glyph glyph-name="Iotatonos" unicode="&#x38a;" horiz-adv-x="660" 
d="M215 0l311 1462h158l-310 -1462h-159zM81 1079l2 25q19 34 42.5 80t47.5 96.5t45 98.5t35 84h164l-2 -24q-14 -29 -42.5 -75.5t-64 -99.5t-70 -102t-60.5 -83h-97z" />
    <glyph glyph-name="Omicrontonos" unicode="&#x38c;" horiz-adv-x="1339" 
d="M636 -20q-141 0 -235.5 58t-142.5 169.5t-48 270.5q0 117 19.5 236t57 232t94 210.5t130 171t165 115t199.5 41.5q201 0 308 -126.5t107 -366.5q0 -108 -17 -224.5t-52 -230t-88.5 -213.5t-126 -177t-165 -121.5t-205.5 -44.5zM644 124q79 0 145 38.5t119 105.5
t93.5 153.5t67.5 184t40.5 197t13.5 191.5q0 170 -68 258.5t-193 88.5q-81 0 -148.5 -39.5t-121.5 -107.5t-94 -155t-66.5 -184t-40 -193.5t-13.5 -182.5q0 -116 31 -195.5t90.5 -119.5t144.5 -40zM81 1079l2 25q19 34 42.5 80t47.5 96.5t45 98.5t35 84h164l-2 -24
q-14 -29 -42.5 -75.5t-64 -99.5t-70 -102t-60.5 -83h-97z" />
    <glyph glyph-name="Upsilontonos" unicode="&#x38e;" horiz-adv-x="1143" 
d="M498 0l119 557l-168 905h164l118 -718l419 718h176l-550 -906l-117 -556h-161zM60 1079l2 25q19 34 42.5 80t47.5 96.5t45 98.5t35 84h164l-2 -24q-14 -29 -42.5 -75.5t-64 -99.5t-70 -102t-60.5 -83h-97z" />
    <glyph glyph-name="Omegatonos" unicode="&#x38f;" horiz-adv-x="1382" 
d="M91 1079l2 25q19 34 42.5 80t47.5 96.5t45 98.5t35 84h164l-2 -24q-14 -29 -42.5 -75.5t-64 -99.5t-70 -102t-60.5 -83h-97zM73 0l29 144h303q-44 49 -80 117.5t-57 156.5t-21 193q0 128 27.5 253.5t81 237t132.5 198t181.5 135.5t227.5 49q146 0 241.5 -61t143 -168.5
t47.5 -248.5q0 -135 -29.5 -261t-84.5 -237.5t-130.5 -203.5t-166.5 -160h310l-30 -144h-496l26 130q96 69 175.5 162t137 206t88.5 239t31 260q0 106 -30 183t-91.5 119t-156.5 42q-94 0 -169.5 -47t-132 -125.5t-94.5 -176.5t-56.5 -202t-18.5 -200q0 -155 40.5 -264.5
t115.5 -195.5l-26 -130h-468z" />
    <glyph glyph-name="iotadieresistonos" unicode="&#x390;" horiz-adv-x="547" 
d="M273 -20q-91 0 -145.5 47t-54.5 150q0 27 5.5 62.5t13.5 75.5l166 781h156l-168 -789q-6 -27 -10 -53t-4 -50q0 -40 18.5 -65t61.5 -25q27 0 54.5 6t57.5 16v-124q-28 -12 -70.5 -22t-80.5 -10zM330 1391v21q21 39 48 94t52 111.5t41 98.5h160l-1 -19
q-23 -40 -61.5 -96.5t-82 -113t-81.5 -96.5h-75zM171 1296q-34 0 -53.5 20t-19.5 57q0 47 26.5 84t74.5 37q35 0 51.5 -19.5t16.5 -53.5q0 -55 -29 -90t-67 -35zM598 1296q-33 0 -52.5 20t-19.5 57q0 47 26 84t74 37q33 0 51 -19.5t18 -53.5q0 -55 -28.5 -90t-68.5 -35z" />
    <glyph glyph-name="Alpha" unicode="&#x391;" horiz-adv-x="979" 
d="M-124 0l706 1465h185l95 -1465h-162l-28 472h-399l-222 -472h-175zM339 617h327l-15 432q-4 62 -7 128t-2 119h-6q-21 -55 -47.5 -118t-59.5 -132z" />
    <glyph glyph-name="Beta" unicode="&#x392;" horiz-adv-x="1049" 
d="M44 0l309 1462h320q113 0 196 -33.5t128.5 -101t45.5 -171.5q0 -96 -35 -176.5t-103 -136t-167 -77.5v-8q91 -25 145 -99t54 -184q0 -143 -62 -250t-176 -166t-271 -59h-384zM234 140h199q111 0 185.5 43t113 118.5t38.5 174.5q0 104 -58.5 162.5t-178.5 58.5h-182z
M380 833h184q93 0 163 37.5t109 106t39 157.5q0 93 -54.5 141t-173.5 48h-163z" />
    <glyph glyph-name="Gamma" unicode="&#x393;" horiz-adv-x="816" 
d="M43 0l310 1462h618l-30 -144h-459l-279 -1318h-160z" />
    <glyph glyph-name="uni0394" unicode="&#x394;" horiz-adv-x="976" 
d="M-73 0l12 108l652 1356h182l85 -1358l-21 -106h-910zM123 146h573l-39 838q-3 40 -5 79.5t-3 77.5t-2 76.5t0 77.5q-16 -43 -36 -92.5t-44 -105t-54 -116.5z" />
    <glyph glyph-name="Epsilon" unicode="&#x395;" horiz-adv-x="901" 
d="M43 0l310 1462h632l-31 -143h-471l-103 -483h442l-30 -142h-442l-117 -550h472l-30 -144h-632z" />
    <glyph glyph-name="Zeta" unicode="&#x396;" horiz-adv-x="884" 
d="M-52 0l26 125l798 1193h-528l31 144h715l-25 -126l-800 -1191h563l-29 -145h-751z" />
    <glyph glyph-name="Eta" unicode="&#x397;" horiz-adv-x="1186" 
d="M44 0l310 1462h160l-133 -625h538l133 625h159l-310 -1462h-159l146 693h-538l-146 -693h-160z" />
    <glyph glyph-name="Theta" unicode="&#x398;" horiz-adv-x="1258" 
d="M541 -20q-141 0 -237 58t-144.5 170t-48.5 271q0 110 19 226.5t56 229t93 211.5t131 175.5t168 119.5t205 43q199 0 310 -125.5t111 -367.5q0 -119 -18.5 -239.5t-55.5 -233.5t-92.5 -210.5t-129.5 -171t-165.5 -115t-201.5 -41.5zM549 124q81 0 148.5 39.5t122 108
t95.5 156t68 185t41 195.5t14 185q0 170 -69 259t-198 89q-82 0 -151 -39.5t-123.5 -108t-95.5 -155.5t-68.5 -183.5t-41 -193t-13.5 -181.5q0 -116 31.5 -195.5t92.5 -120t147 -40.5zM446 678l30 140h390l-30 -140h-390z" />
    <glyph glyph-name="Iota" unicode="&#x399;" horiz-adv-x="488" 
d="M43 0l311 1462h158l-310 -1462h-159z" />
    <glyph glyph-name="Kappa" unicode="&#x39a;" horiz-adv-x="982" 
d="M43 0l310 1462h160l-155 -728l121 154l490 574h185l-552 -653l261 -809h-175l-216 700l-148 -129l-121 -571h-160z" />
    <glyph glyph-name="Lambda" unicode="&#x39b;" horiz-adv-x="976" 
d="M-125 0l711 1464h180l97 -1464h-162l-55 974q-4 71 -6 148t-2 146q-28 -74 -65 -157t-82 -180l-443 -931h-173z" />
    <glyph glyph-name="Mu" unicode="&#x39c;" horiz-adv-x="1513" 
d="M42 0l310 1462h226l99 -1215h6l610 1215h244l-307 -1462h-160l203 960q13 56 25 107.5t23 97t21 83.5h-4l-635 -1248h-143l-108 1247h-6q-6 -42 -14 -92t-17 -103t-20 -104l-200 -948h-153z" />
    <glyph glyph-name="Nu" unicode="&#x39d;" horiz-adv-x="1240" 
d="M42 0l310 1462h179l330 -1204h5q10 61 22 128.5t25 133t24 118.5l175 824h154l-310 -1462h-176l-334 1215h-5q-6 -44 -15 -97t-19.5 -109t-21 -108.5t-20.5 -95.5l-169 -805h-154z" />
    <glyph glyph-name="Xi" unicode="&#x39e;" horiz-adv-x="897" 
d="M-36 0l29 144h732l-30 -144h-731zM200 695l28 142h557l-30 -142h-555zM269 1319l31 143h679l-30 -143h-680z" />
    <glyph glyph-name="Omicron" unicode="&#x39f;" horiz-adv-x="1240" 
d="M537 -20q-141 0 -235.5 58t-142.5 169.5t-48 270.5q0 117 19.5 236t57 232t94 210.5t130 171t165 115t199.5 41.5q201 0 308 -126.5t107 -366.5q0 -108 -17 -224.5t-52 -230t-88.5 -213.5t-126 -177t-165 -121.5t-205.5 -44.5zM545 124q79 0 145 38.5t119 105.5
t93.5 153.5t67.5 184t40.5 197t13.5 191.5q0 170 -68 258.5t-193 88.5q-81 0 -148.5 -39.5t-121.5 -107.5t-94 -155t-66.5 -184t-40 -193.5t-13.5 -182.5q0 -116 31 -195.5t90.5 -119.5t144.5 -40z" />
    <glyph glyph-name="Pi" unicode="&#x3a0;" horiz-adv-x="1179" 
d="M43 0l310 1462h852l-309 -1462h-161l279 1318h-532l-279 -1318h-160z" />
    <glyph glyph-name="Rho" unicode="&#x3a1;" horiz-adv-x="987" 
d="M44 0l309 1462h270q132 0 216.5 -43t125.5 -121t41 -184q0 -121 -36.5 -220t-107.5 -169.5t-175.5 -109t-239.5 -38.5h-121l-122 -577h-160zM355 718h103q123 0 208 45.5t130 131.5t45 207q0 112 -60 166t-182 54h-115z" />
    <glyph glyph-name="Sigma" unicode="&#x3a3;" horiz-adv-x="902" 
d="M-52 0l25 132l495 628l-228 571l27 131h725l-30 -143h-547l224 -568l-478 -607h594l-29 -144h-778z" />
    <glyph glyph-name="Tau" unicode="&#x3a4;" horiz-adv-x="858" 
d="M225 0l280 1318h-331l32 144h821l-30 -144h-330l-280 -1318h-162z" />
    <glyph glyph-name="Upsilon" unicode="&#x3a5;" horiz-adv-x="876" 
d="M230 0l119 557l-168 905h164l118 -718l419 718h176l-550 -906l-117 -556h-161z" />
    <glyph glyph-name="Phi" unicode="&#x3a6;" horiz-adv-x="1344" 
d="M457 -20l49 225q-121 9 -208.5 59.5t-134 142.5t-46.5 225q0 141 39.5 261t117.5 210.5t194.5 142.5t271.5 57l36 180h161l-37 -180q120 -7 207 -57t134 -140.5t47 -221.5q0 -133 -39 -253.5t-116.5 -215t-194 -150.5t-272.5 -60l-49 -225h-160zM534 343l176 820
q-111 -1 -192 -45.5t-133.5 -119.5t-78 -168t-25.5 -192q0 -94 30 -158t87 -98t136 -39zM695 343q106 5 186.5 49.5t134.5 119t81 169t27 197.5q0 90 -30 152.5t-86.5 96.5t-139.5 36z" />
    <glyph glyph-name="Chi" unicode="&#x3a7;" horiz-adv-x="908" 
d="M-114 0l520 772l-180 690h164l133 -559l368 559h173l-476 -704l188 -758h-169l-137 622l-410 -622h-174z" />
    <glyph glyph-name="Psi" unicode="&#x3a8;" horiz-adv-x="1327" 
d="M459 0l94 443h-8q-127 3 -208.5 47.5t-120.5 123.5t-39 185q0 47 6.5 103.5t19.5 119.5l93 440h163l-96 -455q-13 -63 -19 -111t-6 -86q0 -80 27.5 -130t80 -72.5t126.5 -22.5h10l186 877h161l-187 -877h9q122 1 197 49t117.5 134.5t66.5 201.5l105 492h164l-107 -510
q-24 -113 -64.5 -206.5t-105 -161t-161 -104.5t-231.5 -37h-19l-94 -443h-160z" />
    <glyph glyph-name="uni03A9" unicode="&#x3a9;" horiz-adv-x="1261" 
d="M-48 0l29 144h303q-44 49 -80 117.5t-57 156.5t-21 193q0 128 27.5 253.5t81 237t132.5 198t181.5 135.5t227.5 49q146 0 241.5 -61t143 -168.5t47.5 -248.5q0 -135 -29.5 -261t-84.5 -237.5t-130.5 -203.5t-166.5 -160h310l-30 -144h-496l26 130q96 69 175.5 162
t137 206t88.5 239t31 260q0 106 -30 183t-91.5 119t-156.5 42q-94 0 -169.5 -47t-132 -125.5t-94.5 -176.5t-56.5 -202t-18.5 -200q0 -155 40.5 -264.5t115.5 -195.5l-26 -130h-468z" />
    <glyph glyph-name="Iotadieresis" unicode="&#x3aa;" horiz-adv-x="488" 
d="M43 0l311 1462h158l-310 -1462h-159zM650 1670q-34 0 -54.5 19.5t-20.5 57.5q0 47 27 83.5t77 36.5q35 0 53 -19t18 -53q0 -55 -29.5 -90t-70.5 -35zM316 1670q-34 0 -54 19.5t-20 57.5q0 47 26.5 83.5t75.5 36.5q24 0 39 -8.5t23 -24.5t8 -39q0 -55 -28.5 -90t-69.5 -35
z" />
    <glyph glyph-name="Upsilondieresis" unicode="&#x3ab;" horiz-adv-x="876" 
d="M230 0l119 557l-168 905h164l118 -718l419 718h176l-550 -906l-117 -556h-161zM814 1649q-34 0 -54.5 19.5t-20.5 57.5q0 47 27 83.5t77 36.5q35 0 53 -19t18 -53q0 -55 -29.5 -90t-70.5 -35zM480 1649q-34 0 -54 19.5t-20 57.5q0 47 26.5 83.5t75.5 36.5q24 0 39 -8.5
t23 -24.5t8 -39q0 -55 -28.5 -90t-69.5 -35z" />
    <glyph glyph-name="alphatonos" unicode="&#x3ac;" horiz-adv-x="1024" 
d="M331 -20q-117 0 -186 87t-69 253q0 115 22 229t63.5 216.5t101 181t135 124t165.5 45.5q99 0 157.5 -52t82.5 -133h9q11 27 25 57.5t30.5 59t32.5 48.5h128q-23 -44 -47 -109.5t-46 -144t-41 -163.5l-83 -381q-7 -34 -11.5 -65t-4.5 -55q0 -34 15 -50t41 -16q13 0 28.5 3
t30.5 8v-119q-18 -9 -49 -16.5t-60 -7.5q-62 0 -98 25.5t-49.5 70t-9.5 100.5h-7q-40 -58 -86 -102t-100 -69t-120 -25zM382 113q73 0 135.5 56.5t109.5 147.5t74 195q20 78 29.5 145.5t9.5 123.5q0 95 -43 147.5t-120 52.5q-63 0 -116.5 -41.5t-95 -112t-70 -156
t-43.5 -175t-15 -169.5q0 -108 36.5 -161t108.5 -53zM572 1241l2 25q19 34 42.5 80t47.5 96.5t45 98.5t35 84h164l-2 -24q-14 -29 -42.5 -75.5t-64 -99.5t-70 -102t-60.5 -83h-97z" />
    <glyph glyph-name="epsilontonos" unicode="&#x3ad;" horiz-adv-x="780" 
d="M343 -20q-103 0 -172.5 34.5t-104.5 95.5t-35 143q0 91 34.5 159t97 110.5t144.5 57.5l1 7q-56 26 -91 79t-35 132q0 101 48.5 172t130 108t180.5 37q84 0 149 -17t121 -52l-66 -121q-36 25 -88.5 41t-110.5 16q-94 0 -154.5 -50.5t-60.5 -145.5q0 -68 40 -107.5
t127 -39.5h87l-26 -130h-92q-82 0 -144.5 -27t-97 -79t-34.5 -126t43 -119.5t139 -45.5q73 0 137 20.5t125 52.5v-136q-52 -28 -127 -48.5t-165 -20.5zM485 1241l2 25q19 34 42.5 80t47.5 96.5t45 98.5t35 84h164l-2 -24q-14 -29 -42.5 -75.5t-64 -99.5t-70 -102t-60.5 -83
h-97z" />
    <glyph glyph-name="etatonos" unicode="&#x3ae;" horiz-adv-x="1006" 
d="M483 -492l252 1179q10 48 17 91t7 78q0 58 -30 90.5t-93 32.5q-68 0 -133 -48t-118 -145.5t-85 -248.5l-113 -537h-158l233 1096h128l-24 -180h8q34 53 79 98.5t103 73.5t128 28t122.5 -26t82 -78t29.5 -132q0 -44 -8 -96t-17 -97l-253 -1179h-157zM578 1241l2 25
q19 34 42.5 80t47.5 96.5t45 98.5t35 84h164l-2 -24q-14 -29 -42.5 -75.5t-64 -99.5t-70 -102t-60.5 -83h-97z" />
    <glyph glyph-name="iotatonos" unicode="&#x3af;" horiz-adv-x="543" 
d="M273 -20q-91 0 -145.5 47t-54.5 150q0 27 5.5 62.5t13.5 75.5l166 781h156l-168 -789q-6 -27 -10 -53t-4 -50q0 -40 18.5 -65t61.5 -25q27 0 54.5 6t57.5 16v-124q-28 -12 -70.5 -22t-80.5 -10zM296 1241l2 25q19 34 42.5 80t47.5 96.5t45 98.5t35 84h164l-2 -24
q-14 -29 -42.5 -75.5t-64 -99.5t-70 -102t-60.5 -83h-97z" />
    <glyph glyph-name="upsilondieresistonos" unicode="&#x3b0;" 
d="M399 -19q-150 0 -227.5 78.5t-77.5 220.5q0 44 8 98.5t24 132.5l124 585h157l-126 -591q-15 -70 -23 -120.5t-8 -91.5q0 -90 43.5 -134t118.5 -44q79 0 137 49t99 132t67 186.5t40.5 214t21 214t6.5 185.5h156q-1 -147 -15 -302.5t-47.5 -300.5t-94.5 -260.5
t-154.5 -183.5t-228.5 -68zM586 1391v21q21 39 48 94t52 111.5t41 98.5h160l-1 -19q-23 -40 -61.5 -96.5t-82 -113t-81.5 -96.5h-75zM427 1296q-34 0 -53.5 20t-19.5 57q0 47 26.5 84t74.5 37q35 0 51.5 -19.5t16.5 -53.5q0 -55 -29 -90t-67 -35zM854 1296q-33 0 -52.5 20
t-19.5 57q0 47 26 84t74 37q33 0 51 -19.5t18 -53.5q0 -55 -28.5 -90t-68.5 -35z" />
    <glyph glyph-name="alpha" unicode="&#x3b1;" horiz-adv-x="1024" 
d="M331 -20q-117 0 -186 87t-69 253q0 115 22 229t63.5 216.5t101 181t135 124t165.5 45.5q99 0 157.5 -52t82.5 -133h9q11 27 25 57.5t30.5 59t32.5 48.5h128q-23 -44 -47 -109.5t-46 -144t-41 -163.5l-83 -381q-7 -34 -11.5 -65t-4.5 -55q0 -34 15 -50t41 -16q13 0 28.5 3
t30.5 8v-119q-18 -9 -49 -16.5t-60 -7.5q-62 0 -98 25.5t-49.5 70t-9.5 100.5h-7q-40 -58 -86 -102t-100 -69t-120 -25zM382 113q73 0 135.5 56.5t109.5 147.5t74 195q20 78 29.5 145.5t9.5 123.5q0 95 -43 147.5t-120 52.5q-63 0 -116.5 -41.5t-95 -112t-70 -156
t-43.5 -175t-15 -169.5q0 -108 36.5 -161t108.5 -53z" />
    <glyph glyph-name="beta" unicode="&#x3b2;" horiz-adv-x="1021" 
d="M-74 -491l347 1633q27 126 75 221.5t132.5 149.5t219.5 54q98 0 168 -37.5t108 -107.5t38 -166q0 -111 -36 -202.5t-107.5 -153t-177.5 -83.5q97 -21 157.5 -103.5t60.5 -215.5q0 -99 -28 -192t-84 -166.5t-139.5 -116.5t-194.5 -43q-90 0 -155 27.5t-109 63.5l-122 -562
h-153zM450 115q80 0 137.5 33.5t94.5 89t55 122.5t18 133q0 118 -55 186.5t-174 68.5h-53l29 136h52q78 0 134.5 29.5t93 80.5t54 116t17.5 135q0 85 -43 137t-128 52q-76 0 -125.5 -37t-79.5 -102.5t-49 -152.5l-200 -945q40 -37 99.5 -59.5t122.5 -22.5z" />
    <glyph glyph-name="gamma" unicode="&#x3b3;" horiz-adv-x="808" 
d="M33 -492q16 83 41.5 166t58 165.5t68.5 163.5l-90 1093h158l39 -594q3 -33 5 -72.5t3 -82t0.5 -84t-2.5 -79.5h6q31 84 66.5 166.5t69.5 154.5l283 591h167l-516 -1045q-45 -92 -82.5 -186.5t-66 -185t-46.5 -171.5h-162z" />
    <glyph glyph-name="delta" unicode="&#x3b4;" horiz-adv-x="992" 
d="M407 -20q-113 0 -190 46.5t-117 127t-40 184.5q0 147 56.5 266t161 205t247.5 134q-63 67 -105.5 140t-42.5 166q0 94 43 165t121.5 110.5t183.5 39.5q103 0 180.5 -30t125.5 -65l-70 -120q-49 33 -108 57.5t-132 24.5q-93 0 -141.5 -48t-48.5 -129q0 -51 20.5 -94.5
t56.5 -84.5t81 -88q58 -63 102 -129.5t68 -144t24 -172.5q0 -111 -30 -212t-90 -179.5t-149 -124t-207 -45.5zM422 113q76 0 132.5 38t94 100t56 137t18.5 149q0 109 -33.5 187t-88.5 136q-82 -27 -151.5 -75.5t-121 -114.5t-80 -146.5t-28.5 -171.5q0 -110 52.5 -174.5
t149.5 -64.5z" />
    <glyph glyph-name="epsilon" unicode="&#x3b5;" horiz-adv-x="780" 
d="M343 -20q-103 0 -172.5 34.5t-104.5 95.5t-35 143q0 91 34.5 159t97 110.5t144.5 57.5l1 7q-56 26 -91 79t-35 132q0 101 48.5 172t130 108t180.5 37q84 0 149 -17t121 -52l-66 -121q-36 25 -88.5 41t-110.5 16q-94 0 -154.5 -50.5t-60.5 -145.5q0 -68 40 -107.5
t127 -39.5h87l-26 -130h-92q-82 0 -144.5 -27t-97 -79t-34.5 -126t43 -119.5t139 -45.5q73 0 137 20.5t125 52.5v-136q-52 -28 -127 -48.5t-165 -20.5z" />
    <glyph glyph-name="zeta" unicode="&#x3b6;" horiz-adv-x="771" 
d="M257 -411q50 47 89 93.5t62 93.5t23 92q0 52 -40 83.5t-107 66.5q-73 38 -122 81t-74 104t-25 151q0 135 51 270.5t142 270t212.5 269t262.5 268.5q-40 -5 -90 -7.5t-112 -2.5h-192l29 134h574l-25 -117q-128 -125 -251 -257.5t-221.5 -267t-157 -267.5t-58.5 -260
q0 -66 19 -110.5t58 -78.5t99 -68q56 -28 98.5 -59t66 -71.5t23.5 -99.5t-23 -113.5t-61 -103.5t-84 -94h-166z" />
    <glyph glyph-name="eta" unicode="&#x3b7;" horiz-adv-x="1006" 
d="M483 -492l252 1179q10 48 17 91t7 78q0 58 -30 90.5t-93 32.5q-68 0 -133 -48t-118 -145.5t-85 -248.5l-113 -537h-158l233 1096h128l-24 -180h8q34 53 79 98.5t103 73.5t128 28t122.5 -26t82 -78t29.5 -132q0 -44 -8 -96t-17 -97l-253 -1179h-157z" />
    <glyph glyph-name="theta" unicode="&#x3b8;" horiz-adv-x="980" 
d="M371 -20q-95 0 -159.5 43.5t-97.5 132t-33 223.5q0 64 6 137t18.5 151t29.5 158q36 158 85 294.5t115 238.5t151.5 159t194.5 57q89 0 153.5 -41t99 -130t34.5 -233q0 -76 -11 -172t-31 -197.5t-50 -195.5q-38 -143 -86.5 -258t-110.5 -197t-138.5 -126t-169.5 -44z
M385 112q63 0 116.5 43t98 124.5t82.5 195.5t71 256h-480q-20 -107 -30 -195.5t-10 -155.5q0 -141 38 -204.5t114 -63.5zM302 864h476q17 92 26 175t9 146q0 130 -36 193.5t-112 63.5q-61 0 -113.5 -40.5t-97.5 -116.5t-82.5 -182.5t-69.5 -238.5z" />
    <glyph glyph-name="iota" unicode="&#x3b9;" horiz-adv-x="543" 
d="M273 -20q-91 0 -145.5 47t-54.5 150q0 27 5.5 62.5t13.5 75.5l166 781h156l-168 -789q-6 -27 -10 -53t-4 -50q0 -40 18.5 -65t61.5 -25q27 0 54.5 6t57.5 16v-124q-28 -12 -70.5 -22t-80.5 -10z" />
    <glyph glyph-name="kappa" unicode="&#x3ba;" horiz-adv-x="863" 
d="M29 0l234 1096h157l-64 -289q-14 -62 -30.5 -125.5t-32.5 -119.5h4l463 534h179l-401 -456l205 -640h-169l-163 526l-144 -136l-80 -390h-158z" />
    <glyph glyph-name="lambda" unicode="&#x3bb;" horiz-adv-x="861" 
d="M679 -20q-59 0 -96 23t-56 71.5t-24 123.5l-21 431q-2 57 -4.5 119.5t-1.5 124.5q-10 -26 -20 -51t-20 -49t-21 -47.5t-22 -46.5l-337 -679h-164l560 1085l-9 192q-5 79 -30 119.5t-83 40.5q-21 0 -41 -3t-39 -9l-11 129q23 6 56.5 11t64.5 5q84 0 132.5 -31.5t71.5 -93
t29 -152.5l59 -1065q2 -39 9.5 -64t21.5 -37.5t35 -12.5q14 0 30 2.5t31 8.5v-127q-18 -7 -46.5 -12.5t-53.5 -5.5z" />
    <glyph glyph-name="uni03BC" unicode="&#x3bc;" horiz-adv-x="1012" 
d="M-74 -491l335 1587h156l-146 -697q-10 -46 -15.5 -81.5t-5.5 -63.5q0 -65 30.5 -101t92.5 -36q67 0 130.5 44.5t116.5 141.5t87 253l117 540h154l-233 -1096h-125l17 170h-7q-33 -53 -76 -96t-95.5 -68.5t-117.5 -25.5q-54 0 -90 24t-57 69h-6q-3 -27 -8 -63t-11.5 -71.5
t-11.5 -63.5l-77 -366h-154z" />
    <glyph glyph-name="nu" unicode="&#x3bd;" horiz-adv-x="865" 
d="M180 0l-63 1096h158l33 -663q4 -69 6 -136t3 -131q107 118 189 263.5t142.5 313.5t99.5 353h158q-44 -214 -116.5 -404t-181.5 -362t-263 -330h-165z" />
    <glyph glyph-name="xi" unicode="&#x3be;" horiz-adv-x="776" 
d="M251 -411q49 49 89.5 96t64 94t22.5 93q-1 53 -37.5 84t-109.5 64q-73 35 -123 79t-75.5 106.5t-25.5 151.5q0 111 42.5 207t125.5 163.5t204 94.5l1 6q-82 29 -127 87t-45 149q0 65 22.5 123.5t63.5 107t97 83.5t123 54q-43 -4 -81 -7t-84 -3h-78l29 134h549l-28 -126
h-29q-67 0 -129.5 -17t-116.5 -48.5t-95 -75.5t-63.5 -98t-22.5 -116q0 -94 56.5 -143t177.5 -49h82l-28 -130h-80q-112 0 -204 -44.5t-146 -128.5t-54 -203q0 -64 18 -106t58 -73t104 -63q52 -24 94.5 -53.5t68 -72t25.5 -105.5q0 -59 -22 -113.5t-59.5 -104t-85.5 -97.5
h-168z" />
    <glyph glyph-name="omicron" unicode="&#x3bf;" horiz-adv-x="988" 
d="M407 -18q-104 0 -178 44.5t-113.5 128.5t-39.5 202q0 93 19.5 196.5t58.5 203t99.5 180.5t143 129t187.5 48q104 0 177.5 -45t113 -129.5t39.5 -203.5q0 -101 -20 -207t-60.5 -204t-101.5 -175t-142 -122.5t-183 -45.5zM419 116q60 0 111.5 35.5t92.5 97.5t70 142.5
t44.5 171.5t15.5 184q0 65 -18 118t-57 84.5t-102 31.5q-66 0 -120 -39t-95.5 -105t-69 -148t-42 -169.5t-14.5 -167.5q0 -113 47.5 -174.5t136.5 -61.5z" />
    <glyph glyph-name="pi" unicode="&#x3c0;" horiz-adv-x="1054" 
d="M759 -16q-81 0 -125.5 43t-44.5 127q0 25 4.5 59t12.5 76l142 673h-323l-206 -962h-158l207 962h-181l13 67l149 67h856l-26 -134h-175l-144 -686q-6 -26 -9 -50t-3 -43q0 -32 16 -48.5t47 -16.5q21 0 40.5 5t32.5 10v-125q-26 -11 -58.5 -17.5t-66.5 -6.5z" />
    <glyph glyph-name="rho" unicode="&#x3c1;" horiz-adv-x="1005" 
d="M-72 -491l236 1126q31 146 83.5 253.5t139 167t220.5 59.5q106 0 178.5 -44t110 -127.5t37.5 -203.5q0 -92 -18 -196t-55.5 -204t-95 -181.5t-136 -130t-179.5 -48.5q-86 0 -147 29.5t-104 77.5q-8 -55 -18 -107.5t-23 -113.5l-75 -357h-154zM432 114q69 0 124 40
t95.5 107t67.5 149t40.5 167.5t13.5 161.5q0 114 -43.5 178t-135.5 64q-76 0 -129 -43t-89.5 -128.5t-62.5 -212.5l-81 -383q30 -42 81 -71t119 -29z" />
    <glyph glyph-name="uni03C2" unicode="&#x3c2;" horiz-adv-x="781" 
d="M271 -416q55 56 93 104.5t58 92t20 84.5q0 33 -13 57.5t-43 47t-81 46.5q-67 37 -118.5 83.5t-81.5 117.5t-30 181q0 96 21 196.5t63 193.5t105 167.5t147 117.5t189 43q65 0 121 -12.5t103 -35.5l-53 -130q-34 17 -78 30t-94 13q-72 0 -129.5 -37.5t-101 -99.5
t-73 -136.5t-44 -151t-14.5 -142.5q0 -78 19.5 -128.5t59 -86t99.5 -67.5q53 -27 95 -58t67 -74.5t25 -109.5q0 -54 -21 -106t-57.5 -101.5t-83.5 -98.5h-169z" />
    <glyph glyph-name="sigma" unicode="&#x3c3;" horiz-adv-x="1019" 
d="M406 -18q-150 0 -240 96.5t-90 291.5q0 105 21 210t64.5 197.5t111.5 164.5t162 113t216 41h422l-27 -134h-218q24 -52 43 -118t19 -160q0 -89 -17.5 -186t-53.5 -189t-93 -165.5t-136.5 -117.5t-183.5 -44zM420 115q68 0 120 36t89 98t61 141t35 165.5t11 171.5
q0 73 -11.5 133t-29.5 102h-57q-108 0 -184.5 -51.5t-124.5 -137.5t-70.5 -190.5t-22.5 -209.5q0 -131 47.5 -194.5t136.5 -63.5z" />
    <glyph glyph-name="tau" unicode="&#x3c4;" horiz-adv-x="712" 
d="M390 -21q-98 0 -158.5 49.5t-60.5 159.5q0 33 6.5 77.5t17.5 94.5l129 601h-244l14 68l147 67h544l-28 -135h-277l-130 -613q-9 -40 -14.5 -73t-5.5 -62q0 -46 24 -73t73 -27q29 0 58 6.5t60 16.5v-124q-28 -14 -71.5 -23.5t-83.5 -9.5z" />
    <glyph glyph-name="upsilon" unicode="&#x3c5;" 
d="M399 -19q-150 0 -227.5 78.5t-77.5 220.5q0 44 8 98.5t24 132.5l124 585h157l-126 -591q-15 -70 -23 -120.5t-8 -91.5q0 -90 43.5 -134t118.5 -44q79 0 137 49t99 132t67 186.5t40.5 214t21 214t6.5 185.5h156q-1 -147 -15 -302.5t-47.5 -300.5t-94.5 -260.5
t-154.5 -183.5t-228.5 -68z" />
    <glyph glyph-name="phi" unicode="&#x3c6;" horiz-adv-x="1229" 
d="M306 -491l99 473q-95 12 -169.5 60.5t-116.5 136t-42 215.5q0 137 37 262t109 238t176 215l104 -88q-84 -87 -144.5 -183.5t-92.5 -204.5t-32 -230q0 -95 26 -156t71.5 -92.5t103.5 -39.5l140 667q33 154 106 244t212 90q127 0 194 -88t67 -253q0 -107 -21.5 -217.5
t-67 -211t-116.5 -180.5t-168 -130t-223 -57l-98 -470h-154zM589 114q92 9 160 55.5t115.5 117.5t76.5 155.5t42 171t13 161.5q0 109 -30.5 158.5t-82.5 49.5q-61 0 -96.5 -50.5t-59.5 -169.5z" />
    <glyph glyph-name="chi" unicode="&#x3c7;" horiz-adv-x="864" 
d="M-234 -492l535 844l-34 486q-5 71 -23.5 102.5t-58.5 31.5q-17 0 -33 -4t-32 -9l-8 126q22 10 53.5 15.5t62.5 5.5q98 0 138 -60t48 -167l21 -348l337 565h168l-481 -775l38 -534q7 -74 26.5 -109.5t66.5 -35.5q18 0 36.5 4t34.5 10v-125q-25 -9 -56 -16t-64 -7
q-66 0 -106 30t-59.5 86t-25.5 136l-24 387l-388 -639h-172z" />
    <glyph glyph-name="psi" unicode="&#x3c8;" horiz-adv-x="1242" 
d="M318 -492l102 475q-163 16 -243 106t-80 241q0 49 8 104.5t21 120.5l114 541h157l-116 -552q-12 -56 -19.5 -106.5t-7.5 -94.5q0 -102 45.5 -159t148.5 -67l305 1440h153l-305 -1437q102 5 174.5 64t120.5 156.5t76 221.5t39.5 261t12.5 273h157q-1 -166 -17.5 -326
t-56 -300t-108 -248t-173.5 -171t-254 -69l-101 -474h-153z" />
    <glyph glyph-name="omega" unicode="&#x3c9;" horiz-adv-x="1249" 
d="M293 -20q-112 0 -170.5 84.5t-58.5 233.5q0 127 32 265t89.5 274t132.5 259h161q-71 -122 -129.5 -257.5t-93 -273t-34.5 -266.5q0 -99 30.5 -140.5t77.5 -41.5q72 0 116 75.5t76 228.5l59 281h155l-60 -270q-8 -40 -13.5 -73.5t-8.5 -61t-3 -49.5q0 -64 24.5 -97.5
t70.5 -33.5q57 0 101.5 49t77.5 129.5t54.5 176.5t31.5 192t10 174q0 73 -4 137.5t-13 120.5h155q9 -54 14.5 -120.5t5.5 -135.5q0 -96 -14 -211t-45 -229.5t-82 -209t-125 -152.5t-174 -58q-59 0 -99.5 22.5t-64 62t-31.5 90.5q-44 -86 -104.5 -130.5t-146.5 -44.5z" />
    <glyph glyph-name="iotadieresis" unicode="&#x3ca;" horiz-adv-x="543" 
d="M273 -20q-91 0 -145.5 47t-54.5 150q0 27 5.5 62.5t13.5 75.5l166 781h156l-168 -789q-6 -27 -10 -53t-4 -50q0 -40 18.5 -65t61.5 -25q27 0 54.5 6t57.5 16v-124q-28 -12 -70.5 -22t-80.5 -10zM545 1296q-34 0 -54.5 19.5t-20.5 57.5q0 47 27 83.5t77 36.5q35 0 53 -19
t18 -53q0 -55 -29.5 -90t-70.5 -35zM211 1296q-34 0 -54 19.5t-20 57.5q0 47 26.5 83.5t75.5 36.5q24 0 39 -8.5t23 -24.5t8 -39q0 -55 -28.5 -90t-69.5 -35z" />
    <glyph glyph-name="upsilondieresis" unicode="&#x3cb;" 
d="M399 -19q-150 0 -227.5 78.5t-77.5 220.5q0 44 8 98.5t24 132.5l124 585h157l-126 -591q-15 -70 -23 -120.5t-8 -91.5q0 -90 43.5 -134t118.5 -44q79 0 137 49t99 132t67 186.5t40.5 214t21 214t6.5 185.5h156q-1 -147 -15 -302.5t-47.5 -300.5t-94.5 -260.5
t-154.5 -183.5t-228.5 -68zM797 1296q-34 0 -54.5 19.5t-20.5 57.5q0 47 27 83.5t77 36.5q35 0 53 -19t18 -53q0 -55 -29.5 -90t-70.5 -35zM463 1296q-34 0 -54 19.5t-20 57.5q0 47 26.5 83.5t75.5 36.5q24 0 39 -8.5t23 -24.5t8 -39q0 -55 -28.5 -90t-69.5 -35z" />
    <glyph glyph-name="omicrontonos" unicode="&#x3cc;" horiz-adv-x="988" 
d="M407 -18q-104 0 -178 44.5t-113.5 128.5t-39.5 202q0 93 19.5 196.5t58.5 203t99.5 180.5t143 129t187.5 48q104 0 177.5 -45t113 -129.5t39.5 -203.5q0 -101 -20 -207t-60.5 -204t-101.5 -175t-142 -122.5t-183 -45.5zM419 116q60 0 111.5 35.5t92.5 97.5t70 142.5
t44.5 171.5t15.5 184q0 65 -18 118t-57 84.5t-102 31.5q-66 0 -120 -39t-95.5 -105t-69 -148t-42 -169.5t-14.5 -167.5q0 -113 47.5 -174.5t136.5 -61.5zM521 1241l2 25q19 34 42.5 80t47.5 96.5t45 98.5t35 84h164l-2 -24q-14 -29 -42.5 -75.5t-64 -99.5t-70 -102
t-60.5 -83h-97z" />
    <glyph glyph-name="upsilontonos" unicode="&#x3cd;" 
d="M399 -19q-150 0 -227.5 78.5t-77.5 220.5q0 44 8 98.5t24 132.5l124 585h157l-126 -591q-15 -70 -23 -120.5t-8 -91.5q0 -90 43.5 -134t118.5 -44q79 0 137 49t99 132t67 186.5t40.5 214t21 214t6.5 185.5h156q-1 -147 -15 -302.5t-47.5 -300.5t-94.5 -260.5
t-154.5 -183.5t-228.5 -68zM546 1241l2 25q19 34 42.5 80t47.5 96.5t45 98.5t35 84h164l-2 -24q-14 -29 -42.5 -75.5t-64 -99.5t-70 -102t-60.5 -83h-97z" />
    <glyph glyph-name="omegatonos" unicode="&#x3ce;" horiz-adv-x="1249" 
d="M293 -20q-112 0 -170.5 84.5t-58.5 233.5q0 127 32 265t89.5 274t132.5 259h161q-71 -122 -129.5 -257.5t-93 -273t-34.5 -266.5q0 -99 30.5 -140.5t77.5 -41.5q72 0 116 75.5t76 228.5l59 281h155l-60 -270q-8 -40 -13.5 -73.5t-8.5 -61t-3 -49.5q0 -64 24.5 -97.5
t70.5 -33.5q57 0 101.5 49t77.5 129.5t54.5 176.5t31.5 192t10 174q0 73 -4 137.5t-13 120.5h155q9 -54 14.5 -120.5t5.5 -135.5q0 -96 -14 -211t-45 -229.5t-82 -209t-125 -152.5t-174 -58q-59 0 -99.5 22.5t-64 62t-31.5 90.5q-44 -86 -104.5 -130.5t-146.5 -44.5z
M674 1241l2 25q19 34 42.5 80t47.5 96.5t45 98.5t35 84h164l-2 -24q-14 -29 -42.5 -75.5t-64 -99.5t-70 -102t-60.5 -83h-97z" />
    <glyph glyph-name="uni03D1" unicode="&#x3d1;" horiz-adv-x="1046" 
d="M349 -20q-88 0 -149.5 29.5t-94 85.5t-32.5 135q0 71 19 138.5t44 133.5q17 50 31.5 94t14.5 80q0 28 -13.5 43t-36.5 15q-19 0 -42.5 -7t-43.5 -18l5 128q28 12 63 21t76 9q70 0 109.5 -41.5t39.5 -113.5q0 -51 -16.5 -107t-37.5 -115q-22 -61 -38 -122.5t-16 -120.5
q0 -63 32 -99.5t101 -36.5q70 0 127 40t103 110.5t81.5 163t62 199t45.5 216.5q-145 2 -247.5 45t-155.5 124.5t-53 197.5q0 102 40 185t114 132.5t177 49.5q108 0 177 -50.5t102.5 -147t33.5 -234.5q0 -42 -2.5 -86.5t-7.5 -88.5h130l-27 -129h-124q-22 -135 -56 -262
t-82.5 -235t-113.5 -189t-149 -126.5t-190 -45.5zM801 967q6 44 9 88.5t3 85.5q0 147 -38.5 224.5t-120.5 77.5q-56 0 -94 -32.5t-57.5 -85.5t-19.5 -114q0 -87 38 -140.5t109.5 -78t170.5 -25.5z" />
    <glyph glyph-name="uni03D2" unicode="&#x3d2;" horiz-adv-x="873" 
d="M228 0l119 556l-166 906h163l115 -719q42 87 85.5 173t85.5 164.5t79.5 143t65.5 107.5q49 73 95 108.5t117 35.5q26 0 50.5 -5t42.5 -12l-28 -132q-12 4 -24 7t-27 3q-32 0 -61.5 -25.5t-71.5 -91.5q-30 -51 -70 -122t-87.5 -158.5t-99.5 -187t-107 -206.5l-115 -545
h-161z" />
    <glyph glyph-name="uni03D6" unicode="&#x3d6;" horiz-adv-x="1331" 
d="M333 -20q-110 0 -171.5 79t-61.5 234q0 106 26.5 222t73 230.5t106.5 215.5h-208l14 68l150 67h1140l-30 -135h-188q8 -43 12.5 -91t4.5 -100q0 -96 -15.5 -204t-47 -211.5t-81.5 -188t-119.5 -135.5t-160.5 -51q-89 0 -137 48t-58 136q-43 -89 -102 -136.5t-147 -47.5z
M364 117q53 0 89 41t60.5 109.5t43.5 152.5l43 205h152l-39 -192q-8 -38 -14 -71t-9.5 -62t-3.5 -53q0 -64 24.5 -97t69.5 -33q50 0 91.5 43t73.5 114t54.5 157.5t34 176t11.5 168.5q0 47 -4 95t-10 90h-564q-58 -102 -105 -215t-74.5 -228t-27.5 -225q0 -89 28 -132.5
t76 -43.5z" />
    <glyph glyph-name="uni0400" unicode="&#x400;" horiz-adv-x="901" 
d="M43 0l310 1462h632l-31 -143h-471l-103 -483h442l-30 -142h-442l-117 -550h472l-30 -144h-632zM692 1615q-33 38 -72.5 94t-74 113.5t-52.5 100.5v19h174q14 -49 33.5 -101t42.5 -103t47 -100l-1 -23h-97z" />
    <glyph glyph-name="uni0401" unicode="&#x401;" horiz-adv-x="901" 
d="M43 0l310 1462h632l-31 -143h-471l-103 -483h442l-30 -142h-442l-117 -550h472l-30 -144h-632zM866 1649q-34 0 -54.5 19.5t-20.5 57.5q0 47 27 83.5t77 36.5q35 0 53 -19t18 -53q0 -55 -29.5 -90t-70.5 -35zM532 1649q-34 0 -54 19.5t-20 57.5q0 47 26.5 83.5t75.5 36.5
q24 0 39 -8.5t23 -24.5t8 -39q0 -55 -28.5 -90t-69.5 -35z" />
    <glyph glyph-name="uni0402" unicode="&#x402;" horiz-adv-x="1144" 
d="M638 -20q-38 0 -74 6.5t-61 15.5l14 142q23 -10 51 -15.5t58 -5.5q60 0 97 26.5t59 74t34 111.5l34 159q6 28 9.5 57.5t3.5 56.5q0 71 -41.5 106t-134.5 35h-203l-160 -749h-160l281 1318h-270l31 144h761l-32 -144h-330l-91 -424h192q161 0 239 -67.5t78 -196.5
q0 -31 -4 -72t-12 -78l-37 -177q-21 -106 -62.5 -178t-107.5 -108.5t-162 -36.5z" />
    <glyph glyph-name="uni0403" unicode="&#x403;" horiz-adv-x="816" 
d="M43 0l310 1462h618l-30 -144h-459l-279 -1318h-160zM564 1613l1 22q42 47 84.5 100.5t81 107t65.5 98.5h183l-1 -18q-21 -29 -59.5 -70.5t-84 -87t-90.5 -85.5t-80 -67h-100z" />
    <glyph glyph-name="uni0404" unicode="&#x404;" horiz-adv-x="1015" 
d="M539 -20q-142 0 -237 61.5t-142 177.5t-47 280q0 135 29.5 274t87.5 266.5t143.5 227.5t199 158.5t253.5 58.5q88 0 161.5 -19t132.5 -57l-74 -132q-46 29 -99.5 46.5t-120.5 17.5q-98 0 -178.5 -42t-142.5 -114t-106 -162t-70 -187h512l-29 -143h-515q-8 -48 -12 -96
t-4 -93q0 -120 31 -205t95 -130t161 -45q45 0 89 7t87.5 20t85.5 28v-142q-43 -18 -90 -30.5t-97 -19t-104 -6.5z" />
    <glyph glyph-name="uni0405" unicode="&#x405;" horiz-adv-x="897" 
d="M305 -20q-98 0 -174.5 16.5t-134.5 48.5l9 164q58 -34 134.5 -58.5t169.5 -24.5q63 0 118 17t96.5 51.5t65 87t23.5 121.5q0 58 -19.5 102.5t-63.5 89t-120 101.5q-65 51 -115 102t-78.5 115.5t-28.5 152.5q0 98 33.5 175.5t94 131.5t141.5 82t176 28q94 0 174 -22
t142 -58l-69 -141q-51 31 -116.5 53t-136.5 22q-57 0 -106 -17t-85.5 -50t-57.5 -80.5t-21 -109.5q0 -63 22 -108t65 -86t108 -92q71 -52 122 -105t79 -118t28 -155q0 -103 -33 -183.5t-95.5 -137t-150 -86t-196.5 -29.5z" />
    <glyph glyph-name="uni0406" unicode="&#x406;" horiz-adv-x="488" 
d="M43 0l311 1462h158l-310 -1462h-159z" />
    <glyph glyph-name="uni0407" unicode="&#x407;" horiz-adv-x="488" 
d="M43 0l311 1462h158l-310 -1462h-159zM650 1670q-34 0 -54.5 19.5t-20.5 57.5q0 47 27 83.5t77 36.5q35 0 53 -19t18 -53q0 -55 -29.5 -90t-70.5 -35zM316 1670q-34 0 -54 19.5t-20 57.5q0 47 26.5 83.5t75.5 36.5q24 0 39 -8.5t23 -24.5t8 -39q0 -55 -28.5 -90t-69.5 -35
z" />
    <glyph glyph-name="uni0408" unicode="&#x408;" horiz-adv-x="477" 
d="M-166 -387q-46 0 -83 7t-62 17l20 142q28 -10 58.5 -16t63.5 -6q56 0 97.5 27.5t70.5 82.5t47 137l309 1458h160l-313 -1481q-28 -130 -78 -211t-122.5 -119t-167.5 -38z" />
    <glyph glyph-name="uni0409" unicode="&#x409;" horiz-adv-x="1565" 
d="M11 -17q-32 0 -59 5t-47 13v143q19 -7 41.5 -13t45.5 -6q49 0 86.5 23t72 83t73.5 171q31 84 68.5 203t79 260t85 293.5t86.5 303.5h575l-131 -621h85q138 0 223 -42t124 -118t39 -179q0 -111 -34 -203.5t-100 -159t-163.5 -103t-224.5 -36.5h-287l277 1314h-268
q-34 -122 -73 -258t-78 -268.5t-75 -245.5t-64 -191q-44 -125 -91 -206.5t-110 -121.5t-156 -40zM838 140h122q85 0 147.5 25.5t104 72t62 110.5t20.5 143q0 113 -61 161t-176 48h-99z" />
    <glyph glyph-name="uni040A" unicode="&#x40a;" horiz-adv-x="1568" 
d="M44 0l309 1462h160l-133 -622h450l133 622h160l-131 -620h80q138 0 224 -42.5t125.5 -119.5t39.5 -180q0 -119 -36.5 -212t-105 -157t-165 -97.5t-217.5 -33.5h-282l146 697h-450l-147 -697h-160zM844 140h121q107 0 180.5 41t112 119t38.5 189q0 113 -62 161.5
t-180 48.5h-89z" />
    <glyph glyph-name="uni040B" unicode="&#x40b;" horiz-adv-x="1152" 
d="M169 0l280 1318h-270l30 144h761l-30 -144h-331l-90 -424h197q158 0 232.5 -68t74.5 -197q0 -35 -5.5 -74.5t-13.5 -79.5l-101 -475h-160l105 488q8 32 11 63.5t3 57.5q0 74 -42 107t-132 33h-200l-159 -749h-160z" />
    <glyph glyph-name="uni040C" unicode="&#x40c;" horiz-adv-x="975" 
d="M44 0l309 1462h160l-150 -706l599 706h187l-624 -721l345 -741h-178l-333 737l-155 -737h-160zM625 1613l1 22q42 47 84.5 100.5t81 107t65.5 98.5h183l-1 -18q-21 -29 -59.5 -70.5t-84 -87t-90.5 -85.5t-80 -67h-100z" />
    <glyph glyph-name="uni040D" unicode="&#x40d;" horiz-adv-x="1238" 
d="M43 0l310 1462h154l-160 -753q-15 -71 -32 -150t-34 -153.5t-33 -132.5h5l825 1189h187l-310 -1462h-153l157 748q18 79 36.5 163.5t36 161t33.5 130.5h-5l-828 -1203h-189zM842 1615q-33 38 -72.5 94t-74 113.5t-52.5 100.5v19h174q14 -49 33.5 -101t42.5 -103t47 -100
l-1 -23h-97z" />
    <glyph glyph-name="uni040E" unicode="&#x40e;" horiz-adv-x="938" 
d="M96 -19q-41 0 -78 7.5t-61 17.5v151q28 -14 62 -22.5t68 -8.5q44 0 80 15t69 49t68.5 91t79.5 140l-191 1041h162l109 -643q7 -39 13.5 -82t12.5 -83.5t10 -74.5q22 53 47 109t55 112l348 662h175l-612 -1134q-64 -117 -126 -193.5t-132 -115t-159 -38.5zM684 1610
q-93 0 -153.5 28t-89.5 80.5t-29 122.5q0 17 2.5 37.5t5.5 34.5h134q-2 -16 -4 -32.5t-2 -33.5q0 -60 34 -93.5t111 -33.5q85 0 136.5 45.5t72.5 147.5h142q-20 -98 -65 -166t-117.5 -102.5t-177.5 -34.5z" />
    <glyph glyph-name="uni040F" unicode="&#x40f;" horiz-adv-x="1179" 
d="M313 -383l82 383h-350l310 1462h161l-281 -1318h532l280 1318h160l-310 -1462h-348l-81 -383h-155z" />
    <glyph glyph-name="uni0410" unicode="&#x410;" horiz-adv-x="979" 
d="M-124 0l706 1465h185l95 -1465h-162l-28 472h-399l-222 -472h-175zM339 617h327l-15 432q-4 62 -7 128t-2 119h-6q-21 -55 -47.5 -118t-59.5 -132z" />
    <glyph glyph-name="uni0411" unicode="&#x411;" horiz-adv-x="991" 
d="M44 0l309 1462h650l-30 -144h-489l-101 -477h114q138 0 223.5 -42t124.5 -119t39 -181q0 -119 -36 -211.5t-104.5 -156.5t-165.5 -97.5t-219 -33.5h-315zM233 140h155q107 0 181 41t112 119t38 189q0 114 -63 162.5t-179 48.5h-124z" />
    <glyph glyph-name="uni0412" unicode="&#x412;" horiz-adv-x="1049" 
d="M44 0l309 1462h320q113 0 196 -33.5t128.5 -101t45.5 -171.5q0 -96 -35 -176.5t-103 -136t-167 -77.5v-8q91 -25 145 -99t54 -184q0 -143 -62 -250t-176 -166t-271 -59h-384zM234 140h199q111 0 185.5 43t113 118.5t38.5 174.5q0 104 -58.5 162.5t-178.5 58.5h-182z
M380 833h184q93 0 163 37.5t109 106t39 157.5q0 93 -54.5 141t-173.5 48h-163z" />
    <glyph glyph-name="uni0413" unicode="&#x413;" horiz-adv-x="816" 
d="M43 0l310 1462h618l-30 -144h-459l-279 -1318h-160z" />
    <glyph glyph-name="uni0414" unicode="&#x414;" horiz-adv-x="1110" 
d="M-180 -383l112 528h92q83 129 165.5 287.5t157.5 332t136 351.5t100 346h539l-280 -1317h151l-112 -528h-156l82 383h-753l-81 -383h-153zM200 145h481l251 1173h-232q-37 -144 -94 -304t-125 -319t-140.5 -301t-140.5 -249z" />
    <glyph glyph-name="uni0415" unicode="&#x415;" horiz-adv-x="901" 
d="M43 0l310 1462h632l-31 -143h-471l-103 -483h442l-30 -142h-442l-117 -550h472l-30 -144h-632z" />
    <glyph glyph-name="uni0416" unicode="&#x416;" horiz-adv-x="1361" 
d="M-117 0l596 766l-278 696h169l272 -700l149 700h156l-149 -699l556 699h183l-582 -722l283 -740h-174l-270 739l-157 -739h-155l156 739l-568 -739h-187z" />
    <glyph glyph-name="uni0417" unicode="&#x417;" horiz-adv-x="942" 
d="M300 -20q-103 0 -182 16.5t-144 49.5v161q60 -39 145.5 -64t179.5 -25q91 0 158 26t111 71.5t65 106t21 129.5q0 123 -71.5 180.5t-201.5 57.5h-159l29 138h153q104 0 187 38.5t131 111.5t48 177q0 93 -52.5 141.5t-147.5 48.5q-83 0 -154 -29t-139 -77l-65 119
q86 61 179 93.5t210 32.5q105 0 179.5 -38t114 -107t39.5 -163q0 -106 -42 -192t-119.5 -143t-182.5 -79l-1 -5q67 -15 119.5 -53.5t82.5 -102t30 -152.5q0 -98 -34 -183t-100 -149t-163 -100t-224 -36z" />
    <glyph glyph-name="uni0418" unicode="&#x418;" horiz-adv-x="1238" 
d="M43 0l310 1462h154l-160 -753q-15 -71 -32 -150t-34 -153.5t-33 -132.5h5l825 1189h187l-310 -1462h-153l157 748q18 79 36.5 163.5t36 161t33.5 130.5h-5l-828 -1203h-189z" />
    <glyph glyph-name="uni0419" unicode="&#x419;" horiz-adv-x="1238" 
d="M43 0l310 1462h154l-160 -753q-15 -71 -32 -150t-34 -153.5t-33 -132.5h5l825 1189h187l-310 -1462h-153l157 748q18 79 36.5 163.5t36 161t33.5 130.5h-5l-828 -1203h-189zM839 1610q-93 0 -153.5 28t-89.5 80.5t-29 122.5q0 17 2.5 37.5t5.5 34.5h134q-2 -16 -4 -32.5
t-2 -33.5q0 -60 34 -93.5t111 -33.5q85 0 136.5 45.5t72.5 147.5h142q-20 -98 -65 -166t-117.5 -102.5t-177.5 -34.5z" />
    <glyph glyph-name="uni041A" unicode="&#x41a;" horiz-adv-x="975" 
d="M44 0l309 1462h160l-150 -706l599 706h187l-624 -721l345 -741h-178l-333 737l-155 -737h-160z" />
    <glyph glyph-name="uni041B" unicode="&#x41b;" horiz-adv-x="1124" 
d="M18 -17q-33 0 -61 5t-48 13v143q19 -7 42 -13t48 -6q46 0 82.5 22t68.5 74.5t65 141.5q33 90 73.5 217.5t84.5 276.5t89 304.5t86 300.5h615l-311 -1462h-161l281 1314h-311q-26 -94 -57 -203.5t-63.5 -222t-65.5 -220t-63 -201t-56 -161.5q-40 -103 -84 -175.5
t-104.5 -110t-149.5 -37.5z" />
    <glyph glyph-name="uni041C" unicode="&#x41c;" horiz-adv-x="1513" 
d="M42 0l310 1462h226l99 -1215h6l610 1215h244l-307 -1462h-160l203 960q13 56 25 107.5t23 97t21 83.5h-4l-635 -1248h-143l-108 1247h-6q-6 -42 -14 -92t-17 -103t-20 -104l-200 -948h-153z" />
    <glyph glyph-name="uni041D" unicode="&#x41d;" horiz-adv-x="1186" 
d="M44 0l310 1462h160l-133 -625h538l133 625h159l-310 -1462h-159l146 693h-538l-146 -693h-160z" />
    <glyph glyph-name="uni041E" unicode="&#x41e;" horiz-adv-x="1240" 
d="M537 -20q-141 0 -235.5 58t-142.5 169.5t-48 270.5q0 117 19.5 236t57 232t94 210.5t130 171t165 115t199.5 41.5q201 0 308 -126.5t107 -366.5q0 -108 -17 -224.5t-52 -230t-88.5 -213.5t-126 -177t-165 -121.5t-205.5 -44.5zM545 124q79 0 145 38.5t119 105.5
t93.5 153.5t67.5 184t40.5 197t13.5 191.5q0 170 -68 258.5t-193 88.5q-81 0 -148.5 -39.5t-121.5 -107.5t-94 -155t-66.5 -184t-40 -193.5t-13.5 -182.5q0 -116 31 -195.5t90.5 -119.5t144.5 -40z" />
    <glyph glyph-name="uni041F" unicode="&#x41f;" horiz-adv-x="1179" 
d="M43 0l310 1462h852l-309 -1462h-161l279 1318h-532l-279 -1318h-160z" />
    <glyph glyph-name="uni0420" unicode="&#x420;" horiz-adv-x="987" 
d="M44 0l309 1462h270q132 0 216.5 -43t125.5 -121t41 -184q0 -121 -36.5 -220t-107.5 -169.5t-175.5 -109t-239.5 -38.5h-121l-122 -577h-160zM355 718h103q123 0 208 45.5t130 131.5t45 207q0 112 -60 166t-182 54h-115z" />
    <glyph glyph-name="uni0421" unicode="&#x421;" horiz-adv-x="992" 
d="M533 -20q-135 0 -229 60.5t-143 175.5t-49 280q0 128 28.5 266t85 266.5t141.5 231.5t199 163.5t256 60.5q87 0 159 -18.5t132 -57.5l-73 -132q-45 30 -99 47t-120 17q-110 0 -196.5 -54t-151.5 -143.5t-107.5 -199.5t-63.5 -224t-21 -215q0 -187 72.5 -284t211.5 -97
q65 0 129.5 15t128.5 39v-144q-66 -25 -136 -39t-154 -14z" />
    <glyph glyph-name="uni0422" unicode="&#x422;" horiz-adv-x="858" 
d="M225 0l280 1318h-331l32 144h821l-30 -144h-330l-280 -1318h-162z" />
    <glyph glyph-name="uni0423" unicode="&#x423;" horiz-adv-x="938" 
d="M96 -19q-41 0 -78 7.5t-61 17.5v151q28 -14 62 -22.5t68 -8.5q44 0 80 15t69 49t68.5 91t79.5 140l-191 1041h162l109 -643q7 -39 13.5 -82t12.5 -83.5t10 -74.5q22 53 47 109t55 112l348 662h175l-612 -1134q-64 -117 -126 -193.5t-132 -115t-159 -38.5z" />
    <glyph glyph-name="uni0424" unicode="&#x424;" horiz-adv-x="1344" 
d="M457 -20l49 225q-121 9 -208.5 59.5t-134 142.5t-46.5 225q0 141 39.5 261t117.5 210.5t194.5 142.5t271.5 57l36 180h161l-37 -180q120 -7 207 -57t134 -140.5t47 -221.5q0 -133 -39 -253.5t-116.5 -215t-194 -150.5t-272.5 -60l-49 -225h-160zM534 343l176 820
q-111 -1 -192 -45.5t-133.5 -119.5t-78 -168t-25.5 -192q0 -94 30 -158t87 -98t136 -39zM695 343q106 5 186.5 49.5t134.5 119t81 169t27 197.5q0 90 -30 152.5t-86.5 96.5t-139.5 36z" />
    <glyph glyph-name="uni0425" unicode="&#x425;" horiz-adv-x="908" 
d="M-114 0l520 772l-180 690h164l133 -559l368 559h173l-476 -704l188 -758h-169l-137 622l-410 -622h-174z" />
    <glyph glyph-name="uni0426" unicode="&#x426;" horiz-adv-x="1192" 
d="M795 -383l82 383h-830l310 1462h161l-280 -1317h521l278 1317h161l-278 -1317h144l-115 -528h-154z" />
    <glyph glyph-name="uni0427" unicode="&#x427;" horiz-adv-x="1123" 
d="M673 0l128 602q-67 -34 -153 -61t-177 -27q-90 0 -152 30.5t-93.5 89t-31.5 140.5q0 38 5 75t14 77l115 536h159l-111 -527q-9 -39 -13.5 -69.5t-4.5 -55.5q0 -75 39 -113t123 -38q82 0 162 24.5t148 56.5l152 722h161l-309 -1462h-161z" />
    <glyph glyph-name="uni0428" unicode="&#x428;" horiz-adv-x="1658" 
d="M42 0l310 1462h161l-281 -1317h430l279 1317h161l-279 -1317h428l279 1317h160l-310 -1462h-1338z" />
    <glyph glyph-name="uni0429" unicode="&#x429;" horiz-adv-x="1680" 
d="M1288 -383l81 383h-1327l310 1462h161l-281 -1317h430l279 1317h161l-279 -1317h428l280 1317h160l-280 -1317h145l-114 -528h-154z" />
    <glyph glyph-name="uni042A" unicode="&#x42a;" horiz-adv-x="1122" 
d="M181 0l278 1317h-293l31 145h453l-131 -621h108q139 0 224 -42t124.5 -118.5t39.5 -181.5q0 -118 -36.5 -210.5t-104 -156.5t-163 -98t-215.5 -34h-315zM370 140h147q108 0 182.5 41t112.5 119t38 189q0 114 -62 162.5t-174 48.5h-125z" />
    <glyph glyph-name="uni042B" unicode="&#x42b;" horiz-adv-x="1422" 
d="M44 0l308 1462h160l-131 -621h110q138 0 223 -41.5t124 -118t39 -180.5q0 -112 -34.5 -204t-101.5 -158.5t-164 -102.5t-222 -36h-311zM233 140h144q85 0 148 25.5t104.5 72t62 110.5t20.5 143q0 113 -62 161t-178 48h-120zM975 0l311 1462h159l-310 -1462h-160z" />
    <glyph glyph-name="uni042C" unicode="&#x42c;" horiz-adv-x="985" 
d="M44 0l308 1462h160l-131 -621h112q138 0 223 -42t124 -118t39 -180q0 -112 -34.5 -204t-101.5 -158.5t-164 -102.5t-222 -36h-313zM233 140h146q86 0 148.5 25.5t104 72t62 110.5t20.5 143q0 113 -62 161t-174 48h-126z" />
    <glyph glyph-name="uni042D" unicode="&#x42d;" horiz-adv-x="1017" 
d="M271 -20q-85 0 -152.5 15.5t-129.5 46.5v154q45 -22 90 -38t93.5 -25t102.5 -9q133 0 231.5 67t163.5 193.5t97 306.5h-519l31 144h508q4 33 6.5 68.5t2.5 73.5q0 113 -31 194t-93 125t-153 44q-73 0 -136 -17t-123 -44l-44 131q66 32 148 53t176 21q132 0 227 -58
t145.5 -171t50.5 -278q0 -141 -24 -283t-75 -270t-132 -228t-195.5 -158t-265.5 -58z" />
    <glyph glyph-name="uni042E" unicode="&#x42e;" horiz-adv-x="1659" 
d="M986 -20q-139 0 -227 59.5t-129.5 168t-41.5 254.5q0 50 5.5 108t16.5 123h-260l-147 -693h-160l310 1462h160l-133 -626h255q31 131 82.5 247.5t125.5 207t170 142t216 51.5q181 0 282.5 -122t101.5 -357q0 -107 -17 -224t-51 -232t-85.5 -217t-121.5 -181.5
t-157.5 -125t-194.5 -45.5zM993 124q77 0 140 43t113.5 116t87.5 165t62 192t37 195.5t12 174.5q0 163 -61 247t-176 84q-73 0 -135 -41t-112.5 -111.5t-89.5 -160t-65 -188.5t-39.5 -196t-13.5 -182q0 -104 25 -180.5t78 -117t137 -40.5z" />
    <glyph glyph-name="uni042F" unicode="&#x42f;" horiz-adv-x="1010" 
d="M-93 0l473 662q-78 38 -127.5 114t-49.5 199q0 116 36.5 206t105 153t163.5 95.5t211 32.5h314l-308 -1462h-162l130 614h-168l-429 -614h-189zM603 752h120l121 571h-135q-80 0 -143 -22.5t-107 -66.5t-67 -106.5t-23 -140.5q0 -111 58.5 -173t175.5 -62z" />
    <glyph glyph-name="uni0430" unicode="&#x430;" 
d="M330 -20q-79 0 -136.5 39t-88 115.5t-30.5 185.5q0 107 21 218.5t61.5 214.5t100.5 185t137 130t171 48q60 0 105.5 -23t76 -64t47.5 -93h8l54 160h126l-232 -1096h-126l23 186h-6q-41 -58 -89 -105t-103.5 -74t-119.5 -27zM380 114q74 0 136.5 56t110.5 148t76 199
q20 79 29.5 144t9.5 122q0 91 -43 144.5t-118 53.5q-62 0 -115.5 -40t-95.5 -108t-72 -153t-46 -177t-16 -179q0 -105 37 -157.5t107 -52.5z" />
    <glyph glyph-name="uni0431" unicode="&#x431;" horiz-adv-x="964" 
d="M396 -20q-100 0 -171.5 43.5t-110 132.5t-38.5 224q0 99 17 227t54.5 263t98 258.5t147 215.5t201.5 131q34 13 87.5 26.5t115.5 26.5t125 23t116 15l10 -136q-63 -7 -135.5 -19t-142 -28t-125.5 -36q-82 -29 -146.5 -97.5t-113 -168.5t-83.5 -225l7 -1q51 67 129 115
t171 48q89 0 148.5 -39.5t89.5 -115t30 -184.5q0 -122 -29 -245.5t-88 -226t-149.5 -165t-214.5 -62.5zM408 114q64 0 114.5 36.5t86.5 96.5t60 133t35.5 147.5t11.5 138.5q0 101 -35 160t-116 59q-59 0 -114 -29t-101.5 -76.5t-78.5 -102.5q-17 -82 -27 -159t-10 -143
q0 -82 18 -140.5t56.5 -89.5t99.5 -31z" />
    <glyph glyph-name="uni0432" unicode="&#x432;" horiz-adv-x="975" 
d="M435 -20q-119 0 -199 46t-120.5 133.5t-40.5 213.5q0 105 20.5 211t62.5 201.5t106.5 169.5t152 117t198.5 43q97 0 165.5 -29.5t105 -86.5t36.5 -140q0 -82 -33 -142.5t-93.5 -99.5t-141.5 -56l-1 -5q82 -19 132.5 -74.5t50.5 -158.5q0 -85 -42 -163.5t-130.5 -129
t-228.5 -50.5zM450 108q78 0 130 30t78 79.5t26 106.5q0 54 -24 91.5t-73.5 57.5t-127.5 20h-215q-3 -25 -6 -56t-3 -64q0 -142 57.5 -203.5t157.5 -61.5zM265 619h191q84 0 153.5 24t111.5 74t42 128q0 63 -37.5 102t-119.5 39q-83 0 -150 -43t-115 -125t-76 -199z" />
    <glyph glyph-name="uni0433" unicode="&#x433;" horiz-adv-x="785" 
d="M328 -20q-86 0 -154.5 27.5t-109 85t-40.5 147.5q0 77 25 135.5t69 102.5t101.5 79t121.5 64q74 35 130.5 69t88.5 76.5t32 102.5q0 53 -32.5 83t-102.5 30q-66 0 -125.5 -19.5t-110.5 -44.5l-43 123q63 30 137.5 52t161.5 22q84 0 145 -26.5t94.5 -79.5t33.5 -133
q0 -69 -23.5 -122.5t-65.5 -94.5t-96 -74t-115 -61q-90 -44 -149 -81t-88 -82t-29 -109q0 -66 43.5 -102t126.5 -36q47 0 91 10t85.5 27t79.5 37v-141q-60 -30 -130 -48.5t-152 -18.5z" />
    <glyph glyph-name="uni0434" unicode="&#x434;" horiz-adv-x="997" 
d="M391 -20q-104 0 -174 44.5t-105.5 126.5t-35.5 192q0 89 17.5 186.5t53.5 190t91.5 167t131 119t172.5 44.5q63 0 109 -19t78 -51t52 -68h5q2 25 2.5 53.5t0.5 50.5q0 217 -58 322t-179 105q-47 0 -96.5 -12.5t-92.5 -34.5l-40 123q50 25 117.5 41t132.5 16
q132 0 214 -66t121 -192t39 -305q0 -102 -12.5 -217t-39.5 -231t-70 -221t-104.5 -187t-143.5 -129.5t-186 -47.5zM403 113q61 0 112 37t92 100.5t71.5 144.5t51.5 171.5t32 179.5q-17 51 -46.5 90.5t-69.5 63t-91 23.5q-59 0 -108.5 -35t-88.5 -94t-66 -133.5t-41.5 -156
t-14.5 -159.5q0 -110 40.5 -171t126.5 -61z" />
    <glyph glyph-name="uni0435" unicode="&#x435;" horiz-adv-x="895" 
d="M414 -20q-105 0 -181 44t-116.5 127.5t-40.5 201.5q0 149 37 286t105 245t161.5 170t206.5 62q125 0 193 -61.5t68 -175.5q0 -86 -36.5 -158t-108.5 -124t-180 -80.5t-252 -28.5h-26q-4 -29 -7 -61t-3 -62q0 -125 53 -189.5t159 -64.5q67 0 125.5 18.5t125.5 53.5v-134
q-62 -33 -129.5 -51t-153.5 -18zM267 613h15q127 0 219.5 29t143.5 86t51 140q0 53 -30.5 85t-94.5 32q-62 0 -121.5 -46t-107 -129.5t-75.5 -196.5z" />
    <glyph glyph-name="uni0436" unicode="&#x436;" horiz-adv-x="1464" 
d="M32 -18q-23 0 -48.5 3t-47.5 9l29 132q14 -5 32 -7.5t39 -2.5q69 0 124 41t96 109t68 150.5t40 167t13 156.5q0 115 -40.5 178t-125.5 63q-20 0 -39.5 -2.5t-38.5 -7.5v131q21 5 48.5 8.5t56.5 3.5q145 0 220 -93.5t75 -271.5q0 -30 -2 -63.5t-7 -66.5h150l103 477h146
l-102 -477h146q20 90 57 178t93.5 159.5t135 114.5t180.5 43q26 0 51 -2.5t50 -8.5l-32 -132q-15 5 -33 7t-38 2q-68 0 -122.5 -40t-95 -106.5t-67.5 -148.5t-40.5 -167.5t-13.5 -161.5q0 -114 39 -177.5t127 -63.5q23 0 41 2.5t37 7.5v-131q-20 -4 -47.5 -8t-56.5 -4
q-97 0 -163.5 42t-100.5 123.5t-34 199.5q0 34 3 71t8 75h-151l-103 -493h-148l106 493h-145q-24 -106 -65 -198.5t-99.5 -163t-135 -110t-172.5 -39.5z" />
    <glyph glyph-name="uni0437" unicode="&#x437;" horiz-adv-x="770" 
d="M244 -20q-79 0 -149.5 17t-118.5 46v149q51 -33 119 -56.5t149 -23.5q79 0 134.5 29t85 81.5t29.5 121.5q0 78 -41.5 121.5t-137.5 43.5h-114l29 130h87q66 0 122.5 23t91 70t34.5 116q0 65 -36.5 100t-108.5 35q-56 0 -107 -14.5t-109 -42.5l-45 121q69 35 137 52
t150 17q88 0 149.5 -28.5t93.5 -83t32 -132.5q0 -73 -27.5 -132.5t-79 -100t-123.5 -59.5l-1 -6q75 -20 117 -78.5t42 -150.5q0 -104 -46.5 -186.5t-136.5 -130.5t-221 -48z" />
    <glyph glyph-name="uni0438" unicode="&#x438;" 
d="M316 -20q-73 0 -125.5 27.5t-80.5 81t-28 131.5q0 41 7 87.5t16 91.5l150 697h157l-149 -698q-9 -44 -15 -83t-6 -72q0 -60 29.5 -93.5t92.5 -33.5q69 0 134 48t118.5 147t85.5 249l113 536h155l-231 -1096h-128l21 177h-8q-33 -52 -79 -96.5t-103 -72.5t-126 -28z" />
    <glyph glyph-name="uni0439" unicode="&#x439;" 
d="M316 -20q-73 0 -125.5 27.5t-80.5 81t-28 131.5q0 41 7 87.5t16 91.5l150 697h157l-149 -698q-9 -44 -15 -83t-6 -72q0 -60 29.5 -93.5t92.5 -33.5q69 0 134 48t118.5 147t85.5 249l113 536h155l-231 -1096h-128l21 177h-8q-33 -52 -79 -96.5t-103 -72.5t-126 -28z
M642 1237q-93 0 -153.5 28t-89.5 80.5t-29 122.5q0 17 2.5 37.5t5.5 34.5h134q-2 -16 -4 -32.5t-2 -33.5q0 -60 34 -93.5t111 -33.5q85 0 136.5 45.5t72.5 147.5h142q-20 -98 -65 -166t-117.5 -102.5t-177.5 -34.5z" />
    <glyph glyph-name="uni043A" unicode="&#x43a;" horiz-adv-x="846" 
d="M30 0l232 1096h156l-112 -521l448 521h187l-472 -534l275 -562h-178l-263 556l-116 -556h-157z" />
    <glyph glyph-name="uni043B" unicode="&#x43b;" horiz-adv-x="941" 
d="M-17 -12q-25 0 -44.5 4t-33.5 9v137q13 -6 28.5 -9t33.5 -3q41 1 75 22.5t63 70.5t58 132.5t61 207.5q38 138 77 241t90.5 170.5t125.5 101t182 33.5q60 0 114.5 -6.5t106.5 -17.5l-230 -1081h-158l207 962q-13 3 -30 5t-38 2q-79 0 -129.5 -44t-90 -144t-87.5 -270
q-37 -134 -73 -232.5t-78 -163t-97.5 -96t-132.5 -31.5z" />
    <glyph glyph-name="uni043C" unicode="&#x43c;" horiz-adv-x="1224" 
d="M31 0l233 1095h207l62 -881h4l436 881h219l-231 -1095h-147l135 629q16 69 31.5 135.5t31.5 129.5h-4l-450 -894h-129l-71 893h-4q-9 -56 -21 -121t-26 -130l-134 -642h-142z" />
    <glyph glyph-name="uni043D" unicode="&#x43d;" horiz-adv-x="1032" 
d="M30 0l233 1096h156l-96 -461h419l97 461h156l-231 -1096h-157l106 502h-420l-106 -502h-157z" />
    <glyph glyph-name="uni043E" unicode="&#x43e;" horiz-adv-x="988" 
d="M407 -18q-104 0 -178 44.5t-113.5 128.5t-39.5 202q0 93 19.5 196.5t58.5 203t99.5 180.5t143 129t187.5 48q104 0 177.5 -45t113 -129.5t39.5 -203.5q0 -101 -20 -207t-60.5 -204t-101.5 -175t-142 -122.5t-183 -45.5zM419 116q60 0 111.5 35.5t92.5 97.5t70 142.5
t44.5 171.5t15.5 184q0 65 -18 118t-57 84.5t-102 31.5q-66 0 -120 -39t-95.5 -105t-69 -148t-42 -169.5t-14.5 -167.5q0 -113 47.5 -174.5t136.5 -61.5z" />
    <glyph glyph-name="uni043F" unicode="&#x43f;" horiz-adv-x="1005" 
d="M26 0l233 1099h134l-24 -180h4q34 53 79 98.5t103 73.5t129 28t124.5 -27t83 -80t29.5 -132q0 -44 -8 -96t-18 -98l-147 -686h-162l146 688q10 48 17.5 90.5t7.5 77.5q0 59 -30.5 89.5t-90.5 30.5q-68 0 -132 -47.5t-116.5 -144.5t-84.5 -247l-114 -537h-163z" />
    <glyph glyph-name="uni0440" unicode="&#x440;" horiz-adv-x="1014" 
d="M-70 -483l333 1579h129l-25 -187h7q42 61 89.5 107.5t103 72.5t119.5 26q79 0 136 -38t88 -113.5t31 -188.5q0 -106 -20.5 -218t-60.5 -214.5t-99 -184.5t-136.5 -130t-172.5 -48q-62 0 -108.5 23.5t-77.5 63.5t-48 89h-7q-6 -44 -14.5 -100t-18.5 -98l-94 -441h-154z
M438 114q64 0 117 40.5t95 109.5t71 155t44.5 177.5t15.5 176.5q0 106 -37 158t-110 52q-50 0 -96.5 -30t-86.5 -82.5t-73.5 -119.5t-57 -142.5t-36.5 -151t-13 -143.5q0 -93 41.5 -146.5t125.5 -53.5z" />
    </font>
</defs>
</svg>
