<?xml version="1.0" standalone="no"?>
<!DOCTYPE svg PUBLIC "-//W3C//DTD SVG 1.1//EN" "http://www.w3.org/Graphics/SVG/1.1/DTD/svg11.dtd" >
<svg xmlns="http://www.w3.org/2000/svg" xmlns:xlink="http://www.w3.org/1999/xlink" version="1.1">
<metadata>
Created by FontForge 20170731 at Wed Feb 10 17:54:38 2021
 By Aleksey,,,
Copyright 2020 The Open Sans Project Authors (https://github.com/googlefonts/opensans)
</metadata>
<defs>
<font id="OpenSansSemiCondensed-Light" horiz-adv-x="0" >
  <font-face 
    font-family="Open Sans SemiCondensed Light"
    font-weight="300"
    font-stretch="semi-condensed"
    units-per-em="2048"
    panose-1="0 0 0 0 0 0 0 0 0 0"
    ascent="1638"
    descent="-410"
    x-height="1087"
    cap-height="1462"
    bbox="-1045 -530 2043 2128"
    underline-thickness="50"
    underline-position="-175"
    unicode-range="U+000D-FFFD"
  />
<missing-glyph horiz-adv-x="1229" 
 />
    <glyph glyph-name="f_f" unicode="ff" horiz-adv-x="1080" 
d="M502 1003h-210v-1003h-98v1003h-171v60l171 27v121q0 119 27 198t86.5 118.5t154.5 39.5q48 0 87.5 -8t73.5 -21l-26 -82q-30 12 -64 18.5t-67 6.5q-94 0 -134 -62.5t-40 -210.5v-121h210v-84zM1042 1003h-210v-1003h-98v1003h-171v60l171 27v121q0 119 27 198
t86.5 118.5t154.5 39.5q48 0 87.5 -8t73.5 -21l-26 -82q-30 12 -64 18.5t-67 6.5q-94 0 -134 -62.5t-40 -210.5v-121h210v-84z" />
    <glyph glyph-name="fi" unicode="fi" horiz-adv-x="959" 
d="M502 1003h-210v-1003h-98v1003h-171v60l171 27v121q0 119 27 198t86.5 118.5t154.5 39.5q48 0 87.5 -8t73.5 -21l-26 -82q-30 12 -64 18.5t-67 6.5q-94 0 -134 -62.5t-40 -210.5v-121h210v-84zM796 1087v-1087h-97v1087h97zM750 1492q36 0 53.5 -24t17.5 -61
q0 -39 -18.5 -62t-53.5 -23q-34 0 -52.5 23t-18.5 61t17.5 62t54.5 24z" />
    <glyph glyph-name="fl" unicode="fl" horiz-adv-x="953" 
d="M502 1003h-210v-1003h-98v1003h-171v60l171 27v121q0 119 27 198t86.5 118.5t154.5 39.5q48 0 87.5 -8t73.5 -21l-26 -82q-30 12 -64 18.5t-67 6.5q-94 0 -134 -62.5t-40 -210.5v-121h210v-84zM794 0h-99v1556h99v-1556z" />
    <glyph glyph-name="f_f_i" unicode="ffi" horiz-adv-x="1494" 
d="M502 1003h-210v-1003h-98v1003h-171v60l171 27v121q0 119 27 198t86.5 118.5t154.5 39.5q48 0 87.5 -8t73.5 -21l-26 -82q-30 12 -64 18.5t-67 6.5q-94 0 -134 -62.5t-40 -210.5v-121h210v-84zM1036 1003h-210v-1003h-98v1003h-171v60l171 27v121q0 119 27 198
t86.5 118.5t154.5 39.5q48 0 87.5 -8t73.5 -21l-26 -82q-30 12 -64 18.5t-67 6.5q-94 0 -134 -62.5t-40 -210.5v-121h210v-84zM1330 1087v-1087h-97v1087h97zM1284 1492q36 0 53.5 -24t17.5 -61q0 -39 -18.5 -62t-53.5 -23q-34 0 -52.5 23t-18.5 61t17.5 62t54.5 24z" />
    <glyph glyph-name="f_f_l" unicode="ffl" horiz-adv-x="1487" 
d="M502 1003h-210v-1003h-98v1003h-171v60l171 27v121q0 119 27 198t86.5 118.5t154.5 39.5q48 0 87.5 -8t73.5 -21l-26 -82q-30 12 -64 18.5t-67 6.5q-94 0 -134 -62.5t-40 -210.5v-121h210v-84zM1036 1003h-210v-1003h-98v1003h-171v60l171 27v121q0 119 27 198
t86.5 118.5t154.5 39.5q48 0 87.5 -8t73.5 -21l-26 -82q-30 12 -64 18.5t-67 6.5q-94 0 -134 -62.5t-40 -210.5v-121h210v-84zM1328 0h-99v1556h99v-1556z" />
    <glyph glyph-name=".notdef" horiz-adv-x="1229" 
 />
    <glyph glyph-name=".null" 
 />
    <glyph glyph-name="nonmarkingreturn" horiz-adv-x="682" 
 />
    <glyph glyph-name="NULL" 
 />
    <glyph glyph-name="NULL" 
 />
    <glyph glyph-name="CR" unicode="&#xd;" horiz-adv-x="458" 
 />
    <glyph glyph-name="space" unicode=" " horiz-adv-x="458" 
 />
    <glyph glyph-name="exclam" unicode="!" horiz-adv-x="460" 
d="M269 375h-76l-20 1087h117zM153 76q0 43 18.5 67.5t58.5 24.5q39 0 58.5 -23t19.5 -69t-20 -69.5t-58 -23.5q-40 0 -58.5 24.5t-18.5 68.5z" />
    <glyph glyph-name="quotedbl" unicode="&#x22;" horiz-adv-x="695" 
d="M247 1462l-20 -528h-71l-20 528h111zM560 1462l-20 -528h-71l-20 528h111z" />
    <glyph glyph-name="numbersign" unicode="#" horiz-adv-x="1110" 
d="M820 942l-61 -401h241v-82h-253l-73 -459h-83l73 459h-304l-72 -459h-81l69 459h-229v82h241l62 401h-241v81h254l68 439h83l-68 -439h304l68 439h81l-67 -439h231v-81h-243zM371 541h305l62 401h-304z" />
    <glyph glyph-name="dollar" unicode="$" horiz-adv-x="1002" 
d="M445 -119v178q-104 2 -192.5 20.5t-148.5 44.5v99q62 -29 155.5 -51.5t185.5 -23.5v559q-107 42 -184 89.5t-119 115.5t-42 167q0 102 44.5 176t122.5 116t178 48v136h75v-134q84 -2 160.5 -20.5t147.5 -53.5l-34 -84q-66 33 -135 50.5t-139 19.5v-556q116 -45 196.5 -93
t122.5 -112.5t42 -162.5q0 -150 -96.5 -240t-264.5 -107v-181h-75zM520 152q121 10 193.5 74.5t72.5 178.5q0 69 -29.5 116t-88.5 84t-148 73v-526zM445 806v525q-73 -6 -129.5 -36t-88.5 -83.5t-32 -128.5t30.5 -125t86.5 -85.5t133 -66.5z" />
    <glyph glyph-name="percent" unicode="%" horiz-adv-x="1448" 
d="M351 1483q125 0 188.5 -116t63.5 -341q0 -224 -64.5 -342.5t-187.5 -118.5t-186.5 119.5t-63.5 342.5q0 221 63.5 338.5t186.5 117.5zM351 1407q-80 0 -121.5 -95t-41.5 -286q0 -189 41 -285.5t122 -96.5q82 0 123.5 97t41.5 285t-40.5 284.5t-124.5 96.5zM1094 1462
l-651 -1462h-89l651 1462h89zM1096 898q123 0 187 -116t64 -341q0 -230 -65.5 -345t-186.5 -115q-118 0 -183.5 115.5t-65.5 345.5q0 226 64.5 341t185.5 115zM1096 822q-81 0 -122.5 -94.5t-41.5 -286.5q0 -188 41 -285t122 -97q84 0 124.5 98.5t40.5 283.5
q0 187 -40.5 284t-123.5 97z" />
    <glyph glyph-name="ampersand" unicode="&#x26;" horiz-adv-x="1160" 
d="M504 1484q81 0 142 -35t94.5 -102t33.5 -163q0 -137 -68.5 -231.5t-187.5 -168.5l352 -447q44 64 75 152.5t43 183.5h99q-16 -112 -56.5 -221.5t-98.5 -191.5l206 -260h-122l-146 188q-50 -60 -109 -107.5t-132.5 -74t-167.5 -26.5q-113 0 -195.5 46.5t-128 133.5
t-45.5 206q0 101 33 177t98 138.5t161 121.5q-50 67 -86 126t-56 121t-20 135q0 93 35 160t98.5 103t148.5 36zM438 735q-84 -51 -138 -103.5t-80 -115.5t-26 -147q0 -140 74 -219.5t199 -79.5q117 0 198.5 52.5t146.5 138.5zM502 1400q-87 0 -135.5 -58t-48.5 -158
q0 -89 39 -170t105 -163q111 64 164.5 145.5t53.5 187.5q0 101 -47 158.5t-131 57.5z" />
    <glyph glyph-name="quotesingle" unicode="'" horiz-adv-x="380" 
d="M247 1462l-19 -528h-72l-20 528h111z" />
    <glyph glyph-name="parenleft" unicode="(" horiz-adv-x="559" 
d="M93 565q0 174 34.5 335.5t100.5 304.5t162 260h98q-144 -185 -219 -414.5t-75 -484.5q0 -170 35 -328.5t100.5 -299.5t157.5 -262h-98q-93 114 -159 252.5t-101.5 298.5t-35.5 338z" />
    <glyph glyph-name="parenright" unicode=")" horiz-adv-x="559" 
d="M465 574q0 -172 -34 -335.5t-100 -307t-161 -255.5h-98q95 120 160.5 265t99.5 305.5t34 325.5q0 169 -34.5 327t-100.5 301t-159 265h98q95 -117 161 -258t100 -301t34 -332z" />
    <glyph glyph-name="asterisk" unicode="*" horiz-adv-x="934" 
d="M517 1556l-20 -337l314 108l19 -95l-310 -72l210 -272l-85 -53l-180 289l-179 -289l-84 52l210 273l-314 72l22 94l314 -107l-19 337h102z" />
    <glyph glyph-name="plus" unicode="+" horiz-adv-x="1005" 
d="M545 764h374v-85h-374v-433h-85v433h-375v85h375v437h85v-437z" />
    <glyph glyph-name="comma" unicode="," horiz-adv-x="419" 
d="M288 228l9 -25q-15 -73 -36.5 -153.5t-48 -161t-57.5 -153.5h-77q26 90 46.5 174.5t35.5 164.5t23 154h105z" />
    <glyph glyph-name="hyphen" unicode="-" horiz-adv-x="603" 
d="M68 507v96h468v-96h-468z" />
    <glyph glyph-name="period" unicode="." horiz-adv-x="447" 
d="M146 76q0 43 18.5 67.5t58.5 24.5t59.5 -23t19.5 -69t-20 -69.5t-59 -23.5t-58 24.5t-19 68.5z" />
    <glyph glyph-name="slash" unicode="/" horiz-adv-x="702" 
d="M672 1463l-537 -1464h-100l541 1464h96z" />
    <glyph glyph-name="zero" unicode="0" horiz-adv-x="1002" 
d="M896 734q0 -177 -22.5 -316t-70 -236.5t-122 -148t-178.5 -50.5q-132 0 -220.5 83.5t-133.5 250t-45 415.5q0 228 40 397t128 262t232 93q143 0 229.5 -92.5t124.5 -260.5t38 -397zM206 734q0 -214 31 -361.5t97 -224t170 -76.5q105 0 169 77t93.5 224.5t29.5 359.5
q0 204 -27 352t-91 228.5t-174 80.5t-175.5 -80.5t-94 -228.5t-28.5 -351z" />
    <glyph glyph-name="one" unicode="1" horiz-adv-x="1002" 
d="M607 0h-99v1099q0 51 0.5 93.5t1.5 80.5t3 77q-22 -25 -44.5 -45.5t-56.5 -48.5l-182 -151l-57 68l350 289h84v-1462z" />
    <glyph glyph-name="two" unicode="2" horiz-adv-x="1002" 
d="M883 0h-788v79l363 441q90 110 151 201t92.5 181.5t31.5 198.5q0 143 -72 217.5t-194 74.5q-80 0 -152 -28.5t-138 -81.5l-55 71q51 41 107 70t116.5 44t124.5 15q112 0 193.5 -45.5t126.5 -130.5t45 -203q0 -121 -36 -222t-102 -197.5t-156 -203.5l-320 -384v-5h662v-92
z" />
    <glyph glyph-name="three" unicode="3" horiz-adv-x="1002" 
d="M847 1129q0 -97 -36 -171t-98 -121.5t-140 -68.5v-7q145 -25 226 -117t81 -249q0 -122 -50 -215.5t-150 -146.5t-250 -53q-98 0 -183.5 18.5t-158.5 52.5v99q70 -35 159.5 -58.5t179.5 -23.5q175 0 262 89t87 240q0 114 -48 183.5t-134 101.5t-199 32h-121v88h124
q99 0 177.5 37.5t124 109t45.5 173.5q0 133 -76 203t-203 70q-64 0 -119 -14.5t-105 -42t-99 -64.5l-52 71q75 62 168 100t210 38q176 0 277 -94.5t101 -259.5z" />
    <glyph glyph-name="four" unicode="4" horiz-adv-x="1002" 
d="M976 359h-212v-359h-98v359h-626v82l619 1030h105v-1022h212v-90zM666 449v651q0 42 0.5 75t1.5 61.5t1.5 55.5t1.5 54h-5q-23 -49 -46 -94t-52 -93l-427 -710h525z" />
    <glyph glyph-name="five" unicode="5" horiz-adv-x="1002" 
d="M479 881q133 0 225.5 -51.5t140.5 -146.5t48 -227q0 -141 -54.5 -248.5t-157.5 -167t-251 -59.5q-95 0 -174 19t-134 51v102q58 -35 138 -59.5t168 -24.5q117 0 198 48.5t123 134.5t42 201q0 160 -81.5 250t-253.5 90q-71 0 -135.5 -11.5t-118.5 -28.5l-52 42l53 667h605
v-92h-519l-42 -520q41 11 100 21t132 10z" />
    <glyph glyph-name="six" unicode="6" horiz-adv-x="1002" 
d="M113 625q0 174 22.5 311.5t65.5 240t107.5 170.5t149.5 101.5t189 33.5q48 0 93 -6.5t78 -17.5v-90q-34 11 -77.5 18t-91.5 7q-140 0 -236 -78t-146.5 -232t-55.5 -381h6q21 48 62.5 95t106.5 77.5t156 30.5q117 0 197.5 -55.5t122 -156.5t41.5 -235q0 -145 -45 -253
t-130.5 -168t-206.5 -60q-103 0 -179.5 45t-127.5 130.5t-76 204.5t-25 268zM519 66q136 0 210 100.5t74 292.5q0 166 -66.5 262.5t-209.5 96.5q-97 0 -166 -43.5t-105.5 -114t-36.5 -150.5q0 -61 14 -137t47.5 -146t92 -115.5t146.5 -45.5z" />
    <glyph glyph-name="seven" unicode="7" horiz-adv-x="1002" 
d="M271 0l522 1370h-699v92h803v-75l-519 -1387h-107z" />
    <glyph glyph-name="eight" unicode="8" horiz-adv-x="1002" 
d="M502 1483q109 0 190.5 -41t126 -116t44.5 -179q0 -90 -35.5 -158t-98.5 -120t-147 -94q95 -47 167 -104t113 -131t41 -173q0 -117 -51 -204t-141.5 -135t-211.5 -48q-124 0 -214 47t-139.5 132.5t-49.5 198.5q0 104 39.5 181t109.5 134t160 100q-78 43 -138.5 95.5
t-95 121t-34.5 157.5q0 102 45.5 177t128 117t191.5 42zM195 357q0 -132 81.5 -211.5t219.5 -79.5q143 0 225.5 82t82.5 217q0 72 -30 132.5t-91.5 112.5t-153.5 97l-41 20q-87 -40 -153 -90.5t-103 -118t-37 -161.5zM501 1396q-119 0 -192.5 -67t-73.5 -186q0 -77 33 -135
t93 -103t141 -84q82 41 140.5 85.5t90 101.5t31.5 135q0 122 -70.5 187.5t-192.5 65.5z" />
    <glyph glyph-name="nine" unicode="9" horiz-adv-x="1002" 
d="M885 840q0 -175 -22.5 -313.5t-66 -241.5t-108 -171t-149.5 -101.5t-189 -33.5q-46 0 -96.5 6.5t-83.5 17.5v92q34 -12 81.5 -20.5t97.5 -8.5q143 0 238.5 82.5t145 237.5t53.5 373h-5q-21 -47 -63 -94.5t-107 -78.5t-156 -31q-117 0 -197.5 56t-121.5 157t-41 235
q0 145 45.5 253t131 167.5t207.5 59.5q103 0 179 -44.5t126 -129t75.5 -203t25.5 -266.5zM480 1394q-137 0 -211 -100.5t-74 -289.5q0 -167 66.5 -264.5t210.5 -97.5q96 0 164.5 44.5t105.5 116t37 152.5q0 59 -13.5 134t-46.5 144.5t-91.5 115t-147.5 45.5z" />
    <glyph glyph-name="colon" unicode=":" horiz-adv-x="447" 
d="M147 77q0 43 18 67.5t58 24.5q42 0 60.5 -24t18.5 -68t-19 -69t-60 -25t-58.5 25.5t-17.5 68.5zM147 1006q0 44 18.5 68.5t58.5 24.5t59 -23t19 -69q0 -45 -19.5 -69.5t-59.5 -24.5q-39 0 -57.5 25t-18.5 68z" />
    <glyph glyph-name="semicolon" unicode=";" horiz-adv-x="445" 
d="M285 228l10 -25q-16 -73 -37.5 -153.5t-48.5 -161t-57 -153.5h-77q28 99 47.5 182t34 158.5t24.5 152.5h104zM149 1007q0 43 18.5 67.5t57.5 24.5q42 0 60.5 -23.5t18.5 -68.5t-19.5 -69.5t-59.5 -24.5q-39 0 -57.5 25t-18.5 69z" />
    <glyph glyph-name="less" unicode="&#x3c;" horiz-adv-x="1005" 
d="M919 279l-834 426v63l834 420v-95l-721 -356l721 -364v-94z" />
    <glyph glyph-name="equal" unicode="=" horiz-adv-x="1005" 
d="M87 892v87h829v-87h-829zM87 466v85h829v-85h-829z" />
    <glyph glyph-name="greater" unicode="&#x3e;" horiz-adv-x="1005" 
d="M85 373l723 364l-723 356v95l834 -420v-63l-834 -426v94z" />
    <glyph glyph-name="question" unicode="?" horiz-adv-x="722" 
d="M238 375v43q0 86 12 146t42.5 110.5t86.5 106.5q61 61 102.5 112.5t63 109.5t21.5 138q0 127 -65 189.5t-175 62.5q-68 0 -126.5 -18t-116.5 -51l-38 82q66 36 135 56.5t150 20.5q154 0 244 -86.5t90 -254.5q0 -96 -27 -165t-74.5 -126.5t-109.5 -119.5
q-53 -54 -81.5 -100t-39 -97.5t-10.5 -123.5v-35h-84zM206 75q0 44 19 68.5t59 24.5q39 0 58.5 -22.5t19.5 -68.5t-20 -70t-59 -24t-58 24.5t-19 67.5z" />
    <glyph glyph-name="at" unicode="@" horiz-adv-x="1543" 
d="M1438 719q0 -109 -17.5 -200t-53.5 -156.5t-89 -101t-125 -35.5q-86 0 -134 55t-52 149h-6q-33 -106 -95 -155t-142 -49q-122 0 -189.5 95t-67.5 271q0 143 44.5 246.5t124.5 159.5t189 56q62 0 120.5 -11.5t100.5 -26.5l-16 -370q-1 -34 -3.5 -73.5t-2.5 -69.5
q0 -99 33 -148.5t98 -49.5q64 0 107.5 49t66.5 141.5t23 224.5q0 204 -65 352.5t-185 229.5t-286 80q-146 0 -260.5 -57.5t-195 -163t-122.5 -250.5t-42 -320q0 -214 63 -371.5t184 -243t297 -85.5q90 0 179 21.5t158 55.5v-86q-68 -33 -152.5 -52.5t-183.5 -19.5
q-202 0 -343 94.5t-215 269t-74 414.5q0 203 50.5 365t144 275.5t223.5 174t290 59.5q192 0 331.5 -93t214.5 -260t75 -390zM557 591q0 -139 45.5 -212.5t131.5 -73.5q91 0 143.5 87t62.5 272l15 292q-27 10 -60.5 15t-71.5 5q-81 0 -141 -47t-92.5 -133t-32.5 -205z" />
    <glyph glyph-name="A" unicode="A" horiz-adv-x="1030" 
d="M924 0l-162 524h-493l-165 -524h-104l463 1465h110l456 -1465h-105zM735 617l-166 559q-8 28 -17 60t-18 65t-18 65q-7 -33 -16 -64.5t-17.5 -63.5t-17.5 -62l-169 -559h439z" />
    <glyph glyph-name="B" unicode="B" horiz-adv-x="1101" 
d="M181 1462h350q224 0 330.5 -85t106.5 -264q0 -89 -28.5 -160t-83.5 -117t-135 -62v-6q97 -19 159.5 -64.5t93 -118.5t30.5 -172q0 -135 -53 -227t-150.5 -139t-230.5 -47h-389v1462zM282 812h258q168 0 246.5 73.5t78.5 220.5q0 138 -80.5 202.5t-262.5 64.5h-240v-561z
M282 723v-633h279q165 0 251.5 81.5t86.5 246.5q0 109 -41.5 176.5t-121 98t-192.5 30.5h-262z" />
    <glyph glyph-name="C" unicode="C" horiz-adv-x="1073" 
d="M708 1392q-121 0 -212.5 -51t-152 -141.5t-91 -210.5t-30.5 -256q0 -199 55.5 -348.5t162.5 -231.5t261 -82q88 0 160 17t129 41v-91q-58 -26 -132 -42t-166 -16q-183 0 -311.5 92.5t-196 262t-67.5 399.5q0 157 37.5 292.5t111.5 238.5t184.5 161t257.5 58
q84 0 161.5 -18.5t147.5 -53.5l-40 -87q-65 35 -132.5 51t-136.5 16z" />
    <glyph glyph-name="D" unicode="D" horiz-adv-x="1224" 
d="M1106 746q0 -245 -69.5 -411.5t-208 -250.5t-345.5 -84h-302v1462h328q198 0 330.5 -81t199.5 -240.5t67 -394.5zM1001 741q0 206 -53 347t-165 212.5t-288 71.5h-213v-1281h196q267 0 395 163.5t128 486.5z" />
    <glyph glyph-name="E" unicode="E" horiz-adv-x="964" 
d="M853 0h-672v1462h672v-91h-571v-557h538v-92h-538v-630h571v-92z" />
    <glyph glyph-name="F" unicode="F" horiz-adv-x="886" 
d="M282 0h-101v1462h673v-91h-572v-625h541v-91h-541v-655z" />
    <glyph glyph-name="G" unicode="G" horiz-adv-x="1283" 
d="M701 739h445v-680q-93 -40 -197.5 -59.5t-212.5 -19.5q-207 0 -344 93t-206 261.5t-69 394.5q0 222 74.5 392.5t218 266.5t350.5 96q101 0 192.5 -21.5t176.5 -68.5l-41 -87q-82 45 -164 65.5t-165 20.5q-174 0 -294 -83.5t-181.5 -233t-61.5 -347.5q0 -205 58.5 -352.5
t175.5 -226.5t293 -79q87 0 162 14t137 37v525h-347v92z" />
    <glyph glyph-name="H" unicode="H" horiz-adv-x="1252" 
d="M1072 0h-101v721h-689v-721h-101v1462h101v-648h689v648h101v-1462z" />
    <glyph glyph-name="I" unicode="I" horiz-adv-x="462" 
d="M181 0v1462h100v-1462h-100z" />
    <glyph glyph-name="J" unicode="J" horiz-adv-x="458" 
d="M1 -370q-43 0 -78.5 6.5t-62.5 18.5v91q28 -10 63.5 -16.5t73.5 -6.5q67 0 108.5 30.5t60 90t18.5 148.5v1470h100v-1476q0 -116 -30.5 -195.5t-92.5 -120t-160 -40.5z" />
    <glyph glyph-name="K" unicode="K" horiz-adv-x="1009" 
d="M1012 0h-117l-460 753l-153 -174v-579h-101v1462h101v-775q24 35 59 81.5t77 105.5l457 588h118l-487 -631z" />
    <glyph glyph-name="L" unicode="L" horiz-adv-x="886" 
d="M181 0v1462h101v-1369h563v-93h-664z" />
    <glyph glyph-name="M" unicode="M" horiz-adv-x="1577" 
d="M739 0l-463 1333h-5q2 -51 3.5 -93t2.5 -78t1 -67v-1095h-97v1462h148l456 -1311h6l458 1311h148v-1462h-99v1098q0 27 0.5 62t2 77.5t2.5 93.5h-5l-464 -1331h-95z" />
    <glyph glyph-name="N" unicode="N" horiz-adv-x="1280" 
d="M1099 0h-111l-712 1295h-5q2 -46 3 -93.5t2.5 -99.5t1.5 -108v-994h-97v1462h112l711 -1286h5q-1 48 -2.5 102t-3 106.5t-1.5 95.5v982h97v-1462z" />
    <glyph glyph-name="O" unicode="O" horiz-adv-x="1321" 
d="M1203 733q0 -159 -31 -296t-96.5 -239.5t-168 -160t-245.5 -57.5q-144 0 -247.5 58.5t-169 162t-97 240.5t-31.5 294q0 236 63 403.5t185 256.5t301 89q182 0 301 -94t177.5 -263.5t58.5 -393.5zM222 734q0 -204 48.5 -353t147 -229.5t244.5 -80.5q149 0 246 79
t144 227.5t47 355.5q0 318 -109 488.5t-324 170.5q-150 0 -248.5 -79.5t-147 -227t-48.5 -351.5z" />
    <glyph glyph-name="P" unicode="P" horiz-adv-x="1022" 
d="M471 1462q233 0 347.5 -97.5t114.5 -313.5q0 -112 -29.5 -195.5t-88.5 -139.5t-149 -83.5t-211 -27.5h-173v-605h-101v1462h290zM464 1372h-182v-677h169q123 0 207.5 34.5t128 112t43.5 207.5q0 173 -89.5 248t-276.5 75z" />
    <glyph glyph-name="Q" unicode="Q" horiz-adv-x="1321" 
d="M1203 733q0 -197 -43 -348t-127.5 -247.5t-210.5 -132.5l251 -353h-129l-225 332q-15 -1 -30.5 -2.5t-30.5 -1.5q-140 0 -242 57t-168 159.5t-98.5 240t-32.5 298.5q0 236 63 403.5t185.5 256.5t302.5 89q170 0 290 -85.5t182.5 -252.5t62.5 -413zM222 734
q0 -204 48 -353t146.5 -229.5t244.5 -80.5q150 0 247 79t144 227.5t47 355.5q0 319 -109 489t-322 170q-151 0 -250.5 -79.5t-147.5 -227t-48 -351.5z" />
    <glyph glyph-name="R" unicode="R" horiz-adv-x="1044" 
d="M465 1462q155 0 259.5 -38.5t157 -125.5t52.5 -233q0 -109 -34 -189t-96.5 -131.5t-151.5 -78.5l352 -666h-116l-331 639h-275v-639h-101v1462h284zM459 1372h-177v-644h220q154 0 242 83t88 252q0 170 -90 239.5t-283 69.5z" />
    <glyph glyph-name="S" unicode="S" horiz-adv-x="967" 
d="M871 382q0 -129 -55 -218.5t-152.5 -136.5t-226.5 -47q-67 0 -128 7.5t-114 20.5t-98 32v103q69 -30 158.5 -50.5t182.5 -20.5q103 0 177 36t114.5 104.5t40.5 164.5q0 89 -34.5 145.5t-104.5 98t-179 85.5q-75 33 -138 67t-108.5 79t-70 108t-24.5 151q-1 120 53 203
t147.5 126t212.5 43q90 0 172 -19t150 -51l-36 -89q-74 35 -147.5 50.5t-139.5 15.5q-94 0 -163.5 -32.5t-108 -94t-38.5 -150.5q0 -93 36.5 -151t104.5 -98t161 -78q112 -48 191.5 -97t122 -121t42.5 -186z" />
    <glyph glyph-name="T" unicode="T" horiz-adv-x="899" 
d="M499 0h-102v1371h-384v91h870v-91h-384v-1371z" />
    <glyph glyph-name="U" unicode="U" horiz-adv-x="1248" 
d="M1082 1462v-979q0 -173 -56.5 -284t-159.5 -165t-243 -54q-221 0 -338.5 127.5t-117.5 377.5v977h100v-975q0 -214 93 -315t265 -101q111 0 191 43t122.5 134t42.5 233v981h101z" />
    <glyph glyph-name="V" unicode="V" horiz-adv-x="995" 
d="M995 1462l-444 -1462h-109l-442 1462h104l327 -1096q13 -43 25 -85t22 -82.5t18 -80.5q9 40 19 79.5t22 82t25 87.5l328 1095h105z" />
    <glyph glyph-name="W" unicode="W" horiz-adv-x="1604" 
d="M1575 1462l-356 -1462h-111l-263 1086q-8 30 -14 58l-12 56t-11.5 57.5t-10.5 59.5q-4 -27 -8 -53.5t-9 -53t-11 -54t-13 -56.5l-261 -1100h-113l-351 1462h103l248 -1044q10 -46 19 -86t16 -76t13.5 -67t10.5 -58q6 35 13 73t15 75t15.5 72.5t16.5 68.5l248 1042h98
l254 -1045q10 -40 18 -76.5t14.5 -71t13 -69.5t13.5 -74q8 50 16.5 97t19.5 95t23 99l252 1045h104z" />
    <glyph glyph-name="X" unicode="X" horiz-adv-x="916" 
d="M908 0h-112l-331 676l-348 -676h-108l399 762l-355 700h110l306 -617l310 617h108l-360 -702z" />
    <glyph glyph-name="Y" unicode="Y" horiz-adv-x="893" 
d="M447 679l338 783h108l-395 -895v-567h-101v563l-397 899h108z" />
    <glyph glyph-name="Z" unicode="Z" horiz-adv-x="935" 
d="M874 0h-808v78l672 1292h-641v92h759v-78l-672 -1291h690v-93z" />
    <glyph glyph-name="bracketleft" unicode="[" horiz-adv-x="642" 
d="M582 -325h-413v1790h413v-85h-319v-1619h319v-86z" />
    <glyph glyph-name="backslash" unicode="\" horiz-adv-x="701" 
d="M133 1463l539 -1464h-99l-538 1464h98z" />
    <glyph glyph-name="bracketright" unicode="]" horiz-adv-x="642" 
d="M61 -239h318v1619h-318v85h414v-1790h-414v86z" />
    <glyph glyph-name="asciicircum" unicode="^" horiz-adv-x="1008" 
d="M62 647l414 820h68l403 -820h-99l-339 703l-349 -703h-98z" />
    <glyph glyph-name="underscore" unicode="_" horiz-adv-x="839" 
d="M843 -264h-847v82h847v-82z" />
    <glyph glyph-name="grave" unicode="`" horiz-adv-x="513" 
d="M199 1567q28 -49 68 -104t83 -107.5t82 -94.5v-20h-67q-35 30 -74 69t-78 81.5t-73 83.5t-58 76v16h117z" />
    <glyph glyph-name="a" unicode="a" horiz-adv-x="937" 
d="M475 1107q159 0 234 -89.5t75 -284.5v-733h-76l-14 183h-5q-27 -57 -67 -103t-99.5 -73t-147.5 -27q-95 0 -159 39t-97 106.5t-33 154.5q0 162 113 247t324 98l164 11v85q0 165 -53.5 233t-165.5 68q-62 0 -125.5 -17.5t-132.5 -55.5l-33 80q66 36 142 57t156 21z
M687 558l-154 -9q-172 -11 -258.5 -76.5t-86.5 -191.5q0 -107 54.5 -163t151.5 -56q146 0 219.5 104t73.5 280v112z" />
    <glyph glyph-name="b" unicode="b" horiz-adv-x="1058" 
d="M258 1556v-482q0 -46 -1 -98t-3 -92h5q34 101 115.5 162.5t202.5 61.5q184 0 281 -142t97 -417q0 -178 -44 -305.5t-130.5 -195.5t-215.5 -68q-116 0 -190.5 55.5t-112.5 145.5h-8l-17 -181h-77v1556h98zM565 1021q-109 0 -176.5 -55t-99 -156.5t-31.5 -242.5v-51
q0 -225 73.5 -336.5t221.5 -111.5t225 121t77 361q0 233 -71 352t-219 119z" />
    <glyph glyph-name="c" unicode="c" horiz-adv-x="820" 
d="M529 -20q-140 0 -234.5 66.5t-141.5 191t-47 297.5q0 182 53.5 310t152.5 195.5t237 67.5q64 0 118.5 -12.5t100.5 -35.5l-30 -85q-44 22 -92 33t-95 11q-109 0 -186 -56.5t-118 -164.5t-41 -262q0 -140 35 -245t107.5 -164t185.5 -59q60 0 117 13.5t107 35.5v-89
q-45 -21 -104 -34.5t-125 -13.5z" />
    <glyph glyph-name="d" unicode="d" horiz-adv-x="1058" 
d="M489 -20q-189 0 -286.5 141t-97.5 411q0 281 102.5 428.5t287.5 147.5q80 0 140.5 -28.5t102 -76t63.5 -105.5h6q-3 47 -4.5 95.5t-1.5 89.5v473h98v-1556h-79l-13 194h-6q-23 -57 -63.5 -106t-101.5 -78.5t-147 -29.5zM502 67q156 0 228 113.5t72 319.5v79
q0 212 -72 326.5t-222 114.5q-148 0 -225 -125t-77 -364q0 -225 72 -344.5t224 -119.5z" />
    <glyph glyph-name="e" unicode="e" horiz-adv-x="967" 
d="M504 1108q124 0 203.5 -66.5t117.5 -178t38 -249.5v-76h-658q0 -229 85.5 -350t250.5 -121q79 0 143.5 17.5t138.5 56.5v-93q-65 -34 -133.5 -51t-153.5 -17q-145 0 -241 69.5t-142.5 195.5t-46.5 293q0 169 45 297.5t133.5 200.5t219.5 72zM503 1023q-127 0 -204.5 -101
t-90.5 -300h558q0 113 -28 204.5t-86 144t-149 52.5z" />
    <glyph glyph-name="f" unicode="f" horiz-adv-x="540" 
d="M502 1003h-210v-1003h-98v1003h-171v60l171 27v121q0 119 27 198t86.5 118.5t154.5 39.5q48 0 87.5 -8t73.5 -21l-26 -82q-30 12 -64 18.5t-67 6.5q-94 0 -134 -62.5t-40 -210.5v-121h210v-84z" />
    <glyph glyph-name="g" unicode="g" horiz-adv-x="890" 
d="M397 -492q-174 0 -272.5 79t-98.5 221q0 115 60.5 191t159.5 96q-42 21 -68.5 59.5t-26.5 90.5q0 54 29.5 102.5t88.5 89.5q-79 35 -124 117t-45 195q0 109 40 189.5t113.5 125t174.5 44.5q32 0 57 -2t46 -6.5t38 -12.5h298v-70l-190 -14q39 -50 57.5 -114t18.5 -130
q0 -163 -86.5 -258t-242.5 -95q-44 0 -83 9q-47 -33 -74.5 -70t-27.5 -91q0 -34 17 -56.5t49 -35.5t78 -13h167q148 0 226.5 -70.5t78.5 -210.5q0 -171 -119 -265.5t-339 -94.5zM404 -408q117 0 195.5 30.5t118.5 91.5t40 152q0 74 -29.5 115t-82.5 56t-122 15h-153
q-70 0 -126.5 -23t-88 -74.5t-31.5 -137.5q0 -111 73 -168t206 -57zM427 486q109 0 168 68t59 199q0 138 -61 207t-168 69q-104 0 -164 -74t-60 -206q0 -125 57 -194t169 -69z" />
    <glyph glyph-name="h" unicode="h" horiz-adv-x="1041" 
d="M259 1556v-507q0 -46 -1.5 -82t-4.5 -72h6q23 57 64.5 105.5t103.5 78t145 29.5q104 0 173.5 -41.5t105.5 -125t36 -211.5v-730h-98v717q0 161 -59 232t-169 71q-94 0 -161.5 -45.5t-104 -139.5t-36.5 -238v-597h-99v1556h99z" />
    <glyph glyph-name="i" unicode="i" horiz-adv-x="426" 
d="M262 1087v-1087h-97v1087h97zM216 1492q36 0 53.5 -24t17.5 -61q0 -39 -18.5 -62t-53.5 -23q-34 0 -52.5 23t-18.5 61t17.5 62t54.5 24z" />
    <glyph glyph-name="j" unicode="j" horiz-adv-x="426" 
d="M47 -493q-34 0 -60.5 5.5t-45.5 13.5v88q22 -9 46 -13t50 -4q65 0 95.5 46.5t30.5 143.5v1300h98v-1306q0 -94 -26.5 -155t-74 -90t-113.5 -29zM144 1406q0 38 17.5 62t53.5 24q37 0 54 -24t17 -61q0 -39 -18 -62t-54 -23q-34 0 -52 23t-18 61z" />
    <glyph glyph-name="k" unicode="k" horiz-adv-x="856" 
d="M259 1556v-792q0 -70 -1.5 -137t-3.5 -136h3q24 34 47 65.5t47 63.5l356 467h113l-342 -439l373 -648h-111l-328 574l-153 -186v-388h-99v1556h99z" />
    <glyph glyph-name="l" unicode="l" horiz-adv-x="419" 
d="M260 0h-99v1556h99v-1556z" />
    <glyph glyph-name="m" unicode="m" horiz-adv-x="1556" 
d="M1115 1108q136 0 212 -88.5t76 -276.5v-743h-97v734q0 152 -56.5 219.5t-149.5 67.5q-127 0 -197.5 -93.5t-70.5 -273.5v-654h-98v724q0 108 -26 173t-71.5 94.5t-107.5 29.5q-89 0 -149 -47.5t-90.5 -133.5t-30.5 -201v-639h-99v1087h79l13 -180h6q22 52 59 97.5
t93 74.5t135 29q109 0 174.5 -56.5t87.5 -148.5h8q39 95 112.5 150t187.5 55z" />
    <glyph glyph-name="n" unicode="n" horiz-adv-x="1041" 
d="M575 1108q151 0 231.5 -90t80.5 -283v-735h-98v720q0 157 -58 229t-168 72q-143 0 -223.5 -102.5t-80.5 -312.5v-606h-99v1087h79l12 -199h6q24 60 66 110t104.5 80t147.5 30z" />
    <glyph glyph-name="o" unicode="o" horiz-adv-x="1030" 
d="M924 545q0 -132 -25.5 -236.5t-77 -177.5t-128 -112t-179.5 -39q-99 0 -175 39t-128.5 112.5t-79 178t-26.5 236.5q0 179 47.5 304.5t140 191.5t226.5 66q137 0 227 -69t134 -195.5t44 -298.5zM205 546q0 -150 33.5 -257t102.5 -164t175 -57t174.5 55.5t101 163
t32.5 259.5q0 144 -30.5 250.5t-98 165t-177.5 58.5q-158 0 -235.5 -123.5t-77.5 -350.5z" />
    <glyph glyph-name="p" unicode="p" horiz-adv-x="1058" 
d="M578 1108q182 0 279.5 -139.5t97.5 -416.5q0 -188 -46.5 -315.5t-132 -192t-205.5 -64.5q-84 0 -145.5 30t-102.5 79.5t-62 107.5h-7q3 -42 4.5 -92t1.5 -99v-487h-99v1568h79l11 -215h6q25 64 66 118t104 86t151 32zM564 1021q-100 0 -168 -53.5t-101.5 -153
t-34.5 -238.5v-63q0 -145 34.5 -244.5t101.5 -150t163 -50.5q92 0 158 52t102 159.5t36 272.5q0 229 -71.5 349t-219.5 120z" />
    <glyph glyph-name="q" unicode="q" horiz-adv-x="1057" 
d="M798 -481v491q0 36 2 91.5t4 103.5h-7q-37 -100 -116.5 -163t-201.5 -63q-180 0 -278 142t-98 418q0 176 44 303.5t132 196.5t216 69q119 0 193.5 -58.5t108.5 -148.5h6l13 186h80v-1568h-98zM495 66q101 0 168 52t101 148t34 230v93q0 210 -72 320.5t-220 110.5
q-150 0 -226.5 -127t-76.5 -356q0 -236 75.5 -353.5t216.5 -117.5z" />
    <glyph glyph-name="r" unicode="r" horiz-adv-x="683" 
d="M536 1106q32 0 63 -5t59 -15l-18 -93q-24 7 -51 12t-58 5q-64 0 -114.5 -33.5t-85.5 -92.5t-53 -135.5t-18 -163.5v-585h-99v1087h80l13 -213h7q21 61 58 113.5t91 85.5t126 33z" />
    <glyph glyph-name="s" unicode="s" horiz-adv-x="807" 
d="M726 277q0 -93 -40.5 -160t-118.5 -102t-193 -35q-94 0 -169 19.5t-124 46.5v102q60 -36 136 -58.5t157 -22.5q132 0 192.5 55t60.5 152q0 63 -28.5 104.5t-82.5 73t-132 65.5q-85 39 -150.5 77t-102.5 94t-37 145q0 124 89.5 199.5t247.5 75.5q81 0 151.5 -17t128.5 -47
l-38 -83q-50 28 -114.5 44.5t-129.5 16.5q-111 0 -175 -48t-64 -138q0 -62 28 -101.5t82.5 -70t132.5 -66.5q81 -38 148 -76.5t106 -95.5t39 -149z" />
    <glyph glyph-name="t" unicode="t" horiz-adv-x="576" 
d="M407 67q36 0 69 6.5t58 16.5v-83q-28 -11 -64 -19t-79 -8q-80 0 -129.5 32.5t-73 97t-23.5 162.5v732h-132v58l132 28l30 258h68v-261h267v-83h-267v-727q0 -105 32 -157.5t112 -52.5z" />
    <glyph glyph-name="u" unicode="u" horiz-adv-x="1041" 
d="M879 1087v-1087h-79l-12 197h-6q-23 -58 -64.5 -107.5t-104 -79.5t-148.5 -30q-106 0 -175.5 42.5t-104 128t-34.5 210.5v726h99v-710q0 -160 57.5 -234.5t169.5 -74.5q99 0 166 45.5t102 138.5t35 234v601h99z" />
    <glyph glyph-name="v" unicode="v" horiz-adv-x="801" 
d="M345 0l-340 1087h103l223 -733q20 -62 36.5 -123.5t28.5 -119.5h6q12 52 28 111.5t36 123.5l226 741h104l-343 -1087h-108z" />
    <glyph glyph-name="w" unicode="w" horiz-adv-x="1300" 
d="M902 0l-191 740q-9 29 -15.5 57.5t-13 55.5t-12 53t-11.5 52h-4q-5 -26 -11 -52.5t-12 -54.5t-13 -55.5t-15 -56.5l-199 -739h-106l-275 1087h101l170 -687q13 -53 23.5 -100t19 -89t16.5 -82h4q5 26 11.5 56t13.5 64.5t16 71t20 76.5l188 690h103l184 -694
q12 -45 23 -89.5t19.5 -88t16.5 -86.5h5q6 41 13 77.5t16 77.5t22 90l169 713h98l-267 -1087h-107z" />
    <glyph glyph-name="x" unicode="x" horiz-adv-x="854" 
d="M368 560l-309 527h110l258 -453l259 453h110l-309 -530l326 -557h-112l-275 482l-277 -482h-109z" />
    <glyph glyph-name="y" unicode="y" horiz-adv-x="815" 
d="M17 1087h102l222 -709q19 -58 31.5 -101t21.5 -76.5t15 -63.5h7q12 53 29.5 112.5t39.5 127.5l220 710h103l-414 -1300q-31 -96 -69 -159t-89 -93t-119 -30q-30 0 -54.5 5.5t-50.5 13.5v89q22 -8 46 -13.5t49 -5.5q44 0 78 20.5t62 66.5t52 122l65 210z" />
    <glyph glyph-name="z" unicode="z" horiz-adv-x="754" 
d="M688 0h-619v70l501 933h-464v84h577v-72l-500 -930h505v-85z" />
    <glyph glyph-name="braceleft" unicode="{" horiz-adv-x="722" 
d="M637 -325q-113 1 -189 32.5t-113.5 97.5t-37.5 169v330q0 84 -22.5 133t-71.5 70t-126 21v83q76 0 124.5 20t72 68.5t23.5 134.5v334q0 102 38 166.5t113.5 96t188.5 32.5v-84q-83 -1 -137 -23t-80 -71.5t-26 -129.5v-334q0 -109 -39.5 -170t-131.5 -78v-7
q94 -16 132.5 -78t38.5 -171v-333q0 -80 25 -129t79 -71t139 -23v-86z" />
    <glyph glyph-name="bar" unicode="|" horiz-adv-x="951" 
d="M430 1560h89v-2058h-89v2058z" />
    <glyph glyph-name="braceright" unicode="}" horiz-adv-x="722" 
d="M83 -325v86q85 0 139 22.5t79 71.5t25 128v334q0 110 40 171t131 78v6q-91 18 -131 79t-40 169v334q0 82 -25.5 131t-79 71t-138.5 23v84q114 0 189.5 -31.5t114 -96.5t38.5 -168v-333q0 -83 22 -132t70.5 -70t126.5 -21v-83q-77 0 -125.5 -20.5t-71 -69.5t-22.5 -134
v-331q0 -101 -38.5 -167t-114 -98t-189.5 -33z" />
    <glyph glyph-name="asciitilde" unicode="~" horiz-adv-x="1005" 
d="M492 681q-52 28 -96 44.5t-97 16.5t-108 -29t-106 -86v101q44 45 98.5 72t120.5 27q65 0 113.5 -17t106.5 -47q54 -26 95.5 -42t89.5 -16q53 0 108.5 28.5t102.5 83.5v-100q-39 -43 -93.5 -70t-120.5 -27q-61 0 -108.5 16.5t-105.5 44.5z" />
    <glyph glyph-name="uni00A0" unicode="&#xa0;" horiz-adv-x="458" 
 />
    <glyph glyph-name="exclamdown" unicode="&#xa1;" horiz-adv-x="460" 
d="M190 704h76l20 -1089h-116zM308 1005q0 -46 -19 -69.5t-58 -23.5q-41 0 -59.5 23t-18.5 70q0 43 18 68t61 25q38 0 57 -23.5t19 -69.5z" />
    <glyph glyph-name="cent" unicode="&#xa2;" horiz-adv-x="1013" 
d="M630 1483v-172q61 -2 112 -14t95 -33l-29 -85q-45 21 -94.5 31.5t-93.5 10.5q-116 0 -193.5 -58t-116.5 -166t-39 -257q0 -148 36.5 -251.5t111 -159.5t189.5 -56q62 0 116.5 13.5t105.5 34.5v-89q-37 -18 -86.5 -31t-110.5 -17v-204h-78v205q-129 12 -214.5 80.5
t-127.5 187.5t-42 286q0 169 44.5 290.5t129.5 192t207 85.5v176h78z" />
    <glyph glyph-name="sterling" unicode="&#xa3;" horiz-adv-x="997" 
d="M607 1482q84 0 148.5 -19.5t120.5 -54.5l-41 -80q-56 33 -110 49t-115 16q-120 0 -177.5 -75t-57.5 -236v-319h330v-83h-330v-283q0 -82 -17.5 -142t-50 -99.5t-75.5 -62.5h677v-93h-827v86q62 17 106 55.5t66.5 102.5t22.5 156v280h-186v83h186v329q0 124 36 210.5
t109 133t185 46.5z" />
    <glyph glyph-name="currency" unicode="&#xa4;" horiz-adv-x="1157" 
d="M178 724q0 70 23 135.5t66 118.5l-147 150l54 54l148 -148q55 45 119.5 68.5t135.5 23.5q67 0 133 -22.5t121 -68.5l148 145l56 -53l-147 -149q45 -53 68.5 -118.5t23.5 -135.5q0 -66 -22.5 -133.5t-68.5 -123.5l146 -148l-55 -53l-148 146q-53 -45 -120 -67t-134 -22
q-71 0 -137 22.5t-119 69.5l-148 -148l-53 55l146 148q-44 55 -66.5 120.5t-22.5 133.5zM255 724q0 -94 43 -168t117 -116t163 -42q91 0 165 43.5t117.5 117t43.5 164.5q0 93 -44.5 167.5t-118.5 118t-163 43.5q-87 0 -161 -42.5t-118 -116.5t-44 -169z" />
    <glyph glyph-name="yen" unicode="&#xa5;" horiz-adv-x="1002" 
d="M500 718l326 744h104l-359 -795h268v-79h-290v-206h290v-80h-290v-302h-99v302h-288v80h288v206h-288v79h264l-358 795h105z" />
    <glyph glyph-name="brokenbar" unicode="&#xa6;" horiz-adv-x="951" 
d="M430 1559h89v-778h-89v778zM430 280h89v-780h-89v780z" />
    <glyph glyph-name="section" unicode="&#xa7;" horiz-adv-x="882" 
d="M124 827q0 94 54 155t132 91q-77 42 -125.5 97t-48.5 142q0 112 85 179t236 67q82 0 148.5 -16t123.5 -44l-36 -76q-49 25 -109 41t-130 16q-107 0 -166.5 -42t-59.5 -123q0 -56 29 -92.5t82 -65t125 -62.5q83 -36 147.5 -74t101 -90.5t36.5 -134.5q0 -92 -42 -155
t-105 -100q67 -40 105.5 -93.5t38.5 -132.5q0 -125 -92 -200t-261 -75q-88 0 -162.5 18t-125.5 45v91q39 -21 86.5 -38.5t99 -27t103.5 -9.5q133 0 195.5 53.5t62.5 138.5q0 63 -32.5 102.5t-92 70t-142.5 65.5q-78 34 -136.5 68.5t-91.5 84.5t-33 126zM212 836
q0 -58 27 -95t76.5 -64.5t117.5 -56.5l97 -42q55 27 93.5 78.5t38.5 126.5q0 59 -27.5 100.5t-87.5 77t-157 73.5q-72 -21 -125 -69t-53 -129z" />
    <glyph glyph-name="dieresis" unicode="&#xa8;" horiz-adv-x="1130" 
d="M326 1377q0 35 17.5 56.5t47.5 21.5q32 0 49 -21t17 -57q0 -38 -17 -59t-49 -21q-30 0 -47.5 21.5t-17.5 58.5zM670 1377q0 36 17.5 57t47.5 21q31 0 48.5 -21t17.5 -57q0 -37 -17.5 -58.5t-48.5 -21.5t-48 21.5t-17 58.5z" />
    <glyph glyph-name="copyright" unicode="&#xa9;" horiz-adv-x="1702" 
d="M849 -18q-168 0 -305.5 57.5t-236.5 160t-153 238.5t-54 293q0 165 58 302.5t160.5 237.5t239 155t294.5 55q165 0 302.5 -58.5t237.5 -161.5t155 -239.5t55 -291.5q0 -159 -56 -295.5t-157.5 -237.5t-239 -158t-300.5 -57zM889 286q-194 0 -305 114t-111 330
q0 136 50 236.5t144.5 155.5t224.5 55q73 0 136 -14t118 -41l-35 -74q-49 24 -103.5 36t-115.5 12q-154 0 -240 -97t-86 -268q0 -183 87 -274.5t243 -91.5q57 0 110.5 11t111.5 34v-79q-51 -22 -107 -33.5t-122 -11.5zM849 55q148 0 271.5 52t214 145t140 215.5t49.5 263.5
t-49.5 263.5t-139.5 215t-213 145t-271 52.5q-147 0 -270 -50.5t-213.5 -142t-140.5 -215.5t-50 -268q0 -143 49 -265.5t138 -215t212.5 -144t272.5 -51.5z" />
    <glyph glyph-name="ordfeminine" unicode="&#xaa;" horiz-adv-x="628" 
d="M320 1479q104 0 152 -53.5t48 -155.5v-457h-60l-13 102q-29 -52 -78 -81.5t-115 -29.5q-57 0 -99.5 21.5t-65.5 63.5t-23 102q0 67 31 110t94 65.5t156 28.5l94 5v65q0 78 -32.5 111t-95.5 33q-45 0 -86.5 -12.5t-81.5 -34.5l-27 65q44 22 95 37t107 15zM441 1137l-81 -5
q-112 -6 -163 -37t-51 -104q0 -59 32.5 -89t90.5 -30q85 0 128.5 55t43.5 147v63z" />
    <glyph glyph-name="guillemotleft" unicode="&#xab;" horiz-adv-x="883" 
d="M71 572l308 383l67 -38l-261 -357l261 -356l-67 -40l-308 381v27zM437 572l309 383l66 -38l-261 -357l262 -356l-67 -40l-309 381v27z" />
    <glyph glyph-name="logicalnot" unicode="&#xac;" horiz-adv-x="1005" 
d="M898 764v-507h-86v421h-724v86h810z" />
    <glyph glyph-name="uni00AD" unicode="&#xad;" horiz-adv-x="603" 
d="M68 507v96h468v-96h-468z" />
    <glyph glyph-name="registered" unicode="&#xae;" horiz-adv-x="1702" 
d="M596 292v878h246q139 0 219.5 -60.5t80.5 -191.5q0 -100 -50.5 -158t-125.5 -83l216 -385h-103l-199 364h-195v-364h-89zM684 730h151q94 0 155.5 45t61.5 142q0 92 -58 133.5t-158 41.5h-152v-362zM849 -18q-168 0 -305.5 57.5t-236.5 160t-153 238.5t-54 293
q0 165 58 302.5t160.5 237.5t239 155t294.5 55q165 0 302.5 -58.5t237.5 -161.5t155 -239.5t55 -291.5q0 -159 -56 -295.5t-157.5 -237.5t-239 -158t-300.5 -57zM849 55q148 0 271.5 52t214 145t140 215.5t49.5 263.5t-49.5 263.5t-139.5 215t-213 145t-271 52.5
q-147 0 -270 -50.5t-213.5 -142t-140.5 -215.5t-50 -268q0 -143 49 -265.5t138 -215t212.5 -144t272.5 -51.5z" />
    <glyph glyph-name="overscore" unicode="&#xaf;" horiz-adv-x="928" 
d="M935 1556h-942v84h942v-84z" />
    <glyph glyph-name="degree" unicode="&#xb0;" horiz-adv-x="808" 
d="M404 923q-81 0 -145.5 34.5t-101 98t-36.5 148.5q0 84 36.5 147t101 97t144.5 34q81 0 145 -34.5t101 -97t37 -147.5q0 -84 -37 -147.5t-100.5 -98t-144.5 -34.5zM404 997q91 0 147 58t56 149q0 93 -56 149.5t-148 56.5q-96 0 -149 -57.5t-53 -148.5q0 -93 55.5 -150
t147.5 -57z" />
    <glyph glyph-name="plusminus" unicode="&#xb1;" horiz-adv-x="1005" 
d="M89 1v85h827v-85h-827zM545 772h374v-84h-374v-434h-85v434h-375v84h375v436h85v-436z" />
    <glyph glyph-name="uni00B2" unicode="&#xb2;" horiz-adv-x="649" 
d="M581 851h-528v70l214 240q67 73 113.5 130.5t71 110.5t24.5 111q0 70 -42.5 115t-123.5 45q-56 0 -103.5 -21t-94.5 -63l-45 59q51 46 112 73t134 27q119 0 184.5 -64t65.5 -168q0 -68 -27.5 -127.5t-81 -124t-129.5 -150.5l-168 -187h424v-76z" />
    <glyph glyph-name="uni00B3" unicode="&#xb3;" horiz-adv-x="649" 
d="M312 1744q117 0 182.5 -57.5t65.5 -158.5q0 -84 -42 -137.5t-107 -74.5v-4q82 -21 127.5 -75t45.5 -143q0 -119 -80 -186.5t-225 -67.5q-62 0 -118.5 11.5t-105.5 34.5v84q55 -26 110.5 -41t113.5 -15q109 0 164 49.5t55 133.5q0 85 -56 129.5t-166 44.5h-99v73h98
q97 0 148.5 48t51.5 130q0 70 -43.5 108.5t-121.5 38.5q-60 0 -110 -20t-98 -55l-41 61q52 41 113.5 65t137.5 24z" />
    <glyph glyph-name="acute" unicode="&#xb4;" horiz-adv-x="511" 
d="M430 1567v-16q-24 -34 -57.5 -75t-73 -84t-78.5 -81.5t-74 -69.5h-65v21q42 47 84.5 99.5t80 105.5t66.5 100h117z" />
    <glyph glyph-name="uni00B5" unicode="&#xb5;" horiz-adv-x="1049" 
d="M888 1087v-1087h-80l-13 188h-6q-22 -55 -59.5 -102.5t-94.5 -76.5t-142 -29q-88 0 -146 31.5t-90 91.5h-6q4 -33 5 -67t1.5 -68t0.5 -69v-385h-98v1573h98v-714q0 -155 59 -230t177 -75q105 0 170 47.5t95.5 141.5t30.5 232v598h98z" />
    <glyph glyph-name="paragraph" unicode="&#xb6;" horiz-adv-x="1125" 
d="M902 -260h-76v1740h-210v-1740h-76v924q-25 -9 -50.5 -13.5t-57.5 -4.5q-91 0 -153.5 55t-95 157t-32.5 244q0 151 35.5 252t107 151.5t178.5 50.5h430v-1816z" />
    <glyph glyph-name="periodcentered" unicode="&#xb7;" horiz-adv-x="447" 
d="M146 686q0 43 18.5 67.5t58.5 24.5t59.5 -23t19.5 -69t-20 -69.5t-59 -23.5t-58 24.5t-19 68.5z" />
    <glyph glyph-name="cedilla" unicode="&#xb8;" horiz-adv-x="432" 
d="M385 -291q0 -94 -65.5 -147.5t-178.5 -53.5q-31 0 -58.5 3.5t-49.5 9.5v72q22 -6 48.5 -9t55.5 -3q73 0 118 32t45 94q0 64 -50.5 91t-139.5 33l80 169h74l-56 -121q55 -7 95 -29t61 -57.5t21 -83.5z" />
    <glyph glyph-name="uni00B9" unicode="&#xb9;" horiz-adv-x="649" 
d="M410 1727v-876h-84v581q0 34 0.5 70t1.5 70t3 65q-23 -18 -45 -32.5t-48 -30.5l-118 -77l-42 61l259 169h73z" />
    <glyph glyph-name="ordmasculine" unicode="&#xba;" horiz-adv-x="677" 
d="M609 1143q0 -153 -68.5 -248t-201.5 -95q-130 0 -200 93t-70 249q0 159 73.5 249.5t201.5 90.5q88 0 147 -42t88.5 -118.5t29.5 -178.5zM152 1141q0 -128 45.5 -199.5t140.5 -71.5q99 0 144.5 73t45.5 198q0 123 -43.5 196.5t-141.5 73.5q-91 0 -141 -68.5t-50 -201.5z
" />
    <glyph glyph-name="guillemotright" unicode="&#xbb;" horiz-adv-x="876" 
d="M806 546l-310 -382l-67 41l263 355l-263 357l67 38l310 -381v-28zM447 546l-309 -382l-67 41l261 355l-261 357l67 38l309 -381v-28z" />
    <glyph glyph-name="onequarter" unicode="&#xbc;" horiz-adv-x="1410" 
d="M285 0l771 1462h91l-771 -1462h-91zM298 586v582v70t1.5 70t3.5 65q-23 -18 -45.5 -33t-48.5 -31l-118 -76l-41 60l258 169h75v-876h-85zM1173 0v231h-373v62l374 590h83v-577h129v-75h-129v-231h-84zM890 306h283v312v83t2 69q-11 -24 -26.5 -49.5t-34.5 -55.5z" />
    <glyph glyph-name="onehalf" unicode="&#xbd;" horiz-adv-x="1511" 
d="M265 0l770 1462h92l-771 -1462h-91zM293 586v582v51.5t1 53t1.5 52t2.5 48.5q-23 -18 -45 -33t-48 -31l-119 -76l-40 60l258 169h74v-876h-85zM916 0v71l213 239q68 74 114.5 131.5t71 110t24.5 110.5q0 71 -42.5 115.5t-123.5 44.5q-55 0 -103.5 -21t-95.5 -62l-44 59
q51 46 112 73t134 27q119 0 184 -64.5t65 -167.5q0 -69 -27 -128t-78.5 -122t-124.5 -144l-175 -195h424v-77h-528z" />
    <glyph glyph-name="threequarters" unicode="&#xbe;" horiz-adv-x="1473" 
d="M359 0l772 1462h91l-771 -1462h-92zM271 576q-61 0 -118 12t-105 34v85q54 -27 109.5 -41.5t114.5 -14.5q109 0 163.5 49.5t54.5 132.5q0 85 -55.5 129.5t-165.5 44.5h-99v73h99q95 0 146.5 48.5t51.5 129.5q0 70 -43 108.5t-121 38.5q-61 0 -110.5 -20t-97.5 -55l-41 62
q52 40 114 64.5t138 24.5q115 0 180.5 -58t65.5 -159q0 -84 -42 -137.5t-106 -74.5v-4q82 -21 127 -75t45 -142q0 -120 -80 -187.5t-225 -67.5zM1235 0v231h-372v62l373 590h84v-577h129v-75h-129v-231h-85zM953 306h282v312q0 46 0.5 83t2.5 69q-11 -24 -26.5 -49.5
t-34.5 -55.5z" />
    <glyph glyph-name="questiondown" unicode="&#xbf;" horiz-adv-x="722" 
d="M485 709v-43q0 -86 -12 -146t-42.5 -110.5t-86.5 -106.5q-61 -61 -102.5 -112.5t-63 -110t-21.5 -137.5q0 -128 65 -190t175 -62q69 0 127.5 18.5t115.5 50.5l38 -82q-66 -36 -135 -56.5t-150 -20.5q-154 0 -244 86.5t-90 253.5q0 98 27 166.5t75 126t110 119.5
q53 54 81 100t39 97.5t11 123.5v35h83zM517 1009q0 -44 -19 -68.5t-59 -24.5q-39 0 -58 23t-19 68q0 47 19.5 70.5t58.5 23.5t58 -24.5t19 -67.5z" />
    <glyph glyph-name="Agrave" unicode="&#xc0;" horiz-adv-x="1030" 
d="M924 0l-162 524h-493l-165 -524h-104l463 1465h110l456 -1465h-105zM735 617l-166 559q-8 28 -17 60t-18 65t-18 65q-7 -33 -16 -64.5t-17.5 -63.5t-17.5 -62l-169 -559h439zM359 1925q28 -49 68 -104t83 -107.5t82 -94.5v-20h-67q-35 30 -74 69t-78 81.5t-73 83.5
t-58 76v16h117z" />
    <glyph glyph-name="Aacute" unicode="&#xc1;" horiz-adv-x="1030" 
d="M924 0l-162 524h-493l-165 -524h-104l463 1465h110l456 -1465h-105zM735 617l-166 559q-8 28 -17 60t-18 65t-18 65q-7 -33 -16 -64.5t-17.5 -63.5t-17.5 -62l-169 -559h439zM781 1925v-16q-24 -34 -57.5 -75t-73 -84t-78.5 -81.5t-74 -69.5h-65v21q42 47 84.5 99.5
t80 105.5t66.5 100h117z" />
    <glyph glyph-name="Acircumflex" unicode="&#xc2;" horiz-adv-x="1030" 
d="M924 0l-162 524h-493l-165 -524h-104l463 1465h110l456 -1465h-105zM735 617l-166 559q-8 28 -17 60t-18 65t-18 65q-7 -33 -16 -64.5t-17.5 -63.5t-17.5 -62l-169 -559h439zM565 1923q25 -45 64 -103.5t80 -113.5t70 -91v-16h-64q-49 48 -101.5 111t-96.5 121
q-45 -56 -98 -120.5t-101 -111.5h-64v16q33 40 73.5 95.5t78.5 112.5t61 100h98z" />
    <glyph glyph-name="Atilde" unicode="&#xc3;" horiz-adv-x="1030" 
d="M924 0l-162 524h-493l-165 -524h-104l463 1465h110l456 -1465h-105zM735 617l-166 559q-8 28 -17 60t-18 65t-18 65q-7 -33 -16 -64.5t-17.5 -63.5t-17.5 -62l-169 -559h439zM188 1614q5 52 18.5 92t35.5 67t53 41.5t68 14.5q45 0 81 -20t68 -46.5t63.5 -47t66.5 -20.5
q41 0 69 32t37 103h69q-7 -105 -55 -160.5t-121 -55.5q-44 0 -80.5 20t-68.5 46.5t-63 47t-66 20.5q-39 0 -68 -30.5t-37 -103.5h-70z" />
    <glyph glyph-name="Adieresis" unicode="&#xc4;" horiz-adv-x="1030" 
d="M924 0l-162 524h-493l-165 -524h-104l463 1465h110l456 -1465h-105zM735 617l-166 559q-8 28 -17 60t-18 65t-18 65q-7 -33 -16 -64.5t-17.5 -63.5t-17.5 -62l-169 -559h439zM279 1735q0 35 17.5 56.5t47.5 21.5q32 0 49 -21t17 -57q0 -38 -17 -59t-49 -21
q-30 0 -47.5 21.5t-17.5 58.5zM623 1735q0 36 17.5 57t47.5 21q31 0 48.5 -21t17.5 -57q0 -37 -17.5 -58.5t-48.5 -21.5t-48 21.5t-17 58.5z" />
    <glyph glyph-name="Aring" unicode="&#xc5;" horiz-adv-x="1030" 
d="M924 0l-162 524h-493l-165 -524h-104l463 1465h110l456 -1465h-105zM735 617l-166 559q-8 28 -17 60t-18 65t-18 65q-7 -33 -16 -64.5t-17.5 -63.5t-17.5 -62l-169 -559h439zM516 1405q-86 0 -144.5 53.5t-58.5 145.5q0 90 57.5 144t144.5 54t145 -55t58 -142
q0 -91 -57.5 -145.5t-144.5 -54.5zM517 1473q58 0 94 37t36 93q0 59 -36.5 95.5t-94.5 36.5q-59 0 -96 -36.5t-37 -94.5q0 -55 35.5 -93t98.5 -38z" />
    <glyph glyph-name="AE" unicode="&#xc6;" horiz-adv-x="1429" 
d="M1348 0h-687v523h-364l-189 -523h-110l539 1462h811v-91h-586v-557h553v-92h-553v-630h586v-92zM328 616h334v753h-60z" />
    <glyph glyph-name="Ccedilla" unicode="&#xc7;" horiz-adv-x="1073" 
d="M708 1392q-121 0 -212.5 -51t-152 -141.5t-91 -210.5t-30.5 -256q0 -199 55.5 -348.5t162.5 -231.5t261 -82q88 0 160 17t129 41v-91q-58 -26 -132 -42t-166 -16q-183 0 -311.5 92.5t-196 262t-67.5 399.5q0 157 37.5 292.5t111.5 238.5t184.5 161t257.5 58
q84 0 161.5 -18.5t147.5 -53.5l-40 -87q-65 35 -132.5 51t-136.5 16zM824 -291q0 -94 -65.5 -147.5t-178.5 -53.5q-31 0 -58.5 3.5t-49.5 9.5v72q22 -6 48.5 -9t55.5 -3q73 0 118 32t45 94q0 64 -50.5 91t-139.5 33l80 169h74l-56 -121q55 -7 95 -29t61 -57.5t21 -83.5z" />
    <glyph glyph-name="Egrave" unicode="&#xc8;" horiz-adv-x="964" 
d="M853 0h-672v1462h672v-91h-571v-557h538v-92h-538v-630h571v-92zM388 1925q28 -49 68 -104t83 -107.5t82 -94.5v-20h-67q-35 30 -74 69t-78 81.5t-73 83.5t-58 76v16h117z" />
    <glyph glyph-name="Eacute" unicode="&#xc9;" horiz-adv-x="964" 
d="M853 0h-672v1462h672v-91h-571v-557h538v-92h-538v-630h571v-92zM789 1925v-16q-24 -34 -57.5 -75t-73 -84t-78.5 -81.5t-74 -69.5h-65v21q42 47 84.5 99.5t80 105.5t66.5 100h117z" />
    <glyph glyph-name="Ecircumflex" unicode="&#xca;" horiz-adv-x="964" 
d="M853 0h-672v1462h672v-91h-571v-557h538v-92h-538v-630h571v-92zM581 1923q25 -45 64 -103.5t80 -113.5t70 -91v-16h-64q-49 48 -101.5 111t-96.5 121q-45 -56 -98 -120.5t-101 -111.5h-64v16q33 40 73.5 95.5t78.5 112.5t61 100h98z" />
    <glyph glyph-name="Edieresis" unicode="&#xcb;" horiz-adv-x="964" 
d="M853 0h-672v1462h672v-91h-571v-557h538v-92h-538v-630h571v-92zM290 1735q0 35 17.5 56.5t47.5 21.5q32 0 49 -21t17 -57q0 -38 -17 -59t-49 -21q-30 0 -47.5 21.5t-17.5 58.5zM634 1735q0 36 17.5 57t47.5 21q31 0 48.5 -21t17.5 -57q0 -37 -17.5 -58.5t-48.5 -21.5
t-48 21.5t-17 58.5z" />
    <glyph glyph-name="Igrave" unicode="&#xcc;" horiz-adv-x="462" 
d="M181 0v1462h100v-1462h-100zM95 1938q28 -49 68 -104t83 -107.5t82 -94.5v-20h-67q-35 30 -74 69t-78 81.5t-73 83.5t-58 76v16h117z" />
    <glyph glyph-name="Iacute" unicode="&#xcd;" horiz-adv-x="462" 
d="M181 0v1462h100v-1462h-100zM483 1938v-16q-24 -34 -57.5 -75t-73 -84t-78.5 -81.5t-74 -69.5h-65v21q42 47 84.5 99.5t80 105.5t66.5 100h117z" />
    <glyph glyph-name="Icircumflex" unicode="&#xce;" horiz-adv-x="462" 
d="M181 0v1462h100v-1462h-100zM280 1925q25 -45 64 -103.5t80 -113.5t70 -91v-16h-64q-49 48 -101.5 111t-96.5 121q-45 -56 -98 -120.5t-101 -111.5h-64v16q33 40 73.5 95.5t78.5 112.5t61 100h98z" />
    <glyph glyph-name="Idieresis" unicode="&#xcf;" horiz-adv-x="462" 
d="M181 0v1462h100v-1462h-100zM-6 1738q0 35 17.5 56.5t47.5 21.5q32 0 49 -21t17 -57q0 -38 -17 -59t-49 -21q-30 0 -47.5 21.5t-17.5 58.5zM338 1738q0 36 17.5 57t47.5 21q31 0 48.5 -21t17.5 -57q0 -37 -17.5 -58.5t-48.5 -21.5t-48 21.5t-17 58.5z" />
    <glyph glyph-name="Eth" unicode="&#xd0;" horiz-adv-x="1228" 
d="M513 1462q197 0 330 -81t200 -240.5t67 -394.5q0 -245 -69.5 -411.5t-208 -250.5t-346.5 -84h-298v700h-138v89h138v673h325zM499 1372h-210v-583h326v-89h-326v-609h193q267 0 395 163.5t128 486.5q0 206 -53 347t-165 212.5t-288 71.5z" />
    <glyph glyph-name="Ntilde" unicode="&#xd1;" horiz-adv-x="1280" 
d="M1099 0h-111l-712 1295h-5q2 -46 3 -93.5t2.5 -99.5t1.5 -108v-994h-97v1462h112l711 -1286h5q-1 48 -2.5 102t-3 106.5t-1.5 95.5v982h97v-1462zM327 1614q5 52 18.5 92t35.5 67t53 41.5t68 14.5q45 0 81 -20t68 -46.5t63.5 -47t66.5 -20.5q41 0 69 32t37 103h69
q-7 -105 -55 -160.5t-121 -55.5q-44 0 -80.5 20t-68.5 46.5t-63 47t-66 20.5q-39 0 -68 -30.5t-37 -103.5h-70z" />
    <glyph glyph-name="Ograve" unicode="&#xd2;" horiz-adv-x="1321" 
d="M1203 733q0 -159 -31 -296t-96.5 -239.5t-168 -160t-245.5 -57.5q-144 0 -247.5 58.5t-169 162t-97 240.5t-31.5 294q0 236 63 403.5t185 256.5t301 89q182 0 301 -94t177.5 -263.5t58.5 -393.5zM222 734q0 -204 48.5 -353t147 -229.5t244.5 -80.5q149 0 246 79
t144 227.5t47 355.5q0 318 -109 488.5t-324 170.5q-150 0 -248.5 -79.5t-147 -227t-48.5 -351.5zM505 1925q28 -49 68 -104t83 -107.5t82 -94.5v-20h-67q-35 30 -74 69t-78 81.5t-73 83.5t-58 76v16h117z" />
    <glyph glyph-name="Oacute" unicode="&#xd3;" horiz-adv-x="1321" 
d="M1203 733q0 -159 -31 -296t-96.5 -239.5t-168 -160t-245.5 -57.5q-144 0 -247.5 58.5t-169 162t-97 240.5t-31.5 294q0 236 63 403.5t185 256.5t301 89q182 0 301 -94t177.5 -263.5t58.5 -393.5zM222 734q0 -204 48.5 -353t147 -229.5t244.5 -80.5q149 0 246 79
t144 227.5t47 355.5q0 318 -109 488.5t-324 170.5q-150 0 -248.5 -79.5t-147 -227t-48.5 -351.5zM929 1925v-16q-24 -34 -57.5 -75t-73 -84t-78.5 -81.5t-74 -69.5h-65v21q42 47 84.5 99.5t80 105.5t66.5 100h117z" />
    <glyph glyph-name="Ocircumflex" unicode="&#xd4;" horiz-adv-x="1321" 
d="M1203 733q0 -159 -31 -296t-96.5 -239.5t-168 -160t-245.5 -57.5q-144 0 -247.5 58.5t-169 162t-97 240.5t-31.5 294q0 236 63 403.5t185 256.5t301 89q182 0 301 -94t177.5 -263.5t58.5 -393.5zM222 734q0 -204 48.5 -353t147 -229.5t244.5 -80.5q149 0 246 79
t144 227.5t47 355.5q0 318 -109 488.5t-324 170.5q-150 0 -248.5 -79.5t-147 -227t-48.5 -351.5zM709 1923q25 -45 64 -103.5t80 -113.5t70 -91v-16h-64q-49 48 -101.5 111t-96.5 121q-45 -56 -98 -120.5t-101 -111.5h-64v16q33 40 73.5 95.5t78.5 112.5t61 100h98z" />
    <glyph glyph-name="Otilde" unicode="&#xd5;" horiz-adv-x="1321" 
d="M1203 733q0 -159 -31 -296t-96.5 -239.5t-168 -160t-245.5 -57.5q-144 0 -247.5 58.5t-169 162t-97 240.5t-31.5 294q0 236 63 403.5t185 256.5t301 89q182 0 301 -94t177.5 -263.5t58.5 -393.5zM222 734q0 -204 48.5 -353t147 -229.5t244.5 -80.5q149 0 246 79
t144 227.5t47 355.5q0 318 -109 488.5t-324 170.5q-150 0 -248.5 -79.5t-147 -227t-48.5 -351.5zM331 1614q5 52 18.5 92t35.5 67t53 41.5t68 14.5q45 0 81 -20t68 -46.5t63.5 -47t66.5 -20.5q41 0 69 32t37 103h69q-7 -105 -55 -160.5t-121 -55.5q-44 0 -80.5 20
t-68.5 46.5t-63 47t-66 20.5q-39 0 -68 -30.5t-37 -103.5h-70z" />
    <glyph glyph-name="Odieresis" unicode="&#xd6;" horiz-adv-x="1321" 
d="M1203 733q0 -159 -31 -296t-96.5 -239.5t-168 -160t-245.5 -57.5q-144 0 -247.5 58.5t-169 162t-97 240.5t-31.5 294q0 236 63 403.5t185 256.5t301 89q182 0 301 -94t177.5 -263.5t58.5 -393.5zM222 734q0 -204 48.5 -353t147 -229.5t244.5 -80.5q149 0 246 79
t144 227.5t47 355.5q0 318 -109 488.5t-324 170.5q-150 0 -248.5 -79.5t-147 -227t-48.5 -351.5zM423 1735q0 35 17.5 56.5t47.5 21.5q32 0 49 -21t17 -57q0 -38 -17 -59t-49 -21q-30 0 -47.5 21.5t-17.5 58.5zM767 1735q0 36 17.5 57t47.5 21q31 0 48.5 -21t17.5 -57
q0 -37 -17.5 -58.5t-48.5 -21.5t-48 21.5t-17 58.5z" />
    <glyph glyph-name="multiply" unicode="&#xd7;" horiz-adv-x="1005" 
d="M838 1118l59 -57l-337 -337l334 -336l-58 -58l-335 335l-335 -336l-58 58l336 337l-335 335l60 59l334 -336z" />
    <glyph glyph-name="Oslash" unicode="&#xd8;" horiz-adv-x="1338" 
d="M1218 733q0 -164 -32 -301.5t-98 -238.5t-168.5 -157t-243.5 -56q-108 0 -193 34.5t-147 96.5l-121 -197l-70 41l132 220q-74 103 -109.5 246.5t-35.5 313.5q0 236 63 403.5t184.5 256.5t300.5 89q103 0 186.5 -33t146.5 -94l108 175l70 -43l-119 -196q72 -98 109 -240
t37 -320zM1114 733q0 147 -25.5 263.5t-75.5 198.5l-626 -996q54 -63 126 -96t163 -33q150 0 247 79.5t144 228t47 355.5zM236 734q0 -144 25 -260t76 -200l626 996q-53 61 -123 92t-160 31q-149 0 -248 -80t-147.5 -227.5t-48.5 -351.5z" />
    <glyph glyph-name="Ugrave" unicode="&#xd9;" horiz-adv-x="1248" 
d="M1082 1462v-979q0 -173 -56.5 -284t-159.5 -165t-243 -54q-221 0 -338.5 127.5t-117.5 377.5v977h100v-975q0 -214 93 -315t265 -101q111 0 191 43t122.5 134t42.5 233v981h101zM478 1925q28 -49 68 -104t83 -107.5t82 -94.5v-20h-67q-35 30 -74 69t-78 81.5t-73 83.5
t-58 76v16h117z" />
    <glyph glyph-name="Uacute" unicode="&#xda;" horiz-adv-x="1248" 
d="M1082 1462v-979q0 -173 -56.5 -284t-159.5 -165t-243 -54q-221 0 -338.5 127.5t-117.5 377.5v977h100v-975q0 -214 93 -315t265 -101q111 0 191 43t122.5 134t42.5 233v981h101zM891 1925v-16q-24 -34 -57.5 -75t-73 -84t-78.5 -81.5t-74 -69.5h-65v21q42 47 84.5 99.5
t80 105.5t66.5 100h117z" />
    <glyph glyph-name="Ucircumflex" unicode="&#xdb;" horiz-adv-x="1248" 
d="M1082 1462v-979q0 -173 -56.5 -284t-159.5 -165t-243 -54q-221 0 -338.5 127.5t-117.5 377.5v977h100v-975q0 -214 93 -315t265 -101q111 0 191 43t122.5 134t42.5 233v981h101zM673 1923q25 -45 64 -103.5t80 -113.5t70 -91v-16h-64q-49 48 -101.5 111t-96.5 121
q-45 -56 -98 -120.5t-101 -111.5h-64v16q33 40 73.5 95.5t78.5 112.5t61 100h98z" />
    <glyph glyph-name="Udieresis" unicode="&#xdc;" horiz-adv-x="1248" 
d="M1082 1462v-979q0 -173 -56.5 -284t-159.5 -165t-243 -54q-221 0 -338.5 127.5t-117.5 377.5v977h100v-975q0 -214 93 -315t265 -101q111 0 191 43t122.5 134t42.5 233v981h101zM387 1733q0 35 17.5 56.5t47.5 21.5q32 0 49 -21t17 -57q0 -38 -17 -59t-49 -21
q-30 0 -47.5 21.5t-17.5 58.5zM731 1733q0 36 17.5 57t47.5 21q31 0 48.5 -21t17.5 -57q0 -37 -17.5 -58.5t-48.5 -21.5t-48 21.5t-17 58.5z" />
    <glyph glyph-name="Yacute" unicode="&#xdd;" horiz-adv-x="893" 
d="M447 679l338 783h108l-395 -895v-567h-101v563l-397 899h108zM703 1925v-16q-24 -34 -57.5 -75t-73 -84t-78.5 -81.5t-74 -69.5h-65v21q42 47 84.5 99.5t80 105.5t66.5 100h117z" />
    <glyph glyph-name="Thorn" unicode="&#xde;" horiz-adv-x="1020" 
d="M936 784q0 -107 -29 -190t-87.5 -140t-148.5 -86.5t-212 -29.5h-177v-338h-101v1462h101v-265h205q229 0 339 -99.5t110 -313.5zM282 428h165q129 0 214.5 36.5t128.5 114.5t43 202q0 173 -85 249t-272 76h-194v-678z" />
    <glyph glyph-name="germandbls" unicode="&#xdf;" horiz-adv-x="1013" 
d="M817 1296q0 -70 -24 -119.5t-59 -87t-69.5 -70.5t-58.5 -70.5t-24 -89.5q0 -47 18 -83t53.5 -71t85.5 -79q58 -51 100.5 -99t66 -104t23.5 -134q0 -90 -35.5 -160t-105 -109.5t-172.5 -39.5q-72 0 -128.5 14.5t-100.5 40.5v96q34 -19 70 -33.5t75 -22.5t80 -8
q108 0 163.5 60.5t55.5 156.5q0 63 -20 109t-56.5 86.5t-87.5 83.5q-58 50 -99 94.5t-62 92t-21 105.5q0 65 23 109t57.5 78.5t69 68t58.5 77t24 105.5q0 87 -53.5 137t-154.5 50q-82 0 -138 -35t-84.5 -103.5t-28.5 -167.5v-1174h-98v1177q0 127 41.5 214.5t119.5 131.5
t189 44q97 0 165.5 -33.5t105 -94t36.5 -143.5z" />
    <glyph glyph-name="agrave" unicode="&#xe0;" horiz-adv-x="937" 
d="M475 1107q159 0 234 -89.5t75 -284.5v-733h-76l-14 183h-5q-27 -57 -67 -103t-99.5 -73t-147.5 -27q-95 0 -159 39t-97 106.5t-33 154.5q0 162 113 247t324 98l164 11v85q0 165 -53.5 233t-165.5 68q-62 0 -125.5 -17.5t-132.5 -55.5l-33 80q66 36 142 57t156 21z
M687 558l-154 -9q-172 -11 -258.5 -76.5t-86.5 -191.5q0 -107 54.5 -163t151.5 -56q146 0 219.5 104t73.5 280v112zM348 1567q28 -49 68 -104t83 -107.5t82 -94.5v-20h-67q-35 30 -74 69t-78 81.5t-73 83.5t-58 76v16h117z" />
    <glyph glyph-name="aacute" unicode="&#xe1;" horiz-adv-x="937" 
d="M475 1107q159 0 234 -89.5t75 -284.5v-733h-76l-14 183h-5q-27 -57 -67 -103t-99.5 -73t-147.5 -27q-95 0 -159 39t-97 106.5t-33 154.5q0 162 113 247t324 98l164 11v85q0 165 -53.5 233t-165.5 68q-62 0 -125.5 -17.5t-132.5 -55.5l-33 80q66 36 142 57t156 21z
M687 558l-154 -9q-172 -11 -258.5 -76.5t-86.5 -191.5q0 -107 54.5 -163t151.5 -56q146 0 219.5 104t73.5 280v112zM710 1567v-16q-24 -34 -57.5 -75t-73 -84t-78.5 -81.5t-74 -69.5h-65v21q42 47 84.5 99.5t80 105.5t66.5 100h117z" />
    <glyph glyph-name="acircumflex" unicode="&#xe2;" horiz-adv-x="937" 
d="M475 1107q159 0 234 -89.5t75 -284.5v-733h-76l-14 183h-5q-27 -57 -67 -103t-99.5 -73t-147.5 -27q-95 0 -159 39t-97 106.5t-33 154.5q0 162 113 247t324 98l164 11v85q0 165 -53.5 233t-165.5 68q-62 0 -125.5 -17.5t-132.5 -55.5l-33 80q66 36 142 57t156 21z
M687 558l-154 -9q-172 -11 -258.5 -76.5t-86.5 -191.5q0 -107 54.5 -163t151.5 -56q146 0 219.5 104t73.5 280v112zM517 1565q25 -45 64 -103.5t80 -113.5t70 -91v-16h-64q-49 48 -101.5 111t-96.5 121q-45 -56 -98 -120.5t-101 -111.5h-64v16q33 40 73.5 95.5t78.5 112.5
t61 100h98z" />
    <glyph glyph-name="atilde" unicode="&#xe3;" horiz-adv-x="937" 
d="M475 1107q159 0 234 -89.5t75 -284.5v-733h-76l-14 183h-5q-27 -57 -67 -103t-99.5 -73t-147.5 -27q-95 0 -159 39t-97 106.5t-33 154.5q0 162 113 247t324 98l164 11v85q0 165 -53.5 233t-165.5 68q-62 0 -125.5 -17.5t-132.5 -55.5l-33 80q66 36 142 57t156 21z
M687 558l-154 -9q-172 -11 -258.5 -76.5t-86.5 -191.5q0 -107 54.5 -163t151.5 -56q146 0 219.5 104t73.5 280v112zM138 1260q5 52 18.5 92t35.5 67t53 41.5t68 14.5q45 0 81 -20t68 -46.5t63.5 -47t66.5 -20.5q41 0 69 32t37 103h69q-7 -105 -55 -160.5t-121 -55.5
q-44 0 -80.5 20t-68.5 46.5t-63 47t-66 20.5q-39 0 -68 -30.5t-37 -103.5h-70z" />
    <glyph glyph-name="adieresis" unicode="&#xe4;" horiz-adv-x="937" 
d="M475 1107q159 0 234 -89.5t75 -284.5v-733h-76l-14 183h-5q-27 -57 -67 -103t-99.5 -73t-147.5 -27q-95 0 -159 39t-97 106.5t-33 154.5q0 162 113 247t324 98l164 11v85q0 165 -53.5 233t-165.5 68q-62 0 -125.5 -17.5t-132.5 -55.5l-33 80q66 36 142 57t156 21z
M687 558l-154 -9q-172 -11 -258.5 -76.5t-86.5 -191.5q0 -107 54.5 -163t151.5 -56q146 0 219.5 104t73.5 280v112zM228 1377q0 35 17.5 56.5t47.5 21.5q32 0 49 -21t17 -57q0 -38 -17 -59t-49 -21q-30 0 -47.5 21.5t-17.5 58.5zM572 1377q0 36 17.5 57t47.5 21
q31 0 48.5 -21t17.5 -57q0 -37 -17.5 -58.5t-48.5 -21.5t-48 21.5t-17 58.5z" />
    <glyph glyph-name="aring" unicode="&#xe5;" horiz-adv-x="937" 
d="M475 1107q159 0 234 -89.5t75 -284.5v-733h-76l-14 183h-5q-27 -57 -67 -103t-99.5 -73t-147.5 -27q-95 0 -159 39t-97 106.5t-33 154.5q0 162 113 247t324 98l164 11v85q0 165 -53.5 233t-165.5 68q-62 0 -125.5 -17.5t-132.5 -55.5l-33 80q66 36 142 57t156 21z
M687 558l-154 -9q-172 -11 -258.5 -76.5t-86.5 -191.5q0 -107 54.5 -163t151.5 -56q146 0 219.5 104t73.5 280v112zM469 1252q-86 0 -144.5 53.5t-58.5 145.5q0 90 57.5 144t144.5 54t145 -55t58 -142q0 -91 -57.5 -145.5t-144.5 -54.5zM470 1320q58 0 94 37t36 93
q0 59 -36.5 95.5t-94.5 36.5q-59 0 -96 -36.5t-37 -94.5q0 -55 35.5 -93t98.5 -38z" />
    <glyph glyph-name="ae" unicode="&#xe6;" horiz-adv-x="1514" 
d="M1060 1108q120 0 198 -66t115.5 -177t36.5 -248v-77h-636q1 -233 84.5 -353t234.5 -120q72 0 138 16.5t139 55.5v-92q-65 -33 -133.5 -50t-147.5 -17q-95 0 -167.5 36t-121.5 98t-75 144q-26 -86 -72 -148.5t-114 -96t-160 -33.5q-95 0 -160.5 38t-99 105.5t-33.5 157.5
q0 109 51 182.5t148 113.5t234 47l157 8v106q0 149 -55 216.5t-157 67.5q-59 0 -123.5 -18t-134.5 -55l-33 81q63 34 140 55.5t156 21.5q118 0 186.5 -59t89.5 -185q39 108 117.5 176.5t197.5 68.5zM675 555l-145 -7q-171 -10 -256.5 -76t-85.5 -191q0 -102 52.5 -159.5
t152.5 -57.5q91 0 154 45.5t95.5 125t32.5 184.5v136zM1059 1022q-118 0 -195.5 -101t-87.5 -298h536q1 116 -26.5 206t-84 141.5t-142.5 51.5z" />
    <glyph glyph-name="ccedilla" unicode="&#xe7;" horiz-adv-x="820" 
d="M529 -20q-140 0 -234.5 66.5t-141.5 191t-47 297.5q0 182 53.5 310t152.5 195.5t237 67.5q64 0 118.5 -12.5t100.5 -35.5l-30 -85q-44 22 -92 33t-95 11q-109 0 -186 -56.5t-118 -164.5t-41 -262q0 -140 35 -245t107.5 -164t185.5 -59q60 0 117 13.5t107 35.5v-89
q-45 -21 -104 -34.5t-125 -13.5zM675 -291q0 -94 -65.5 -147.5t-178.5 -53.5q-31 0 -58.5 3.5t-49.5 9.5v72q22 -6 48.5 -9t55.5 -3q73 0 118 32t45 94q0 64 -50.5 91t-139.5 33l80 169h74l-56 -121q55 -7 95 -29t61 -57.5t21 -83.5z" />
    <glyph glyph-name="egrave" unicode="&#xe8;" horiz-adv-x="967" 
d="M504 1108q124 0 203.5 -66.5t117.5 -178t38 -249.5v-76h-658q0 -229 85.5 -350t250.5 -121q79 0 143.5 17.5t138.5 56.5v-93q-65 -34 -133.5 -51t-153.5 -17q-145 0 -241 69.5t-142.5 195.5t-46.5 293q0 169 45 297.5t133.5 200.5t219.5 72zM503 1023q-127 0 -204.5 -101
t-90.5 -300h558q0 113 -28 204.5t-86 144t-149 52.5zM373 1567q28 -49 68 -104t83 -107.5t82 -94.5v-20h-67q-35 30 -74 69t-78 81.5t-73 83.5t-58 76v16h117z" />
    <glyph glyph-name="eacute" unicode="&#xe9;" horiz-adv-x="967" 
d="M504 1108q124 0 203.5 -66.5t117.5 -178t38 -249.5v-76h-658q0 -229 85.5 -350t250.5 -121q79 0 143.5 17.5t138.5 56.5v-93q-65 -34 -133.5 -51t-153.5 -17q-145 0 -241 69.5t-142.5 195.5t-46.5 293q0 169 45 297.5t133.5 200.5t219.5 72zM503 1023q-127 0 -204.5 -101
t-90.5 -300h558q0 113 -28 204.5t-86 144t-149 52.5zM757 1567v-16q-24 -34 -57.5 -75t-73 -84t-78.5 -81.5t-74 -69.5h-65v21q42 47 84.5 99.5t80 105.5t66.5 100h117z" />
    <glyph glyph-name="ecircumflex" unicode="&#xea;" horiz-adv-x="967" 
d="M504 1108q124 0 203.5 -66.5t117.5 -178t38 -249.5v-76h-658q0 -229 85.5 -350t250.5 -121q79 0 143.5 17.5t138.5 56.5v-93q-65 -34 -133.5 -51t-153.5 -17q-145 0 -241 69.5t-142.5 195.5t-46.5 293q0 169 45 297.5t133.5 200.5t219.5 72zM503 1023q-127 0 -204.5 -101
t-90.5 -300h558q0 113 -28 204.5t-86 144t-149 52.5zM541 1565q25 -45 64 -103.5t80 -113.5t70 -91v-16h-64q-49 48 -101.5 111t-96.5 121q-45 -56 -98 -120.5t-101 -111.5h-64v16q33 40 73.5 95.5t78.5 112.5t61 100h98z" />
    <glyph glyph-name="edieresis" unicode="&#xeb;" horiz-adv-x="967" 
d="M504 1108q124 0 203.5 -66.5t117.5 -178t38 -249.5v-76h-658q0 -229 85.5 -350t250.5 -121q79 0 143.5 17.5t138.5 56.5v-93q-65 -34 -133.5 -51t-153.5 -17q-145 0 -241 69.5t-142.5 195.5t-46.5 293q0 169 45 297.5t133.5 200.5t219.5 72zM503 1023q-127 0 -204.5 -101
t-90.5 -300h558q0 113 -28 204.5t-86 144t-149 52.5zM254 1377q0 35 17.5 56.5t47.5 21.5q32 0 49 -21t17 -57q0 -38 -17 -59t-49 -21q-30 0 -47.5 21.5t-17.5 58.5zM598 1377q0 36 17.5 57t47.5 21q31 0 48.5 -21t17.5 -57q0 -37 -17.5 -58.5t-48.5 -21.5t-48 21.5
t-17 58.5z" />
    <glyph glyph-name="igrave" unicode="&#xec;" horiz-adv-x="419" 
d="M258 0h-98v1087h98v-1087zM86 1567q28 -49 68 -104t83 -107.5t82 -94.5v-20h-67q-35 30 -74 69t-78 81.5t-73 83.5t-58 76v16h117z" />
    <glyph glyph-name="iacute" unicode="&#xed;" horiz-adv-x="419" 
d="M258 0h-98v1087h98v-1087zM469 1567v-16q-24 -34 -57.5 -75t-73 -84t-78.5 -81.5t-74 -69.5h-65v21q42 47 84.5 99.5t80 105.5t66.5 100h117z" />
    <glyph glyph-name="icircumflex" unicode="&#xee;" horiz-adv-x="419" 
d="M258 0h-98v1087h98v-1087zM258 1565q25 -45 64 -103.5t80 -113.5t70 -91v-16h-64q-49 48 -101.5 111t-96.5 121q-45 -56 -98 -120.5t-101 -111.5h-64v16q33 40 73.5 95.5t78.5 112.5t61 100h98z" />
    <glyph glyph-name="idieresis" unicode="&#xef;" horiz-adv-x="419" 
d="M258 0h-98v1087h98v-1087zM-28 1377q0 35 17.5 56.5t47.5 21.5q32 0 49 -21t17 -57q0 -38 -17 -59t-49 -21q-30 0 -47.5 21.5t-17.5 58.5zM316 1377q0 36 17.5 57t47.5 21q31 0 48.5 -21t17.5 -57q0 -37 -17.5 -58.5t-48.5 -21.5t-48 21.5t-17 58.5z" />
    <glyph glyph-name="eth" unicode="&#xf0;" horiz-adv-x="1014" 
d="M361 1555q56 -27 104 -59.5t90 -68.5l203 124l42 -65l-188 -112q99 -104 164.5 -233t99 -279t33.5 -317q0 -180 -46.5 -306.5t-136.5 -192.5t-220 -66q-131 0 -221 64.5t-136 175t-46 246.5q0 155 51.5 264.5t140.5 168t204 58.5q73 0 126.5 -17.5t92.5 -48t63 -67.5l6 1
q-26 139 -90 270t-162 230l-214 -129l-42 64l199 119q-36 32 -79 61t-86 52zM514 871q-96 0 -165.5 -48.5t-107.5 -140t-38 -218.5q0 -118 35 -208t103.5 -139.5t165.5 -49.5q151 0 226.5 118t75.5 334q0 71 -16.5 135t-52 113t-91.5 76.5t-135 27.5z" />
    <glyph glyph-name="ntilde" unicode="&#xf1;" horiz-adv-x="1041" 
d="M575 1108q151 0 231.5 -90t80.5 -283v-735h-98v720q0 157 -58 229t-168 72q-143 0 -223.5 -102.5t-80.5 -312.5v-606h-99v1087h79l12 -199h6q24 60 66 110t104.5 80t147.5 30zM206 1262q5 52 18.5 92t35.5 67t53 41.5t68 14.5q45 0 81 -20t68 -46.5t63.5 -47t66.5 -20.5
q41 0 69 32t37 103h69q-7 -105 -55 -160.5t-121 -55.5q-44 0 -80.5 20t-68.5 46.5t-63 47t-66 20.5q-39 0 -68 -30.5t-37 -103.5h-70z" />
    <glyph glyph-name="ograve" unicode="&#xf2;" horiz-adv-x="1030" 
d="M924 545q0 -132 -25.5 -236.5t-77 -177.5t-128 -112t-179.5 -39q-99 0 -175 39t-128.5 112.5t-79 178t-26.5 236.5q0 179 47.5 304.5t140 191.5t226.5 66q137 0 227 -69t134 -195.5t44 -298.5zM205 546q0 -150 33.5 -257t102.5 -164t175 -57t174.5 55.5t101 163
t32.5 259.5q0 144 -30.5 250.5t-98 165t-177.5 58.5q-158 0 -235.5 -123.5t-77.5 -350.5zM390 1567q28 -49 68 -104t83 -107.5t82 -94.5v-20h-67q-35 30 -74 69t-78 81.5t-73 83.5t-58 76v16h117z" />
    <glyph glyph-name="oacute" unicode="&#xf3;" horiz-adv-x="1030" 
d="M924 545q0 -132 -25.5 -236.5t-77 -177.5t-128 -112t-179.5 -39q-99 0 -175 39t-128.5 112.5t-79 178t-26.5 236.5q0 179 47.5 304.5t140 191.5t226.5 66q137 0 227 -69t134 -195.5t44 -298.5zM205 546q0 -150 33.5 -257t102.5 -164t175 -57t174.5 55.5t101 163
t32.5 259.5q0 144 -30.5 250.5t-98 165t-177.5 58.5q-158 0 -235.5 -123.5t-77.5 -350.5zM769 1567v-16q-24 -34 -57.5 -75t-73 -84t-78.5 -81.5t-74 -69.5h-65v21q42 47 84.5 99.5t80 105.5t66.5 100h117z" />
    <glyph glyph-name="ocircumflex" unicode="&#xf4;" horiz-adv-x="1030" 
d="M924 545q0 -132 -25.5 -236.5t-77 -177.5t-128 -112t-179.5 -39q-99 0 -175 39t-128.5 112.5t-79 178t-26.5 236.5q0 179 47.5 304.5t140 191.5t226.5 66q137 0 227 -69t134 -195.5t44 -298.5zM205 546q0 -150 33.5 -257t102.5 -164t175 -57t174.5 55.5t101 163
t32.5 259.5q0 144 -30.5 250.5t-98 165t-177.5 58.5q-158 0 -235.5 -123.5t-77.5 -350.5zM562 1565q25 -45 64 -103.5t80 -113.5t70 -91v-16h-64q-49 48 -101.5 111t-96.5 121q-45 -56 -98 -120.5t-101 -111.5h-64v16q33 40 73.5 95.5t78.5 112.5t61 100h98z" />
    <glyph glyph-name="otilde" unicode="&#xf5;" horiz-adv-x="1030" 
d="M924 545q0 -132 -25.5 -236.5t-77 -177.5t-128 -112t-179.5 -39q-99 0 -175 39t-128.5 112.5t-79 178t-26.5 236.5q0 179 47.5 304.5t140 191.5t226.5 66q137 0 227 -69t134 -195.5t44 -298.5zM205 546q0 -150 33.5 -257t102.5 -164t175 -57t174.5 55.5t101 163
t32.5 259.5q0 144 -30.5 250.5t-98 165t-177.5 58.5q-158 0 -235.5 -123.5t-77.5 -350.5zM183 1259q5 52 18.5 92t35.5 67t53 41.5t68 14.5q45 0 81 -20t68 -46.5t63.5 -47t66.5 -20.5q41 0 69 32t37 103h69q-7 -105 -55 -160.5t-121 -55.5q-44 0 -80.5 20t-68.5 46.5
t-63 47t-66 20.5q-39 0 -68 -30.5t-37 -103.5h-70z" />
    <glyph glyph-name="odieresis" unicode="&#xf6;" horiz-adv-x="1030" 
d="M924 545q0 -132 -25.5 -236.5t-77 -177.5t-128 -112t-179.5 -39q-99 0 -175 39t-128.5 112.5t-79 178t-26.5 236.5q0 179 47.5 304.5t140 191.5t226.5 66q137 0 227 -69t134 -195.5t44 -298.5zM205 546q0 -150 33.5 -257t102.5 -164t175 -57t174.5 55.5t101 163
t32.5 259.5q0 144 -30.5 250.5t-98 165t-177.5 58.5q-158 0 -235.5 -123.5t-77.5 -350.5zM276 1377q0 35 17.5 56.5t47.5 21.5q32 0 49 -21t17 -57q0 -38 -17 -59t-49 -21q-30 0 -47.5 21.5t-17.5 58.5zM620 1377q0 36 17.5 57t47.5 21q31 0 48.5 -21t17.5 -57
q0 -37 -17.5 -58.5t-48.5 -21.5t-48 21.5t-17 58.5z" />
    <glyph glyph-name="divide" unicode="&#xf7;" horiz-adv-x="1005" 
d="M85 680v86h835v-86h-835zM502 271q-38 0 -56 24.5t-18 64.5q0 43 18.5 67t55.5 24q39 0 56 -24t17 -66t-17.5 -66t-55.5 -24zM502 994q-37 0 -55.5 24t-18.5 66t18.5 65.5t55.5 23.5q39 0 56 -23.5t17 -66.5q0 -42 -17.5 -65.5t-55.5 -23.5z" />
    <glyph glyph-name="oslash" unicode="&#xf8;" horiz-adv-x="1052" 
d="M941 545q0 -178 -46.5 -304t-137.5 -193.5t-226 -67.5q-79 0 -143 26t-112 74l-117 -186l-66 42l128 205q-49 74 -74 175.5t-25 229.5q0 270 106.5 416t307.5 146q77 0 139 -23.5t108 -68.5l99 156l67 -40l-109 -176q51 -74 76 -178.5t25 -232.5zM221 546
q0 -97 14.5 -175.5t42.5 -137.5l457 704q-35 40 -85 62t-115 22q-158 0 -236 -124t-78 -351zM843 546q0 96 -14.5 177t-46.5 140l-457 -704q36 -46 88.5 -69.5t118.5 -23.5q107 0 176 56.5t102 164t33 259.5z" />
    <glyph glyph-name="ugrave" unicode="&#xf9;" horiz-adv-x="1041" 
d="M879 1087v-1087h-79l-12 197h-6q-23 -58 -64.5 -107.5t-104 -79.5t-148.5 -30q-106 0 -175.5 42.5t-104 128t-34.5 210.5v726h99v-710q0 -160 57.5 -234.5t169.5 -74.5q99 0 166 45.5t102 138.5t35 234v601h99zM398 1567q28 -49 68 -104t83 -107.5t82 -94.5v-20h-67
q-35 30 -74 69t-78 81.5t-73 83.5t-58 76v16h117z" />
    <glyph glyph-name="uacute" unicode="&#xfa;" horiz-adv-x="1041" 
d="M879 1087v-1087h-79l-12 197h-6q-23 -58 -64.5 -107.5t-104 -79.5t-148.5 -30q-106 0 -175.5 42.5t-104 128t-34.5 210.5v726h99v-710q0 -160 57.5 -234.5t169.5 -74.5q99 0 166 45.5t102 138.5t35 234v601h99zM780 1567v-16q-24 -34 -57.5 -75t-73 -84t-78.5 -81.5
t-74 -69.5h-65v21q42 47 84.5 99.5t80 105.5t66.5 100h117z" />
    <glyph glyph-name="ucircumflex" unicode="&#xfb;" horiz-adv-x="1041" 
d="M879 1087v-1087h-79l-12 197h-6q-23 -58 -64.5 -107.5t-104 -79.5t-148.5 -30q-106 0 -175.5 42.5t-104 128t-34.5 210.5v726h99v-710q0 -160 57.5 -234.5t169.5 -74.5q99 0 166 45.5t102 138.5t35 234v601h99zM569 1565q25 -45 64 -103.5t80 -113.5t70 -91v-16h-64
q-49 48 -101.5 111t-96.5 121q-45 -56 -98 -120.5t-101 -111.5h-64v16q33 40 73.5 95.5t78.5 112.5t61 100h98z" />
    <glyph glyph-name="udieresis" unicode="&#xfc;" horiz-adv-x="1041" 
d="M879 1087v-1087h-79l-12 197h-6q-23 -58 -64.5 -107.5t-104 -79.5t-148.5 -30q-106 0 -175.5 42.5t-104 128t-34.5 210.5v726h99v-710q0 -160 57.5 -234.5t169.5 -74.5q99 0 166 45.5t102 138.5t35 234v601h99zM282 1377q0 35 17.5 56.5t47.5 21.5q32 0 49 -21t17 -57
q0 -38 -17 -59t-49 -21q-30 0 -47.5 21.5t-17.5 58.5zM626 1377q0 36 17.5 57t47.5 21q31 0 48.5 -21t17.5 -57q0 -37 -17.5 -58.5t-48.5 -21.5t-48 21.5t-17 58.5z" />
    <glyph glyph-name="yacute" unicode="&#xfd;" horiz-adv-x="815" 
d="M17 1087h102l222 -709q19 -58 31.5 -101t21.5 -76.5t15 -63.5h7q12 53 29.5 112.5t39.5 127.5l220 710h103l-414 -1300q-31 -96 -69 -159t-89 -93t-119 -30q-30 0 -54.5 5.5t-50.5 13.5v89q22 -8 46 -13.5t49 -5.5q44 0 78 20.5t62 66.5t52 122l65 210zM663 1567v-16
q-24 -34 -57.5 -75t-73 -84t-78.5 -81.5t-74 -69.5h-65v21q42 47 84.5 99.5t80 105.5t66.5 100h117z" />
    <glyph glyph-name="thorn" unicode="&#xfe;" horiz-adv-x="1058" 
d="M955 552q0 -188 -46.5 -315.5t-132.5 -192t-204 -64.5q-85 0 -147 30t-102 79t-62 108h-7q2 -26 3 -58t2 -65.5t1 -65.5v-489h-99v2037h99v-473q0 -43 -2 -102t-6 -106h5q25 64 66.5 117t104 84.5t150.5 31.5q182 0 279.5 -140t97.5 -416zM855 552q0 233 -71.5 350.5
t-218.5 117.5q-152 0 -228 -114.5t-77 -328.5v-64q0 -223 77.5 -334t221.5 -111q94 0 160 53.5t101 161t35 269.5z" />
    <glyph glyph-name="ydieresis" unicode="&#xff;" horiz-adv-x="815" 
d="M17 1087h102l222 -709q19 -58 31.5 -101t21.5 -76.5t15 -63.5h7q12 53 29.5 112.5t39.5 127.5l220 710h103l-414 -1300q-31 -96 -69 -159t-89 -93t-119 -30q-30 0 -54.5 5.5t-50.5 13.5v89q22 -8 46 -13.5t49 -5.5q44 0 78 20.5t62 66.5t52 122l65 210zM168 1377
q0 35 17.5 56.5t47.5 21.5q32 0 49 -21t17 -57q0 -38 -17 -59t-49 -21q-30 0 -47.5 21.5t-17.5 58.5zM512 1377q0 36 17.5 57t47.5 21q31 0 48.5 -21t17.5 -57q0 -37 -17.5 -58.5t-48.5 -21.5t-48 21.5t-17 58.5z" />
    <glyph glyph-name="Amacron" unicode="&#x100;" horiz-adv-x="1030" 
d="M924 0l-162 524h-493l-165 -524h-104l463 1465h110l456 -1465h-105zM735 617l-166 559q-8 28 -17 60t-18 65t-18 65q-7 -33 -16 -64.5t-17.5 -63.5t-17.5 -62l-169 -559h439zM766 1713v-82h-500v82h500z" />
    <glyph glyph-name="amacron" unicode="&#x101;" horiz-adv-x="937" 
d="M475 1107q159 0 234 -89.5t75 -284.5v-733h-76l-14 183h-5q-27 -57 -67 -103t-99.5 -73t-147.5 -27q-95 0 -159 39t-97 106.5t-33 154.5q0 162 113 247t324 98l164 11v85q0 165 -53.5 233t-165.5 68q-62 0 -125.5 -17.5t-132.5 -55.5l-33 80q66 36 142 57t156 21z
M687 558l-154 -9q-172 -11 -258.5 -76.5t-86.5 -191.5q0 -107 54.5 -163t151.5 -56q146 0 219.5 104t73.5 280v112zM717 1338v-82h-500v82h500z" />
    <glyph glyph-name="Abreve" unicode="&#x102;" horiz-adv-x="1030" 
d="M924 0l-162 524h-493l-165 -524h-104l463 1465h110l456 -1465h-105zM735 617l-166 559q-8 28 -17 60t-18 65t-18 65q-7 -33 -16 -64.5t-17.5 -63.5t-17.5 -62l-169 -559h439zM765 1860q-6 -74 -37 -128t-85 -83.5t-129 -29.5q-111 0 -175.5 62t-71.5 179h71
q5 -52 26.5 -87.5t59.5 -53.5t92 -18q53 0 90.5 18.5t59 54.5t26.5 86h73z" />
    <glyph glyph-name="abreve" unicode="&#x103;" horiz-adv-x="937" 
d="M475 1107q159 0 234 -89.5t75 -284.5v-733h-76l-14 183h-5q-27 -57 -67 -103t-99.5 -73t-147.5 -27q-95 0 -159 39t-97 106.5t-33 154.5q0 162 113 247t324 98l164 11v85q0 165 -53.5 233t-165.5 68q-62 0 -125.5 -17.5t-132.5 -55.5l-33 80q66 36 142 57t156 21z
M687 558l-154 -9q-172 -11 -258.5 -76.5t-86.5 -191.5q0 -107 54.5 -163t151.5 -56q146 0 219.5 104t73.5 280v112zM716 1485q-6 -74 -37 -128t-85 -83.5t-129 -29.5q-111 0 -175.5 62t-71.5 179h71q5 -52 26.5 -87.5t59.5 -53.5t92 -18q53 0 90.5 18.5t59 54.5t26.5 86h73z
" />
    <glyph glyph-name="Aogonek" unicode="&#x104;" horiz-adv-x="1030" 
d="M924 0l-162 524h-493l-165 -524h-104l463 1465h110l456 -1465h-105zM735 617l-166 559q-8 28 -17 60t-18 65t-18 65q-7 -33 -16 -64.5t-17.5 -63.5t-17.5 -62l-169 -559h439zM841 -261q0 -54 26 -82t75 -28q25 0 47.5 3.5t35.5 7.5v-73q-17 -5 -42 -10t-55 -5
q-82 0 -128 45t-46 129q0 54 22.5 105.5t63.5 100t98 92.5l61 -24q-74 -65 -116 -127.5t-42 -133.5z" />
    <glyph glyph-name="aogonek" unicode="&#x105;" horiz-adv-x="937" 
d="M475 1107q159 0 234 -89.5t75 -284.5v-733h-76l-14 183h-5q-27 -57 -67 -103t-99.5 -73t-147.5 -27q-95 0 -159 39t-97 106.5t-33 154.5q0 162 113 247t324 98l164 11v85q0 165 -53.5 233t-165.5 68q-62 0 -125.5 -17.5t-132.5 -55.5l-33 80q66 36 142 57t156 21z
M687 558l-154 -9q-172 -11 -258.5 -76.5t-86.5 -191.5q0 -107 54.5 -163t151.5 -56q146 0 219.5 104t73.5 280v112zM629 -261q0 -54 26 -82t75 -28q25 0 47.5 3.5t35.5 7.5v-73q-17 -5 -42 -10t-55 -5q-82 0 -128 45t-46 129q0 54 22.5 105.5t63.5 100t98 92.5l61 -24
q-74 -65 -116 -127.5t-42 -133.5z" />
    <glyph glyph-name="Cacute" unicode="&#x106;" horiz-adv-x="1073" 
d="M708 1392q-121 0 -212.5 -51t-152 -141.5t-91 -210.5t-30.5 -256q0 -199 55.5 -348.5t162.5 -231.5t261 -82q88 0 160 17t129 41v-91q-58 -26 -132 -42t-166 -16q-183 0 -311.5 92.5t-196 262t-67.5 399.5q0 157 37.5 292.5t111.5 238.5t184.5 161t257.5 58
q84 0 161.5 -18.5t147.5 -53.5l-40 -87q-65 35 -132.5 51t-136.5 16zM929 1942v-16q-24 -34 -57.5 -75t-73 -84t-78.5 -81.5t-74 -69.5h-65v21q42 47 84.5 99.5t80 105.5t66.5 100h117z" />
    <glyph glyph-name="cacute" unicode="&#x107;" horiz-adv-x="820" 
d="M529 -20q-140 0 -234.5 66.5t-141.5 191t-47 297.5q0 182 53.5 310t152.5 195.5t237 67.5q64 0 118.5 -12.5t100.5 -35.5l-30 -85q-44 22 -92 33t-95 11q-109 0 -186 -56.5t-118 -164.5t-41 -262q0 -140 35 -245t107.5 -164t185.5 -59q60 0 117 13.5t107 35.5v-89
q-45 -21 -104 -34.5t-125 -13.5zM754 1567v-16q-24 -34 -57.5 -75t-73 -84t-78.5 -81.5t-74 -69.5h-65v21q42 47 84.5 99.5t80 105.5t66.5 100h117z" />
    <glyph glyph-name="Ccircumflex" unicode="&#x108;" horiz-adv-x="1073" 
d="M708 1392q-121 0 -212.5 -51t-152 -141.5t-91 -210.5t-30.5 -256q0 -199 55.5 -348.5t162.5 -231.5t261 -82q88 0 160 17t129 41v-91q-58 -26 -132 -42t-166 -16q-183 0 -311.5 92.5t-196 262t-67.5 399.5q0 157 37.5 292.5t111.5 238.5t184.5 161t257.5 58
q84 0 161.5 -18.5t147.5 -53.5l-40 -87q-65 35 -132.5 51t-136.5 16zM710 1940q25 -45 64 -103.5t80 -113.5t70 -91v-16h-64q-49 48 -101.5 111t-96.5 121q-45 -56 -98 -120.5t-101 -111.5h-64v16q33 40 73.5 95.5t78.5 112.5t61 100h98z" />
    <glyph glyph-name="ccircumflex" unicode="&#x109;" horiz-adv-x="820" 
d="M529 -20q-140 0 -234.5 66.5t-141.5 191t-47 297.5q0 182 53.5 310t152.5 195.5t237 67.5q64 0 118.5 -12.5t100.5 -35.5l-30 -85q-44 22 -92 33t-95 11q-109 0 -186 -56.5t-118 -164.5t-41 -262q0 -140 35 -245t107.5 -164t185.5 -59q60 0 117 13.5t107 35.5v-89
q-45 -21 -104 -34.5t-125 -13.5zM543 1565q25 -45 64 -103.5t80 -113.5t70 -91v-16h-64q-49 48 -101.5 111t-96.5 121q-45 -56 -98 -120.5t-101 -111.5h-64v16q33 40 73.5 95.5t78.5 112.5t61 100h98z" />
    <glyph glyph-name="Cdot" unicode="&#x10a;" horiz-adv-x="1073" 
d="M708 1392q-121 0 -212.5 -51t-152 -141.5t-91 -210.5t-30.5 -256q0 -199 55.5 -348.5t162.5 -231.5t261 -82q88 0 160 17t129 41v-91q-58 -26 -132 -42t-166 -16q-183 0 -311.5 92.5t-196 262t-67.5 399.5q0 157 37.5 292.5t111.5 238.5t184.5 161t257.5 58
q84 0 161.5 -18.5t147.5 -53.5l-40 -87q-65 35 -132.5 51t-136.5 16zM667 1856q37 0 54 -24t17 -61q0 -39 -18 -62t-53 -23t-53 23t-18 61t17.5 62t53.5 24z" />
    <glyph glyph-name="cdot" unicode="&#x10b;" horiz-adv-x="820" 
d="M529 -20q-140 0 -234.5 66.5t-141.5 191t-47 297.5q0 182 53.5 310t152.5 195.5t237 67.5q64 0 118.5 -12.5t100.5 -35.5l-30 -85q-44 22 -92 33t-95 11q-109 0 -186 -56.5t-118 -164.5t-41 -262q0 -140 35 -245t107.5 -164t185.5 -59q60 0 117 13.5t107 35.5v-89
q-45 -21 -104 -34.5t-125 -13.5zM495 1492q37 0 54 -24t17 -61q0 -39 -18 -62t-53 -23t-53 23t-18 61t17.5 62t53.5 24z" />
    <glyph glyph-name="Ccaron" unicode="&#x10c;" horiz-adv-x="1073" 
d="M708 1392q-121 0 -212.5 -51t-152 -141.5t-91 -210.5t-30.5 -256q0 -199 55.5 -348.5t162.5 -231.5t261 -82q88 0 160 17t129 41v-91q-58 -26 -132 -42t-166 -16q-183 0 -311.5 92.5t-196 262t-67.5 399.5q0 157 37.5 292.5t111.5 238.5t184.5 161t257.5 58
q84 0 161.5 -18.5t147.5 -53.5l-40 -87q-65 35 -132.5 51t-136.5 16zM615 1616q-25 47 -62 103t-77 110t-73 94v17h64q48 -46 99.5 -109t94.5 -123q47 62 95.5 119t102.5 113h64v-17q-33 -42 -74 -96.5t-78.5 -109.5t-62.5 -101h-93z" />
    <glyph glyph-name="ccaron" unicode="&#x10d;" horiz-adv-x="820" 
d="M529 -20q-140 0 -234.5 66.5t-141.5 191t-47 297.5q0 182 53.5 310t152.5 195.5t237 67.5q64 0 118.5 -12.5t100.5 -35.5l-30 -85q-44 22 -92 33t-95 11q-109 0 -186 -56.5t-118 -164.5t-41 -262q0 -140 35 -245t107.5 -164t185.5 -59q60 0 117 13.5t107 35.5v-89
q-45 -21 -104 -34.5t-125 -13.5zM450 1241q-25 47 -62 103t-77 110t-73 94v17h64q48 -46 99.5 -109t94.5 -123q47 62 95.5 119t102.5 113h64v-17q-33 -42 -74 -96.5t-78.5 -109.5t-62.5 -101h-93z" />
    <glyph glyph-name="Dcaron" unicode="&#x10e;" horiz-adv-x="1224" 
d="M1106 746q0 -245 -69.5 -411.5t-208 -250.5t-345.5 -84h-302v1462h328q198 0 330.5 -81t199.5 -240.5t67 -394.5zM1001 741q0 206 -53 347t-165 212.5t-288 71.5h-213v-1281h196q267 0 395 163.5t128 486.5zM535 1616q-25 47 -62 103t-77 110t-73 94v17h64
q48 -46 99.5 -109t94.5 -123q47 62 95.5 119t102.5 113h64v-17q-33 -42 -74 -96.5t-78.5 -109.5t-62.5 -101h-93z" />
    <glyph glyph-name="dcaron" unicode="&#x10f;" horiz-adv-x="1058" 
d="M489 -20q-189 0 -286.5 141t-97.5 411q0 281 102.5 428.5t287.5 147.5q80 0 140.5 -28.5t102 -76t63.5 -105.5h6q-3 47 -4.5 95.5t-1.5 89.5v473h98v-1556h-79l-13 194h-6q-23 -57 -63.5 -106t-101.5 -78.5t-147 -29.5zM502 67q156 0 228 113.5t72 319.5v79
q0 212 -72 326.5t-222 114.5q-148 0 -225 -125t-77 -364q0 -225 72 -344.5t224 -119.5zM1149 1556v-17q-10 -43 -28.5 -101t-41.5 -115t-48 -96h-55v21q9 19 19 59t20 87.5t18 91t11 70.5h105z" />
    <glyph glyph-name="Dcroat" unicode="&#x110;" horiz-adv-x="1228" 
d="M513 1462q197 0 330 -81t200 -240.5t67 -394.5q0 -245 -69.5 -411.5t-208 -250.5t-346.5 -84h-298v700h-138v89h138v673h325zM499 1372h-210v-583h326v-89h-326v-609h193q267 0 395 163.5t128 486.5q0 206 -53 347t-165 212.5t-288 71.5z" />
    <glyph glyph-name="dcroat" unicode="&#x111;" horiz-adv-x="1065" 
d="M489 -20q-189 0 -286.5 140.5t-97.5 409.5q0 281 102.5 427.5t287.5 146.5q81 0 141 -28.5t101.5 -76t63.5 -104.5h6q-2 47 -4 95t-2 90v194h-360v81h360v201h98v-201h142v-81h-142v-1274h-80l-12 194h-7q-23 -58 -63.5 -106.5t-101.5 -78t-146 -29.5zM502 67
q155 0 226.5 113.5t71.5 320.5v76q0 211 -71 325t-221 114q-148 0 -224.5 -124t-76.5 -363q0 -225 71.5 -343.5t223.5 -118.5z" />
    <glyph glyph-name="Emacron" unicode="&#x112;" horiz-adv-x="964" 
d="M853 0h-672v1462h672v-91h-571v-557h538v-92h-538v-630h571v-92zM776 1713v-82h-500v82h500z" />
    <glyph glyph-name="emacron" unicode="&#x113;" horiz-adv-x="967" 
d="M504 1108q124 0 203.5 -66.5t117.5 -178t38 -249.5v-76h-658q0 -229 85.5 -350t250.5 -121q79 0 143.5 17.5t138.5 56.5v-93q-65 -34 -133.5 -51t-153.5 -17q-145 0 -241 69.5t-142.5 195.5t-46.5 293q0 169 45 297.5t133.5 200.5t219.5 72zM503 1023q-127 0 -204.5 -101
t-90.5 -300h558q0 113 -28 204.5t-86 144t-149 52.5zM737 1338v-82h-500v82h500z" />
    <glyph glyph-name="Ebreve" unicode="&#x114;" horiz-adv-x="964" 
d="M853 0h-672v1462h672v-91h-571v-557h538v-92h-538v-630h571v-92zM780 1860q-6 -74 -37 -128t-85 -83.5t-129 -29.5q-111 0 -175.5 62t-71.5 179h71q5 -52 26.5 -87.5t59.5 -53.5t92 -18q53 0 90.5 18.5t59 54.5t26.5 86h73z" />
    <glyph glyph-name="ebreve" unicode="&#x115;" horiz-adv-x="967" 
d="M504 1108q124 0 203.5 -66.5t117.5 -178t38 -249.5v-76h-658q0 -229 85.5 -350t250.5 -121q79 0 143.5 17.5t138.5 56.5v-93q-65 -34 -133.5 -51t-153.5 -17q-145 0 -241 69.5t-142.5 195.5t-46.5 293q0 169 45 297.5t133.5 200.5t219.5 72zM503 1023q-127 0 -204.5 -101
t-90.5 -300h558q0 113 -28 204.5t-86 144t-149 52.5zM747 1485q-6 -74 -37 -128t-85 -83.5t-129 -29.5q-111 0 -175.5 62t-71.5 179h71q5 -52 26.5 -87.5t59.5 -53.5t92 -18q53 0 90.5 18.5t59 54.5t26.5 86h73z" />
    <glyph glyph-name="Edotaccent" unicode="&#x116;" horiz-adv-x="964" 
d="M853 0h-672v1462h672v-91h-571v-557h538v-92h-538v-630h571v-92zM531 1860q37 0 54 -24t17 -61q0 -39 -18 -62t-53 -23t-53 23t-18 61t17.5 62t53.5 24z" />
    <glyph glyph-name="edotaccent" unicode="&#x117;" horiz-adv-x="967" 
d="M504 1108q124 0 203.5 -66.5t117.5 -178t38 -249.5v-76h-658q0 -229 85.5 -350t250.5 -121q79 0 143.5 17.5t138.5 56.5v-93q-65 -34 -133.5 -51t-153.5 -17q-145 0 -241 69.5t-142.5 195.5t-46.5 293q0 169 45 297.5t133.5 200.5t219.5 72zM503 1023q-127 0 -204.5 -101
t-90.5 -300h558q0 113 -28 204.5t-86 144t-149 52.5zM498 1492q37 0 54 -24t17 -61q0 -39 -18 -62t-53 -23t-53 23t-18 61t17.5 62t53.5 24z" />
    <glyph glyph-name="Eogonek" unicode="&#x118;" horiz-adv-x="964" 
d="M853 0h-672v1462h672v-91h-571v-557h538v-92h-538v-630h571v-92zM636 -261q0 -54 26 -82t75 -28q25 0 47.5 3.5t35.5 7.5v-73q-17 -5 -42 -10t-55 -5q-82 0 -128 45t-46 129q0 54 22.5 105.5t63.5 100t98 92.5l61 -24q-74 -65 -116 -127.5t-42 -133.5z" />
    <glyph glyph-name="eogonek" unicode="&#x119;" horiz-adv-x="967" 
d="M618 -263q0 -52 27 -79.5t79 -27.5q26 0 48.5 3.5t36.5 7.5v-73q-19 -6 -44 -11t-55 -5q-83 0 -130.5 44.5t-47.5 130.5q0 53 23.5 104.5t66 101.5t99.5 95l95 18q-59 -53 -104 -106t-69.5 -103.5t-24.5 -99.5zM504 1108q124 0 203.5 -66.5t117.5 -178t38 -249.5v-76
h-658q0 -229 85.5 -350t250.5 -121q79 0 143.5 17.5t138.5 56.5v-93q-65 -34 -133.5 -51t-153.5 -17q-145 0 -241 69.5t-142.5 195.5t-46.5 293q0 169 45 297.5t133.5 200.5t219.5 72zM503 1023q-127 0 -204.5 -101t-90.5 -300h558q0 113 -28 204.5t-86 144t-149 52.5z" />
    <glyph glyph-name="Ecaron" unicode="&#x11a;" horiz-adv-x="964" 
d="M853 0h-672v1462h672v-91h-571v-557h538v-92h-538v-630h571v-92zM480 1616q-25 47 -62 103t-77 110t-73 94v17h64q48 -46 99.5 -109t94.5 -123q47 62 95.5 119t102.5 113h64v-17q-33 -42 -74 -96.5t-78.5 -109.5t-62.5 -101h-93z" />
    <glyph glyph-name="ecaron" unicode="&#x11b;" horiz-adv-x="967" 
d="M504 1108q124 0 203.5 -66.5t117.5 -178t38 -249.5v-76h-658q0 -229 85.5 -350t250.5 -121q79 0 143.5 17.5t138.5 56.5v-93q-65 -34 -133.5 -51t-153.5 -17q-145 0 -241 69.5t-142.5 195.5t-46.5 293q0 169 45 297.5t133.5 200.5t219.5 72zM503 1023q-127 0 -204.5 -101
t-90.5 -300h558q0 113 -28 204.5t-86 144t-149 52.5zM441 1241q-25 47 -62 103t-77 110t-73 94v17h64q48 -46 99.5 -109t94.5 -123q47 62 95.5 119t102.5 113h64v-17q-33 -42 -74 -96.5t-78.5 -109.5t-62.5 -101h-93z" />
    <glyph glyph-name="Gcircumflex" unicode="&#x11c;" horiz-adv-x="1283" 
d="M701 739h445v-680q-93 -40 -197.5 -59.5t-212.5 -19.5q-207 0 -344 93t-206 261.5t-69 394.5q0 222 74.5 392.5t218 266.5t350.5 96q101 0 192.5 -21.5t176.5 -68.5l-41 -87q-82 45 -164 65.5t-165 20.5q-174 0 -294 -83.5t-181.5 -233t-61.5 -347.5q0 -205 58.5 -352.5
t175.5 -226.5t293 -79q87 0 162 14t137 37v525h-347v92zM763 1940q25 -45 64 -103.5t80 -113.5t70 -91v-16h-64q-49 48 -101.5 111t-96.5 121q-45 -56 -98 -120.5t-101 -111.5h-64v16q33 40 73.5 95.5t78.5 112.5t61 100h98z" />
    <glyph glyph-name="gcircumflex" unicode="&#x11d;" horiz-adv-x="890" 
d="M397 -492q-174 0 -272.5 79t-98.5 221q0 115 60.5 191t159.5 96q-42 21 -68.5 59.5t-26.5 90.5q0 54 29.5 102.5t88.5 89.5q-79 35 -124 117t-45 195q0 109 40 189.5t113.5 125t174.5 44.5q32 0 57 -2t46 -6.5t38 -12.5h298v-70l-190 -14q39 -50 57.5 -114t18.5 -130
q0 -163 -86.5 -258t-242.5 -95q-44 0 -83 9q-47 -33 -74.5 -70t-27.5 -91q0 -34 17 -56.5t49 -35.5t78 -13h167q148 0 226.5 -70.5t78.5 -210.5q0 -171 -119 -265.5t-339 -94.5zM404 -408q117 0 195.5 30.5t118.5 91.5t40 152q0 74 -29.5 115t-82.5 56t-122 15h-153
q-70 0 -126.5 -23t-88 -74.5t-31.5 -137.5q0 -111 73 -168t206 -57zM427 486q109 0 168 68t59 199q0 138 -61 207t-168 69q-104 0 -164 -74t-60 -206q0 -125 57 -194t169 -69zM473 1565q25 -45 64 -103.5t80 -113.5t70 -91v-16h-64q-49 48 -101.5 111t-96.5 121
q-45 -56 -98 -120.5t-101 -111.5h-64v16q33 40 73.5 95.5t78.5 112.5t61 100h98z" />
    <glyph glyph-name="Gbreve" unicode="&#x11e;" horiz-adv-x="1283" 
d="M701 739h445v-680q-93 -40 -197.5 -59.5t-212.5 -19.5q-207 0 -344 93t-206 261.5t-69 394.5q0 222 74.5 392.5t218 266.5t350.5 96q101 0 192.5 -21.5t176.5 -68.5l-41 -87q-82 45 -164 65.5t-165 20.5q-174 0 -294 -83.5t-181.5 -233t-61.5 -347.5q0 -205 58.5 -352.5
t175.5 -226.5t293 -79q87 0 162 14t137 37v525h-347v92zM974 1860q-6 -74 -37 -128t-85 -83.5t-129 -29.5q-111 0 -175.5 62t-71.5 179h71q5 -52 26.5 -87.5t59.5 -53.5t92 -18q53 0 90.5 18.5t59 54.5t26.5 86h73z" />
    <glyph glyph-name="gbreve" unicode="&#x11f;" horiz-adv-x="890" 
d="M397 -492q-174 0 -272.5 79t-98.5 221q0 115 60.5 191t159.5 96q-42 21 -68.5 59.5t-26.5 90.5q0 54 29.5 102.5t88.5 89.5q-79 35 -124 117t-45 195q0 109 40 189.5t113.5 125t174.5 44.5q32 0 57 -2t46 -6.5t38 -12.5h298v-70l-190 -14q39 -50 57.5 -114t18.5 -130
q0 -163 -86.5 -258t-242.5 -95q-44 0 -83 9q-47 -33 -74.5 -70t-27.5 -91q0 -34 17 -56.5t49 -35.5t78 -13h167q148 0 226.5 -70.5t78.5 -210.5q0 -171 -119 -265.5t-339 -94.5zM404 -408q117 0 195.5 30.5t118.5 91.5t40 152q0 74 -29.5 115t-82.5 56t-122 15h-153
q-70 0 -126.5 -23t-88 -74.5t-31.5 -137.5q0 -111 73 -168t206 -57zM427 486q109 0 168 68t59 199q0 138 -61 207t-168 69q-104 0 -164 -74t-60 -206q0 -125 57 -194t169 -69zM674 1485q-6 -74 -37 -128t-85 -83.5t-129 -29.5q-111 0 -175.5 62t-71.5 179h71
q5 -52 26.5 -87.5t59.5 -53.5t92 -18q53 0 90.5 18.5t59 54.5t26.5 86h73z" />
    <glyph glyph-name="Gdot" unicode="&#x120;" horiz-adv-x="1283" 
d="M701 739h445v-680q-93 -40 -197.5 -59.5t-212.5 -19.5q-207 0 -344 93t-206 261.5t-69 394.5q0 222 74.5 392.5t218 266.5t350.5 96q101 0 192.5 -21.5t176.5 -68.5l-41 -87q-82 45 -164 65.5t-165 20.5q-174 0 -294 -83.5t-181.5 -233t-61.5 -347.5q0 -205 58.5 -352.5
t175.5 -226.5t293 -79q87 0 162 14t137 37v525h-347v92zM727 1865q37 0 54 -24t17 -61q0 -39 -18 -62t-53 -23t-53 23t-18 61t17.5 62t53.5 24z" />
    <glyph glyph-name="gdot" unicode="&#x121;" horiz-adv-x="890" 
d="M397 -492q-174 0 -272.5 79t-98.5 221q0 115 60.5 191t159.5 96q-42 21 -68.5 59.5t-26.5 90.5q0 54 29.5 102.5t88.5 89.5q-79 35 -124 117t-45 195q0 109 40 189.5t113.5 125t174.5 44.5q32 0 57 -2t46 -6.5t38 -12.5h298v-70l-190 -14q39 -50 57.5 -114t18.5 -130
q0 -163 -86.5 -258t-242.5 -95q-44 0 -83 9q-47 -33 -74.5 -70t-27.5 -91q0 -34 17 -56.5t49 -35.5t78 -13h167q148 0 226.5 -70.5t78.5 -210.5q0 -171 -119 -265.5t-339 -94.5zM404 -408q117 0 195.5 30.5t118.5 91.5t40 152q0 74 -29.5 115t-82.5 56t-122 15h-153
q-70 0 -126.5 -23t-88 -74.5t-31.5 -137.5q0 -111 73 -168t206 -57zM427 486q109 0 168 68t59 199q0 138 -61 207t-168 69q-104 0 -164 -74t-60 -206q0 -125 57 -194t169 -69zM425 1492q37 0 54 -24t17 -61q0 -39 -18 -62t-53 -23t-53 23t-18 61t17.5 62t53.5 24z" />
    <glyph glyph-name="uni0122" unicode="&#x122;" horiz-adv-x="1283" 
d="M701 739h445v-680q-93 -40 -197.5 -59.5t-212.5 -19.5q-207 0 -344 93t-206 261.5t-69 394.5q0 222 74.5 392.5t218 266.5t350.5 96q101 0 192.5 -21.5t176.5 -68.5l-41 -87q-82 45 -164 65.5t-165 20.5q-174 0 -294 -83.5t-181.5 -233t-61.5 -347.5q0 -205 58.5 -352.5
t175.5 -226.5t293 -79q87 0 162 14t137 37v525h-347v92zM792 -125v-17q-12 -47 -32 -102t-45.5 -109t-55.5 -100h-55v20q15 35 32.5 91t32.5 115.5t19 101.5h104z" />
    <glyph glyph-name="uni0123" unicode="&#x123;" horiz-adv-x="890" 
d="M545 1566v-19q-15 -34 -34 -91t-33.5 -116.5t-19.5 -101.5h-103v18q12 47 31 102t45.5 109t57.5 99h56zM397 -492q-174 0 -272.5 79t-98.5 221q0 115 60.5 191t159.5 96q-42 21 -68.5 59.5t-26.5 90.5q0 54 29.5 102.5t88.5 89.5q-79 35 -124 117t-45 195q0 109 40 189.5
t113.5 125t174.5 44.5q32 0 57 -2t46 -6.5t38 -12.5h298v-70l-190 -14q39 -50 57.5 -114t18.5 -130q0 -163 -86.5 -258t-242.5 -95q-44 0 -83 9q-47 -33 -74.5 -70t-27.5 -91q0 -34 17 -56.5t49 -35.5t78 -13h167q148 0 226.5 -70.5t78.5 -210.5q0 -171 -119 -265.5
t-339 -94.5zM404 -408q117 0 195.5 30.5t118.5 91.5t40 152q0 74 -29.5 115t-82.5 56t-122 15h-153q-70 0 -126.5 -23t-88 -74.5t-31.5 -137.5q0 -111 73 -168t206 -57zM427 486q109 0 168 68t59 199q0 138 -61 207t-168 69q-104 0 -164 -74t-60 -206q0 -125 57 -194
t169 -69z" />
    <glyph glyph-name="Hcircumflex" unicode="&#x124;" horiz-adv-x="1252" 
d="M1072 0h-101v721h-689v-721h-101v1462h101v-648h689v648h101v-1462zM681 1940q25 -45 64 -103.5t80 -113.5t70 -91v-16h-64q-49 48 -101.5 111t-96.5 121q-45 -56 -98 -120.5t-101 -111.5h-64v16q33 40 73.5 95.5t78.5 112.5t61 100h98z" />
    <glyph glyph-name="hcircumflex" unicode="&#x125;" horiz-adv-x="1041" 
d="M259 1556v-507q0 -46 -1.5 -82t-4.5 -72h6q23 57 64.5 105.5t103.5 78t145 29.5q104 0 173.5 -41.5t105.5 -125t36 -211.5v-730h-98v717q0 161 -59 232t-169 71q-94 0 -161.5 -45.5t-104 -139.5t-36.5 -238v-597h-99v1556h99zM259 2034q25 -45 64 -103.5t80 -113.5
t70 -91v-16h-64q-49 48 -101.5 111t-96.5 121q-45 -56 -98 -120.5t-101 -111.5h-64v16q33 40 73.5 95.5t78.5 112.5t61 100h98z" />
    <glyph glyph-name="Hbar" unicode="&#x126;" horiz-adv-x="1255" 
d="M181 0v1105h-182v85h182v272h100v-272h689v272h101v-272h184v-85h-184v-1105h-101v720h-689v-720h-100zM282 814h689v291h-689v-291z" />
    <glyph glyph-name="hbar" unicode="&#x127;" horiz-adv-x="1046" 
d="M264 1556v-201h362v-82h-362v-239q0 -43 -1.5 -77.5t-4.5 -72.5h6q23 58 64.5 106.5t104 78t145.5 29.5q103 0 172.5 -41.5t105.5 -125.5t36 -211v-720h-98v706q0 160 -59 231.5t-169 71.5q-94 0 -161.5 -45t-104.5 -138t-37 -239v-587h-97v1273h-141v82h141v201h98z" />
    <glyph glyph-name="Itilde" unicode="&#x128;" horiz-adv-x="462" 
d="M181 0v1462h100v-1462h-100zM-82 1631q5 52 18.5 92t35.5 67t53 41.5t68 14.5q45 0 81 -20t68 -46.5t63.5 -47t66.5 -20.5q41 0 69 32t37 103h69q-7 -105 -55 -160.5t-121 -55.5q-44 0 -80.5 20t-68.5 46.5t-63 47t-66 20.5q-39 0 -68 -30.5t-37 -103.5h-70z" />
    <glyph glyph-name="itilde" unicode="&#x129;" horiz-adv-x="419" 
d="M258 0h-98v1087h98v-1087zM-121 1256q5 52 18.5 92t35.5 67t53 41.5t68 14.5q45 0 81 -20t68 -46.5t63.5 -47t66.5 -20.5q41 0 69 32t37 103h69q-7 -105 -55 -160.5t-121 -55.5q-44 0 -80.5 20t-68.5 46.5t-63 47t-66 20.5q-39 0 -68 -30.5t-37 -103.5h-70z" />
    <glyph glyph-name="Imacron" unicode="&#x12a;" horiz-adv-x="462" 
d="M181 0v1462h100v-1462h-100zM482 1713v-82h-500v82h500z" />
    <glyph glyph-name="imacron" unicode="&#x12b;" horiz-adv-x="419" 
d="M258 0h-98v1087h98v-1087zM459 1338v-82h-500v82h500z" />
    <glyph glyph-name="Ibreve" unicode="&#x12c;" horiz-adv-x="462" 
d="M181 0v1462h100v-1462h-100zM482 1860q-6 -74 -37 -128t-85 -83.5t-129 -29.5q-111 0 -175.5 62t-71.5 179h71q5 -52 26.5 -87.5t59.5 -53.5t92 -18q53 0 90.5 18.5t59 54.5t26.5 86h73z" />
    <glyph glyph-name="ibreve" unicode="&#x12d;" horiz-adv-x="419" 
d="M258 0h-98v1087h98v-1087zM458 1485q-6 -74 -37 -128t-85 -83.5t-129 -29.5q-111 0 -175.5 62t-71.5 179h71q5 -52 26.5 -87.5t59.5 -53.5t92 -18q53 0 90.5 18.5t59 54.5t26.5 86h73z" />
    <glyph glyph-name="Iogonek" unicode="&#x12e;" horiz-adv-x="462" 
d="M181 0v1462h100v-1462h-100zM124 -261q0 -54 26 -82t75 -28q25 0 47.5 3.5t35.5 7.5v-73q-17 -5 -42 -10t-55 -5q-82 0 -128 45t-46 129q0 54 22.5 105.5t63.5 100t98 92.5l61 -24q-74 -65 -116 -127.5t-42 -133.5z" />
    <glyph glyph-name="iogonek" unicode="&#x12f;" horiz-adv-x="426" 
d="M262 1087v-1087h-97v1087h97zM216 1492q36 0 53.5 -24t17.5 -61q0 -39 -18.5 -62t-53.5 -23q-34 0 -52.5 23t-18.5 61t17.5 62t54.5 24zM101 -261q0 -54 26 -82t75 -28q25 0 47.5 3.5t35.5 7.5v-73q-17 -5 -42 -10t-55 -5q-82 0 -128 45t-46 129q0 54 22.5 105.5
t63.5 100t98 92.5l61 -24q-74 -65 -116 -127.5t-42 -133.5z" />
    <glyph glyph-name="Idotaccent" unicode="&#x130;" horiz-adv-x="462" 
d="M181 0v1462h100v-1462h-100zM233 1854q37 0 54 -24t17 -61q0 -39 -18 -62t-53 -23t-53 23t-18 61t17.5 62t53.5 24z" />
    <glyph glyph-name="dotlessi" unicode="&#x131;" horiz-adv-x="419" 
d="M258 0h-98v1087h98v-1087z" />
    <glyph glyph-name="IJ" unicode="&#x132;" horiz-adv-x="920" 
d="M181 0v1462h100v-1462h-100zM463 -370q-43 0 -78.5 6.5t-62.5 18.5v91q28 -10 63.5 -16.5t73.5 -6.5q67 0 108.5 30.5t60 90t18.5 148.5v1470h100v-1476q0 -116 -30.5 -195.5t-92.5 -120t-160 -40.5z" />
    <glyph glyph-name="ij" unicode="&#x133;" horiz-adv-x="848" 
d="M262 1087v-1087h-97v1087h97zM216 1492q36 0 53.5 -24t17.5 -61q0 -39 -18.5 -62t-53.5 -23q-34 0 -52.5 23t-18.5 61t17.5 62t54.5 24zM468 -493q-34 0 -60.5 5.5t-45.5 13.5v88q22 -9 46 -13t50 -4q65 0 95.5 46.5t30.5 143.5v1300h98v-1306q0 -94 -26.5 -155t-74 -90
t-113.5 -29zM565 1406q0 38 17.5 62t53.5 24q37 0 54 -24t17 -61q0 -39 -18 -62t-54 -23q-34 0 -52 23t-18 61z" />
    <glyph glyph-name="Jcircumflex" unicode="&#x134;" horiz-adv-x="458" 
d="M1 -370q-43 0 -78.5 6.5t-62.5 18.5v91q28 -10 63.5 -16.5t73.5 -6.5q67 0 108.5 30.5t60 90t18.5 148.5v1470h100v-1476q0 -116 -30.5 -195.5t-92.5 -120t-160 -40.5zM281 1934q25 -45 64 -103.5t80 -113.5t70 -91v-16h-64q-49 48 -101.5 111t-96.5 121
q-45 -56 -98 -120.5t-101 -111.5h-64v16q33 40 73.5 95.5t78.5 112.5t61 100h98z" />
    <glyph glyph-name="jcircumflex" unicode="&#x135;" horiz-adv-x="426" 
d="M47 -493q-34 0 -61 5.5t-45 13.5v88q22 -9 46 -13t50 -4q65 0 95.5 48t30.5 143v1299h98v-1306q0 -94 -26.5 -155t-74.5 -90t-113 -29zM262 1565q25 -45 64 -103.5t80 -113.5t70 -91v-16h-64q-49 48 -101.5 111t-96.5 121q-45 -56 -98 -120.5t-101 -111.5h-64v16
q33 40 73.5 95.5t78.5 112.5t61 100h98z" />
    <glyph glyph-name="uni0136" unicode="&#x136;" horiz-adv-x="1009" 
d="M1012 0h-117l-460 753l-153 -174v-579h-101v1462h101v-775q24 35 59 81.5t77 105.5l457 588h118l-487 -631zM633 -125v-17q-12 -47 -32 -102t-45.5 -109t-55.5 -100h-55v20q15 35 32.5 91t32.5 115.5t19 101.5h104z" />
    <glyph glyph-name="uni0137" unicode="&#x137;" horiz-adv-x="856" 
d="M259 1556v-792q0 -70 -1.5 -137t-3.5 -136h3q24 34 47 65.5t47 63.5l356 467h113l-342 -439l373 -648h-111l-328 574l-153 -186v-388h-99v1556h99zM532 -125v-17q-12 -47 -32 -102t-45.5 -109t-55.5 -100h-55v20q15 35 32.5 91t32.5 115.5t19 101.5h104z" />
    <glyph glyph-name="kgreenlandic" unicode="&#x138;" horiz-adv-x="856" 
d="M820 1087l-337 -444l368 -643h-111l-324 571l-154 -185v-386h-102v1087h102v-315q0 -74 -1.5 -146.5t-5.5 -138.5h2q23 31 42 58.5t42 57.5l365 484h114z" />
    <glyph glyph-name="Lacute" unicode="&#x139;" horiz-adv-x="886" 
d="M181 0v1462h101v-1369h563v-93h-664zM512 1942v-16q-24 -34 -57.5 -75t-73 -84t-78.5 -81.5t-74 -69.5h-65v21q42 47 84.5 99.5t80 105.5t66.5 100h117z" />
    <glyph glyph-name="lacute" unicode="&#x13a;" horiz-adv-x="419" 
d="M260 0h-99v1556h99v-1556zM484 2036v-16q-24 -34 -57.5 -75t-73 -84t-78.5 -81.5t-74 -69.5h-65v21q42 47 84.5 99.5t80 105.5t66.5 100h117z" />
    <glyph glyph-name="uni013B" unicode="&#x13b;" horiz-adv-x="886" 
d="M181 0v1462h101v-1369h563v-93h-664zM586 -125v-17q-12 -47 -32 -102t-45.5 -109t-55.5 -100h-55v20q15 35 32.5 91t32.5 115.5t19 101.5h104z" />
    <glyph glyph-name="uni013C" unicode="&#x13c;" horiz-adv-x="419" 
d="M260 0h-99v1556h99v-1556zM284 -125v-17q-12 -47 -32 -102t-45.5 -109t-55.5 -100h-55v20q15 35 32.5 91t32.5 115.5t19 101.5h104z" />
    <glyph glyph-name="Lcaron" unicode="&#x13d;" horiz-adv-x="886" 
d="M181 0v1462h101v-1369h563v-93h-664zM826 1462v-17q-10 -43 -28.5 -101t-41.5 -115t-48 -96h-55v21q9 19 19 59t20 87.5t18 91t11 70.5h105z" />
    <glyph glyph-name="lcaron" unicode="&#x13e;" horiz-adv-x="421" 
d="M260 0h-99v1556h99v-1556zM508 1556v-17q-10 -43 -28.5 -101t-41.5 -115t-48 -96h-55v21q9 19 19 59t20 87.5t18 91t11 70.5h105z" />
    <glyph glyph-name="Ldot" unicode="&#x13f;" horiz-adv-x="886" 
d="M181 0v1462h101v-1369h563v-93h-664zM654 894q37 0 54 -24t17 -61q0 -39 -18 -62t-53 -23t-53 23t-18 61t17.5 62t53.5 24z" />
    <glyph glyph-name="ldot" unicode="&#x140;" horiz-adv-x="475" 
d="M260 0h-99v1556h99v-1556zM449 904q37 0 54 -24t17 -61q0 -39 -18 -62t-53 -23t-53 23t-18 61t17.5 62t53.5 24z" />
    <glyph glyph-name="Lslash" unicode="&#x141;" horiz-adv-x="890" 
d="M184 0v539l-128 -80l-45 70l173 111v822h101v-759l294 184l45 -72l-339 -212v-510h562v-93h-663z" />
    <glyph glyph-name="lslash" unicode="&#x142;" horiz-adv-x="433" 
d="M167 0v679l-138 -93l-44 69l182 124v777h97v-712l153 105l46 -69l-199 -135v-745h-97z" />
    <glyph glyph-name="Nacute" unicode="&#x143;" horiz-adv-x="1280" 
d="M1099 0h-111l-712 1295h-5q2 -46 3 -93.5t2.5 -99.5t1.5 -108v-994h-97v1462h112l711 -1286h5q-1 48 -2.5 102t-3 106.5t-1.5 95.5v982h97v-1462zM891 1942v-16q-24 -34 -57.5 -75t-73 -84t-78.5 -81.5t-74 -69.5h-65v21q42 47 84.5 99.5t80 105.5t66.5 100h117z" />
    <glyph glyph-name="nacute" unicode="&#x144;" horiz-adv-x="1041" 
d="M575 1108q151 0 231.5 -90t80.5 -283v-735h-98v720q0 157 -58 229t-168 72q-143 0 -223.5 -102.5t-80.5 -312.5v-606h-99v1087h79l12 -199h6q24 60 66 110t104.5 80t147.5 30zM798 1567v-16q-24 -34 -57.5 -75t-73 -84t-78.5 -81.5t-74 -69.5h-65v21q42 47 84.5 99.5
t80 105.5t66.5 100h117z" />
    <glyph glyph-name="uni0145" unicode="&#x145;" horiz-adv-x="1280" 
d="M1099 0h-111l-712 1295h-5q2 -46 3 -93.5t2.5 -99.5t1.5 -108v-994h-97v1462h112l711 -1286h5q-1 48 -2.5 102t-3 106.5t-1.5 95.5v982h97v-1462zM722 -125v-17q-12 -47 -32 -102t-45.5 -109t-55.5 -100h-55v20q15 35 32.5 91t32.5 115.5t19 101.5h104z" />
    <glyph glyph-name="uni0146" unicode="&#x146;" horiz-adv-x="1041" 
d="M575 1108q151 0 231.5 -90t80.5 -283v-735h-98v720q0 157 -58 229t-168 72q-143 0 -223.5 -102.5t-80.5 -312.5v-606h-99v1087h79l12 -199h6q24 60 66 110t104.5 80t147.5 30zM602 -125v-17q-12 -47 -32 -102t-45.5 -109t-55.5 -100h-55v20q15 35 32.5 91t32.5 115.5
t19 101.5h104z" />
    <glyph glyph-name="Ncaron" unicode="&#x147;" horiz-adv-x="1280" 
d="M1099 0h-111l-712 1295h-5q2 -46 3 -93.5t2.5 -99.5t1.5 -108v-994h-97v1462h112l711 -1286h5q-1 48 -2.5 102t-3 106.5t-1.5 95.5v982h97v-1462zM592 1616q-25 47 -62 103t-77 110t-73 94v17h64q48 -46 99.5 -109t94.5 -123q47 62 95.5 119t102.5 113h64v-17
q-33 -42 -74 -96.5t-78.5 -109.5t-62.5 -101h-93z" />
    <glyph glyph-name="ncaron" unicode="&#x148;" horiz-adv-x="1041" 
d="M575 1108q151 0 231.5 -90t80.5 -283v-735h-98v720q0 157 -58 229t-168 72q-143 0 -223.5 -102.5t-80.5 -312.5v-606h-99v1087h79l12 -199h6q24 60 66 110t104.5 80t147.5 30zM492 1241q-25 47 -62 103t-77 110t-73 94v17h64q48 -46 99.5 -109t94.5 -123q47 62 95.5 119
t102.5 113h64v-17q-33 -42 -74 -96.5t-78.5 -109.5t-62.5 -101h-93z" />
    <glyph glyph-name="napostrophe" unicode="&#x149;" horiz-adv-x="1099" 
d="M633 1108q151 0 231.5 -90t80.5 -283v-735h-98v720q0 157 -58 229t-168 72q-143 0 -223.5 -102.5t-80.5 -312.5v-606h-99v1087h79l12 -199h6q24 60 66 110t104.5 80t147.5 30zM211 1462l15 -21q-17 -76 -40 -155.5t-51 -157t-60 -151.5h-74q19 59 36.5 122t31.5 125.5
t25 122.5t19 115h98z" />
    <glyph glyph-name="Eng" unicode="&#x14a;" horiz-adv-x="1281" 
d="M819 -370q-41 0 -79.5 7.5t-62.5 17.5v90q28 -10 64.5 -16t73.5 -6q60 0 102.5 28t65 91.5t22.5 170.5l-730 1285h-5q2 -43 3.5 -92t3 -101t1.5 -109v-996h-97v1462h111l713 -1255h5q-2 48 -3.5 99t-2 101.5t-0.5 97.5v957h97v-1461q0 -123 -32.5 -205.5t-95.5 -124
t-154 -41.5z" />
    <glyph glyph-name="eng" unicode="&#x14b;" horiz-adv-x="1041" 
d="M676 -493q-32 0 -57 5.5t-46 13.5v88q23 -10 46 -14t47 -4q61 0 92 49t31 146v930q0 155 -58.5 226.5t-169.5 71.5q-92 0 -160 -44t-105 -134.5t-37 -231.5v-609h-99v1087h79l13 -199h6q24 59 65.5 109t104 80.5t147.5 30.5q103 0 172 -41.5t105 -125t36 -210.5v-941
q0 -92 -25.5 -155.5t-72 -95.5t-114.5 -32z" />
    <glyph glyph-name="Omacron" unicode="&#x14c;" horiz-adv-x="1321" 
d="M1203 733q0 -159 -31 -296t-96.5 -239.5t-168 -160t-245.5 -57.5q-144 0 -247.5 58.5t-169 162t-97 240.5t-31.5 294q0 236 63 403.5t185 256.5t301 89q182 0 301 -94t177.5 -263.5t58.5 -393.5zM222 734q0 -204 48.5 -353t147 -229.5t244.5 -80.5q149 0 246 79
t144 227.5t47 355.5q0 318 -109 488.5t-324 170.5q-150 0 -248.5 -79.5t-147 -227t-48.5 -351.5zM909 1713v-82h-500v82h500z" />
    <glyph glyph-name="omacron" unicode="&#x14d;" horiz-adv-x="1030" 
d="M924 545q0 -132 -25.5 -236.5t-77 -177.5t-128 -112t-179.5 -39q-99 0 -175 39t-128.5 112.5t-79 178t-26.5 236.5q0 179 47.5 304.5t140 191.5t226.5 66q137 0 227 -69t134 -195.5t44 -298.5zM205 546q0 -150 33.5 -257t102.5 -164t175 -57t174.5 55.5t101 163
t32.5 259.5q0 144 -30.5 250.5t-98 165t-177.5 58.5q-158 0 -235.5 -123.5t-77.5 -350.5zM764 1338v-82h-500v82h500z" />
    <glyph glyph-name="Obreve" unicode="&#x14e;" horiz-adv-x="1321" 
d="M1203 733q0 -159 -31 -296t-96.5 -239.5t-168 -160t-245.5 -57.5q-144 0 -247.5 58.5t-169 162t-97 240.5t-31.5 294q0 236 63 403.5t185 256.5t301 89q182 0 301 -94t177.5 -263.5t58.5 -393.5zM222 734q0 -204 48.5 -353t147 -229.5t244.5 -80.5q149 0 246 79
t144 227.5t47 355.5q0 318 -109 488.5t-324 170.5q-150 0 -248.5 -79.5t-147 -227t-48.5 -351.5zM910 1860q-6 -74 -37 -128t-85 -83.5t-129 -29.5q-111 0 -175.5 62t-71.5 179h71q5 -52 26.5 -87.5t59.5 -53.5t92 -18q53 0 90.5 18.5t59 54.5t26.5 86h73z" />
    <glyph glyph-name="obreve" unicode="&#x14f;" horiz-adv-x="1030" 
d="M924 545q0 -132 -25.5 -236.5t-77 -177.5t-128 -112t-179.5 -39q-99 0 -175 39t-128.5 112.5t-79 178t-26.5 236.5q0 179 47.5 304.5t140 191.5t226.5 66q137 0 227 -69t134 -195.5t44 -298.5zM205 546q0 -150 33.5 -257t102.5 -164t175 -57t174.5 55.5t101 163
t32.5 259.5q0 144 -30.5 250.5t-98 165t-177.5 58.5q-158 0 -235.5 -123.5t-77.5 -350.5zM763 1485q-6 -74 -37 -128t-85 -83.5t-129 -29.5q-111 0 -175.5 62t-71.5 179h71q5 -52 26.5 -87.5t59.5 -53.5t92 -18q53 0 90.5 18.5t59 54.5t26.5 86h73z" />
    <glyph glyph-name="Ohungarumlaut" unicode="&#x150;" horiz-adv-x="1321" 
d="M1203 733q0 -159 -31 -296t-96.5 -239.5t-168 -160t-245.5 -57.5q-144 0 -247.5 58.5t-169 162t-97 240.5t-31.5 294q0 236 63 403.5t185 256.5t301 89q182 0 301 -94t177.5 -263.5t58.5 -393.5zM222 734q0 -204 48.5 -353t147 -229.5t244.5 -80.5q149 0 246 79
t144 227.5t47 355.5q0 318 -109 488.5t-324 170.5q-150 0 -248.5 -79.5t-147 -227t-48.5 -351.5zM1053 1944v-17q-17 -30 -45.5 -70.5t-63 -84.5t-70.5 -84.5t-66 -71.5h-59v18q33 42 71.5 99t72.5 114t53 97h107zM758 1944v-17q-17 -30 -45.5 -70.5t-63 -84t-70.5 -84
t-68 -72.5h-58v18q34 44 72 101t72 113t54 96h107z" />
    <glyph glyph-name="ohungarumlaut" unicode="&#x151;" horiz-adv-x="1030" 
d="M924 545q0 -132 -25.5 -236.5t-77 -177.5t-128 -112t-179.5 -39q-99 0 -175 39t-128.5 112.5t-79 178t-26.5 236.5q0 179 47.5 304.5t140 191.5t226.5 66q137 0 227 -69t134 -195.5t44 -298.5zM205 546q0 -150 33.5 -257t102.5 -164t175 -57t174.5 55.5t101 163
t32.5 259.5q0 144 -30.5 250.5t-98 165t-177.5 58.5q-158 0 -235.5 -123.5t-77.5 -350.5zM914 1569v-17q-17 -30 -45.5 -70.5t-63 -84.5t-70.5 -84.5t-66 -71.5h-59v18q33 42 71.5 99t72.5 114t53 97h107zM619 1569v-17q-17 -30 -45.5 -70.5t-63 -84t-70.5 -84t-68 -72.5
h-58v18q34 44 72 101t72 113t54 96h107z" />
    <glyph glyph-name="OE" unicode="&#x152;" horiz-adv-x="1566" 
d="M686 1470q46 0 80 -2t71 -6h620v-90h-577v-558h544v-92h-544v-630h577v-92h-627q-33 -2 -69.5 -5t-79.5 -3q-190 0 -315 89t-187 255.5t-62 398.5q0 224 60 389t186 255.5t323 90.5zM682 1380q-127 0 -214.5 -47.5t-142 -133.5t-79 -204t-24.5 -261q0 -197 48 -344
t150 -227t263 -81q30 0 54 3t43 7v1277q-18 5 -42.5 8t-55.5 3z" />
    <glyph glyph-name="oe" unicode="&#x153;" horiz-adv-x="1686" 
d="M1223 1107q126 0 204.5 -66t115.5 -178t37 -249v-77h-659q0 -234 87 -352t254 -118q78 0 141.5 16.5t137.5 55.5v-92q-65 -33 -132 -50t-153 -17q-154 0 -247.5 78.5t-134.5 212.5q-38 -132 -128.5 -211.5t-233.5 -79.5q-132 0 -223 68t-138 195t-47 302q0 183 49 308
t142 190t227 65q143 0 229 -79.5t122 -211.5q27 84 73.5 150t115.5 103t161 37zM520 1020q-160 0 -237.5 -123t-77.5 -352q0 -150 33.5 -257t101.5 -164t172 -57q109 0 177.5 58t101 164.5t32.5 254.5t-31.5 255t-97.5 164t-174 57zM1222 1022q-126 0 -205.5 -98.5
t-93.5 -302.5h559q1 115 -26 206t-85 143t-149 52z" />
    <glyph glyph-name="Racute" unicode="&#x154;" horiz-adv-x="1044" 
d="M465 1462q155 0 259.5 -38.5t157 -125.5t52.5 -233q0 -109 -34 -189t-96.5 -131.5t-151.5 -78.5l352 -666h-116l-331 639h-275v-639h-101v1462h284zM459 1372h-177v-644h220q154 0 242 83t88 252q0 170 -90 239.5t-283 69.5zM803 1942v-16q-24 -34 -57.5 -75t-73 -84
t-78.5 -81.5t-74 -69.5h-65v21q42 47 84.5 99.5t80 105.5t66.5 100h117z" />
    <glyph glyph-name="racute" unicode="&#x155;" horiz-adv-x="683" 
d="M536 1106q32 0 63 -5t59 -15l-18 -93q-24 7 -51 12t-58 5q-64 0 -114.5 -33.5t-85.5 -92.5t-53 -135.5t-18 -163.5v-585h-99v1087h80l13 -213h7q21 61 58 113.5t91 85.5t126 33zM653 1567v-16q-24 -34 -57.5 -75t-73 -84t-78.5 -81.5t-74 -69.5h-65v21q42 47 84.5 99.5
t80 105.5t66.5 100h117z" />
    <glyph glyph-name="uni0156" unicode="&#x156;" horiz-adv-x="1044" 
d="M465 1462q155 0 259.5 -38.5t157 -125.5t52.5 -233q0 -109 -34 -189t-96.5 -131.5t-151.5 -78.5l352 -666h-116l-331 639h-275v-639h-101v1462h284zM459 1372h-177v-644h220q154 0 242 83t88 252q0 170 -90 239.5t-283 69.5zM637 -125v-17q-12 -47 -32 -102t-45.5 -109
t-55.5 -100h-55v20q15 35 32.5 91t32.5 115.5t19 101.5h104z" />
    <glyph glyph-name="uni0157" unicode="&#x157;" horiz-adv-x="683" 
d="M536 1106q32 0 63 -5t59 -15l-18 -93q-24 7 -51 12t-58 5q-64 0 -114.5 -33.5t-85.5 -92.5t-53 -135.5t-18 -163.5v-585h-99v1087h80l13 -213h7q21 61 58 113.5t91 85.5t126 33zM287 -125v-17q-12 -47 -32 -102t-45.5 -109t-55.5 -100h-55v20q15 35 32.5 91t32.5 115.5
t19 101.5h104z" />
    <glyph glyph-name="Rcaron" unicode="&#x158;" horiz-adv-x="1044" 
d="M465 1462q155 0 259.5 -38.5t157 -125.5t52.5 -233q0 -109 -34 -189t-96.5 -131.5t-151.5 -78.5l352 -666h-116l-331 639h-275v-639h-101v1462h284zM459 1372h-177v-644h220q154 0 242 83t88 252q0 170 -90 239.5t-283 69.5zM487 1616q-25 47 -62 103t-77 110t-73 94v17
h64q48 -46 99.5 -109t94.5 -123q47 62 95.5 119t102.5 113h64v-17q-33 -42 -74 -96.5t-78.5 -109.5t-62.5 -101h-93z" />
    <glyph glyph-name="rcaron" unicode="&#x159;" horiz-adv-x="683" 
d="M536 1106q32 0 63 -5t59 -15l-18 -93q-24 7 -51 12t-58 5q-64 0 -114.5 -33.5t-85.5 -92.5t-53 -135.5t-18 -163.5v-585h-99v1087h80l13 -213h7q21 61 58 113.5t91 85.5t126 33zM348 1241q-25 47 -62 103t-77 110t-73 94v17h64q48 -46 99.5 -109t94.5 -123
q47 62 95.5 119t102.5 113h64v-17q-33 -42 -74 -96.5t-78.5 -109.5t-62.5 -101h-93z" />
    <glyph glyph-name="Sacute" unicode="&#x15a;" horiz-adv-x="967" 
d="M871 382q0 -129 -55 -218.5t-152.5 -136.5t-226.5 -47q-67 0 -128 7.5t-114 20.5t-98 32v103q69 -30 158.5 -50.5t182.5 -20.5q103 0 177 36t114.5 104.5t40.5 164.5q0 89 -34.5 145.5t-104.5 98t-179 85.5q-75 33 -138 67t-108.5 79t-70 108t-24.5 151q-1 120 53 203
t147.5 126t212.5 43q90 0 172 -19t150 -51l-36 -89q-74 35 -147.5 50.5t-139.5 15.5q-94 0 -163.5 -32.5t-108 -94t-38.5 -150.5q0 -93 36.5 -151t104.5 -98t161 -78q112 -48 191.5 -97t122 -121t42.5 -186zM758 1942v-16q-24 -34 -57.5 -75t-73 -84t-78.5 -81.5t-74 -69.5
h-65v21q42 47 84.5 99.5t80 105.5t66.5 100h117z" />
    <glyph glyph-name="sacute" unicode="&#x15b;" horiz-adv-x="807" 
d="M726 277q0 -93 -40.5 -160t-118.5 -102t-193 -35q-94 0 -169 19.5t-124 46.5v102q60 -36 136 -58.5t157 -22.5q132 0 192.5 55t60.5 152q0 63 -28.5 104.5t-82.5 73t-132 65.5q-85 39 -150.5 77t-102.5 94t-37 145q0 124 89.5 199.5t247.5 75.5q81 0 151.5 -17t128.5 -47
l-38 -83q-50 28 -114.5 44.5t-129.5 16.5q-111 0 -175 -48t-64 -138q0 -62 28 -101.5t82.5 -70t132.5 -66.5q81 -38 148 -76.5t106 -95.5t39 -149zM667 1567v-16q-24 -34 -57.5 -75t-73 -84t-78.5 -81.5t-74 -69.5h-65v21q42 47 84.5 99.5t80 105.5t66.5 100h117z" />
    <glyph glyph-name="Scircumflex" unicode="&#x15c;" horiz-adv-x="967" 
d="M871 382q0 -129 -55 -218.5t-152.5 -136.5t-226.5 -47q-67 0 -128 7.5t-114 20.5t-98 32v103q69 -30 158.5 -50.5t182.5 -20.5q103 0 177 36t114.5 104.5t40.5 164.5q0 89 -34.5 145.5t-104.5 98t-179 85.5q-75 33 -138 67t-108.5 79t-70 108t-24.5 151q-1 120 53 203
t147.5 126t212.5 43q90 0 172 -19t150 -51l-36 -89q-74 35 -147.5 50.5t-139.5 15.5q-94 0 -163.5 -32.5t-108 -94t-38.5 -150.5q0 -93 36.5 -151t104.5 -98t161 -78q112 -48 191.5 -97t122 -121t42.5 -186zM552 1940q25 -45 64 -103.5t80 -113.5t70 -91v-16h-64
q-49 48 -101.5 111t-96.5 121q-45 -56 -98 -120.5t-101 -111.5h-64v16q33 40 73.5 95.5t78.5 112.5t61 100h98z" />
    <glyph glyph-name="scircumflex" unicode="&#x15d;" horiz-adv-x="807" 
d="M726 277q0 -93 -40.5 -160t-118.5 -102t-193 -35q-94 0 -169 19.5t-124 46.5v102q60 -36 136 -58.5t157 -22.5q132 0 192.5 55t60.5 152q0 63 -28.5 104.5t-82.5 73t-132 65.5q-85 39 -150.5 77t-102.5 94t-37 145q0 124 89.5 199.5t247.5 75.5q81 0 151.5 -17t128.5 -47
l-38 -83q-50 28 -114.5 44.5t-129.5 16.5q-111 0 -175 -48t-64 -138q0 -62 28 -101.5t82.5 -70t132.5 -66.5q81 -38 148 -76.5t106 -95.5t39 -149zM460 1565q25 -45 64 -103.5t80 -113.5t70 -91v-16h-64q-49 48 -101.5 111t-96.5 121q-45 -56 -98 -120.5t-101 -111.5h-64v16
q33 40 73.5 95.5t78.5 112.5t61 100h98z" />
    <glyph glyph-name="Scedilla" unicode="&#x15e;" horiz-adv-x="967" 
d="M871 382q0 -129 -55 -218.5t-152.5 -136.5t-226.5 -47q-67 0 -128 7.5t-114 20.5t-98 32v103q69 -30 158.5 -50.5t182.5 -20.5q103 0 177 36t114.5 104.5t40.5 164.5q0 89 -34.5 145.5t-104.5 98t-179 85.5q-75 33 -138 67t-108.5 79t-70 108t-24.5 151q-1 120 53 203
t147.5 126t212.5 43q90 0 172 -19t150 -51l-36 -89q-74 35 -147.5 50.5t-139.5 15.5q-94 0 -163.5 -32.5t-108 -94t-38.5 -150.5q0 -93 36.5 -151t104.5 -98t161 -78q112 -48 191.5 -97t122 -121t42.5 -186zM641 -291q0 -94 -65.5 -147.5t-178.5 -53.5q-31 0 -58.5 3.5
t-49.5 9.5v72q22 -6 48.5 -9t55.5 -3q73 0 118 32t45 94q0 64 -50.5 91t-139.5 33l80 169h74l-56 -121q55 -7 95 -29t61 -57.5t21 -83.5z" />
    <glyph glyph-name="scedilla" unicode="&#x15f;" horiz-adv-x="807" 
d="M726 277q0 -93 -40.5 -160t-118.5 -102t-193 -35q-94 0 -169 19.5t-124 46.5v102q60 -36 136 -58.5t157 -22.5q132 0 192.5 55t60.5 152q0 63 -28.5 104.5t-82.5 73t-132 65.5q-85 39 -150.5 77t-102.5 94t-37 145q0 124 89.5 199.5t247.5 75.5q81 0 151.5 -17t128.5 -47
l-38 -83q-50 28 -114.5 44.5t-129.5 16.5q-111 0 -175 -48t-64 -138q0 -62 28 -101.5t82.5 -70t132.5 -66.5q81 -38 148 -76.5t106 -95.5t39 -149zM570 -291q0 -94 -65.5 -147.5t-178.5 -53.5q-31 0 -58.5 3.5t-49.5 9.5v72q22 -6 48.5 -9t55.5 -3q73 0 118 32t45 94
q0 64 -50.5 91t-139.5 33l80 169h74l-56 -121q55 -7 95 -29t61 -57.5t21 -83.5z" />
    <glyph glyph-name="Scaron" unicode="&#x160;" horiz-adv-x="967" 
d="M871 382q0 -129 -55 -218.5t-152.5 -136.5t-226.5 -47q-67 0 -128 7.5t-114 20.5t-98 32v103q69 -30 158.5 -50.5t182.5 -20.5q103 0 177 36t114.5 104.5t40.5 164.5q0 89 -34.5 145.5t-104.5 98t-179 85.5q-75 33 -138 67t-108.5 79t-70 108t-24.5 151q-1 120 53 203
t147.5 126t212.5 43q90 0 172 -19t150 -51l-36 -89q-74 35 -147.5 50.5t-139.5 15.5q-94 0 -163.5 -32.5t-108 -94t-38.5 -150.5q0 -93 36.5 -151t104.5 -98t161 -78q112 -48 191.5 -97t122 -121t42.5 -186zM460 1616q-25 47 -62 103t-77 110t-73 94v17h64q48 -46 99.5 -109
t94.5 -123q47 62 95.5 119t102.5 113h64v-17q-33 -42 -74 -96.5t-78.5 -109.5t-62.5 -101h-93z" />
    <glyph glyph-name="scaron" unicode="&#x161;" horiz-adv-x="807" 
d="M726 277q0 -93 -40.5 -160t-118.5 -102t-193 -35q-94 0 -169 19.5t-124 46.5v102q60 -36 136 -58.5t157 -22.5q132 0 192.5 55t60.5 152q0 63 -28.5 104.5t-82.5 73t-132 65.5q-85 39 -150.5 77t-102.5 94t-37 145q0 124 89.5 199.5t247.5 75.5q81 0 151.5 -17t128.5 -47
l-38 -83q-50 28 -114.5 44.5t-129.5 16.5q-111 0 -175 -48t-64 -138q0 -62 28 -101.5t82.5 -70t132.5 -66.5q81 -38 148 -76.5t106 -95.5t39 -149zM364 1241q-25 47 -62 103t-77 110t-73 94v17h64q48 -46 99.5 -109t94.5 -123q47 62 95.5 119t102.5 113h64v-17
q-33 -42 -74 -96.5t-78.5 -109.5t-62.5 -101h-93z" />
    <glyph glyph-name="uni0162" unicode="&#x162;" horiz-adv-x="899" 
d="M499 0h-102v1371h-384v91h870v-91h-384v-1371zM611 -291q0 -94 -65.5 -147.5t-178.5 -53.5q-31 0 -58.5 3.5t-49.5 9.5v72q22 -6 48.5 -9t55.5 -3q73 0 118 32t45 94q0 64 -50.5 91t-139.5 33l80 169h74l-56 -121q55 -7 95 -29t61 -57.5t21 -83.5z" />
    <glyph glyph-name="uni0163" unicode="&#x163;" horiz-adv-x="576" 
d="M407 67q36 0 69 6.5t58 16.5v-83q-28 -11 -64 -19t-79 -8q-80 0 -129.5 32.5t-73 97t-23.5 162.5v732h-132v58l132 28l30 258h68v-261h267v-83h-267v-727q0 -105 32 -157.5t112 -52.5zM522 -291q0 -94 -65.5 -147.5t-178.5 -53.5q-31 0 -58.5 3.5t-49.5 9.5v72
q22 -6 48.5 -9t55.5 -3q73 0 118 32t45 94q0 64 -50.5 91t-139.5 33l80 169h74l-56 -121q55 -7 95 -29t61 -57.5t21 -83.5z" />
    <glyph glyph-name="Tcaron" unicode="&#x164;" horiz-adv-x="899" 
d="M499 0h-102v1371h-384v91h870v-91h-384v-1371zM400 1616q-25 47 -62 103t-77 110t-73 94v17h64q48 -46 99.5 -109t94.5 -123q47 62 95.5 119t102.5 113h64v-17q-33 -42 -74 -96.5t-78.5 -109.5t-62.5 -101h-93z" />
    <glyph glyph-name="tcaron" unicode="&#x165;" horiz-adv-x="576" 
d="M407 67q36 0 69 6.5t58 16.5v-83q-28 -11 -64 -19t-79 -8q-80 0 -129.5 32.5t-73 97t-23.5 162.5v732h-132v58l132 28l30 258h68v-261h267v-83h-267v-727q0 -105 32 -157.5t112 -52.5zM713 1556v-17q-10 -43 -28.5 -101t-41.5 -115t-48 -96h-55v21q9 19 19 59t20 87.5
t18 91t11 70.5h105z" />
    <glyph glyph-name="Tbar" unicode="&#x166;" horiz-adv-x="899" 
d="M397 0v709h-297v87h297v574h-384v92h870v-92h-386v-574h298v-87h-298v-709h-100z" />
    <glyph glyph-name="tbar" unicode="&#x167;" horiz-adv-x="576" 
d="M43 578v81h472v-81h-472zM407 67q36 0 69 6.5t58 16.5v-83q-28 -11 -64 -19t-79 -8q-80 0 -129.5 32.5t-73 97t-23.5 162.5v732h-132v58l132 28l30 258h68v-261h267v-83h-267v-727q0 -105 32 -157.5t112 -52.5z" />
    <glyph glyph-name="Utilde" unicode="&#x168;" horiz-adv-x="1248" 
d="M1082 1462v-979q0 -173 -56.5 -284t-159.5 -165t-243 -54q-221 0 -338.5 127.5t-117.5 377.5v977h100v-975q0 -214 93 -315t265 -101q111 0 191 43t122.5 134t42.5 233v981h101zM311 1631q5 52 18.5 92t35.5 67t53 41.5t68 14.5q45 0 81 -20t68 -46.5t63.5 -47
t66.5 -20.5q41 0 69 32t37 103h69q-7 -105 -55 -160.5t-121 -55.5q-44 0 -80.5 20t-68.5 46.5t-63 47t-66 20.5q-39 0 -68 -30.5t-37 -103.5h-70z" />
    <glyph glyph-name="utilde" unicode="&#x169;" horiz-adv-x="1041" 
d="M879 1087v-1087h-79l-12 197h-6q-23 -58 -64.5 -107.5t-104 -79.5t-148.5 -30q-106 0 -175.5 42.5t-104 128t-34.5 210.5v726h99v-710q0 -160 57.5 -234.5t169.5 -74.5q99 0 166 45.5t102 138.5t35 234v601h99zM203 1256q5 52 18.5 92t35.5 67t53 41.5t68 14.5
q45 0 81 -20t68 -46.5t63.5 -47t66.5 -20.5q41 0 69 32t37 103h69q-7 -105 -55 -160.5t-121 -55.5q-44 0 -80.5 20t-68.5 46.5t-63 47t-66 20.5q-39 0 -68 -30.5t-37 -103.5h-70z" />
    <glyph glyph-name="Umacron" unicode="&#x16a;" horiz-adv-x="1248" 
d="M1082 1462v-979q0 -173 -56.5 -284t-159.5 -165t-243 -54q-221 0 -338.5 127.5t-117.5 377.5v977h100v-975q0 -214 93 -315t265 -101q111 0 191 43t122.5 134t42.5 233v981h101zM875 1713v-82h-500v82h500z" />
    <glyph glyph-name="umacron" unicode="&#x16b;" horiz-adv-x="1041" 
d="M879 1087v-1087h-79l-12 197h-6q-23 -58 -64.5 -107.5t-104 -79.5t-148.5 -30q-106 0 -175.5 42.5t-104 128t-34.5 210.5v726h99v-710q0 -160 57.5 -234.5t169.5 -74.5q99 0 166 45.5t102 138.5t35 234v601h99zM770 1338v-82h-500v82h500z" />
    <glyph glyph-name="Ubreve" unicode="&#x16c;" horiz-adv-x="1248" 
d="M1082 1462v-979q0 -173 -56.5 -284t-159.5 -165t-243 -54q-221 0 -338.5 127.5t-117.5 377.5v977h100v-975q0 -214 93 -315t265 -101q111 0 191 43t122.5 134t42.5 233v981h101zM873 1860q-6 -74 -37 -128t-85 -83.5t-129 -29.5q-111 0 -175.5 62t-71.5 179h71
q5 -52 26.5 -87.5t59.5 -53.5t92 -18q53 0 90.5 18.5t59 54.5t26.5 86h73z" />
    <glyph glyph-name="ubreve" unicode="&#x16d;" horiz-adv-x="1041" 
d="M879 1087v-1087h-79l-12 197h-6q-23 -58 -64.5 -107.5t-104 -79.5t-148.5 -30q-106 0 -175.5 42.5t-104 128t-34.5 210.5v726h99v-710q0 -160 57.5 -234.5t169.5 -74.5q99 0 166 45.5t102 138.5t35 234v601h99zM769 1485q-6 -74 -37 -128t-85 -83.5t-129 -29.5
q-111 0 -175.5 62t-71.5 179h71q5 -52 26.5 -87.5t59.5 -53.5t92 -18q53 0 90.5 18.5t59 54.5t26.5 86h73z" />
    <glyph glyph-name="Uring" unicode="&#x16e;" horiz-adv-x="1248" 
d="M1082 1462v-979q0 -173 -56.5 -284t-159.5 -165t-243 -54q-221 0 -338.5 127.5t-117.5 377.5v977h100v-975q0 -214 93 -315t265 -101q111 0 191 43t122.5 134t42.5 233v981h101zM625 1627q-86 0 -144.5 53.5t-58.5 145.5q0 90 57.5 144t144.5 54t145 -55t58 -142
q0 -91 -57.5 -145.5t-144.5 -54.5zM626 1695q58 0 94 37t36 93q0 59 -36.5 95.5t-94.5 36.5q-59 0 -96 -36.5t-37 -94.5q0 -55 35.5 -93t98.5 -38z" />
    <glyph glyph-name="uring" unicode="&#x16f;" horiz-adv-x="1041" 
d="M879 1087v-1087h-79l-12 197h-6q-23 -58 -64.5 -107.5t-104 -79.5t-148.5 -30q-106 0 -175.5 42.5t-104 128t-34.5 210.5v726h99v-710q0 -160 57.5 -234.5t169.5 -74.5q99 0 166 45.5t102 138.5t35 234v601h99zM520 1252q-86 0 -144.5 53.5t-58.5 145.5q0 90 57.5 144
t144.5 54t145 -55t58 -142q0 -91 -57.5 -145.5t-144.5 -54.5zM521 1320q58 0 94 37t36 93q0 59 -36.5 95.5t-94.5 36.5q-59 0 -96 -36.5t-37 -94.5q0 -55 35.5 -93t98.5 -38z" />
    <glyph glyph-name="Uhungarumlaut" unicode="&#x170;" horiz-adv-x="1248" 
d="M1082 1462v-979q0 -173 -56.5 -284t-159.5 -165t-243 -54q-221 0 -338.5 127.5t-117.5 377.5v977h100v-975q0 -214 93 -315t265 -101q111 0 191 43t122.5 134t42.5 233v981h101zM1015 1944v-17q-17 -30 -45.5 -70.5t-63 -84.5t-70.5 -84.5t-66 -71.5h-59v18
q33 42 71.5 99t72.5 114t53 97h107zM720 1944v-17q-17 -30 -45.5 -70.5t-63 -84t-70.5 -84t-68 -72.5h-58v18q34 44 72 101t72 113t54 96h107z" />
    <glyph glyph-name="uhungarumlaut" unicode="&#x171;" horiz-adv-x="1041" 
d="M879 1087v-1087h-79l-12 197h-6q-23 -58 -64.5 -107.5t-104 -79.5t-148.5 -30q-106 0 -175.5 42.5t-104 128t-34.5 210.5v726h99v-710q0 -160 57.5 -234.5t169.5 -74.5q99 0 166 45.5t102 138.5t35 234v601h99zM908 1569v-17q-17 -30 -45.5 -70.5t-63 -84.5t-70.5 -84.5
t-66 -71.5h-59v18q33 42 71.5 99t72.5 114t53 97h107zM613 1569v-17q-17 -30 -45.5 -70.5t-63 -84t-70.5 -84t-68 -72.5h-58v18q34 44 72 101t72 113t54 96h107z" />
    <glyph glyph-name="Uogonek" unicode="&#x172;" horiz-adv-x="1248" 
d="M734 -253q0 -61 27 -89.5t79 -28.5q26 0 48.5 4t35.5 8v-74q-18 -6 -43 -10.5t-55 -4.5q-83 0 -130.5 45t-47.5 138q0 60 25.5 117t68.5 109.5t97 94.5l87 22q-54 -55 -97.5 -109t-69 -109t-25.5 -113zM1082 1462v-979q0 -173 -56.5 -284t-159.5 -165t-243 -54
q-221 0 -338.5 127.5t-117.5 377.5v977h100v-975q0 -214 93 -315t265 -101q111 0 191 43t122.5 134t42.5 233v981h101z" />
    <glyph glyph-name="uogonek" unicode="&#x173;" horiz-adv-x="1041" 
d="M879 1087v-1087h-79l-12 197h-6q-23 -58 -64.5 -107.5t-104 -79.5t-148.5 -30q-106 0 -175.5 42.5t-104 128t-34.5 210.5v726h99v-710q0 -160 57.5 -234.5t169.5 -74.5q99 0 166 45.5t102 138.5t35 234v601h99zM711 -261q0 -54 26 -82t75 -28q25 0 47.5 3.5t35.5 7.5v-73
q-17 -5 -42 -10t-55 -5q-82 0 -128 45t-46 129q0 54 22.5 105.5t63.5 100t98 92.5l61 -24q-74 -65 -116 -127.5t-42 -133.5z" />
    <glyph glyph-name="Wcircumflex" unicode="&#x174;" horiz-adv-x="1604" 
d="M1575 1462l-356 -1462h-111l-263 1086q-8 30 -14 58l-12 56t-11.5 57.5t-10.5 59.5q-4 -27 -8 -53.5t-9 -53t-11 -54t-13 -56.5l-261 -1100h-113l-351 1462h103l248 -1044q10 -46 19 -86t16 -76t13.5 -67t10.5 -58q6 35 13 73t15 75t15.5 72.5t16.5 68.5l248 1042h98
l254 -1045q10 -40 18 -76.5t14.5 -71t13 -69.5t13.5 -74q8 50 16.5 97t19.5 95t23 99l252 1045h104zM852 1940q25 -45 64 -103.5t80 -113.5t70 -91v-16h-64q-49 48 -101.5 111t-96.5 121q-45 -56 -98 -120.5t-101 -111.5h-64v16q33 40 73.5 95.5t78.5 112.5t61 100h98z" />
    <glyph glyph-name="wcircumflex" unicode="&#x175;" horiz-adv-x="1300" 
d="M902 0l-191 740q-9 29 -15.5 57.5t-13 55.5t-12 53t-11.5 52h-4q-5 -26 -11 -52.5t-12 -54.5t-13 -55.5t-15 -56.5l-199 -739h-106l-275 1087h101l170 -687q13 -53 23.5 -100t19 -89t16.5 -82h4q5 26 11.5 56t13.5 64.5t16 71t20 76.5l188 690h103l184 -694
q12 -45 23 -89.5t19.5 -88t16.5 -86.5h5q6 41 13 77.5t16 77.5t22 90l169 713h98l-267 -1087h-107zM704 1565q25 -45 64 -103.5t80 -113.5t70 -91v-16h-64q-49 48 -101.5 111t-96.5 121q-45 -56 -98 -120.5t-101 -111.5h-64v16q33 40 73.5 95.5t78.5 112.5t61 100h98z" />
    <glyph glyph-name="Ycircumflex" unicode="&#x176;" horiz-adv-x="893" 
d="M447 679l338 783h108l-395 -895v-567h-101v563l-397 899h108zM491 1940q25 -45 64 -103.5t80 -113.5t70 -91v-16h-64q-49 48 -101.5 111t-96.5 121q-45 -56 -98 -120.5t-101 -111.5h-64v16q33 40 73.5 95.5t78.5 112.5t61 100h98z" />
    <glyph glyph-name="ycircumflex" unicode="&#x177;" horiz-adv-x="815" 
d="M17 1087h102l222 -709q19 -58 31.5 -101t21.5 -76.5t15 -63.5h7q12 53 29.5 112.5t39.5 127.5l220 710h103l-414 -1300q-31 -96 -69 -159t-89 -93t-119 -30q-30 0 -54.5 5.5t-50.5 13.5v89q22 -8 46 -13.5t49 -5.5q44 0 78 20.5t62 66.5t52 122l65 210zM451 1565
q25 -45 64 -103.5t80 -113.5t70 -91v-16h-64q-49 48 -101.5 111t-96.5 121q-45 -56 -98 -120.5t-101 -111.5h-64v16q33 40 73.5 95.5t78.5 112.5t61 100h98z" />
    <glyph glyph-name="Ydieresis" unicode="&#x178;" horiz-adv-x="893" 
d="M447 679l338 783h108l-395 -895v-567h-101v563l-397 899h108zM204 1752q0 35 17.5 56.5t47.5 21.5q32 0 49 -21t17 -57q0 -38 -17 -59t-49 -21q-30 0 -47.5 21.5t-17.5 58.5zM548 1752q0 36 17.5 57t47.5 21q31 0 48.5 -21t17.5 -57q0 -37 -17.5 -58.5t-48.5 -21.5
t-48 21.5t-17 58.5z" />
    <glyph glyph-name="Zacute" unicode="&#x179;" horiz-adv-x="935" 
d="M874 0h-808v78l672 1292h-641v92h759v-78l-672 -1291h690v-93zM729 1942v-16q-24 -34 -57.5 -75t-73 -84t-78.5 -81.5t-74 -69.5h-65v21q42 47 84.5 99.5t80 105.5t66.5 100h117z" />
    <glyph glyph-name="zacute" unicode="&#x17a;" horiz-adv-x="754" 
d="M688 0h-619v70l501 933h-464v84h577v-72l-500 -930h505v-85zM644 1567v-16q-24 -34 -57.5 -75t-73 -84t-78.5 -81.5t-74 -69.5h-65v21q42 47 84.5 99.5t80 105.5t66.5 100h117z" />
    <glyph glyph-name="Zdotaccent" unicode="&#x17b;" horiz-adv-x="935" 
d="M874 0h-808v78l672 1292h-641v92h759v-78l-672 -1291h690v-93zM472 1860q37 0 54 -24t17 -61q0 -39 -18 -62t-53 -23t-53 23t-18 61t17.5 62t53.5 24z" />
    <glyph glyph-name="zdotaccent" unicode="&#x17c;" horiz-adv-x="754" 
d="M688 0h-619v70l501 933h-464v84h577v-72l-500 -930h505v-85zM379 1492q37 0 54 -24t17 -61q0 -39 -18 -62t-53 -23t-53 23t-18 61t17.5 62t53.5 24z" />
    <glyph glyph-name="Zcaron" unicode="&#x17d;" horiz-adv-x="935" 
d="M874 0h-808v78l672 1292h-641v92h759v-78l-672 -1291h690v-93zM425 1616q-25 47 -62 103t-77 110t-73 94v17h64q48 -46 99.5 -109t94.5 -123q47 62 95.5 119t102.5 113h64v-17q-33 -42 -74 -96.5t-78.5 -109.5t-62.5 -101h-93z" />
    <glyph glyph-name="zcaron" unicode="&#x17e;" horiz-adv-x="754" 
d="M688 0h-619v70l501 933h-464v84h577v-72l-500 -930h505v-85zM337 1241q-25 47 -62 103t-77 110t-73 94v17h64q48 -46 99.5 -109t94.5 -123q47 62 95.5 119t102.5 113h64v-17q-33 -42 -74 -96.5t-78.5 -109.5t-62.5 -101h-93z" />
    <glyph glyph-name="longs" unicode="&#x17f;" horiz-adv-x="510" 
d="M445 1481q-93 0 -138 -68t-46 -226v-1187h-98v1189q0 124 29.5 207.5t91.5 127t158 43.5q40 0 74 -6.5t67 -18.5l-23 -82q-27 9 -55 15t-60 6z" />
    <glyph glyph-name="florin" unicode="&#x192;" horiz-adv-x="991" 
d="M701 1483q47 0 87.5 -8t81.5 -25l-28 -82q-30 14 -64 21.5t-73 7.5q-96 0 -138.5 -67.5t-42.5 -218.5v-177h238v-84h-237v-999q0 -109 -26 -185.5t-82.5 -117t-150.5 -40.5q-38 0 -71 6t-60 12v90q32 -8 62.5 -13.5t62.5 -5.5q88 0 127 60.5t39 183.5v1009h-177v59
l177 27v180q0 123 29 204.5t90 122t156 40.5z" />
    <glyph glyph-name="Ohorn" unicode="&#x1a0;" horiz-adv-x="1307" 
d="M1202 733q0 -159 -30.5 -296t-96.5 -239.5t-168 -160t-245 -57.5q-145 0 -248 58.5t-168.5 162t-97 240.5t-31.5 294q0 236 63 403.5t184.5 256.5t301.5 89q143 0 247.5 -59.5t170.5 -169.5q49 21 80 60t47 99.5t17 141.5h91l15 -21q-9 -136 -61.5 -223t-150.5 -128
q40 -90 60 -203.5t20 -247.5zM222 734q0 -204 48.5 -353t146.5 -229.5t245 -80.5q148 0 245.5 79t144 227.5t46.5 355.5q0 317 -108.5 488t-323.5 171q-150 0 -248.5 -79.5t-147 -227.5t-48.5 -351z" />
    <glyph glyph-name="ohorn" unicode="&#x1a1;" horiz-adv-x="1035" 
d="M924 545q0 -178 -46 -304t-137 -193.5t-227 -67.5q-130 0 -222 67t-139.5 194.5t-47.5 304.5q0 270 107 416t307 146q100 0 175 -38t125 -110q48 20 78.5 59.5t45 100t15.5 141.5h91l14 -20q-7 -92 -31 -161t-67 -115.5t-106 -73.5q33 -68 49 -155.5t16 -190.5zM205 546
q0 -152 33.5 -259t103 -163.5t174.5 -56.5q107 0 175 55.5t100.5 163t32.5 260.5q0 146 -31 252t-98 164t-177 58q-159 0 -236 -122.5t-77 -351.5z" />
    <glyph glyph-name="Uhorn" unicode="&#x1af;" horiz-adv-x="1289" 
d="M1082 1462v-211q54 16 88.5 55t51.5 101.5t18 148.5h90l15 -21q-6 -74 -23.5 -134t-48.5 -106t-78.5 -76.5t-112.5 -46.5v-681q0 -174 -55.5 -287t-157.5 -168.5t-243 -55.5q-221 0 -340 130.5t-119 382.5v969h100v-968q0 -215 93.5 -319t266.5 -104q112 0 191 44.5
t121 137t42 235.5v974h101z" />
    <glyph glyph-name="uhorn" unicode="&#x1b0;" horiz-adv-x="1087" 
d="M1116 1262l14 -22q-5 -71 -22 -130t-47 -105t-74.5 -77t-107.5 -46v-882h-79l-12 197h-7q-23 -57 -64 -106.5t-102.5 -80t-148.5 -30.5q-106 0 -176 43.5t-104.5 128.5t-34.5 211v724h99v-710q0 -160 57.5 -234.5t169.5 -74.5q146 0 224.5 102.5t78.5 318.5v598h99v-126
q52 17 83.5 56.5t46 101t15.5 143.5h92z" />
    <glyph glyph-name="uni01EA" unicode="&#x1ea;" horiz-adv-x="1321" 
d="M1203 733q0 -159 -31 -296t-96.5 -239.5t-168 -160t-245.5 -57.5q-144 0 -247.5 58.5t-169 162t-97 240.5t-31.5 294q0 236 63 403.5t185 256.5t301 89q182 0 301 -94t177.5 -263.5t58.5 -393.5zM222 734q0 -204 48.5 -353t147 -229.5t244.5 -80.5q149 0 246 79
t144 227.5t47 355.5q0 318 -109 488.5t-324 170.5q-150 0 -248.5 -79.5t-147 -227t-48.5 -351.5zM606 -261q0 -54 26 -82t75 -28q25 0 47.5 3.5t35.5 7.5v-73q-17 -5 -42 -10t-55 -5q-82 0 -128 45t-46 129q0 54 22.5 105.5t63.5 100t98 92.5l61 -24q-74 -65 -116 -127.5
t-42 -133.5z" />
    <glyph glyph-name="uni01EB" unicode="&#x1eb;" horiz-adv-x="1030" 
d="M924 545q0 -132 -25.5 -236.5t-77 -177.5t-128 -112t-179.5 -39q-99 0 -175 39t-128.5 112.5t-79 178t-26.5 236.5q0 179 47.5 304.5t140 191.5t226.5 66q137 0 227 -69t134 -195.5t44 -298.5zM205 546q0 -150 33.5 -257t102.5 -164t175 -57t174.5 55.5t101 163
t32.5 259.5q0 144 -30.5 250.5t-98 165t-177.5 58.5q-158 0 -235.5 -123.5t-77.5 -350.5zM474 -261q0 -54 26 -82t75 -28q25 0 47.5 3.5t35.5 7.5v-73q-17 -5 -42 -10t-55 -5q-82 0 -128 45t-46 129q0 54 22.5 105.5t63.5 100t98 92.5l61 -24q-74 -65 -116 -127.5
t-42 -133.5z" />
    <glyph glyph-name="uni01EC" unicode="&#x1ec;" horiz-adv-x="1321" 
d="M1203 733q0 -159 -31 -296t-96.5 -239.5t-168 -160t-245.5 -57.5q-144 0 -247.5 58.5t-169 162t-97 240.5t-31.5 294q0 236 63 403.5t185 256.5t301 89q182 0 301 -94t177.5 -263.5t58.5 -393.5zM222 734q0 -204 48.5 -353t147 -229.5t244.5 -80.5q149 0 246 79
t144 227.5t47 355.5q0 318 -109 488.5t-324 170.5q-150 0 -248.5 -79.5t-147 -227t-48.5 -351.5zM909 1715v-82h-500v82h500zM623 -261q0 -54 26 -82t75 -28q25 0 47.5 3.5t35.5 7.5v-73q-17 -5 -42 -10t-55 -5q-82 0 -128 45t-46 129q0 54 22.5 105.5t63.5 100t98 92.5
l61 -24q-74 -65 -116 -127.5t-42 -133.5z" />
    <glyph glyph-name="uni01ED" unicode="&#x1ed;" horiz-adv-x="1030" 
d="M924 545q0 -132 -25.5 -236.5t-77 -177.5t-128 -112t-179.5 -39q-99 0 -175 39t-128.5 112.5t-79 178t-26.5 236.5q0 179 47.5 304.5t140 191.5t226.5 66q137 0 227 -69t134 -195.5t44 -298.5zM205 546q0 -150 33.5 -257t102.5 -164t175 -57t174.5 55.5t101 163
t32.5 259.5q0 144 -30.5 250.5t-98 165t-177.5 58.5q-158 0 -235.5 -123.5t-77.5 -350.5zM764 1338v-82h-500v82h500zM470 -261q0 -54 26 -82t75 -28q25 0 47.5 3.5t35.5 7.5v-73q-17 -5 -42 -10t-55 -5q-82 0 -128 45t-46 129q0 54 22.5 105.5t63.5 100t98 92.5l61 -24
q-74 -65 -116 -127.5t-42 -133.5z" />
    <glyph glyph-name="uni01F0" unicode="&#x1f0;" horiz-adv-x="426" 
d="M47 -493q-34 0 -61 5.5t-45 13.5v88q22 -9 46 -13t50 -4q65 0 95.5 48t30.5 143v1299h98v-1306q0 -94 -26.5 -155t-74.5 -90t-113 -29zM163 1241q-25 47 -62 103t-77 110t-73 94v17h64q48 -46 99.5 -109t94.5 -123q47 62 95.5 119t102.5 113h64v-17q-33 -42 -74 -96.5
t-78.5 -109.5t-62.5 -101h-93z" />
    <glyph glyph-name="Aringacute" unicode="&#x1fa;" horiz-adv-x="1030" 
d="M-5 0l456 1229q-60 15 -99 62.5t-39 123.5q0 90 57 144.5t146 54.5t147 -54.5t58 -145.5q0 -73 -38 -120.5t-101 -65.5l452 -1228h-107l-161 439h-503l-162 -439h-106zM293 531h445l-174 495q-9 28 -17.5 54.5t-16 51t-13.5 47.5q-5 -18 -10 -35.5t-10.5 -35t-11.5 -35.5
t-12 -37zM517 1277q61 0 98 36.5t37 100.5q0 60 -37 97.5t-99 37.5t-99 -37.5t-37 -97.5q0 -62 37 -99.5t100 -37.5zM443 1670v20q44 49 82.5 95t71 90t57.5 87h118v-15q-22 -32 -53 -68.5t-66 -73t-72 -71t-71 -64.5h-67z" />
    <glyph glyph-name="aringacute" unicode="&#x1fb;" horiz-adv-x="935" 
d="M475 1107q159 0 234 -89.5t75 -284.5v-733h-76l-14 183h-5q-27 -57 -67 -103t-99.5 -73t-147.5 -27q-95 0 -159 39t-97 106.5t-33 154.5q0 162 113 247t324 98l164 11v85q0 165 -53.5 233t-165.5 68q-62 0 -125.5 -17.5t-132.5 -55.5l-33 80q66 36 142 57t156 21z
M687 558l-154 -9q-172 -11 -258.5 -76.5t-86.5 -191.5q0 -107 54.5 -163t151.5 -56q146 0 219.5 104t73.5 280v112zM482 1521q-59 0 -96 -37.5t-37 -93.5q0 -57 35.5 -95t98.5 -38q59 0 95 37t36 95q0 57 -37.5 94.5t-94.5 37.5zM482 1587q57 0 103 -24.5t73 -69t27 -104.5
q0 -90 -57.5 -144t-144.5 -54t-145.5 53.5t-58.5 145.5q0 89 58 143t145 54zM733 1933v-15q-31 -42 -78.5 -92t-99.5 -97.5t-95 -82.5h-68v18q41 46 79.5 91t72.5 89.5t61 88.5h128z" />
    <glyph glyph-name="AEacute" unicode="&#x1fc;" horiz-adv-x="1429" 
d="M1348 0h-687v523h-364l-189 -523h-110l539 1462h811v-91h-586v-557h553v-92h-553v-630h586v-92zM328 616h334v753h-60zM999 1942v-16q-24 -34 -57.5 -75t-73 -84t-78.5 -81.5t-74 -69.5h-65v21q42 47 84.5 99.5t80 105.5t66.5 100h117z" />
    <glyph glyph-name="aeacute" unicode="&#x1fd;" horiz-adv-x="1514" 
d="M1060 1108q120 0 198 -66t115.5 -177t36.5 -248v-77h-636q1 -233 84.5 -353t234.5 -120q72 0 138 16.5t139 55.5v-92q-65 -33 -133.5 -50t-147.5 -17q-95 0 -167.5 36t-121.5 98t-75 144q-26 -86 -72 -148.5t-114 -96t-160 -33.5q-95 0 -160.5 38t-99 105.5t-33.5 157.5
q0 109 51 182.5t148 113.5t234 47l157 8v106q0 149 -55 216.5t-157 67.5q-59 0 -123.5 -18t-134.5 -55l-33 81q63 34 140 55.5t156 21.5q118 0 186.5 -59t89.5 -185q39 108 117.5 176.5t197.5 68.5zM675 555l-145 -7q-171 -10 -256.5 -76t-85.5 -191q0 -102 52.5 -159.5
t152.5 -57.5q91 0 154 45.5t95.5 125t32.5 184.5v136zM1059 1022q-118 0 -195.5 -101t-87.5 -298h536q1 116 -26.5 206t-84 141.5t-142.5 51.5zM1024 1567v-16q-24 -34 -57.5 -75t-73 -84t-78.5 -81.5t-74 -69.5h-65v21q42 47 84.5 99.5t80 105.5t66.5 100h117z" />
    <glyph glyph-name="Oslashacute" unicode="&#x1fe;" horiz-adv-x="1338" 
d="M1218 733q0 -164 -32 -301.5t-98 -238.5t-168.5 -157t-243.5 -56q-108 0 -193 34.5t-147 96.5l-121 -197l-70 41l132 220q-74 103 -109.5 246.5t-35.5 313.5q0 236 63 403.5t184.5 256.5t300.5 89q103 0 186.5 -33t146.5 -94l108 175l70 -43l-119 -196q72 -98 109 -240
t37 -320zM1114 733q0 147 -25.5 263.5t-75.5 198.5l-626 -996q54 -63 126 -96t163 -33q150 0 247 79.5t144 228t47 355.5zM236 734q0 -144 25 -260t76 -200l626 996q-53 61 -123 92t-160 31q-149 0 -248 -80t-147.5 -227.5t-48.5 -351.5zM942 1942v-16q-24 -34 -57.5 -75
t-73 -84t-78.5 -81.5t-74 -69.5h-65v21q42 47 84.5 99.5t80 105.5t66.5 100h117z" />
    <glyph glyph-name="oslashacute" unicode="&#x1ff;" horiz-adv-x="1052" 
d="M941 545q0 -178 -46.5 -304t-137.5 -193.5t-226 -67.5q-79 0 -143 26t-112 74l-117 -186l-66 42l128 205q-49 74 -74 175.5t-25 229.5q0 270 106.5 416t307.5 146q77 0 139 -23.5t108 -68.5l99 156l67 -40l-109 -176q51 -74 76 -178.5t25 -232.5zM221 546
q0 -97 14.5 -175.5t42.5 -137.5l457 704q-35 40 -85 62t-115 22q-158 0 -236 -124t-78 -351zM843 546q0 96 -14.5 177t-46.5 140l-457 -704q36 -46 88.5 -69.5t118.5 -23.5q107 0 176 56.5t102 164t33 259.5zM800 1567v-16q-24 -34 -57.5 -75t-73 -84t-78.5 -81.5t-74 -69.5
h-65v21q42 47 84.5 99.5t80 105.5t66.5 100h117z" />
    <glyph glyph-name="uni0218" unicode="&#x218;" horiz-adv-x="967" 
d="M871 382q0 -129 -55 -218.5t-152.5 -136.5t-226.5 -47q-67 0 -128 7.5t-114 20.5t-98 32v103q69 -30 158.5 -50.5t182.5 -20.5q103 0 177 36t114.5 104.5t40.5 164.5q0 89 -34.5 145.5t-104.5 98t-179 85.5q-75 33 -138 67t-108.5 79t-70 108t-24.5 151q-1 120 53 203
t147.5 126t212.5 43q90 0 172 -19t150 -51l-36 -89q-74 35 -147.5 50.5t-139.5 15.5q-94 0 -163.5 -32.5t-108 -94t-38.5 -150.5q0 -93 36.5 -151t104.5 -98t161 -78q112 -48 191.5 -97t122 -121t42.5 -186zM531 -125v-17q-12 -47 -32 -102t-45.5 -109t-55.5 -100h-55v20
q15 35 32.5 91t32.5 115.5t19 101.5h104z" />
    <glyph glyph-name="uni0219" unicode="&#x219;" horiz-adv-x="807" 
d="M726 277q0 -93 -40.5 -160t-118.5 -102t-193 -35q-94 0 -169 19.5t-124 46.5v102q60 -36 136 -58.5t157 -22.5q132 0 192.5 55t60.5 152q0 63 -28.5 104.5t-82.5 73t-132 65.5q-85 39 -150.5 77t-102.5 94t-37 145q0 124 89.5 199.5t247.5 75.5q81 0 151.5 -17t128.5 -47
l-38 -83q-50 28 -114.5 44.5t-129.5 16.5q-111 0 -175 -48t-64 -138q0 -62 28 -101.5t82.5 -70t132.5 -66.5q81 -38 148 -76.5t106 -95.5t39 -149zM465 -125v-17q-12 -47 -32 -102t-45.5 -109t-55.5 -100h-55v20q15 35 32.5 91t32.5 115.5t19 101.5h104z" />
    <glyph glyph-name="uni021A" unicode="&#x21a;" horiz-adv-x="899" 
d="M499 0h-102v1371h-384v91h870v-91h-384v-1371zM516 -125v-17q-12 -47 -32 -102t-45.5 -109t-55.5 -100h-55v20q15 35 32.5 91t32.5 115.5t19 101.5h104z" />
    <glyph glyph-name="uni021B" unicode="&#x21b;" horiz-adv-x="576" 
d="M407 67q36 0 69 6.5t58 16.5v-83q-28 -11 -64 -19t-79 -8q-80 0 -129.5 32.5t-73 97t-23.5 162.5v732h-132v58l132 28l30 258h68v-261h267v-83h-267v-727q0 -105 32 -157.5t112 -52.5zM414 -125v-17q-12 -47 -32 -102t-45.5 -109t-55.5 -100h-55v20q15 35 32.5 91
t32.5 115.5t19 101.5h104z" />
    <glyph glyph-name="uni0237" unicode="&#x237;" horiz-adv-x="426" 
d="M47 -493q-34 0 -61 5.5t-45 13.5v88q22 -9 46 -13t50 -4q65 0 95.5 48t30.5 143v1299h98v-1306q0 -94 -26.5 -155t-74.5 -90t-113 -29z" />
    <glyph glyph-name="uni0259" unicode="&#x259;" horiz-adv-x="967" 
d="M431 1108q146 0 241 -69.5t142 -195t47 -293.5q0 -169 -44.5 -297.5t-133 -200.5t-219.5 -72q-124 0 -203.5 66.5t-118 178.5t-38.5 248v76h658q0 230 -85.5 351t-250.5 121q-78 0 -142.5 -17.5t-139.5 -57.5v93q65 34 134 51.5t153 17.5zM760 466h-557
q-2 -114 26.5 -205t86.5 -143.5t149 -52.5q127 0 205 101t90 300z" />
    <glyph glyph-name="uni02BC" unicode="&#x2bc;" horiz-adv-x="306" 
d="M247 1462l15 -21q-17 -76 -40 -155.5t-51 -157t-60 -151.5h-74q19 59 36.5 122t31.5 125.5t25 122.5t19 115h98z" />
    <glyph glyph-name="circumflex" unicode="&#x2c6;" horiz-adv-x="689" 
d="M393 1565q25 -45 64 -103.5t80 -113.5t70 -91v-16h-64q-49 48 -101.5 111t-96.5 121q-45 -56 -98 -120.5t-101 -111.5h-64v16q33 40 73.5 95.5t78.5 112.5t61 100h98z" />
    <glyph glyph-name="caron" unicode="&#x2c7;" horiz-adv-x="684" 
d="M294 1241q-25 47 -62 103t-77 110t-73 94v17h64q48 -46 99.5 -109t94.5 -123q47 62 95.5 119t102.5 113h64v-17q-33 -42 -74 -96.5t-78.5 -109.5t-62.5 -101h-93z" />
    <glyph glyph-name="macron" unicode="&#x2c9;" horiz-adv-x="664" 
d="M582 1338v-82h-500v82h500z" />
    <glyph glyph-name="breve" unicode="&#x2d8;" horiz-adv-x="662" 
d="M580 1485q-6 -74 -37 -128t-85 -83.5t-129 -29.5q-111 0 -175.5 62t-71.5 179h71q5 -52 26.5 -87.5t59.5 -53.5t92 -18q53 0 90.5 18.5t59 54.5t26.5 86h73z" />
    <glyph glyph-name="dotaccent" unicode="&#x2d9;" horiz-adv-x="306" 
d="M153 1492q37 0 54 -24t17 -61q0 -39 -18 -62t-53 -23t-53 23t-18 61t17.5 62t53.5 24z" />
    <glyph glyph-name="ring" unicode="&#x2da;" horiz-adv-x="569" 
d="M285 1252q-86 0 -144.5 53.5t-58.5 145.5q0 90 57.5 144t144.5 54t145 -55t58 -142q0 -91 -57.5 -145.5t-144.5 -54.5zM286 1320q58 0 94 37t36 93q0 59 -36.5 95.5t-94.5 36.5q-59 0 -96 -36.5t-37 -94.5q0 -55 35.5 -93t98.5 -38z" />
    <glyph glyph-name="ogonek" unicode="&#x2db;" horiz-adv-x="435" 
d="M169 -261q0 -54 26 -82t75 -28q25 0 47.5 3.5t35.5 7.5v-73q-17 -5 -42 -10t-55 -5q-82 0 -128 45t-46 129q0 54 22.5 105.5t63.5 100t98 92.5l61 -24q-74 -65 -116 -127.5t-42 -133.5z" />
    <glyph glyph-name="tilde" unicode="&#x2dc;" horiz-adv-x="792" 
d="M82 1256q5 52 18.5 92t35.5 67t53 41.5t68 14.5q45 0 81 -20t68 -46.5t63.5 -47t66.5 -20.5q41 0 69 32t37 103h69q-7 -105 -55 -160.5t-121 -55.5q-44 0 -80.5 20t-68.5 46.5t-63 47t-66 20.5q-39 0 -68 -30.5t-37 -103.5h-70z" />
    <glyph glyph-name="hungarumlaut" unicode="&#x2dd;" horiz-adv-x="764" 
d="M682 1569v-17q-17 -30 -45.5 -70.5t-63 -84.5t-70.5 -84.5t-66 -71.5h-59v18q33 42 71.5 99t72.5 114t53 97h107zM387 1569v-17q-17 -30 -45.5 -70.5t-63 -84t-70.5 -84t-68 -72.5h-58v18q34 44 72 101t72 113t54 96h107z" />
    <glyph glyph-name="uni02F3" unicode="&#x2f3;" horiz-adv-x="679" 
d="M339 -530q-86 0 -144.5 53.5t-58.5 145.5q0 89 57.5 144t144.5 55q86 0 144.5 -55t58.5 -144q0 -90 -57 -144.5t-145 -54.5zM339 -463q58 0 95 37t37 94q0 59 -37.5 96t-95.5 37q-60 0 -96 -37.5t-36 -94.5q0 -56 35 -94t98 -38z" />
    <glyph glyph-name="gravecomb" unicode="&#x300;" 
d="M-764 1567q28 -49 68 -104t83 -107.5t82 -94.5v-20h-67q-35 30 -74 69t-78 81.5t-73 83.5t-58 76v16h117z" />
    <glyph glyph-name="acutecomb" unicode="&#x301;" 
d="M-173 1567v-16q-24 -34 -57.5 -75t-73 -84t-78.5 -81.5t-74 -69.5h-65v21q42 47 84.5 99.5t80 105.5t66.5 100h117z" />
    <glyph glyph-name="uni0302" unicode="&#x302;" 
d="M40 1565q25 -45 64 -103.5t80 -113.5t70 -91v-16h-64q-49 48 -101.5 111t-96.5 121q-45 -56 -98 -120.5t-101 -111.5h-64v16q33 40 73.5 95.5t78.5 112.5t61 100h98z" />
    <glyph glyph-name="tildecomb" unicode="&#x303;" 
d="M-903 1256q5 52 18.5 92t35.5 67t53 41.5t68 14.5q45 0 81 -20t68 -46.5t63.5 -47t66.5 -20.5q41 0 69 32t37 103h69q-7 -105 -55 -160.5t-121 -55.5q-44 0 -80.5 20t-68.5 46.5t-63 47t-66 20.5q-39 0 -68 -30.5t-37 -103.5h-70z" />
    <glyph glyph-name="uni0304" unicode="&#x304;" 
d="M243 1338v-82h-500v82h500z" />
    <glyph glyph-name="uni0306" unicode="&#x306;" 
d="M250 1485q-6 -74 -37 -128t-85 -83.5t-129 -29.5q-111 0 -175.5 62t-71.5 179h71q5 -52 26.5 -87.5t59.5 -53.5t92 -18q53 0 90.5 18.5t59 54.5t26.5 86h73z" />
    <glyph glyph-name="uni0307" unicode="&#x307;" 
d="M1 1492q37 0 54 -24t17 -61q0 -39 -18 -62t-53 -23t-53 23t-18 61t17.5 62t53.5 24z" />
    <glyph glyph-name="uni0308" unicode="&#x308;" 
d="M-238 1377q0 35 17.5 56.5t47.5 21.5q32 0 49 -21t17 -57q0 -38 -17 -59t-49 -21q-30 0 -47.5 21.5t-17.5 58.5zM106 1377q0 36 17.5 57t47.5 21q31 0 48.5 -21t17.5 -57q0 -37 -17.5 -58.5t-48.5 -21.5t-48 21.5t-17 58.5z" />
    <glyph glyph-name="hookabovecomb" unicode="&#x309;" 
d="M-421 1511q0 -75 -44.5 -118.5t-123.5 -59.5l-7 -122h-66l-8 169q79 8 122 39.5t43 85.5q0 49 -33.5 75.5t-102.5 26.5q-31 0 -56 -4.5t-47 -10.5v71q25 7 52.5 11.5t63.5 4.5q102 0 154.5 -45t52.5 -123z" />
    <glyph glyph-name="uni030A" unicode="&#x30a;" 
d="M3 1252q-86 0 -144.5 53.5t-58.5 145.5q0 90 57.5 144t144.5 54t145 -55t58 -142q0 -91 -57.5 -145.5t-144.5 -54.5zM4 1320q58 0 94 37t36 93q0 59 -36.5 95.5t-94.5 36.5q-59 0 -96 -36.5t-37 -94.5q0 -55 35.5 -93t98.5 -38z" />
    <glyph glyph-name="uni030B" unicode="&#x30b;" 
d="M397 1569v-17q-17 -30 -45.5 -70.5t-63 -84.5t-70.5 -84.5t-66 -71.5h-59v18q33 42 71.5 99t72.5 114t53 97h107zM102 1569v-17q-17 -30 -45.5 -70.5t-63 -84t-70.5 -84t-68 -72.5h-58v18q34 44 72 101t72 113t54 96h107z" />
    <glyph glyph-name="uni030C" unicode="&#x30c;" 
d="M-48 1241q-25 47 -62 103t-77 110t-73 94v17h64q48 -46 99.5 -109t94.5 -123q47 62 95.5 119t102.5 113h64v-17q-33 -42 -74 -96.5t-78.5 -109.5t-62.5 -101h-93z" />
    <glyph glyph-name="uni030F" unicode="&#x30f;" 
d="M-559 1569q20 -45 53.5 -104.5t70.5 -115t63 -89.5v-19h-55q-29 27 -63.5 66t-68.5 83.5t-63.5 87t-47.5 74.5v17h111zM-861 1569q22 -48 55 -107t69 -113t63 -89v-19h-57q-28 27 -62 66t-69 83.5t-63.5 87t-48.5 74.5v17h113z" />
    <glyph glyph-name="uni0312" unicode="&#x312;" 
d="M-111 977l-13 22q18 77 41 156t51 157t61 150h72q-25 -79 -46.5 -163.5t-38 -166t-26.5 -155.5h-101z" />
    <glyph glyph-name="dotbelowcomb" unicode="&#x323;" 
d="M-595 -310q-34 0 -52 23.5t-18 62.5q0 38 17 61.5t54 23.5t53.5 -23.5t16.5 -61.5q0 -39 -17.5 -62.5t-53.5 -23.5z" />
    <glyph glyph-name="uni0326" unicode="&#x326;" 
d="M84 -125v-17q-12 -47 -32 -102t-45.5 -109t-55.5 -100h-55v20q15 35 32.5 91t32.5 115.5t19 101.5h104z" />
    <glyph glyph-name="uni0327" unicode="&#x327;" 
d="M162 -291q0 -94 -65.5 -147.5t-178.5 -53.5q-31 0 -58.5 3.5t-49.5 9.5v72q22 -6 48.5 -9t55.5 -3q73 0 118 32t45 94q0 64 -50.5 91t-139.5 33l80 169h74l-56 -121q55 -7 95 -29t61 -57.5t21 -83.5z" />
    <glyph glyph-name="uni0328" unicode="&#x328;" 
d="M-62 -261q0 -54 26 -82t75 -28q25 0 47.5 3.5t35.5 7.5v-73q-17 -5 -42 -10t-55 -5q-82 0 -128 45t-46 129q0 54 22.5 105.5t63.5 100t98 92.5l61 -24q-74 -65 -116 -127.5t-42 -133.5z" />
    <glyph glyph-name="tonos" unicode="&#x384;" horiz-adv-x="1148" 
d="M519 1241v20q13 33 28.5 80t30 99.5t26 102t17.5 86.5h103v-21q-13 -55 -37 -120.5t-52 -130t-53 -116.5h-63z" />
    <glyph glyph-name="dieresistonos" unicode="&#x385;" horiz-adv-x="1124" 
d="M688 1655v-21q-11 -40 -30 -94t-42 -109t-45 -99h-56v20q14 42 28 96t25 108.5t16 98.5h104zM370 1426q32 0 48.5 -22t16.5 -58q0 -37 -16.5 -58t-48.5 -21q-30 0 -47.5 21.5t-17.5 57.5q0 35 17.5 57.5t47.5 22.5zM753 1426q31 0 49 -21.5t18 -58.5q0 -36 -17.5 -57.5
t-49.5 -21.5q-30 0 -46.5 21.5t-16.5 58.5q0 35 16.5 57t46.5 22z" />
    <glyph glyph-name="Alphatonos" unicode="&#x386;" horiz-adv-x="1033" 
d="M927 0l-162 524h-493l-165 -524h-104l463 1465h110l456 -1465h-105zM738 617l-166 559q-8 28 -17 60t-18 65t-18 65q-7 -33 -16 -64.5t-17.5 -63.5t-17.5 -62l-169 -559h439zM54 1176v20q13 33 28.5 80t30 99.5t26 102t17.5 86.5h103v-21q-13 -55 -37 -120.5t-52 -130
t-53 -116.5h-63z" />
    <glyph glyph-name="anoteleia" unicode="&#x387;" horiz-adv-x="447" 
d="M146 1008q0 43 18.5 67.5t58.5 24.5t59.5 -23t19.5 -69t-20 -69.5t-59 -23.5t-58 24.5t-19 68.5z" />
    <glyph glyph-name="Epsilontonos" unicode="&#x388;" horiz-adv-x="1076" 
d="M965 0h-672v1462h672v-91h-571v-557h538v-92h-538v-630h571v-92zM-1 1172v20q13 33 28.5 80t30 99.5t26 102t17.5 86.5h103v-21q-13 -55 -37 -120.5t-52 -130t-53 -116.5h-63z" />
    <glyph glyph-name="Etatonos" unicode="&#x389;" horiz-adv-x="1365" 
d="M1185 0h-101v721h-689v-721h-101v1462h101v-648h689v648h101v-1462zM-1 1172v20q13 33 28.5 80t30 99.5t26 102t17.5 86.5h103v-21q-13 -55 -37 -120.5t-52 -130t-53 -116.5h-63z" />
    <glyph glyph-name="Iotatonos" unicode="&#x38a;" horiz-adv-x="559" 
d="M279 0v1462h100v-1462h-100zM-1 1172v20q13 33 28.5 80t30 99.5t26 102t17.5 86.5h103v-21q-13 -55 -37 -120.5t-52 -130t-53 -116.5h-63z" />
    <glyph glyph-name="Omicrontonos" unicode="&#x38c;" horiz-adv-x="1351" 
d="M1233 733q0 -159 -31 -296t-96.5 -239.5t-168 -160t-245.5 -57.5q-144 0 -247.5 58.5t-169 162t-97 240.5t-31.5 294q0 236 63 403.5t185 256.5t301 89q182 0 301 -94t177.5 -263.5t58.5 -393.5zM252 734q0 -204 48.5 -353t147 -229.5t244.5 -80.5q149 0 246 79
t144 227.5t47 355.5q0 318 -109 488.5t-324 170.5q-150 0 -248.5 -79.5t-147 -227t-48.5 -351.5zM-1 1172v20q13 33 28.5 80t30 99.5t26 102t17.5 86.5h103v-21q-13 -55 -37 -120.5t-52 -130t-53 -116.5h-63z" />
    <glyph glyph-name="Upsilontonos" unicode="&#x38e;" horiz-adv-x="1140" 
d="M694 679l338 783h108l-395 -895v-567h-101v563l-397 899h108zM-1 1172v20q13 33 28.5 80t30 99.5t26 102t17.5 86.5h103v-21q-13 -55 -37 -120.5t-52 -130t-53 -116.5h-63z" />
    <glyph glyph-name="Omegatonos" unicode="&#x38f;" horiz-adv-x="1371" 
d="M700 1392q-137 0 -237 -70t-154 -204t-54 -325q0 -169 40 -302.5t114.5 -235.5t174.5 -177v-78h-483v92h356q-87 69 -156 166.5t-110 230.5t-41 308q0 219 67 372.5t190.5 234t291.5 80.5q171 0 294 -79t189 -231.5t66 -377.5q0 -178 -39 -311t-107.5 -229.5
t-159.5 -163.5h356v-92h-486v78q112 77 185.5 180t109.5 235.5t36 298.5q0 194 -52.5 328t-152 203t-238.5 69zM-1 1173v20q13 33 28.5 80t30 99.5t26 102t17.5 86.5h103v-21q-13 -55 -37 -120.5t-52 -130t-53 -116.5h-63z" />
    <glyph glyph-name="iotadieresistonos" unicode="&#x390;" horiz-adv-x="537" 
d="M249 1087v-820q0 -111 36 -155t108 -44q30 0 61 5.5t50 12.5v-85q-25 -9 -58 -15t-67 -6q-73 0 -124 27t-77 88t-26 164v828h97zM341 1655v-21q-11 -40 -30 -94t-42 -109t-45 -99h-56v20q14 42 28 96t25 108.5t16 98.5h104zM23 1426q32 0 48.5 -22t16.5 -58
q0 -37 -16.5 -58t-48.5 -21q-30 0 -47.5 21.5t-17.5 57.5q0 35 17.5 57.5t47.5 22.5zM406 1426q31 0 49 -21.5t18 -58.5q0 -36 -17.5 -57.5t-49.5 -21.5q-30 0 -46.5 21.5t-16.5 58.5q0 35 16.5 57t46.5 22z" />
    <glyph glyph-name="Alpha" unicode="&#x391;" horiz-adv-x="1030" 
d="M924 0l-162 524h-493l-165 -524h-104l463 1465h110l456 -1465h-105zM735 617l-166 559q-8 28 -17 60t-18 65t-18 65q-7 -33 -16 -64.5t-17.5 -63.5t-17.5 -62l-169 -559h439z" />
    <glyph glyph-name="Beta" unicode="&#x392;" horiz-adv-x="1101" 
d="M181 1462h350q224 0 330.5 -85t106.5 -264q0 -89 -28.5 -160t-83.5 -117t-135 -62v-6q97 -19 159.5 -64.5t93 -118.5t30.5 -172q0 -135 -53 -227t-150.5 -139t-230.5 -47h-389v1462zM282 812h258q168 0 246.5 73.5t78.5 220.5q0 138 -80.5 202.5t-262.5 64.5h-240v-561z
M282 723v-633h279q165 0 251.5 81.5t86.5 246.5q0 109 -41.5 176.5t-121 98t-192.5 30.5h-262z" />
    <glyph glyph-name="Gamma" unicode="&#x393;" horiz-adv-x="867" 
d="M847 1462v-92h-565v-1370h-101v1462h666z" />
    <glyph glyph-name="uni0394" unicode="&#x394;" horiz-adv-x="984" 
d="M547 1462l416 -1396v-66h-941v69l416 1393h109zM851 92l-279 954q-16 53 -31 110.5t-28.5 110t-20.5 90.5q-9 -43 -22 -95.5t-27.5 -106.5t-28.5 -106l-282 -957h719z" />
    <glyph glyph-name="Epsilon" unicode="&#x395;" horiz-adv-x="964" 
d="M853 0h-672v1462h672v-91h-571v-557h538v-92h-538v-630h571v-92z" />
    <glyph glyph-name="Zeta" unicode="&#x396;" horiz-adv-x="935" 
d="M874 0h-808v78l672 1292h-641v92h759v-78l-672 -1291h690v-93z" />
    <glyph glyph-name="Eta" unicode="&#x397;" horiz-adv-x="1252" 
d="M1072 0h-101v721h-689v-721h-101v1462h101v-648h689v648h101v-1462z" />
    <glyph glyph-name="Theta" unicode="&#x398;" horiz-adv-x="1321" 
d="M929 785v-89h-539v89h539zM1203 733q0 -159 -31 -296t-96.5 -239.5t-168 -160t-245.5 -57.5q-144 0 -247.5 58.5t-169 162t-97 240.5t-31.5 294q0 236 63 403.5t185 256.5t301 89q182 0 301 -94t177.5 -263.5t58.5 -393.5zM222 734q0 -204 48.5 -353t147 -229.5
t244.5 -80.5q149 0 246 79t144 227.5t47 355.5q0 318 -109 488.5t-324 170.5q-150 0 -248.5 -79.5t-147 -227t-48.5 -351.5z" />
    <glyph glyph-name="Iota" unicode="&#x399;" horiz-adv-x="462" 
d="M181 0v1462h100v-1462h-100z" />
    <glyph glyph-name="Kappa" unicode="&#x39a;" horiz-adv-x="1009" 
d="M1012 0h-117l-460 753l-153 -174v-579h-101v1462h101v-775q24 35 59 81.5t77 105.5l457 588h118l-487 -631z" />
    <glyph glyph-name="Lambda" unicode="&#x39b;" horiz-adv-x="988" 
d="M548 1462l440 -1462h-106l-314 1053l-28 106t-26 102t-21 88q-9 -43 -21 -92.5t-26 -101t-29 -103.5l-311 -1052h-106l439 1462h109z" />
    <glyph glyph-name="Mu" unicode="&#x39c;" horiz-adv-x="1577" 
d="M739 0l-463 1333h-5q2 -51 3.5 -93t2.5 -78t1 -67v-1095h-97v1462h148l456 -1311h6l458 1311h148v-1462h-99v1098q0 27 0.5 62t2 77.5t2.5 93.5h-5l-464 -1331h-95z" />
    <glyph glyph-name="Nu" unicode="&#x39d;" horiz-adv-x="1280" 
d="M1099 0h-111l-712 1295h-5q2 -46 3 -93.5t2.5 -99.5t1.5 -108v-994h-97v1462h112l711 -1286h5q-1 48 -2.5 102t-3 106.5t-1.5 95.5v982h97v-1462z" />
    <glyph glyph-name="Xi" unicode="&#x39e;" horiz-adv-x="937" 
d="M68 0v92h802v-92h-802zM160 722v92h617v-92h-617zM99 1371v91h739v-91h-739z" />
    <glyph glyph-name="Omicron" unicode="&#x39f;" horiz-adv-x="1321" 
d="M1203 733q0 -159 -31 -296t-96.5 -239.5t-168 -160t-245.5 -57.5q-144 0 -247.5 58.5t-169 162t-97 240.5t-31.5 294q0 236 63 403.5t185 256.5t301 89q182 0 301 -94t177.5 -263.5t58.5 -393.5zM222 734q0 -204 48.5 -353t147 -229.5t244.5 -80.5q149 0 246 79
t144 227.5t47 355.5q0 318 -109 488.5t-324 170.5q-150 0 -248.5 -79.5t-147 -227t-48.5 -351.5z" />
    <glyph glyph-name="Pi" unicode="&#x3a0;" horiz-adv-x="1248" 
d="M181 0v1462h885v-1462h-99v1371h-685v-1371h-101z" />
    <glyph glyph-name="Rho" unicode="&#x3a1;" horiz-adv-x="1022" 
d="M471 1462q233 0 347.5 -97.5t114.5 -313.5q0 -112 -29.5 -195.5t-88.5 -139.5t-149 -83.5t-211 -27.5h-173v-605h-101v1462h290zM464 1372h-182v-677h169q123 0 207.5 34.5t128 112t43.5 207.5q0 173 -89.5 248t-276.5 75z" />
    <glyph glyph-name="Sigma" unicode="&#x3a3;" horiz-adv-x="955" 
d="M61 0v83l451 680l-437 621v78h794v-92h-503h-56t-57 1t-58 1l431 -608l-451 -675q48 1 98.5 2.5t111.5 1.5h530v-93h-854z" />
    <glyph glyph-name="Tau" unicode="&#x3a4;" horiz-adv-x="899" 
d="M499 0h-102v1371h-384v91h870v-91h-384v-1371z" />
    <glyph glyph-name="Upsilon" unicode="&#x3a5;" horiz-adv-x="893" 
d="M447 679l338 783h108l-395 -895v-567h-101v563l-397 899h108z" />
    <glyph glyph-name="Phi" unicode="&#x3a6;" horiz-adv-x="1387" 
d="M742 1483v-179q171 -2 291 -64.5t184 -182t64 -292.5q0 -130 -36.5 -232.5t-105.5 -175t-169 -112t-228 -41.5v-224h-98v224q-125 1 -224 40t-169.5 111.5t-107.5 175t-37 231.5q0 125 35.5 224t104.5 169.5t169 108.5t229 40v179h98zM644 1214q-136 -2 -233.5 -53.5
t-150 -151.5t-52.5 -247q0 -154 54.5 -257.5t152.5 -156.5t229 -56v922zM742 1214v-922q135 4 233 57.5t151 157.5t53 260q0 152 -51.5 250t-148.5 146.5t-237 50.5z" />
    <glyph glyph-name="Chi" unicode="&#x3a7;" horiz-adv-x="916" 
d="M908 0h-112l-331 676l-348 -676h-108l399 762l-355 700h110l306 -617l310 617h108l-360 -702z" />
    <glyph glyph-name="Psi" unicode="&#x3a8;" horiz-adv-x="1373" 
d="M1233 1462v-476q0 -137 -29.5 -237t-91.5 -165t-156.5 -97.5t-225.5 -34.5v-452h-98v452q-129 2 -223 33.5t-155.5 95.5t-92 165t-30.5 241v475h100v-470q0 -147 38 -246.5t125.5 -150t237.5 -53.5v920h98v-920q145 3 233 49t128 143.5t40 255.5v472h102z" />
    <glyph glyph-name="uni03A9" unicode="&#x3a9;" horiz-adv-x="1342" 
d="M672 1392q-137 0 -237 -70t-154 -204t-54 -325q0 -169 40 -302.5t114.5 -235.5t174.5 -177v-78h-483v92h356q-87 69 -156 166.5t-110 230.5t-41 308q0 219 67 372.5t190.5 234t291.5 80.5q171 0 294 -79t189 -231.5t66 -377.5q0 -178 -39 -311t-107.5 -229.5
t-159.5 -163.5h356v-92h-486v78q112 77 185.5 180t109.5 235.5t36 298.5q0 194 -52.5 328t-152 203t-238.5 69z" />
    <glyph glyph-name="Iotadieresis" unicode="&#x3aa;" horiz-adv-x="462" 
d="M181 0v1462h100v-1462h-100zM-6 1738q0 35 17.5 56.5t47.5 21.5q32 0 49 -21t17 -57q0 -38 -17 -59t-49 -21q-30 0 -47.5 21.5t-17.5 58.5zM338 1738q0 36 17.5 57t47.5 21q31 0 48.5 -21t17.5 -57q0 -37 -17.5 -58.5t-48.5 -21.5t-48 21.5t-17 58.5z" />
    <glyph glyph-name="Upsilondieresis" unicode="&#x3ab;" horiz-adv-x="893" 
d="M447 679l338 783h108l-395 -895v-567h-101v563l-397 899h108zM209 1735q0 35 17.5 56.5t47.5 21.5q32 0 49 -21t17 -57q0 -38 -17 -59t-49 -21q-30 0 -47.5 21.5t-17.5 58.5zM553 1735q0 36 17.5 57t47.5 21q31 0 48.5 -21t17.5 -57q0 -37 -17.5 -58.5t-48.5 -21.5
t-48 21.5t-17 58.5z" />
    <glyph glyph-name="alphatonos" unicode="&#x3ac;" horiz-adv-x="1071" 
d="M499 67q104 0 169.5 55t96 154t30.5 230v83q0 218 -71 324.5t-216 106.5q-149 0 -225.5 -126t-76.5 -358q0 -234 73.5 -351.5t219.5 -117.5zM485 -20q-184 0 -281.5 141.5t-97.5 415.5q0 284 106 427.5t289 143.5q109 0 183.5 -50t112.5 -143h7q5 44 17.5 88.5t30.5 83.5
h80q-12 -41 -20.5 -94t-13 -121t-4.5 -155v-465q0 -106 23 -146t69 -40q17 0 36 3t33 9v-80q-9 -5 -23 -8.5t-30.5 -6.5t-33.5 -3q-80 0 -118.5 49.5t-47.5 165.5h-7q-23 -57 -63.5 -106.5t-101.5 -79t-145 -29.5zM471 1241v20q13 33 28.5 80t30 99.5t26 102t17.5 86.5h103
v-21q-13 -55 -37 -120.5t-52 -130t-53 -116.5h-63z" />
    <glyph glyph-name="epsilontonos" unicode="&#x3ad;" horiz-adv-x="788" 
d="M569 619v-85h-91q-93 0 -157.5 -26t-98.5 -79t-34 -134q0 -72 30.5 -123t89 -78t142.5 -27q81 0 150 20t121 46v-92q-47 -26 -115.5 -43.5t-161.5 -17.5q-182 0 -268.5 87t-86.5 224q0 116 57.5 187t156.5 98v7q-90 30 -132.5 94.5t-42.5 150.5q0 94 43.5 156t117.5 93
t167 31q83 0 145 -17.5t123 -47.5l-40 -80q-46 26 -103.5 42t-123.5 16q-113 0 -172 -51.5t-59 -146.5q0 -98 66.5 -151t198.5 -53h78zM387 1241v20q13 33 28.5 80t30 99.5t26 102t17.5 86.5h103v-21q-13 -55 -37 -120.5t-52 -130t-53 -116.5h-63z" />
    <glyph glyph-name="etatonos" unicode="&#x3ae;" horiz-adv-x="1041" 
d="M576 1108q99 0 168.5 -40t106 -122t36.5 -211v-1221h-98v1206q0 157 -58 228.5t-169 71.5q-93 0 -161 -44.5t-105 -135.5t-37 -231v-609h-99v1087h79l13 -199h6q23 59 65.5 109t105 80.5t147.5 30.5zM479 1241v20q13 33 28.5 80t30 99.5t26 102t17.5 86.5h103v-21
q-13 -55 -37 -120.5t-52 -130t-53 -116.5h-63z" />
    <glyph glyph-name="iotatonos" unicode="&#x3af;" horiz-adv-x="538" 
d="M249 1087v-820q0 -111 36 -155t108 -44q30 0 61 5.5t50 12.5v-85q-25 -9 -58 -15t-67 -6q-73 0 -124 27t-77 88t-26 164v828h97zM160 1241v20q13 33 28.5 80t30 99.5t26 102t17.5 86.5h103v-21q-13 -55 -37 -120.5t-52 -130t-53 -116.5h-63z" />
    <glyph glyph-name="upsilondieresistonos" unicode="&#x3b0;" horiz-adv-x="1031" 
d="M513 -19q-128 0 -207.5 53t-116.5 160t-38 267v626h98v-618q0 -201 63.5 -301t204.5 -100q156 0 231 126.5t75 378.5q0 128 -14 256t-48 258h100q20 -89 34 -169.5t21 -163t7 -177.5q0 -303 -103.5 -449.5t-306.5 -146.5zM640 1655v-21q-11 -40 -30 -94t-42 -109t-45 -99
h-56v20q14 42 28 96t25 108.5t16 98.5h104zM322 1426q32 0 48.5 -22t16.5 -58q0 -37 -16.5 -58t-48.5 -21q-30 0 -47.5 21.5t-17.5 57.5q0 35 17.5 57.5t47.5 22.5zM705 1426q31 0 49 -21.5t18 -58.5q0 -36 -17.5 -57.5t-49.5 -21.5q-30 0 -46.5 21.5t-16.5 58.5
q0 35 16.5 57t46.5 22z" />
    <glyph glyph-name="alpha" unicode="&#x3b1;" horiz-adv-x="1071" 
d="M499 67q104 0 169.5 55t96 154t30.5 230v83q0 218 -71 324.5t-216 106.5q-149 0 -225.5 -126t-76.5 -358q0 -234 73.5 -351.5t219.5 -117.5zM485 -20q-184 0 -281.5 141.5t-97.5 415.5q0 284 106 427.5t289 143.5q109 0 183.5 -50t112.5 -143h7q5 44 17.5 88.5t30.5 83.5
h80q-12 -41 -20.5 -94t-13 -121t-4.5 -155v-465q0 -106 23 -146t69 -40q17 0 36 3t33 9v-80q-9 -5 -23 -8.5t-30.5 -6.5t-33.5 -3q-80 0 -118.5 49.5t-47.5 165.5h-7q-23 -57 -63.5 -106.5t-101.5 -79t-145 -29.5z" />
    <glyph glyph-name="beta" unicode="&#x3b2;" horiz-adv-x="1069" 
d="M554 1567q116 0 197.5 -45t124 -129.5t42.5 -203.5q0 -156 -64.5 -248t-179.5 -113v-6q144 -21 222 -120.5t78 -282.5q0 -133 -48 -231t-139.5 -151t-222.5 -53q-93 0 -166.5 24t-137.5 67v-561h-99v1621q0 137 47 233.5t135.5 147.5t210.5 51zM553 1480
q-91 0 -157 -39.5t-101 -118t-35 -195.5v-959q61 -44 135.5 -70t159.5 -26q158 0 239 94.5t81 260.5q0 111 -36 189t-109.5 118.5t-190.5 40.5h-79v88h75q137 0 210 79.5t73 239.5q0 144 -68.5 221t-196.5 77z" />
    <glyph glyph-name="gamma" unicode="&#x3b3;" horiz-adv-x="820" 
d="M804 1087l-319 -1006q-30 -99 -50.5 -199t-31 -194t-11.5 -174h-102q0 75 11.5 166.5t28.5 179t34 152.5l-357 1075h103l221 -659l32 -104t28.5 -100.5t20.5 -92.5h6q8 45 20 92t26.5 98t29.5 107l207 659h103z" />
    <glyph glyph-name="delta" unicode="&#x3b4;" horiz-adv-x="1029" 
d="M573 1564q89 0 167 -22.5t147 -59.5l-43 -82q-65 38 -132 57t-141 19q-107 0 -165.5 -50t-58.5 -134q0 -61 29 -110.5t84.5 -97.5t133.5 -105q96 -70 171 -144t117 -166.5t42 -220.5q0 -136 -46.5 -242t-137.5 -166t-224 -60q-129 0 -221.5 58t-141.5 160t-49 235
q0 121 44.5 222t129 175.5t205.5 117.5q-71 54 -124 105t-82 108.5t-29 131.5q0 130 92.5 200.5t232.5 70.5zM554 895q-110 -37 -188 -102t-119 -155.5t-41 -203.5q0 -106 37 -189.5t106.5 -130.5t166.5 -47q100 0 168.5 46.5t104 132.5t35.5 202q0 144 -69 249t-201 198z
" />
    <glyph glyph-name="epsilon" unicode="&#x3b5;" horiz-adv-x="788" 
d="M569 619v-85h-91q-93 0 -157.5 -26t-98.5 -79t-34 -134q0 -72 30.5 -123t89 -78t142.5 -27q81 0 150 20t121 46v-92q-47 -26 -115.5 -43.5t-161.5 -17.5q-182 0 -268.5 87t-86.5 224q0 116 57.5 187t156.5 98v7q-90 30 -132.5 94.5t-42.5 150.5q0 94 43.5 156t117.5 93
t167 31q83 0 145 -17.5t123 -47.5l-40 -80q-46 26 -103.5 42t-123.5 16q-113 0 -172 -51.5t-59 -146.5q0 -98 66.5 -151t198.5 -53h78z" />
    <glyph glyph-name="zeta" unicode="&#x3b6;" horiz-adv-x="806" 
d="M749 -135q0 -73 -33 -142t-82 -132h-107q33 41 61.5 86t45 89.5t16.5 82.5q-1 50 -24.5 82.5t-70.5 54t-118 39.5q-114 33 -187.5 86.5t-108.5 139.5t-35 216q0 132 33.5 250t100.5 235.5t168.5 245t236.5 277.5q-24 -2 -56.5 -2.5t-68.5 -2t-73 -1.5h-289v87h599v-77
q-149 -160 -254.5 -291.5t-170.5 -248t-95.5 -230.5t-30.5 -240q0 -102 29 -171t93 -114.5t172 -78.5q74 -20 130.5 -48.5t87.5 -73.5t31 -118z" />
    <glyph glyph-name="eta" unicode="&#x3b7;" horiz-adv-x="1041" 
d="M576 1108q99 0 168.5 -40t106 -122t36.5 -211v-1221h-98v1206q0 157 -58 228.5t-169 71.5q-93 0 -161 -44.5t-105 -135.5t-37 -231v-609h-99v1087h79l13 -199h6q23 59 65.5 109t105 80.5t147.5 30.5z" />
    <glyph glyph-name="theta" unicode="&#x3b8;" horiz-adv-x="1033" 
d="M932 797q0 -274 -46 -455.5t-138.5 -271.5t-232.5 -90q-205 0 -308 202.5t-103 612.5q0 262 46.5 435t139 259t228.5 86q207 0 310.5 -194t103.5 -584zM516 66q155 0 233 172.5t83 520.5h-628q5 -341 80 -517t232 -176zM518 1490q-154 0 -231 -161t-83 -482h627
q-5 313 -80.5 478t-232.5 165z" />
    <glyph glyph-name="iota" unicode="&#x3b9;" horiz-adv-x="540" 
d="M251 1087v-820q0 -111 36 -155t108 -44q30 0 61 5.5t50 12.5v-85q-25 -9 -58 -15t-67 -6q-73 0 -124 27t-77 88t-26 164v828h97z" />
    <glyph glyph-name="kappa" unicode="&#x3ba;" horiz-adv-x="856" 
d="M820 1087l-337 -444l368 -643h-111l-324 571l-154 -185v-386h-102v1087h102v-315q0 -74 -1.5 -146.5t-5.5 -138.5h2q23 31 42 58.5t42 57.5l365 484h114z" />
    <glyph glyph-name="lambda" unicode="&#x3bb;" horiz-adv-x="886" 
d="M3 0l381 1091l-57 216q-26 91 -60.5 133t-98.5 42q-26 0 -45.5 -5t-36.5 -10v86q13 5 27 8.5t31.5 5.5t37.5 2q63 0 107 -23.5t76.5 -78.5t58.5 -149l315 -1121q14 -48 28.5 -76.5t33.5 -40t44 -11.5q16 0 30 2.5t24 5.5v-83q-10 -3 -20.5 -6t-23 -5t-29.5 -2
q-47 0 -80 19.5t-56 60.5t-41 108l-163 572q-10 40 -18 69.5t-14.5 53t-12 44t-10.5 42.5h-6q-10 -39 -22.5 -79.5t-27.5 -81.5l-268 -789h-104z" />
    <glyph glyph-name="uni03BC" unicode="&#x3bc;" horiz-adv-x="1049" 
d="M888 1087v-1087h-80l-13 188h-6q-22 -55 -59.5 -102.5t-94.5 -76.5t-142 -29q-88 0 -146 31.5t-90 91.5h-6q4 -33 5 -67t1.5 -68t0.5 -69v-385h-98v1573h98v-714q0 -155 59 -230t177 -75q105 0 170 47.5t95.5 141.5t30.5 232v598h98z" />
    <glyph glyph-name="nu" unicode="&#x3bd;" horiz-adv-x="895" 
d="M14 1087h102l226 -772q9 -27 18.5 -64t19 -74.5t15.5 -68.5h5q107 126 180 274t112 323t39 382h97q0 -222 -44 -412.5t-133 -356.5t-225 -318h-92z" />
    <glyph glyph-name="xi" unicode="&#x3be;" horiz-adv-x="798" 
d="M107 425q0 107 35 189.5t100.5 135.5t156.5 70v6q-71 11 -125 46t-84.5 98.5t-30.5 157.5q0 101 38 171t101 113.5t138 63.5q-34 -2 -63 -3.5t-58.5 -2.5t-68.5 -1h-106v87h582v-84h-52q-80 0 -154.5 -20t-132.5 -62t-91.5 -106t-33.5 -154q0 -139 78.5 -201t230.5 -62
h112v-86h-115q-107 0 -187 -38t-124 -116t-44 -196q0 -100 31.5 -160.5t93 -95.5t153.5 -64q87 -28 143.5 -59t84 -75.5t27.5 -110.5q0 -71 -33.5 -140.5t-77.5 -134.5h-104q40 53 66 99.5t39 86.5t13 73q0 47 -20.5 78t-68 55.5t-129.5 46.5q-101 29 -172.5 75.5
t-109.5 123.5t-38 196z" />
    <glyph glyph-name="omicron" unicode="&#x3bf;" horiz-adv-x="1030" 
d="M924 545q0 -132 -25.5 -236.5t-77 -177.5t-128 -112t-179.5 -39q-99 0 -175 39t-128.5 112.5t-79 178t-26.5 236.5q0 179 47.5 304.5t140 191.5t226.5 66q137 0 227 -69t134 -195.5t44 -298.5zM205 546q0 -150 33.5 -257t102.5 -164t175 -57t174.5 55.5t101 163
t32.5 259.5q0 144 -30.5 250.5t-98 165t-177.5 58.5q-158 0 -235.5 -123.5t-77.5 -350.5z" />
    <glyph glyph-name="pi" unicode="&#x3c0;" horiz-adv-x="1075" 
d="M941 71q23 0 40.5 3.5t32.5 8.5v-84q-12 -5 -38 -10t-60 -5q-91 0 -137 57t-46 172v789h-429v-1002h-97v1002h-188v52l130 33h872v-85h-190v-777q0 -81 25.5 -117.5t84.5 -36.5z" />
    <glyph glyph-name="rho" unicode="&#x3c1;" horiz-adv-x="1040" 
d="M937 553q0 -183 -45 -310.5t-134 -195t-221 -67.5q-88 0 -159.5 27.5t-122.5 73.5h-7q5 -66 6.5 -126t1.5 -123v-318h-99v1062q0 174 43 292.5t130.5 179t218.5 60.5q127 0 213 -62t130.5 -185t44.5 -308zM546 1020q-152 0 -221.5 -116.5t-69.5 -335.5v-394
q49 -48 122 -77.5t155 -29.5q149 0 226.5 122.5t77.5 363.5q0 229 -69 348t-221 119z" />
    <glyph glyph-name="uni03C2" unicode="&#x3c2;" horiz-adv-x="804" 
d="M536 1108q65 0 121 -12t98 -32l-27 -86q-44 20 -92.5 30t-98.5 10q-168 0 -249 -120t-81 -357q0 -124 25 -205t86 -133t169 -87q77 -24 133.5 -54.5t88 -76.5t31.5 -120q0 -77 -35 -147.5t-77 -126.5h-102q35 47 61.5 91.5t41 87.5t14.5 82q0 46 -20 77.5t-66.5 55.5
t-124.5 49q-82 25 -143 63.5t-101.5 97t-61 143.5t-20.5 203q0 190 50 316t146 188.5t234 62.5z" />
    <glyph glyph-name="sigma" unicode="&#x3c3;" horiz-adv-x="1036" 
d="M917 511q0 -169 -48 -287.5t-139 -181t-221 -62.5t-220 64.5t-136.5 185t-46.5 289.5q0 183 54.5 310.5t166 192.5t280.5 65h385v-87h-219q68 -103 106 -221t38 -268zM207 520q0 -141 33 -242.5t101 -156t170 -54.5q153 0 229 117t76 329q0 97 -16 180t-47 159t-76 148
h-72q-210 0 -304 -122.5t-94 -357.5z" />
    <glyph glyph-name="tau" unicode="&#x3c4;" horiz-adv-x="734" 
d="M685 1087v-87h-335v-685q0 -130 38 -189.5t129 -59.5q35 0 71 6t65 16v-82q-23 -10 -65 -18.5t-87 -8.5q-87 0 -142.5 35.5t-81.5 107.5t-26 182v696h-240v53l114 34h560z" />
    <glyph glyph-name="upsilon" unicode="&#x3c5;" horiz-adv-x="1031" 
d="M513 -19q-128 0 -207.5 53t-116.5 160t-38 267v626h98v-618q0 -201 63.5 -301t204.5 -100q156 0 231 126.5t75 378.5q0 128 -14 256t-48 258h100q20 -89 34 -169.5t21 -163t7 -177.5q0 -303 -103.5 -449.5t-306.5 -146.5z" />
    <glyph glyph-name="phi" unicode="&#x3c6;" horiz-adv-x="1239" 
d="M312 1102l76 -52q-87 -102 -134.5 -222t-47.5 -278q0 -146 39.5 -252t119.5 -165t201 -67v702q0 164 61 252t187 88q106 0 177.5 -66t107.5 -183t36 -271q0 -170 -53 -304t-158 -214t-260 -90v-466h-98v466q-155 9 -256.5 79t-152.5 195t-51 296q0 174 55 306.5
t151 245.5zM814 1021q-84 0 -118 -69t-34 -192v-694q117 7 200 71t127.5 179t44.5 273q0 139 -27.5 235t-76.5 147t-116 50z" />
    <glyph glyph-name="chi" unicode="&#x3c7;" horiz-adv-x="877" 
d="M116 1103q47 0 79.5 -20.5t57 -62t44.5 -108.5l150 -460l271 635h103l-330 -757l180 -573q21 -61 39.5 -96.5t41 -50.5t55.5 -15q18 0 33 3t27 6v-82q-15 -5 -34 -9.5t-44 -4.5q-54 0 -90.5 21t-63 66.5t-50.5 118.5l-158 501l-293 -701h-104l353 824l-172 533
q-25 78 -50 111.5t-68 33.5q-19 0 -35 -3.5t-30 -9.5v85q14 6 37.5 10.5t50.5 4.5z" />
    <glyph glyph-name="psi" unicode="&#x3c8;" horiz-adv-x="1243" 
d="M675 1555v-1481q122 6 201 68t116 177t37 280q0 139 -17.5 253.5t-50.5 234.5h99q34 -122 51 -236t17 -254q0 -191 -50 -325t-150 -206t-253 -79v-473h-97v473q-145 4 -240.5 67.5t-142.5 183t-47 293.5v556h96v-549q0 -146 36 -247t109.5 -156.5t188.5 -60.5v1481h97z
" />
    <glyph glyph-name="omega" unicode="&#x3c9;" horiz-adv-x="1256" 
d="M1034 1087q37 -94 62.5 -184t39 -185t13.5 -204q0 -154 -31.5 -275t-97 -190t-169.5 -69q-91 0 -146 51.5t-76 141.5h-4q-20 -89 -78.5 -141t-146.5 -52q-92 0 -158 61.5t-100.5 181.5t-34.5 291q0 111 13.5 206t38.5 184.5t63 182.5h100q-57 -141 -86.5 -276.5
t-29.5 -299.5q0 -215 52 -328.5t151 -113.5q58 0 96 37.5t56.5 109t18.5 174.5v307h95v-307q0 -107 18.5 -178t55.5 -107t94 -36q70 0 115 51.5t68 150.5t23 241q0 160 -28 297.5t-87 277.5h100z" />
    <glyph glyph-name="iotadieresis" unicode="&#x3ca;" horiz-adv-x="544" 
d="M255 1087v-820q0 -111 36 -155t108 -44q30 0 61 5.5t50 12.5v-85q-25 -9 -58 -15t-67 -6q-73 0 -124 27t-77 88t-26 164v828h97zM-20 1377q0 35 17.5 56.5t47.5 21.5q32 0 49 -21t17 -57q0 -38 -17 -59t-49 -21q-30 0 -47.5 21.5t-17.5 58.5zM324 1377q0 36 17.5 57
t47.5 21q31 0 48.5 -21t17.5 -57q0 -37 -17.5 -58.5t-48.5 -21.5t-48 21.5t-17 58.5z" />
    <glyph glyph-name="upsilondieresis" unicode="&#x3cb;" horiz-adv-x="1031" 
d="M513 -19q-128 0 -207.5 53t-116.5 160t-38 267v626h98v-618q0 -201 63.5 -301t204.5 -100q156 0 231 126.5t75 378.5q0 128 -14 256t-48 258h100q20 -89 34 -169.5t21 -163t7 -177.5q0 -303 -103.5 -449.5t-306.5 -146.5zM270 1377q0 35 17.5 56.5t47.5 21.5q32 0 49 -21
t17 -57q0 -38 -17 -59t-49 -21q-30 0 -47.5 21.5t-17.5 58.5zM614 1377q0 36 17.5 57t47.5 21q31 0 48.5 -21t17.5 -57q0 -37 -17.5 -58.5t-48.5 -21.5t-48 21.5t-17 58.5z" />
    <glyph glyph-name="omicrontonos" unicode="&#x3cc;" horiz-adv-x="1030" 
d="M924 545q0 -132 -25.5 -236.5t-77 -177.5t-128 -112t-179.5 -39q-99 0 -175 39t-128.5 112.5t-79 178t-26.5 236.5q0 179 47.5 304.5t140 191.5t226.5 66q137 0 227 -69t134 -195.5t44 -298.5zM205 546q0 -150 33.5 -257t102.5 -164t175 -57t174.5 55.5t101 163
t32.5 259.5q0 144 -30.5 250.5t-98 165t-177.5 58.5q-158 0 -235.5 -123.5t-77.5 -350.5zM452 1241v20q13 33 28.5 80t30 99.5t26 102t17.5 86.5h103v-21q-13 -55 -37 -120.5t-52 -130t-53 -116.5h-63z" />
    <glyph glyph-name="upsilontonos" unicode="&#x3cd;" horiz-adv-x="1031" 
d="M513 -19q-128 0 -207.5 53t-116.5 160t-38 267v626h98v-618q0 -201 63.5 -301t204.5 -100q156 0 231 126.5t75 378.5q0 128 -14 256t-48 258h100q20 -89 34 -169.5t21 -163t7 -177.5q0 -303 -103.5 -449.5t-306.5 -146.5zM459 1241v20q13 33 28.5 80t30 99.5t26 102
t17.5 86.5h103v-21q-13 -55 -37 -120.5t-52 -130t-53 -116.5h-63z" />
    <glyph glyph-name="omegatonos" unicode="&#x3ce;" horiz-adv-x="1256" 
d="M1034 1087q37 -94 62.5 -184t39 -185t13.5 -204q0 -154 -31.5 -275t-97 -190t-169.5 -69q-91 0 -146 51.5t-76 141.5h-4q-20 -89 -78.5 -141t-146.5 -52q-92 0 -158 61.5t-100.5 181.5t-34.5 291q0 111 13.5 206t38.5 184.5t63 182.5h100q-57 -141 -86.5 -276.5
t-29.5 -299.5q0 -215 52 -328.5t151 -113.5q58 0 96 37.5t56.5 109t18.5 174.5v307h95v-307q0 -107 18.5 -178t55.5 -107t94 -36q70 0 115 51.5t68 150.5t23 241q0 160 -28 297.5t-87 277.5h100zM568 1241v20q13 33 28.5 80t30 99.5t26 102t17.5 86.5h103v-21
q-13 -55 -37 -120.5t-52 -130t-53 -116.5h-63z" />
    <glyph glyph-name="uni03D1" unicode="&#x3d1;" horiz-adv-x="1077" 
d="M491 1579q85 0 155 -37.5t122.5 -114.5t88 -195.5t52.5 -279.5h141v-88h-136q2 -25 3 -53t1 -61q0 -176 -25 -318t-77.5 -242.5t-136 -155t-199.5 -54.5q-75 0 -132.5 23t-96 67t-58 108t-19.5 144q0 58 6.5 125t13 127.5t6.5 99.5q0 61 -21 84.5t-58 23.5q-21 0 -42 -6
t-41 -15l-25 76q27 14 60 22.5t72 8.5q77 0 115 -47t38 -138q0 -51 -6.5 -114.5l-13 -127t-6.5 -117.5q0 -123 54.5 -191t156.5 -68q113 0 187 77.5t110.5 229.5t37.5 376q0 35 -1.5 63t-2.5 53q-196 2 -330 51.5t-202.5 144.5t-68.5 228q0 82 29 147.5t90.5 104.5t158.5 39
zM489 1493q-91 0 -134 -57t-43 -149q0 -109 57 -184t168 -112.5t271 -38.5q-11 112 -35.5 210t-63.5 172.5t-94 116.5t-126 42z" />
    <glyph glyph-name="uni03D2" unicode="&#x3d2;" horiz-adv-x="899" 
d="M443 680q34 110 66.5 201.5t61.5 167t54.5 134.5t45.5 105q22 53 44.5 95t54.5 67t79 25q15 0 29.5 -2.5t26.5 -8.5v-84q-10 3 -21 4.5t-20 1.5q-33 0 -57.5 -30t-53.5 -98q-23 -47 -52 -119t-63.5 -163t-71 -196t-73.5 -219v-561h-101v565l-392 897h109z" />
    <glyph glyph-name="uni03D6" unicode="&#x3d6;" horiz-adv-x="1266" 
d="M1215 1087v-87h-197q34 -86 57.5 -168.5t36.5 -168.5t13 -185q0 -150 -29.5 -262t-92 -174t-161.5 -62q-85 0 -138.5 46t-76.5 132h-7q-21 -84 -75.5 -131t-138.5 -47q-138 0 -211 127.5t-73 371.5q0 98 13.5 184.5t38.5 168.5t60 168h-215v46l117 41h1079zM922 1000
h-593q-31 -84 -55.5 -163.5t-38 -165.5t-13.5 -188q0 -212 48.5 -313t142.5 -101q86 0 125 87t39 250v257h96v-257q0 -113 17.5 -188t54 -112t91.5 -37q97 0 144 103.5t47 309.5q0 101 -13 186.5t-36.5 166t-55.5 165.5z" />
    <glyph glyph-name="uni0400" unicode="&#x400;" horiz-adv-x="964" 
d="M853 0h-672v1462h672v-91h-571v-557h538v-92h-538v-630h571v-92zM385 1924q28 -49 68 -104t83 -107.5t82 -94.5v-20h-67q-35 30 -74 69t-78 81.5t-73 83.5t-58 76v16h117z" />
    <glyph glyph-name="uni0401" unicode="&#x401;" horiz-adv-x="964" 
d="M853 0h-672v1462h672v-91h-571v-557h538v-92h-538v-630h571v-92zM287 1734q0 35 17.5 56.5t47.5 21.5q32 0 49 -21t17 -57q0 -38 -17 -59t-49 -21q-30 0 -47.5 21.5t-17.5 58.5zM631 1734q0 36 17.5 57t47.5 21q31 0 48.5 -21t17.5 -57q0 -37 -17.5 -58.5t-48.5 -21.5
t-48 21.5t-17 58.5z" />
    <glyph glyph-name="uni0402" unicode="&#x402;" horiz-adv-x="1178" 
d="M751 -20q-38 0 -68 5.5t-52 13.5v93q26 -10 54 -15.5t60 -5.5q58 0 101 27t67.5 84.5t24.5 147.5v195q0 134 -61 197.5t-205 63.5h-271v-786h-100v1371h-288v91h786v-91h-398v-493h288q172 0 260 -85t88 -260v-205q0 -169 -76 -258.5t-210 -89.5z" />
    <glyph glyph-name="uni0403" unicode="&#x403;" horiz-adv-x="867" 
d="M847 1462v-92h-565v-1370h-101v1462h666zM791 1924v-16q-24 -34 -57.5 -75t-73 -84t-78.5 -81.5t-74 -69.5h-65v21q42 47 84.5 99.5t80 105.5t66.5 100h117z" />
    <glyph glyph-name="uni0404" unicode="&#x404;" horiz-adv-x="1063" 
d="M699 1392q-115 0 -200.5 -45t-144 -125.5t-91 -187t-39.5 -228.5h619v-91h-621q2 -138 31 -255t86.5 -204.5t144.5 -136t204 -48.5q89 0 159 18.5t127 42.5v-93q-58 -27 -132 -43t-163 -16q-183 0 -308.5 94.5t-189.5 265t-64 397.5q0 155 36.5 290.5t109 238.5
t182 160.5t253.5 57.5q88 0 166 -18.5t147 -56.5l-41 -87q-65 38 -133.5 54t-137.5 16z" />
    <glyph glyph-name="uni0405" unicode="&#x405;" horiz-adv-x="967" 
d="M871 382q0 -129 -55 -218.5t-152.5 -136.5t-226.5 -47q-67 0 -128 7.5t-114 20.5t-98 32v103q69 -30 158.5 -50.5t182.5 -20.5q103 0 177 36t114.5 104.5t40.5 164.5q0 89 -34.5 145.5t-104.5 98t-179 85.5q-75 33 -138 67t-108.5 79t-70 108t-24.5 151q-1 120 53 203
t147.5 126t212.5 43q90 0 172 -19t150 -51l-36 -89q-74 35 -147.5 50.5t-139.5 15.5q-94 0 -163.5 -32.5t-108 -94t-38.5 -150.5q0 -93 36.5 -151t104.5 -98t161 -78q112 -48 191.5 -97t122 -121t42.5 -186z" />
    <glyph glyph-name="uni0406" unicode="&#x406;" horiz-adv-x="462" 
d="M181 0v1462h100v-1462h-100z" />
    <glyph glyph-name="uni0407" unicode="&#x407;" horiz-adv-x="462" 
d="M181 0v1462h100v-1462h-100zM-6 1736q0 35 17.5 56.5t47.5 21.5q32 0 49 -21t17 -57q0 -38 -17 -59t-49 -21q-30 0 -47.5 21.5t-17.5 58.5zM338 1736q0 36 17.5 57t47.5 21q31 0 48.5 -21t17.5 -57q0 -37 -17.5 -58.5t-48.5 -21.5t-48 21.5t-17 58.5z" />
    <glyph glyph-name="uni0408" unicode="&#x408;" horiz-adv-x="458" 
d="M1 -370q-43 0 -78.5 6.5t-62.5 18.5v91q28 -10 63.5 -16.5t73.5 -6.5q67 0 108.5 30.5t60 90t18.5 148.5v1470h100v-1476q0 -116 -30.5 -195.5t-92.5 -120t-160 -40.5z" />
    <glyph glyph-name="uni0409" unicode="&#x409;" horiz-adv-x="1597" 
d="M88 -18q-31 0 -54.5 5t-41.5 14v90q17 -8 38 -13.5t48 -5.5q57 0 91.5 40t54 106.5t34.5 146.5q15 84 31 191.5t31.5 242t32.5 299.5t34 364h505v-643h175q147 0 245.5 -42.5t148 -131.5t49.5 -225q0 -203 -110 -311.5t-319 -108.5h-288v1369h-320q-13 -164 -26.5 -299
t-25 -245t-23 -197.5t-23 -159t-22.5 -130.5q-20 -107 -50.5 -187.5t-80.5 -124.5t-134 -44zM892 90h176q172 0 255 82.5t83 247.5q0 110 -38.5 177.5t-116 99t-195.5 31.5h-164v-638z" />
    <glyph glyph-name="uni040A" unicode="&#x40a;" horiz-adv-x="1648" 
d="M181 0v1462h101v-645h563v645h102v-645h171q150 0 248.5 -42.5t147.5 -130.5t49 -223q0 -206 -111 -313.5t-318 -107.5h-289v726h-563v-726h-101zM946 91h174q170 0 254.5 80.5t84.5 248.5q0 111 -38.5 178.5t-116 98t-193.5 30.5h-165v-636z" />
    <glyph glyph-name="uni040B" unicode="&#x40b;" horiz-adv-x="1188" 
d="M812 1462v-92h-411v-492h299q170 0 254 -82.5t84 -260.5v-535h-100v526q0 136 -58 198t-193 62h-286v-786h-100v1370h-288v92h799z" />
    <glyph glyph-name="uni040C" unicode="&#x40c;" horiz-adv-x="988" 
d="M985 0h-121l-582 752v-752h-101v1462h101v-702l557 702h120l-563 -703zM816 1924v-16q-24 -34 -57.5 -75t-73 -84t-78.5 -81.5t-74 -69.5h-65v21q42 47 84.5 99.5t80 105.5t66.5 100h117z" />
    <glyph glyph-name="uni040D" unicode="&#x40d;" horiz-adv-x="1279" 
d="M182 1462h97v-1032q0 -31 -0.5 -63t-1.5 -66t-2.5 -69.5t-4.5 -73.5h7l706 1304h116v-1462h-98v1035q0 36 1 72.5t2.5 72t3 69t3.5 63.5h-7l-706 -1312h-116v1462zM507 1924q28 -49 68 -104t83 -107.5t82 -94.5v-20h-67q-35 30 -74 69t-78 81.5t-73 83.5t-58 76v16h117z
" />
    <glyph glyph-name="uni040E" unicode="&#x40e;" horiz-adv-x="945" 
d="M943 1462l-392 -1088q-48 -142 -96 -229t-110 -126t-150 -39q-43 0 -75.5 7t-58.5 17v98q29 -13 60 -21t66 -8q65 0 111 36.5t82 109.5t71 185l-442 1058h107l339 -812q8 -18 15.5 -37.5t15 -43t16.5 -53.5h6q6 23 13 45.5t14 44t14 41.5l289 815h105zM770 1879
q-7 -93 -41.5 -155t-98 -94t-156.5 -32q-90 0 -152.5 29.5t-96.5 92t-40 159.5h90q10 -111 58 -160t142 -49q95 0 144.5 50t59.5 159h91z" />
    <glyph glyph-name="uni040F" unicode="&#x40f;" horiz-adv-x="1248" 
d="M1066 0h-392v-368h-101v368h-392v1462h101v-1369h684v1369h100v-1462z" />
    <glyph glyph-name="uni0410" unicode="&#x410;" horiz-adv-x="1030" 
d="M924 0l-162 524h-493l-165 -524h-104l463 1465h110l456 -1465h-105zM735 617l-166 559q-8 28 -17 60t-18 65t-18 65q-7 -33 -16 -64.5t-17.5 -63.5t-17.5 -62l-169 -559h439z" />
    <glyph glyph-name="uni0411" unicode="&#x411;" horiz-adv-x="1039" 
d="M181 0v1462h694v-91h-593v-552h218q148 0 246 -43t146.5 -131t48.5 -224q0 -203 -108 -312t-320 -109h-332zM282 90h220q169 0 252 81t83 248q0 112 -38.5 180t-115.5 98.5t-192 30.5h-209v-638z" />
    <glyph glyph-name="uni0412" unicode="&#x412;" horiz-adv-x="1101" 
d="M181 1462h350q224 0 330.5 -85t106.5 -264q0 -89 -28.5 -160t-83.5 -117t-135 -62v-6q97 -19 159.5 -64.5t93 -118.5t30.5 -172q0 -135 -53 -227t-150.5 -139t-230.5 -47h-389v1462zM282 812h258q168 0 246.5 73.5t78.5 220.5q0 138 -80.5 202.5t-262.5 64.5h-240v-561z
M282 723v-633h279q165 0 251.5 81.5t86.5 246.5q0 109 -41.5 176.5t-121 98t-192.5 30.5h-262z" />
    <glyph glyph-name="uni0413" unicode="&#x413;" horiz-adv-x="867" 
d="M847 1462v-92h-565v-1370h-101v1462h666z" />
    <glyph glyph-name="uni0414" unicode="&#x414;" horiz-adv-x="1120" 
d="M944 1462v-1369h126v-461h-98v368h-862v-368h-98v461h91q68 155 121 322t91.5 342t60.5 352.5t28 352.5h540zM843 1371h-347q-7 -163 -30.5 -332t-60.5 -336t-87 -321.5t-109 -288.5h634v1278z" />
    <glyph glyph-name="uni0415" unicode="&#x415;" horiz-adv-x="964" 
d="M853 0h-672v1462h672v-91h-571v-557h538v-92h-538v-630h571v-92z" />
    <glyph glyph-name="uni0416" unicode="&#x416;" horiz-adv-x="1356" 
d="M522 752l-499 710h116l490 -707v707h97v-707l492 707h113l-498 -710l517 -752h-116l-508 744v-744h-97v744l-507 -744h-116z" />
    <glyph glyph-name="uni0417" unicode="&#x417;" horiz-adv-x="976" 
d="M831 1125q0 -148 -74 -237.5t-199 -119.5v-6q145 -24 222.5 -116t77.5 -250q0 -128 -52 -221t-153 -144t-247 -51q-94 0 -180.5 17.5t-156.5 53.5v101q46 -25 102 -43.5t115 -29t116 -10.5q167 0 259.5 83.5t92.5 246.5t-97.5 240t-289.5 77h-159v91h163
q116 0 195.5 36.5t120.5 106t41 168.5q0 131 -76.5 203t-205.5 72q-100 0 -171.5 -32t-133.5 -82l-54 71q48 40 102.5 70.5t120 46.5t142.5 16q120 0 205 -44t129.5 -124.5t44.5 -189.5z" />
    <glyph glyph-name="uni0418" unicode="&#x418;" horiz-adv-x="1279" 
d="M182 1462h97v-1032q0 -31 -0.5 -63t-1.5 -66t-2.5 -69.5t-4.5 -73.5h7l706 1304h116v-1462h-98v1035q0 36 1 72.5t2.5 72t3 69t3.5 63.5h-7l-706 -1312h-116v1462z" />
    <glyph glyph-name="uni0419" unicode="&#x419;" horiz-adv-x="1279" 
d="M182 1462h97v-1032q0 -31 -0.5 -63t-1.5 -66t-2.5 -69.5t-4.5 -73.5h7l706 1304h116v-1462h-98v1035q0 36 1 72.5t2.5 72t3 69t3.5 63.5h-7l-706 -1312h-116v1462zM925 1879q-7 -93 -41.5 -155t-98 -94t-156.5 -32q-90 0 -152.5 29.5t-96.5 92t-40 159.5h90
q10 -111 58 -160t142 -49q95 0 144.5 50t59.5 159h91z" />
    <glyph glyph-name="uni041A" unicode="&#x41a;" horiz-adv-x="988" 
d="M985 0h-121l-582 752v-752h-101v1462h101v-702l557 702h120l-563 -703z" />
    <glyph glyph-name="uni041B" unicode="&#x41b;" horiz-adv-x="1162" 
d="M982 0h-101v1369h-407q-10 -114 -23.5 -241t-28 -253t-28.5 -240t-29 -203q-22 -144 -51.5 -244.5t-81.5 -153t-143 -52.5q-32 0 -56 5.5t-41 13.5v90q19 -8 39 -13.5t46 -5.5q60 0 95.5 42t58 127t40.5 213q16 102 31 222t29.5 252t29 267.5t26.5 266.5h595v-1462z" />
    <glyph glyph-name="uni041C" unicode="&#x41c;" horiz-adv-x="1577" 
d="M739 0l-463 1333h-5q2 -51 3.5 -93t2.5 -78t1 -67v-1095h-97v1462h148l456 -1311h6l458 1311h148v-1462h-99v1098q0 27 0.5 62t2 77.5t2.5 93.5h-5l-464 -1331h-95z" />
    <glyph glyph-name="uni041D" unicode="&#x41d;" horiz-adv-x="1252" 
d="M1072 0h-101v721h-689v-721h-101v1462h101v-648h689v648h101v-1462z" />
    <glyph glyph-name="uni041E" unicode="&#x41e;" horiz-adv-x="1321" 
d="M1203 733q0 -159 -31 -296t-96.5 -239.5t-168 -160t-245.5 -57.5q-144 0 -247.5 58.5t-169 162t-97 240.5t-31.5 294q0 236 63 403.5t185 256.5t301 89q182 0 301 -94t177.5 -263.5t58.5 -393.5zM222 734q0 -204 48.5 -353t147 -229.5t244.5 -80.5q149 0 246 79
t144 227.5t47 355.5q0 318 -109 488.5t-324 170.5q-150 0 -248.5 -79.5t-147 -227t-48.5 -351.5z" />
    <glyph glyph-name="uni041F" unicode="&#x41f;" horiz-adv-x="1248" 
d="M181 0v1462h885v-1462h-99v1371h-685v-1371h-101z" />
    <glyph glyph-name="uni0420" unicode="&#x420;" horiz-adv-x="1022" 
d="M471 1462q233 0 347.5 -97.5t114.5 -313.5q0 -112 -29.5 -195.5t-88.5 -139.5t-149 -83.5t-211 -27.5h-173v-605h-101v1462h290zM464 1372h-182v-677h169q123 0 207.5 34.5t128 112t43.5 207.5q0 173 -89.5 248t-276.5 75z" />
    <glyph glyph-name="uni0421" unicode="&#x421;" horiz-adv-x="1073" 
d="M708 1392q-121 0 -212.5 -51t-152 -141.5t-91 -210.5t-30.5 -256q0 -199 55.5 -348.5t162.5 -231.5t261 -82q88 0 160 17t129 41v-91q-58 -26 -132 -42t-166 -16q-183 0 -311.5 92.5t-196 262t-67.5 399.5q0 157 37.5 292.5t111.5 238.5t184.5 161t257.5 58
q84 0 161.5 -18.5t147.5 -53.5l-40 -87q-65 35 -132.5 51t-136.5 16z" />
    <glyph glyph-name="uni0422" unicode="&#x422;" horiz-adv-x="899" 
d="M499 0h-102v1371h-384v91h870v-91h-384v-1371z" />
    <glyph glyph-name="uni0423" unicode="&#x423;" horiz-adv-x="945" 
d="M943 1462l-392 -1088q-48 -142 -96 -229t-110 -126t-150 -39q-43 0 -75.5 7t-58.5 17v98q29 -13 60 -21t66 -8q65 0 111 36.5t82 109.5t71 185l-442 1058h107l339 -812q8 -18 15.5 -37.5t15 -43t16.5 -53.5h6q6 23 13 45.5t14 44t14 41.5l289 815h105z" />
    <glyph glyph-name="uni0424" unicode="&#x424;" horiz-adv-x="1387" 
d="M742 1483v-179q171 -2 291 -64.5t184 -182t64 -292.5q0 -130 -36.5 -232.5t-105.5 -175t-169 -112t-228 -41.5v-224h-98v224q-125 1 -224 40t-169.5 111.5t-107.5 175t-37 231.5q0 125 35.5 224t104.5 169.5t169 108.5t229 40v179h98zM644 1214q-136 -2 -233.5 -53.5
t-150 -151.5t-52.5 -247q0 -154 54.5 -257.5t152.5 -156.5t229 -56v922zM742 1214v-922q135 4 233 57.5t151 157.5t53 260q0 152 -51.5 250t-148.5 146.5t-237 50.5z" />
    <glyph glyph-name="uni0425" unicode="&#x425;" horiz-adv-x="916" 
d="M908 0h-112l-331 676l-348 -676h-108l399 762l-355 700h110l306 -617l310 617h108l-360 -702z" />
    <glyph glyph-name="uni0426" unicode="&#x426;" horiz-adv-x="1254" 
d="M1198 92v-460h-97v368h-920v1462h101v-1369h686v1369h100v-1370h130z" />
    <glyph glyph-name="uni0427" unicode="&#x427;" horiz-adv-x="1182" 
d="M1001 0h-100v630q-96 -46 -188.5 -72t-199.5 -26q-177 0 -267 92.5t-90 266.5v571h100v-553q0 -141 64 -213t207 -72q104 0 192 25t182 70v743h100v-1462z" />
    <glyph glyph-name="uni0428" unicode="&#x428;" horiz-adv-x="1728" 
d="M1547 0h-1366v1462h101v-1369h532v1369h101v-1369h532v1369h100v-1462z" />
    <glyph glyph-name="uni0429" unicode="&#x429;" horiz-adv-x="1736" 
d="M1676 92v-460h-96v368h-1399v1462h101v-1369h530v1369h100v-1369h529v1369h101v-1370h134z" />
    <glyph glyph-name="uni042A" unicode="&#x42a;" horiz-adv-x="1188" 
d="M335 0v1370h-317v92h417v-643h222q146 0 243 -43t145.5 -131t48.5 -224q0 -202 -107.5 -311.5t-316.5 -109.5h-335zM436 90h222q165 0 250 81t85 248q0 112 -40 180t-116 98.5t-189 30.5h-212v-638z" />
    <glyph glyph-name="uni042B" unicode="&#x42b;" horiz-adv-x="1461" 
d="M181 0v1462h101v-643h220q145 0 242.5 -43t146 -131t48.5 -224q0 -202 -108 -311.5t-317 -109.5h-333zM282 90h221q165 0 249 81t84 248q0 112 -39 180t-115 98t-189 30h-211v-637zM1160 0v1462h100v-1462h-100z" />
    <glyph glyph-name="uni042C" unicode="&#x42c;" horiz-adv-x="1042" 
d="M181 0v1462h101v-643h228q146 0 243.5 -43t147 -131t49.5 -224q0 -202 -109 -311.5t-318 -109.5h-342zM282 90h230q165 0 250 81t85 248q0 112 -39.5 180t-116.5 98.5t-189 30.5h-220v-638z" />
    <glyph glyph-name="uni042D" unicode="&#x42d;" horiz-adv-x="1061" 
d="M377 1392q-71 0 -141.5 -17t-133.5 -51l-41 87q69 36 151.5 54.5t167.5 18.5q142 0 248.5 -54.5t176 -154t104 -235t34.5 -298.5q0 -225 -66 -396.5t-193.5 -268.5t-315.5 -97q-91 0 -164 14.5t-131 41.5v95q58 -23 129 -41.5t157 -18.5q119 0 208 48.5t149 136.5
t90 205.5t32 255.5h-619v92h617q-4 124 -34.5 230t-86.5 185.5t-140 123.5t-198 44z" />
    <glyph glyph-name="uni042E" unicode="&#x42e;" horiz-adv-x="1745" 
d="M1627 733q0 -159 -28.5 -295t-90 -239t-158 -161t-233.5 -58q-168 0 -280.5 90t-170 256t-60.5 395h-324v-721h-101v1462h101v-649h325q8 211 68.5 361.5t171.5 230t271 79.5q173 0 285.5 -93.5t168 -262.5t55.5 -395zM709 742q0 -206 44.5 -356.5t135 -232.5t227.5 -82
q141 0 231 79.5t133 228t43 354.5q0 205 -43.5 352.5t-133 227t-228.5 79.5q-138 0 -229 -78.5t-135.5 -224.5t-44.5 -347z" />
    <glyph glyph-name="uni042F" unicode="&#x42f;" horiz-adv-x="1047" 
d="M491 638l-331 -638h-116l349 659q-86 21 -148.5 70.5t-96 128.5t-33.5 190q0 209 116 311.5t343 102.5h293v-1462h-100v638h-276zM766 1373h-185q-123 0 -203.5 -34.5t-120 -106.5t-39.5 -185q0 -164 85 -242t243 -78h220v646z" />
    <glyph glyph-name="uni0430" unicode="&#x430;" horiz-adv-x="937" 
d="M475 1107q159 0 234 -89.5t75 -284.5v-733h-76l-14 183h-5q-27 -57 -67 -103t-99.5 -73t-147.5 -27q-95 0 -159 39t-97 106.5t-33 154.5q0 162 113 247t324 98l164 11v85q0 165 -53.5 233t-165.5 68q-62 0 -125.5 -17.5t-132.5 -55.5l-33 80q66 36 142 57t156 21z
M687 558l-154 -9q-172 -11 -258.5 -76.5t-86.5 -191.5q0 -107 54.5 -163t151.5 -56q146 0 219.5 104t73.5 280v112z" />
    <glyph glyph-name="uni0431" unicode="&#x431;" horiz-adv-x="1017" 
d="M111 677q0 187 26 333.5t84 250.5t155 162q85 57 210.5 91.5t293.5 50.5l14 -88q-73 -8 -141.5 -18.5t-129 -25.5t-112 -35t-90.5 -48q-68 -44 -111.5 -117.5t-66.5 -179t-29 -246.5h8q32 60 81 105t112 70.5t137 25.5q117 0 197.5 -57.5t122.5 -169.5t42 -272
q0 -164 -45 -283t-134 -182.5t-222 -63.5q-107 0 -183.5 48t-124.5 138t-71 219t-23 292zM518 67q98 0 163 51t98 149t33 240q0 202 -69 308t-207 106q-77 0 -139.5 -33.5t-108.5 -89t-76 -123.5q0 -126 14 -236t48.5 -194t94 -131t149.5 -47z" />
    <glyph glyph-name="uni0432" unicode="&#x432;" horiz-adv-x="969" 
d="M830 823q0 -95 -44 -157t-129 -85v-7q98 -16 154 -81.5t56 -182.5q0 -95 -36.5 -164t-113.5 -107.5t-198 -38.5h-358v1087h342q111 0 183.5 -30.5t108 -89t35.5 -144.5zM766 314q0 117 -64.5 167.5t-190.5 50.5h-251v-448h245q134 0 197.5 56.5t63.5 173.5zM730 814
q0 90 -55 139t-182 49h-233v-385h246q116 0 170 49.5t54 147.5z" />
    <glyph glyph-name="uni0433" unicode="&#x433;" horiz-adv-x="727" 
d="M697 1087v-88h-437v-999h-99v1087h536z" />
    <glyph glyph-name="uni0434" unicode="&#x434;" horiz-adv-x="946" 
d="M779 1087v-999h121v-454h-96v366h-681v-366h-97v454h80q76 139 125 300.5t74 338.5t26 360h448zM682 1002h-261q-6 -164 -30.5 -326t-69 -311.5t-111.5 -276.5h472v914z" />
    <glyph glyph-name="uni0435" unicode="&#x435;" horiz-adv-x="967" 
d="M504 1108q124 0 203.5 -66.5t117.5 -178t38 -249.5v-76h-658q0 -229 85.5 -350t250.5 -121q79 0 143.5 17.5t138.5 56.5v-93q-65 -34 -133.5 -51t-153.5 -17q-145 0 -241 69.5t-142.5 195.5t-46.5 293q0 169 45 297.5t133.5 200.5t219.5 72zM503 1023q-127 0 -204.5 -101
t-90.5 -300h558q0 113 -28 204.5t-86 144t-149 52.5z" />
    <glyph glyph-name="uni0436" unicode="&#x436;" horiz-adv-x="1157" 
d="M1115 1087l-387 -522l419 -565h-117l-403 559v-559h-96v559l-404 -559h-117l419 566l-388 521h112l378 -520v520h96v-520l377 520h111z" />
    <glyph glyph-name="uni0437" unicode="&#x437;" horiz-adv-x="784" 
d="M354 1108q96 0 163.5 -32.5t102.5 -93.5t35 -148q0 -98 -47 -160.5t-122 -86.5v-7q66 -18 111 -55t68.5 -92.5t23.5 -129.5q0 -98 -41.5 -170t-119 -112t-189.5 -40q-58 0 -110 9t-95 25t-75 37v98q58 -38 128 -60t150 -22q79 0 135.5 28t87 81t30.5 130q0 76 -30 126.5
t-88 76t-143 25.5h-101v84h94q106 0 171.5 52.5t65.5 157.5q0 96 -56 144.5t-155 48.5q-63 0 -118 -16.5t-111 -44.5l-39 80q61 31 128.5 49t145.5 18z" />
    <glyph glyph-name="uni0438" unicode="&#x438;" horiz-adv-x="1050" 
d="M257 1087v-763q0 -24 -0.5 -49t-0.5 -50.5t-1.5 -50t-3.5 -49.5l517 962h121v-1087h-95v750q0 34 0.5 70t1.5 72.5t2 69.5l-519 -962h-118v1087h96z" />
    <glyph glyph-name="uni0439" unicode="&#x439;" horiz-adv-x="1050" 
d="M257 1087v-763q0 -24 -0.5 -49t-0.5 -50.5t-1.5 -50t-3.5 -49.5l517 962h121v-1087h-95v750q0 34 0.5 70t1.5 72.5t2 69.5l-519 -962h-118v1087h96zM820 1522q-7 -93 -41.5 -155t-98 -94t-156.5 -32q-90 0 -152.5 29.5t-96.5 92t-40 159.5h90q10 -111 58 -160t142 -49
q95 0 144.5 50t59.5 159h91z" />
    <glyph glyph-name="uni043A" unicode="&#x43a;" horiz-adv-x="811" 
d="M659 1087h111l-405 -516l433 -571h-117l-421 563v-563h-99v1087h99v-516z" />
    <glyph glyph-name="uni043B" unicode="&#x43b;" horiz-adv-x="947" 
d="M785 0h-98v999h-307q-14 -252 -33 -442t-52.5 -315.5t-88 -188.5t-139.5 -63q-21 0 -37 2t-28 7v83q10 -3 22 -4.5t29 -1.5q46 0 81 40t61 120.5t43.5 201.5t30 283.5t22.5 365.5h494v-1087z" />
    <glyph glyph-name="uni043C" unicode="&#x43c;" horiz-adv-x="1213" 
d="M1072 1087v-1087h-93v718q0 40 1.5 96t5.5 132h-6l-319 -946h-93l-316 947h-7q3 -67 5 -126.5t2 -102.5v-718h-94v1087h139l319 -963l320 963h136z" />
    <glyph glyph-name="uni043D" unicode="&#x43d;" horiz-adv-x="1063" 
d="M260 1087v-476h544v476h98v-1087h-98v524h-544v-524h-99v1087h99z" />
    <glyph glyph-name="uni043E" unicode="&#x43e;" horiz-adv-x="1030" 
d="M924 545q0 -132 -25.5 -236.5t-77 -177.5t-128 -112t-179.5 -39q-99 0 -175 39t-128.5 112.5t-79 178t-26.5 236.5q0 179 47.5 304.5t140 191.5t226.5 66q137 0 227 -69t134 -195.5t44 -298.5zM205 546q0 -150 33.5 -257t102.5 -164t175 -57t174.5 55.5t101 163
t32.5 259.5q0 144 -30.5 250.5t-98 165t-177.5 58.5q-158 0 -235.5 -123.5t-77.5 -350.5z" />
    <glyph glyph-name="uni043F" unicode="&#x43f;" horiz-adv-x="1054" 
d="M891 1087v-1087h-98v1000h-533v-1000h-99v1087h730z" />
    <glyph glyph-name="uni0440" unicode="&#x440;" horiz-adv-x="1058" 
d="M578 1108q182 0 279.5 -139.5t97.5 -416.5q0 -188 -46.5 -315.5t-132 -192t-205.5 -64.5q-84 0 -145.5 30t-102.5 79.5t-62 107.5h-7q3 -42 4.5 -92t1.5 -99v-487h-99v1568h79l11 -215h6q25 64 66 118t104 86t151 32zM564 1021q-100 0 -168 -53.5t-101.5 -153
t-34.5 -238.5v-63q0 -145 34.5 -244.5t101.5 -150t163 -50.5q92 0 158 52t102 159.5t36 272.5q0 229 -71.5 349t-219.5 120z" />
    <glyph glyph-name="uni0441" unicode="&#x441;" horiz-adv-x="820" 
d="M529 -20q-140 0 -234.5 66.5t-141.5 191t-47 297.5q0 182 53.5 310t152.5 195.5t237 67.5q64 0 118.5 -12.5t100.5 -35.5l-30 -85q-44 22 -92 33t-95 11q-109 0 -186 -56.5t-118 -164.5t-41 -262q0 -140 35 -245t107.5 -164t185.5 -59q60 0 117 13.5t107 35.5v-89
q-45 -21 -104 -34.5t-125 -13.5z" />
    <glyph glyph-name="uni0442" unicode="&#x442;" horiz-adv-x="715" 
d="M686 1000h-280v-1000h-97v1000h-280v87h657v-87z" />
    <glyph glyph-name="uni0443" unicode="&#x443;" horiz-adv-x="815" 
d="M17 1087h102l222 -709q19 -58 31.5 -101t21.5 -76.5t15 -63.5h7q12 53 29.5 112.5t39.5 127.5l220 710h103l-414 -1300q-31 -96 -69 -159t-89 -93t-119 -30q-30 0 -54.5 5.5t-50.5 13.5v89q22 -8 46 -13.5t49 -5.5q44 0 78 20.5t62 66.5t52 122l65 210z" />
    <glyph glyph-name="uni0444" unicode="&#x444;" horiz-adv-x="1181" 
d="M639 1556v-451q144 -9 241.5 -83t147 -197t49.5 -279q0 -153 -48 -276t-145.5 -199.5t-245.5 -88.5v-474h-95v474q-139 9 -237 79t-149.5 193.5t-51.5 293.5q0 158 48.5 280t146 195t244.5 82v451h95zM543 1019q-110 -7 -185 -66t-113.5 -162t-38.5 -244q0 -135 37 -240
t112 -167.5t188 -70.5v950zM639 1018v-949q116 9 190.5 75t111 171t36.5 231q0 211 -86.5 335.5t-251.5 136.5z" />
    <glyph glyph-name="uni0445" unicode="&#x445;" horiz-adv-x="854" 
d="M368 560l-309 527h110l258 -453l259 453h110l-309 -530l326 -557h-112l-275 482l-277 -482h-109z" />
    <glyph glyph-name="uni0446" unicode="&#x446;" horiz-adv-x="1049" 
d="M1004 -366h-97v366h-746v1087h99v-999h525v999h98v-1000h121v-453z" />
    <glyph glyph-name="uni0447" unicode="&#x447;" horiz-adv-x="1021" 
d="M239 1087v-394q0 -125 55.5 -179t156.5 -54q93 0 169.5 35t141.5 93v499h98v-1087h-98v499q-70 -59 -150 -92.5t-178 -33.5q-144 0 -218.5 80t-74.5 231v403h98z" />
    <glyph glyph-name="uni0448" unicode="&#x448;" horiz-adv-x="1458" 
d="M1297 1087v-1087h-1137v1087h98v-999h422v999h97v-999h422v999h98z" />
    <glyph glyph-name="uni0449" unicode="&#x449;" horiz-adv-x="1469" 
d="M1296 1087v-1000h123v-453h-98v366h-1161v1087h98v-999h422v999h97v-999h422v999h97z" />
    <glyph glyph-name="uni044A" unicode="&#x44a;" horiz-adv-x="1104" 
d="M408 1087v-467h260q118 0 196.5 -36t117.5 -104t39 -164q0 -99 -40.5 -169.5t-121.5 -108.5t-203 -38h-346v999h-280v88h378zM663 534h-255v-450h244q139 0 204 59t65 171q0 110 -64 165t-194 55z" />
    <glyph glyph-name="uni044B" unicode="&#x44b;" horiz-adv-x="1295" 
d="M161 0v1087h99v-467h257q117 0 193.5 -36t115 -104t38.5 -164q0 -99 -40 -169.5t-120 -108.5t-201 -38h-342zM260 84h235q138 0 203.5 58.5t65.5 171.5q0 110 -64 165.5t-192 55.5h-248v-451zM1036 0v1087h98v-1087h-98z" />
    <glyph glyph-name="uni044C" unicode="&#x44c;" horiz-adv-x="972" 
d="M260 620h264q117 0 194 -36t116 -104t39 -164q0 -99 -40 -169.5t-120.5 -108.5t-201.5 -38h-350v1087h99v-467zM774 314q0 110 -65 165.5t-193 55.5h-256v-451h245q136 0 202.5 59t66.5 171z" />
    <glyph glyph-name="uni044D" unicode="&#x44d;" horiz-adv-x="844" 
d="M303 -20q-71 0 -128 13t-100 34v90q51 -21 107 -35.5t118 -14.5q110 0 185 53t115.5 154t44.5 247h-461v84h460q-7 205 -87.5 310t-241.5 105q-47 0 -100 -11t-96 -32l-28 84q50 23 109 35t120 12q138 0 233 -62.5t144.5 -185.5t49.5 -307q0 -177 -49 -305.5t-147.5 -198
t-247.5 -69.5z" />
    <glyph glyph-name="uni044E" unicode="&#x44e;" horiz-adv-x="1404" 
d="M1300 545q0 -176 -43 -303t-127.5 -194.5t-212.5 -67.5q-122 0 -205 63.5t-126.5 185.5t-47.5 295h-280v-524h-98v1087h98v-476h281q7 151 51 262.5t126.5 173t203.5 61.5q131 0 215 -70t124.5 -197t40.5 -296zM637 546q0 -147 29.5 -255t91.5 -166t160 -58
q97 0 159.5 56t92 163.5t29.5 259.5q0 144 -28.5 250.5t-90 165t-161.5 58.5t-162 -57.5t-91 -164t-29 -252.5z" />
    <glyph glyph-name="uni044F" unicode="&#x44f;" horiz-adv-x="935" 
d="M157 0h-115l308 478q-86 12 -145 50.5t-89 100.5t-30 147q0 154 96 232.5t257 78.5h334v-1087h-98v468h-225zM184 776q0 -110 65.5 -166t199.5 -56h226v448h-224q-134 0 -200.5 -59.5t-66.5 -166.5z" />
    <glyph glyph-name="uni0450" unicode="&#x450;" horiz-adv-x="967" 
d="M504 1108q124 0 203.5 -66.5t117.5 -178t38 -249.5v-76h-658q0 -229 85.5 -350t250.5 -121q79 0 143.5 17.5t138.5 56.5v-93q-65 -34 -133.5 -51t-153.5 -17q-145 0 -241 69.5t-142.5 195.5t-46.5 293q0 169 45 297.5t133.5 200.5t219.5 72zM503 1023q-127 0 -204.5 -101
t-90.5 -300h558q0 113 -28 204.5t-86 144t-149 52.5zM354 1567q28 -49 68 -104t83 -107.5t82 -94.5v-20h-67q-35 30 -74 69t-78 81.5t-73 83.5t-58 76v16h117z" />
    <glyph glyph-name="uni0451" unicode="&#x451;" horiz-adv-x="967" 
d="M504 1108q124 0 203.5 -66.5t117.5 -178t38 -249.5v-76h-658q0 -229 85.5 -350t250.5 -121q79 0 143.5 17.5t138.5 56.5v-93q-65 -34 -133.5 -51t-153.5 -17q-145 0 -241 69.5t-142.5 195.5t-46.5 293q0 169 45 297.5t133.5 200.5t219.5 72zM503 1023q-127 0 -204.5 -101
t-90.5 -300h558q0 113 -28 204.5t-86 144t-149 52.5zM255 1377q0 35 17.5 56.5t47.5 21.5q32 0 49 -21t17 -57q0 -38 -17 -59t-49 -21q-30 0 -47.5 21.5t-17.5 58.5zM599 1377q0 36 17.5 57t47.5 21q31 0 48.5 -21t17.5 -57q0 -37 -17.5 -58.5t-48.5 -21.5t-48 21.5
t-17 58.5z" />
    <glyph glyph-name="uni0452" unicode="&#x452;" horiz-adv-x="1046" 
d="M686 -493q-32 0 -58.5 5.5t-45.5 13.5v88q22 -9 45.5 -13.5t47.5 -4.5q59 0 89 43t30 133v935q0 160 -59 231t-169 71q-92 0 -160.5 -45t-105 -138t-36.5 -239v-587h-98v1273h-141v82h141v201h98v-201h354v-82h-354v-239q0 -43 -1.5 -77.5t-4.5 -72.5h6q23 58 65 106.5
t104 78t145 29.5q103 0 173 -41.5t106 -125t36 -211.5v-951q0 -88 -25.5 -146.5t-71.5 -87t-110 -28.5z" />
    <glyph glyph-name="uni0453" unicode="&#x453;" horiz-adv-x="727" 
d="M697 1087v-88h-437v-999h-99v1087h536zM719 1567v-16q-24 -34 -57.5 -75t-73 -84t-78.5 -81.5t-74 -69.5h-65v21q42 47 84.5 99.5t80 105.5t66.5 100h117z" />
    <glyph glyph-name="uni0454" unicode="&#x454;" horiz-adv-x="840" 
d="M534 -20q-142 0 -237.5 66.5t-143 193t-47.5 303.5q0 180 51.5 306t149.5 192.5t237 66.5q62 0 117.5 -12t105.5 -34l-29 -84q-43 20 -93.5 31t-98.5 11q-103 0 -176.5 -48t-113.5 -140t-48 -227h460v-84h-461q3 -144 39.5 -245.5t109.5 -155t182 -53.5q63 0 120 14
t109 36v-89q-43 -20 -103.5 -34t-129.5 -14z" />
    <glyph glyph-name="uni0455" unicode="&#x455;" horiz-adv-x="807" 
d="M726 277q0 -93 -40.5 -160t-118.5 -102t-193 -35q-94 0 -169 19.5t-124 46.5v102q60 -36 136 -58.5t157 -22.5q132 0 192.5 55t60.5 152q0 63 -28.5 104.5t-82.5 73t-132 65.5q-85 39 -150.5 77t-102.5 94t-37 145q0 124 89.5 199.5t247.5 75.5q81 0 151.5 -17t128.5 -47
l-38 -83q-50 28 -114.5 44.5t-129.5 16.5q-111 0 -175 -48t-64 -138q0 -62 28 -101.5t82.5 -70t132.5 -66.5q81 -38 148 -76.5t106 -95.5t39 -149z" />
    <glyph glyph-name="uni0456" unicode="&#x456;" horiz-adv-x="426" 
d="M262 1087v-1087h-97v1087h97zM216 1492q36 0 53.5 -24t17.5 -61q0 -39 -18.5 -62t-53.5 -23q-34 0 -52.5 23t-18.5 61t17.5 62t54.5 24z" />
    <glyph glyph-name="uni0457" unicode="&#x457;" horiz-adv-x="419" 
d="M258 0h-98v1087h98v-1087zM-27 1382q0 35 17.5 56.5t47.5 21.5q32 0 49 -21t17 -57q0 -38 -17 -59t-49 -21q-30 0 -47.5 21.5t-17.5 58.5zM317 1382q0 36 17.5 57t47.5 21q31 0 48.5 -21t17.5 -57q0 -37 -17.5 -58.5t-48.5 -21.5t-48 21.5t-17 58.5z" />
    <glyph glyph-name="uni0458" unicode="&#x458;" horiz-adv-x="426" 
d="M47 -493q-34 0 -60.5 5.5t-45.5 13.5v88q22 -9 46 -13t50 -4q65 0 95.5 46.5t30.5 143.5v1300h98v-1306q0 -94 -26.5 -155t-74 -90t-113.5 -29zM144 1406q0 38 17.5 62t53.5 24q37 0 54 -24t17 -61q0 -39 -18 -62t-54 -23q-34 0 -52 23t-18 61z" />
    <glyph glyph-name="uni0459" unicode="&#x459;" horiz-adv-x="1431" 
d="M754 1087v-467h231q117 0 194.5 -36t116 -104t38.5 -164q0 -99 -40.5 -169.5t-120.5 -108.5t-202 -38h-315v999h-276q-15 -253 -34 -442t-51.5 -315t-87 -189t-140.5 -63q-21 0 -37 2t-28 7v83q10 -3 22 -4.5t28 -1.5q47 0 82 39.5t60.5 119.5t44 201t31 284t21.5 367
h463zM975 534h-221v-450h209q139 0 204.5 59t65.5 171q0 110 -64 165t-194 55z" />
    <glyph glyph-name="uni045A" unicode="&#x45a;" horiz-adv-x="1556" 
d="M870 1087v-467h240q118 0 195.5 -36.5t115.5 -104t38 -163.5q0 -99 -40 -169.5t-120.5 -108.5t-200.5 -38h-326v532h-512v-532h-99v1087h99v-469h512v469h98zM1100 534h-231v-450h220q138 0 204 59t66 171q0 110 -64 165t-195 55z" />
    <glyph glyph-name="uni045B" unicode="&#x45b;" horiz-adv-x="1046" 
d="M264 1556v-201h362v-82h-362v-239q0 -43 -1.5 -77.5t-4.5 -72.5h6q23 58 64.5 106.5t104 78t145.5 29.5q103 0 172.5 -41.5t105.5 -125.5t36 -211v-720h-98v706q0 160 -59 231.5t-169 71.5q-94 0 -161.5 -45t-104.5 -138t-37 -239v-587h-97v1273h-141v82h141v201h98z" />
    <glyph glyph-name="uni045C" unicode="&#x45c;" horiz-adv-x="811" 
d="M659 1087h111l-405 -516l433 -571h-117l-421 563v-563h-99v1087h99v-516zM726 1567v-16q-24 -34 -57.5 -75t-73 -84t-78.5 -81.5t-74 -69.5h-65v21q42 47 84.5 99.5t80 105.5t66.5 100h117z" />
    <glyph glyph-name="uni045D" unicode="&#x45d;" horiz-adv-x="1050" 
d="M257 1087v-763q0 -24 -0.5 -49t-0.5 -50.5t-1.5 -50t-3.5 -49.5l517 962h121v-1087h-95v750q0 34 0.5 70t1.5 72.5t2 69.5l-519 -962h-118v1087h96zM383 1567q28 -49 68 -104t83 -107.5t82 -94.5v-20h-67q-35 30 -74 69t-78 81.5t-73 83.5t-58 76v16h117z" />
    <glyph glyph-name="uni045E" unicode="&#x45e;" horiz-adv-x="815" 
d="M17 1087h102l222 -709q19 -58 31.5 -101t21.5 -76.5t15 -63.5h7q12 53 29.5 112.5t39.5 127.5l220 710h103l-414 -1300q-31 -96 -69 -159t-89 -93t-119 -30q-30 0 -54.5 5.5t-50.5 13.5v89q22 -8 46 -13.5t49 -5.5q44 0 78 20.5t62 66.5t52 122l65 210zM701 1522
q-7 -93 -41.5 -155t-98 -94t-156.5 -32q-90 0 -152.5 29.5t-96.5 92t-40 159.5h90q10 -111 58 -160t142 -49q95 0 144.5 50t59.5 159h91z" />
    <glyph glyph-name="uni045F" unicode="&#x45f;" horiz-adv-x="1054" 
d="M479 0h-318v1087h99v-999h534v999h99v-1087h-318v-366h-96v366z" />
    <glyph glyph-name="uni0460" unicode="&#x460;" horiz-adv-x="1556" 
d="M416 -9q-76 168 -138.5 347t-110 365t-78 376.5t-43.5 382.5h104q9 -174 37.5 -351t70 -348.5t92 -330t105.5 -296.5h5q13 51 34.5 117.5t47.5 137.5l196 572q-12 79 -22.5 167t-17 173.5t-7.5 158.5h102q5 -181 32 -360t71 -351t98.5 -328.5t112.5 -291.5h5
q89 193 152.5 411t101 450.5t47.5 469.5h102q-11 -253 -53.5 -506t-120.5 -497t-195 -468h-75q-49 97 -92.5 198.5t-80 205t-67.5 206t-53 201.5l-276 -811h-86z" />
    <glyph glyph-name="uni0461" unicode="&#x461;" horiz-adv-x="1368" 
d="M1305 1087q-7 -193 -46.5 -382t-110 -366.5t-171.5 -338.5h-91q-40 81 -78.5 171t-70.5 183t-56 180l-236 -534h-89q-59 114 -111 244t-91.5 269t-63.5 284.5t-30 289.5h94q8 -180 44.5 -359t90 -338.5t113.5 -281.5h5q15 39 32.5 78.5l35 79t33.5 76.5l140 310
q-24 108 -36 218t-16 217h94q4 -165 36 -337.5t85.5 -338t119.5 -310.5h5q76 126 136.5 285.5t96.5 338.5t42 362h94z" />
    <glyph glyph-name="uni0462" unicode="&#x462;" horiz-adv-x="1136" 
d="M287 0v1153h-267v87h267v269h100v-269h350v-87h-350v-336h215q147 0 245 -42.5t147.5 -130t49.5 -223.5q0 -202 -108 -311.5t-321 -109.5h-328zM387 90h216q168 0 252.5 81t84.5 247q0 113 -39 180.5t-116.5 97.5t-192.5 30h-205v-636z" />
    <glyph glyph-name="uni0463" unicode="&#x463;" horiz-adv-x="1040" 
d="M328 1318v-231h290v-84h-290v-383h260q178 0 265.5 -80t87.5 -224q0 -99 -40.5 -169.5t-121 -108.5t-202.5 -38h-347v1003h-209v84h209v231h98zM581 534h-253v-450h242q139 0 205 59t66 171q0 110 -64.5 165t-195.5 55z" />
    <glyph glyph-name="uni0464" unicode="&#x464;" horiz-adv-x="1562" 
d="M1184 -20q-178 0 -299.5 93.5t-185 259t-66.5 382.5h-351v-715h-101v1462h101v-655h353q8 142 47.5 264.5t110.5 215.5t174.5 145t237.5 52q84 0 160 -19t144 -57l-40 -86q-65 36 -130 53t-134 17q-111 0 -195 -45t-141.5 -125t-89.5 -186.5t-40 -228.5h605v-92h-608
q3 -137 31.5 -254t85.5 -204.5t141.5 -136.5t199.5 -49q86 0 154 18t124 44v-94q-57 -27 -127.5 -43t-160.5 -16z" />
    <glyph glyph-name="uni0465" unicode="&#x465;" horiz-adv-x="1298" 
d="M995 -20q-140 0 -233.5 64t-141.5 185t-51 290h-309v-519h-99v1087h99v-482h310q10 160 63 272.5t147 171.5t224 59q63 0 118 -11.5t103 -34.5l-28 -84q-43 20 -92.5 31t-98.5 11q-103 0 -176 -47.5t-113.5 -140.5t-47.5 -226h458v-87h-459q2 -143 39 -244t110.5 -154.5
t181.5 -53.5q62 0 118.5 14t107.5 36v-89q-42 -20 -101.5 -34t-128.5 -14z" />
    <glyph glyph-name="uni0466" unicode="&#x466;" horiz-adv-x="1108" 
d="M599 1462l489 -1462h-105l-231 703h-157v-703h-95v703h-165l-231 -703h-105l490 1462h110zM543 1363q-5 -23 -12 -48t-14.5 -51t-16.5 -52.5t-18 -53.5l-117 -365h357l-119 369q-8 25 -16.5 49.5t-15.5 50.5t-14 51z" />
    <glyph glyph-name="uni0467" unicode="&#x467;" horiz-adv-x="898" 
d="M496 1087l380 -1087h-99l-173 506h-116v-506h-90v506h-121l-170 -506h-101l382 1087h108zM445 997h-7l-14 -46t-15 -47t-18 -52l-85 -261h269l-84 260q-10 29 -18.5 54t-15 47.5t-12.5 44.5z" />
    <glyph glyph-name="uni0468" unicode="&#x468;" horiz-adv-x="1544" 
d="M1084 1462l489 -1462h-106l-231 704h-156v-704h-94v704h-165l-231 -704h-106l235 707h-437v-707h-101v1462h101v-663h469l222 663h111zM1028 1363q-6 -24 -12.5 -48.5t-14 -49.5t-16 -51t-18.5 -53l-116 -366h355l-119 368q-8 25 -16 50.5t-16 50.5t-14.5 50t-12.5 49z
" />
    <glyph glyph-name="uni0469" unicode="&#x469;" horiz-adv-x="1250" 
d="M861 1087l380 -1087h-99l-174 508h-115v-508h-90v508h-120l-173 -508h-99l178 511h-290v-511h-98v1087h98v-489h323l170 489h109zM809 997h-7q-6 -24 -14 -50t-17 -54.5t-21 -60.5l-79 -239h269l-80 242l-20 58t-17.5 55.5t-13.5 48.5z" />
    <glyph glyph-name="uni046A" unicode="&#x46a;" horiz-adv-x="1213" 
d="M1075 1462v-78l-374 -564q113 -5 181.5 -42.5t111 -110t72.5 -184.5l130 -483h-103l-127 477q-25 94 -58 150.5t-92 82.5t-161 26v-736h-98v736q-102 0 -160.5 -26.5t-91 -83t-59.5 -149.5l-127 -477h-104l130 483q22 81 49.5 142t67.5 103t100 65t146 27l-373 564v78
h940zM955 1372h-698l348 -539z" />
    <glyph glyph-name="uni046B" unicode="&#x46b;" horiz-adv-x="1100" 
d="M950 1087v-74l-304 -398q100 -8 159.5 -40.5t96 -92t67.5 -148.5l117 -334h-101l-111 328q-27 80 -59 125.5t-83.5 64.5t-135.5 19v-537h-93v536q-83 0 -134.5 -19.5t-83.5 -65t-59 -122.5l-111 -329h-102l116 334q30 86 67 146t97 93.5t161 41.5l-308 398v74h804z
M836 1003h-575l290 -377z" />
    <glyph glyph-name="uni046C" unicode="&#x46c;" horiz-adv-x="1675" 
d="M1537 1462v-78l-374 -568q113 -5 182.5 -42.5t111 -110.5t71.5 -183l131 -480h-102l-128 474q-25 95 -58.5 151.5t-92 81.5t-160.5 25v-732h-99v732q-100 0 -159 -25.5t-92 -81.5t-60 -151l-126 -474h-103l130 478q25 92 57.5 154.5t84.5 97.5h-469v-730h-101v1462h101
v-640h685l-369 562l-1 78h940zM1416 1372h-697l348 -541z" />
    <glyph glyph-name="uni046D" unicode="&#x46d;" horiz-adv-x="1475" 
d="M1330 1087v-74l-305 -402q101 -6 160.5 -38t96 -91.5t66.5 -148.5l118 -333h-102l-111 327q-26 79 -58.5 124t-83 63.5t-134.5 18.5v-533h-93v533q-83 0 -134.5 -19.5t-83.5 -64.5t-59 -121l-113 -328h-101l118 334q23 68 50.5 117t67.5 79h-371v-530h-98v1087h98v-470
h572l-305 396v74h805zM1216 1003h-575l289 -377z" />
    <glyph glyph-name="uni046E" unicode="&#x46e;" horiz-adv-x="976" 
d="M690 1731q18 0 33.5 -2.5t30.5 -9.5v-73q-11 5 -25 7t-25 2q-51 0 -96.5 -53t-85.5 -124q147 -19 228.5 -113t81.5 -240q0 -148 -75 -238t-200 -120v-6q146 -24 223.5 -114t77.5 -247q0 -100 -30.5 -173t-88.5 -122t-139.5 -76t-184.5 -34q-95 -7 -148 -23.5t-74.5 -46
t-21.5 -76.5q0 -64 45 -100.5t138 -36.5q45 0 89 4.5t88.5 8.5t88.5 4q49 0 89 -6t71 -18v-98q-25 14 -67.5 22.5t-93.5 8.5q-44 0 -87 -4t-88 -8t-94 -4q-91 0 -154 26t-95.5 76.5t-32.5 124.5q0 77 36 127t110 76t186 32q177 14 266 90.5t89 227.5q0 162 -98.5 238
t-289.5 76h-157v91h162q116 1 195.5 37t120.5 105.5t41 168.5q0 131 -76.5 203t-205.5 72q-98 0 -170.5 -32t-134.5 -82l-54 71q60 51 132 85t162 44q-22 33 -55 77.5t-69 88t-68 73.5v17h74q45 -39 94.5 -95t96.5 -122q36 58 72.5 106t76.5 77.5t86 29.5z" />
    <glyph glyph-name="uni046F" unicode="&#x46f;" horiz-adv-x="782" 
d="M590 1343q18 0 33.5 -2t29.5 -10v-72q-10 5 -24 7.5t-25 2.5q-45 0 -88.5 -45t-87.5 -122q107 -17 167 -86t60 -180q0 -97 -48 -160.5t-122 -88.5v-7q64 -17 109.5 -52.5t69.5 -89t24 -125.5q0 -101 -41.5 -166.5t-120 -100.5t-188.5 -46q-76 -9 -122 -22.5t-66 -38
t-20 -65.5q0 -57 38.5 -83.5t111.5 -26.5q44 0 83.5 3.5t76.5 6.5t72 3q47 0 80 -6t59 -16v-91q-26 14 -61.5 20t-76.5 6q-34 0 -73.5 -3t-81 -6.5t-84.5 -3.5q-76 0 -129 22.5t-81 66t-28 106.5q0 71 33.5 114.5t96.5 66.5t151 31q90 10 150.5 35.5t90.5 73t30 124.5
q0 73 -29.5 121.5t-86.5 72.5t-140 24h-113v85h102q111 0 174 53.5t63 155.5q0 97 -55.5 146t-154.5 49q-63 0 -120 -16.5t-113 -46.5l-38 80q47 24 94 39.5t101 23.5q-21 34 -51.5 76t-64 82t-63.5 69v17h73q44 -39 92 -94.5t96 -121.5q38 60 75 108t77 75.5t84 27.5z" />
    <glyph glyph-name="uni0470" unicode="&#x470;" horiz-adv-x="1373" 
d="M1233 1462v-476q0 -137 -29.5 -237t-91.5 -165t-156.5 -97.5t-225.5 -34.5v-452h-98v452q-129 2 -223 33.5t-155.5 95.5t-92 165t-30.5 241v475h100v-470q0 -147 38 -246.5t125.5 -150t237.5 -53.5v920h98v-920q145 3 233 49t128 143.5t40 255.5v472h102z" />
    <glyph glyph-name="uni0471" unicode="&#x471;" horiz-adv-x="1243" 
d="M675 1555v-1481q122 6 201 68t116 177t37 280q0 139 -17.5 253.5t-50.5 234.5h99q34 -122 51 -236t17 -254q0 -191 -50 -325t-150 -206t-253 -79v-473h-97v473q-145 4 -240.5 67.5t-142.5 183t-47 293.5v556h96v-549q0 -146 36 -247t109.5 -156.5t188.5 -60.5v1481h97z
" />
    <glyph glyph-name="uni0472" unicode="&#x472;" horiz-adv-x="1324" 
d="M1205 733q0 -159 -31 -296t-96.5 -239.5t-168.5 -160t-247 -57.5t-247.5 58.5t-169 162t-97 240.5t-31.5 294q0 236 63 403.5t185 256.5t302 89q182 0 302 -94t178 -263.5t58 -393.5zM663 71q145 0 241.5 75t145.5 217.5t51 343.5h-879q3 -197 53 -339.5t147 -219.5
t241 -77zM667 1393q-143 0 -239.5 -72t-147.5 -205.5t-58 -319.5h878q-9 288 -118.5 442.5t-314.5 154.5z" />
    <glyph glyph-name="uni0473" unicode="&#x473;" horiz-adv-x="1033" 
d="M927 545q0 -178 -46.5 -304t-137.5 -193.5t-227 -67.5q-131 0 -223 67t-140 194.5t-48 304.5q0 270 107.5 416t307.5 146q140 0 230 -71t133.5 -198t43.5 -294zM517 67q104 0 171.5 52.5t101.5 153.5t37 246h-622q3 -142 37 -243t102.5 -155t172.5 -54zM520 1020
q-151 0 -228 -108t-87 -308h622q-6 125 -39.5 219t-99.5 145.5t-168 51.5z" />
    <glyph glyph-name="uni0474" unicode="&#x474;" horiz-adv-x="1062" 
d="M1050 1385q-46 0 -76.5 -30.5t-54 -93.5t-50.5 -159l-307 -1102h-115l-447 1462h105l319 -1043q23 -76 37 -126.5t24 -89.5t19 -85q6 31 13 60.5t15 61.5t17.5 69.5t22.5 82.5l199 724q39 139 72 217t78 110.5t118 32.5q23 0 43.5 -4t38.5 -11v-88q-18 6 -36 9t-35 3z
" />
    <glyph glyph-name="uni0475" unicode="&#x475;" horiz-adv-x="858" 
d="M830 1105q20 0 36.5 -3t30.5 -9v-83q-16 6 -30 9t-29 3q-32 -1 -54.5 -20.5t-41.5 -66.5t-44 -128l-241 -807h-113l-339 1087h100l226 -733q21 -70 38 -131.5t28 -117.5h7q11 51 26 114t36 134l141 467q32 112 61.5 173.5t67 86t94.5 25.5z" />
    <glyph glyph-name="uni0476" unicode="&#x476;" horiz-adv-x="1062" 
d="M1050 1385q-46 0 -76.5 -30.5t-54 -93.5t-50.5 -159l-307 -1102h-115l-447 1462h105l319 -1043q23 -76 37 -126.5t24 -89.5t19 -85q6 31 13 60.5t15 61.5t17.5 69.5t22.5 82.5l199 724q39 139 72 217t78 110.5t118 32.5q23 0 43.5 -4t38.5 -11v-88q-18 6 -36 9t-35 3z
M543 1926q20 -45 53.5 -104.5t70.5 -115t63 -89.5v-19h-55q-29 27 -63.5 66t-68.5 83.5t-63.5 87t-47.5 74.5v17h111zM241 1926q22 -48 55 -107t69 -113t63 -89v-19h-57q-28 27 -62 66t-69 83.5t-63.5 87t-48.5 74.5v17h113z" />
    <glyph glyph-name="uni0477" unicode="&#x477;" horiz-adv-x="858" 
d="M830 1105q20 0 36.5 -3t30.5 -9v-83q-16 6 -30 9t-29 3q-32 -1 -54.5 -20.5t-41.5 -66.5t-44 -128l-241 -807h-113l-339 1087h100l226 -733q21 -70 38 -131.5t28 -117.5h7q11 51 26 114t36 134l141 467q32 112 61.5 173.5t67 86t94.5 25.5zM450 1569q20 -45 53.5 -104.5
t70.5 -115t63 -89.5v-19h-55q-29 27 -63.5 66t-68.5 83.5t-63.5 87t-47.5 74.5v17h111zM148 1569q22 -48 55 -107t69 -113t63 -89v-19h-57q-28 27 -62 66t-69 83.5t-63.5 87t-48.5 74.5v17h113z" />
    <glyph glyph-name="uni0478" unicode="&#x478;" horiz-adv-x="2051" 
d="M1132 733q0 -159 -29 -296t-90.5 -239.5t-157 -160t-230.5 -57.5q-133 0 -230 58.5t-158 162t-90.5 240.5t-29.5 294q0 236 59 403.5t173 256.5t281 89q170 0 281 -94t166 -263.5t55 -393.5zM221 734q0 -204 45.5 -353t135.5 -229.5t224 -80.5q137 0 225.5 79
t132.5 227.5t44 355.5q0 212 -45 359t-133.5 223.5t-219.5 76.5q-137 0 -228 -79.5t-136 -227t-45 -351.5zM1254 1087h102l223 -710q18 -58 30.5 -101t21.5 -75.5t16 -64.5h6q12 54 29.5 113.5t39.5 127.5l220 710h101l-412 -1300q-30 -96 -69 -159t-90 -93t-119 -30
q-29 0 -54 5.5t-50 13.5v89q21 -8 45 -13.5t49 -5.5q44 0 78 20.5t62 66.5t53 122l65 210z" />
    <glyph glyph-name="uni0479" unicode="&#x479;" horiz-adv-x="1816" 
d="M924 545q0 -132 -25.5 -236.5t-77 -177.5t-128 -112t-179.5 -39q-99 0 -175 39t-128.5 112.5t-79 178t-26.5 236.5q0 179 47.5 304.5t140 191.5t226.5 66q137 0 227 -69t134 -195.5t44 -298.5zM205 546q0 -150 33.5 -257t102.5 -164t175 -57t174.5 55.5t101 163
t32.5 259.5q0 144 -30.5 250.5t-98 165t-177.5 58.5q-158 0 -235.5 -123.5t-77.5 -350.5zM1029 1087h102l222 -709q19 -58 31.5 -101t21.5 -76.5t15 -63.5h7q12 53 29.5 112.5t39.5 127.5l220 710h103l-414 -1300q-31 -96 -69 -159t-89 -93t-119 -30q-30 0 -54.5 5.5
t-50.5 13.5v89q22 -8 46 -13.5t49 -5.5q44 0 78 20.5t62 66.5t52 122l65 210z" />
    <glyph glyph-name="uni047A" unicode="&#x47a;" horiz-adv-x="1366" 
d="M685 -94q-36 0 -57.5 20t-29.5 60q-124 15 -214.5 76.5t-149.5 162t-88 230.5t-29 280q0 217 55.5 376.5t162.5 253t264 113.5q9 39 30 59t56 20q33 0 55 -19.5t30 -59.5q154 -22 257 -119t155 -256.5t52 -370.5q0 -149 -28 -277.5t-85 -227.5t-144.5 -161.5
t-206.5 -79.5q-10 -40 -31 -60t-54 -20zM598 81q9 35 29.5 54t56.5 19q33 0 54.5 -19t29.5 -54q121 22 202 105.5t121 222t40 324.5q0 285 -92.5 452t-270.5 199q-8 -38 -29.5 -57t-54.5 -19q-35 0 -56 20t-28 55q-127 -20 -211 -105t-126 -223.5t-42 -320.5q0 -184 42 -324
t126 -224.5t209 -104.5z" />
    </font>
</defs>
</svg>
