<?xml version="1.0" standalone="no"?>
<!DOCTYPE svg PUBLIC "-//W3C//DTD SVG 1.1//EN" "http://www.w3.org/Graphics/SVG/1.1/DTD/svg11.dtd" >
<svg xmlns="http://www.w3.org/2000/svg" xmlns:xlink="http://www.w3.org/1999/xlink" version="1.1">
<metadata>
Created by FontForge 20170731 at Wed Feb 10 17:54:37 2021
 By Aleksey,,,
Copyright 2020 The Open Sans Project Authors (https://github.com/googlefonts/opensans)
</metadata>
<defs>
<font id="OpenSansSemiCondensed-MediumItalic" horiz-adv-x="0" >
  <font-face 
    font-family="Open Sans SemiCondensed Medium"
    font-weight="500"
    font-style="italic"
    font-stretch="semi-condensed"
    units-per-em="2048"
    panose-1="0 0 0 0 0 0 0 0 0 0"
    ascent="1638"
    descent="-410"
    x-height="1101"
    cap-height="1462"
    bbox="-889 -561 2194 2161"
    underline-thickness="50"
    underline-position="-175"
    slope="-12"
    unicode-range="U+000D-FFFD"
  />
<missing-glyph horiz-adv-x="1229" 
 />
    <glyph glyph-name="f_f" unicode="ff" horiz-adv-x="1138" 
d="M-115 -492q-35 0 -67 5t-58 14v159q24 -8 50 -13t52 -5q68 0 104 53.5t60 165.5l226 1065h-151l19 92l163 59l25 109q20 91 47.5 157.5t66 110.5t93 65.5t128.5 21.5q48 0 95.5 -10t83.5 -28l-58 -143q-24 10 -51.5 17.5t-58.5 7.5q-67 0 -103.5 -49t-58.5 -154l-23 -107
h375l23 112q20 90 47 156.5t66 110.5t94 65.5t129 21.5q49 0 96 -10t83 -28l-58 -143q-24 10 -52 17.5t-57 7.5q-67 0 -103.5 -49t-59.5 -154l-23 -107h192l-31 -149h-192l-231 -1085q-23 -105 -59.5 -186t-99.5 -127t-163 -46q-35 0 -67 5t-57 14v159q22 -8 48.5 -13
t53.5 -5q68 0 104 54t59 165l226 1065h-374l-232 -1085q-22 -105 -59 -186t-99.5 -127t-162.5 -46z" />
    <glyph glyph-name="fi" unicode="fi" horiz-adv-x="1045" 
d="M-115 -492q-35 0 -67 5t-58 14v159q24 -8 50 -13t52 -5q72 0 106.5 56.5t57.5 162.5l226 1065h-151l19 92l163 59l25 109q20 91 47.5 157.5t66 110.5t93 65.5t128.5 21.5q48 0 95.5 -10t83.5 -28l-58 -143q-24 10 -51.5 17.5t-58.5 7.5q-67 0 -103.5 -49t-58.5 -154
l-23 -107h191l-30 -149h-192l-232 -1085q-22 -105 -59 -186t-99.5 -127t-162.5 -46zM598 0l234 1101h185l-233 -1101h-186zM974 1280q-43 0 -69 23t-26 68q0 38 14 71t42.5 53.5t70.5 20.5q44 0 68.5 -21.5t24.5 -65.5q0 -64 -34.5 -106.5t-90.5 -42.5z" />
    <glyph glyph-name="fl" unicode="fl" horiz-adv-x="1043" 
d="M-115 -492q-35 0 -67 5t-58 14v159q24 -8 50 -13t52 -5q72 0 106.5 56.5t57.5 162.5l226 1065h-151l19 92l163 59l25 109q20 91 47.5 157.5t66 110.5t93 65.5t128.5 21.5q48 0 95.5 -10t83.5 -28l-58 -143q-24 10 -51.5 17.5t-58.5 7.5q-67 0 -103.5 -49t-58.5 -154
l-23 -107h191l-30 -149h-192l-232 -1085q-22 -105 -59 -186t-99.5 -127t-162.5 -46zM597 0l332 1556h185l-331 -1556h-186z" />
    <glyph glyph-name="f_f_i" unicode="ffi" horiz-adv-x="1603" 
d="M-115 -492q-35 0 -67 5t-58 14v159q24 -8 50 -13t52 -5q68 0 104 53.5t60 165.5l226 1065h-151l19 92l163 59l25 109q20 91 47.5 157.5t66 110.5t93 65.5t128.5 21.5q48 0 95.5 -10t83.5 -28l-58 -143q-24 10 -51.5 17.5t-58.5 7.5q-67 0 -103.5 -49t-58.5 -154l-23 -107
h375l23 112q20 90 47 156.5t66 110.5t94 65.5t129 21.5q49 0 96 -10t83 -28l-58 -143q-24 10 -52 17.5t-57 7.5q-67 0 -103.5 -49t-59.5 -154l-23 -107h192l-31 -149h-192l-231 -1085q-23 -105 -59.5 -186t-99.5 -127t-163 -46q-35 0 -67 5t-57 14v159q22 -8 48.5 -13
t53.5 -5q68 0 104 54t59 165l226 1065h-374l-232 -1085q-22 -105 -59 -186t-99.5 -127t-162.5 -46zM1157 0l234 1101h186l-235 -1101h-185zM1532 1280q-42 0 -68.5 23t-26.5 68q0 38 14.5 71t43 53.5t69.5 20.5q44 0 69 -21.5t25 -65.5q0 -64 -35.5 -106.5t-90.5 -42.5z" />
    <glyph glyph-name="f_f_l" unicode="ffl" horiz-adv-x="1603" 
d="M-115 -492q-35 0 -67 5t-58 14v159q24 -8 50 -13t52 -5q68 0 104 53.5t60 165.5l226 1065h-151l19 92l163 59l25 109q20 91 47.5 157.5t66 110.5t93 65.5t128.5 21.5q48 0 95.5 -10t83.5 -28l-58 -143q-24 10 -51.5 17.5t-58.5 7.5q-67 0 -103.5 -49t-58.5 -154l-23 -107
h375l23 112q20 90 47 156.5t66 110.5t94 65.5t129 21.5q49 0 96 -10t83 -28l-58 -143q-24 10 -52 17.5t-57 7.5q-67 0 -103.5 -49t-59.5 -154l-23 -107h192l-31 -149h-192l-231 -1085q-23 -105 -59.5 -186t-99.5 -127t-163 -46q-35 0 -67 5t-57 14v159q22 -8 48.5 -13
t53.5 -5q68 0 104 54t59 165l226 1065h-374l-232 -1085q-22 -105 -59 -186t-99.5 -127t-162.5 -46zM1159 0l330 1556h186l-332 -1556h-184z" />
    <glyph glyph-name=".notdef" horiz-adv-x="1229" 
 />
    <glyph glyph-name=".null" 
 />
    <glyph glyph-name="nonmarkingreturn" horiz-adv-x="682" 
 />
    <glyph glyph-name="NULL" 
 />
    <glyph glyph-name="NULL" 
 />
    <glyph glyph-name="CR" unicode="&#xd;" horiz-adv-x="440" 
 />
    <glyph glyph-name="space" unicode=" " horiz-adv-x="440" 
 />
    <glyph glyph-name="exclam" unicode="!" horiz-adv-x="511" 
d="M139 421l191 1041h218l-255 -1041h-154zM131 -22q-50 0 -76.5 27.5t-26.5 75.5q0 65 37 116t114 51q44 0 70.5 -27t26.5 -76q0 -67 -39 -117t-106 -50z" />
    <glyph glyph-name="quotedbl" unicode="&#x22;" horiz-adv-x="764" 
d="M548 934l80 528h197l-145 -528h-132zM209 934l79 528h198l-145 -528h-132z" />
    <glyph glyph-name="numbersign" unicode="#" horiz-adv-x="1101" 
d="M103 0l128 434h-202l19 140h224l101 329h-215l19 139h237l125 420h146l-126 -420h228l126 420h142l-124 -420h203l-19 -139h-227l-100 -329h219l-18 -140h-242l-131 -434h-145l133 434h-229l-130 -434h-142zM418 574h228l98 329h-228z" />
    <glyph glyph-name="dollar" unicode="$" horiz-adv-x="971" 
d="M280 -119l47 214q-89 4 -164 24t-128 49l13 178q60 -38 142 -64.5t169 -30.5l93 435q-68 36 -124 79t-88.5 103t-32.5 144q0 119 51.5 199t140 124t200.5 53l37 166h105l-35 -167q81 -6 145 -26.5t118 -50.5l-76 -152q-47 28 -102.5 48.5t-118.5 24.5l-88 -418
q74 -39 130.5 -83t88.5 -103t32 -143q0 -117 -51.5 -199.5t-142.5 -130t-210 -58.5l-46 -215h-105zM465 257q60 7 103.5 34t67.5 70.5t24 100.5q0 37 -12 66t-37 55t-66 52zM490 865l77 365q-58 -7 -100.5 -32.5t-65 -68t-22.5 -100.5q0 -34 12 -62.5t36.5 -53t62.5 -48.5z
" />
    <glyph glyph-name="percent" unicode="%" horiz-adv-x="1469" 
d="M217 0l926 1462h154l-923 -1462h-157zM335 565q-100 0 -154.5 69t-54.5 203q0 65 12.5 150t39.5 171.5t70 160t105.5 119t145.5 45.5q100 0 155 -66.5t55 -198.5q0 -61 -12 -145.5t-39.5 -173t-71 -164t-105.5 -123t-146 -47.5zM352 702q42 0 75.5 40t58 102.5t41 133.5
t24.5 134.5t8 103.5q0 69 -19 99.5t-56 30.5q-42 0 -75.5 -37.5t-58.5 -98t-41.5 -130.5t-25 -134.5t-8.5 -110.5q0 -68 19.5 -100.5t57.5 -32.5zM1020 -20q-102 0 -156.5 68t-54.5 200q0 72 13 159t40.5 173t71.5 158t105 116t142 44q101 0 156.5 -66.5t55.5 -196.5
q0 -64 -12.5 -149t-40 -173t-71.5 -163.5t-105.5 -122.5t-143.5 -47zM1034 117q42 0 75.5 40t58.5 102.5t41.5 133.5t24.5 134.5t8 103.5q0 68 -19.5 99t-57.5 31q-42 0 -75.5 -38.5t-58 -100t-40.5 -131.5t-24 -134t-8 -107q0 -68 19 -100.5t56 -32.5z" />
    <glyph glyph-name="ampersand" unicode="&#x26;" horiz-adv-x="1151" 
d="M352 -20q-148 0 -235.5 84t-87.5 238q0 112 41.5 201t119 163t187.5 139q-31 65 -51.5 135.5t-20.5 146.5q0 113 42.5 202.5t122 142t190.5 52.5q81 0 141 -30.5t94 -87.5t34 -136q0 -100 -42.5 -181.5t-117 -149t-169.5 -128.5l182 -349q47 59 83 132.5t63 153.5h186
q-28 -80 -65.5 -157t-83 -148t-97.5 -134l151 -269h-218l-73 140q-78 -68 -165 -114t-211 -46zM387 141q57 0 103 19t85.5 50t76.5 67l-208 404q-66 -45 -117 -96.5t-79.5 -115t-28.5 -144.5q0 -57 20.5 -98.5t58.5 -63.5t89 -22zM533 892q41 29 80 62.5t70.5 73t49.5 84.5
t18 97q0 57 -28 92t-81 35t-88.5 -32.5t-53.5 -85.5t-18 -115q0 -58 13 -110t38 -101z" />
    <glyph glyph-name="quotesingle" unicode="'" horiz-adv-x="425" 
d="M212 934l80 528h197l-145 -528h-132z" />
    <glyph glyph-name="parenleft" unicode="(" horiz-adv-x="571" 
d="M182 -324q-40 76 -68 168.5t-42 193.5t-14 202q0 175 33 343t96.5 323.5t155 297t207.5 265.5h165q-108 -127 -196.5 -270t-153 -298.5t-99 -321.5t-34.5 -340q0 -103 11.5 -202t34 -190t54.5 -171h-150z" />
    <glyph glyph-name="parenright" unicode=")" horiz-adv-x="571" 
d="M-152 -324q108 127 196.5 270t152 298.5t98 321.5t34.5 340q0 102 -11 201.5t-33 191.5t-55 170h151q41 -79 68.5 -170.5t41 -191t13.5 -202.5q0 -178 -33 -346.5t-96.5 -323.5t-154.5 -295.5t-207 -263.5h-165z" />
    <glyph glyph-name="asterisk" unicode="*" horiz-adv-x="938" 
d="M676 734l-101 316l-203 -267l-127 119l249 231l-293 92l58 160l289 -150l27 330l176 -30l-89 -318l325 39l1 -169l-309 16l158 -302z" />
    <glyph glyph-name="plus" unicode="+" horiz-adv-x="1034" 
d="M621 800h357v-155h-357v-409h-155v409h-358v155h358v412h155v-412z" />
    <glyph glyph-name="comma" unicode="," horiz-adv-x="474" 
d="M-93 -267q34 76 70 165t68.5 177.5t55.5 160.5h191l7 -21q-32 -78 -72.5 -162t-85.5 -165.5t-91 -154.5h-143z" />
    <glyph glyph-name="hyphen" unicode="-" horiz-adv-x="595" 
d="M42 464l35 173h467l-36 -173h-466z" />
    <glyph glyph-name="period" unicode="." horiz-adv-x="476" 
d="M132 -22q-50 0 -76.5 27t-26.5 74q0 66 37.5 117.5t113.5 51.5q45 0 71 -27t26 -76q0 -68 -39.5 -117.5t-105.5 -49.5z" />
    <glyph glyph-name="slash" unicode="/" horiz-adv-x="724" 
d="M-97 -3l802 1469h182l-803 -1469h-181z" />
    <glyph glyph-name="zero" unicode="0" horiz-adv-x="971" 
d="M385 -20q-153 0 -231 106.5t-78 316.5q0 95 14 211t44 238t75.5 234.5t109 202.5t145.5 142.5t183 52.5q78 0 135.5 -25.5t96 -76.5t57.5 -128t19 -179q0 -106 -14.5 -228t-44 -244.5t-76 -234t-109.5 -199t-144.5 -138.5t-181.5 -51zM403 145q58 0 107.5 46t90.5 125
t72 177.5t52.5 204t32.5 205t11 179.5q0 118 -33 177.5t-103 59.5q-57 0 -107 -47t-91.5 -126.5t-73.5 -177t-54 -201t-34 -199t-12 -168.5q0 -128 34 -191.5t108 -63.5z" />
    <glyph glyph-name="one" unicode="1" horiz-adv-x="971" 
d="M336 0l203 959q11 48 21 92t21.5 88.5t24.5 91.5q-21 -21 -46 -42.5t-55 -42.5l-178 -133l-87 130l428 319h167l-311 -1462h-188z" />
    <glyph glyph-name="two" unicode="2" horiz-adv-x="971" 
d="M-36 0l29 145l414 425q79 82 143 153.5t109.5 138.5t70 135t24.5 141q0 85 -44 132.5t-125 47.5q-49 0 -93.5 -16.5t-87 -44t-86.5 -62.5l-81 132q79 71 171.5 113.5t207.5 42.5q105 0 179.5 -39.5t113.5 -110t39 -163.5q0 -120 -47.5 -228t-137.5 -216.5t-216 -232.5
l-316 -317v-8h550l-34 -168h-783z" />
    <glyph glyph-name="three" unicode="3" horiz-adv-x="971" 
d="M323 -20q-100 0 -177 17.5t-143 51.5v182q63 -42 148.5 -66t167.5 -24q76 0 135 22.5t100 63t62 96.5t21 123q0 76 -28 127t-84 77t-139 26h-102l32 156h95q74 0 137.5 22t111 63.5t74 99.5t26.5 129q0 82 -45 128.5t-128 46.5q-76 0 -144.5 -29t-133.5 -76l-70 138
q80 59 170.5 94t207.5 35q106 0 181 -37t115 -105t40 -161q0 -104 -42 -190.5t-119 -146.5t-183 -83v-7q98 -24 160.5 -99t62.5 -202q0 -92 -31.5 -177t-95 -151.5t-159.5 -105t-223 -38.5z" />
    <glyph glyph-name="four" unicode="4" horiz-adv-x="971" 
d="M459 0l70 323h-544l31 156l735 989h204l-208 -983h176l-35 -162h-177l-68 -323h-184zM192 485h371l101 466q11 50 24.5 103t27 102.5t23.5 84.5h-8q-30 -53 -61 -100t-58 -84z" />
    <glyph glyph-name="five" unicode="5" horiz-adv-x="971" 
d="M317 -20q-61 0 -114.5 8t-99 23.5t-80.5 34.5v187q59 -41 133.5 -66.5t157.5 -25.5q89 0 154.5 29.5t108.5 80.5t63.5 116t20.5 136q0 115 -57 179t-169 64q-52 0 -98.5 -10t-96.5 -25l-68 62l192 689h607l-37 -170h-441l-117 -408q31 8 66.5 13t77.5 5
q103 0 178.5 -43.5t117 -126t41.5 -200.5q0 -103 -30.5 -201.5t-95 -177.5t-167 -126t-247.5 -47z" />
    <glyph glyph-name="six" unicode="6" horiz-adv-x="971" 
d="M421 -20q-110 0 -184.5 49t-112.5 142.5t-38 225.5q0 112 18 231t54 235.5t88.5 219.5t121.5 182q52 62 118.5 111.5t148 78t178.5 28.5q56 0 102 -6t82 -16l-39 -163q-32 11 -71 17.5t-84 6.5q-114 0 -207.5 -60.5t-164.5 -184t-118 -313.5h6q34 49 78.5 85.5t99 57
t117.5 20.5q132 0 203.5 -91.5t71.5 -247.5q0 -100 -27 -206.5t-84 -197.5t-145.5 -147.5t-211.5 -56.5zM434 142q68 0 118 41t83 106.5t49.5 140t16.5 141.5q0 95 -39.5 146.5t-115.5 51.5q-60 0 -109 -27.5t-83 -70.5t-50 -89q-11 -25 -18.5 -58t-11 -69.5t-3.5 -74.5
q0 -51 9.5 -95t29.5 -76t51 -49.5t73 -17.5z" />
    <glyph glyph-name="seven" unicode="7" horiz-adv-x="971" 
d="M106 0l699 1294h-601l35 168h797l-26 -138l-701 -1324h-203z" />
    <glyph glyph-name="eight" unicode="8" horiz-adv-x="971" 
d="M411 -20q-122 0 -206 43.5t-126.5 120.5t-42.5 176q0 109 42.5 193t122.5 148.5t191 115.5q-46 42 -80 89.5t-53 104t-19 123.5q0 113 50.5 201t142 138.5t214.5 50.5q109 0 182 -40t110 -108t37 -154q0 -100 -41 -178t-113 -137t-164 -103q63 -48 107 -102.5t68 -118.5
t24 -145q0 -110 -51 -205.5t-150.5 -154t-244.5 -58.5zM421 134q84 0 139.5 36t83 95t28.5 127q0 61 -20 112t-57.5 94.5t-89.5 82.5q-82 -35 -145 -81t-99.5 -110.5t-36.5 -155.5q0 -89 54 -144.5t143 -55.5zM549 854q79 36 133 81t82 100.5t28 122.5q0 81 -45 126t-118 45
q-63 0 -109.5 -28t-72.5 -79.5t-26 -122.5q0 -81 35 -139.5t93 -105.5z" />
    <glyph glyph-name="nine" unicode="9" horiz-adv-x="971" 
d="M255 -20q-59 0 -112.5 8t-95.5 20v169q41 -15 93.5 -25t111.5 -10q89 0 160.5 36t128 105.5t100 172.5t74.5 238h-7q-33 -47 -76 -82.5t-95.5 -55.5t-112.5 -20q-94 0 -157 43.5t-94.5 121.5t-31.5 181q0 81 18 165.5t55.5 162.5t94 139.5t132.5 97.5t173 36
q104 0 177.5 -46.5t112 -138.5t38.5 -229q0 -100 -15 -210t-43.5 -218.5t-70.5 -206t-95 -174.5q-40 -62 -89 -113.5t-106.5 -89t-124 -57.5t-143.5 -20zM484 694q51 0 94 20.5t75.5 57t52.5 82.5q26 43 38.5 102t12.5 131t-18 124.5t-53 81t-88 28.5q-66 0 -116.5 -39
t-84.5 -101.5t-51.5 -136t-17.5 -143.5q0 -100 40.5 -153.5t115.5 -53.5z" />
    <glyph glyph-name="colon" unicode=":" horiz-adv-x="479" 
d="M301 849q-48 0 -75 26.5t-27 72.5q0 45 16.5 83.5t50 62.5t84.5 24q45 0 71 -27t26 -75q0 -69 -39 -118t-107 -49zM124 -22q-50 0 -76.5 27t-26.5 74q0 66 37 117.5t114 51.5q44 0 70.5 -27t26.5 -76q0 -68 -39.5 -117.5t-105.5 -49.5z" />
    <glyph glyph-name="semicolon" unicode=";" horiz-adv-x="479" 
d="M-102 -267q37 83 72.5 170t67 172t55.5 161h191l7 -21q-32 -78 -72 -161.5t-85.5 -165t-92.5 -155.5h-143zM306 849q-49 0 -75.5 26.5t-26.5 72.5q0 45 16.5 83.5t50 62.5t84.5 24q45 0 71 -27t26 -75q0 -69 -39.5 -118t-106.5 -49z" />
    <glyph glyph-name="less" unicode="&#x3c;" horiz-adv-x="1034" 
d="M979 250l-872 421v106l872 443v-171l-662 -322l662 -306v-171z" />
    <glyph glyph-name="equal" unicode="=" horiz-adv-x="1034" 
d="M113 856v154h860v-154h-860zM113 433v154h860v-154h-860z" />
    <glyph glyph-name="greater" unicode="&#x3e;" horiz-adv-x="1034" 
d="M108 421l663 305l-663 323v171l873 -443v-106l-873 -421v171z" />
    <glyph glyph-name="question" unicode="?" horiz-adv-x="749" 
d="M195 421q18 96 43.5 164t67 124.5t106.5 115.5q63 60 112.5 109.5t78.5 104.5t29 129t-39 112.5t-111 38.5q-66 0 -127 -24t-119 -57l-52 143q75 48 159.5 75t169.5 27q144 0 225 -74t81 -210q0 -94 -33.5 -169.5t-92.5 -142t-137 -135.5q-67 -60 -106.5 -106t-62 -96.5
t-38.5 -128.5h-154zM199 -22q-49 0 -76 27t-27 74q0 66 37.5 117.5t113.5 51.5q44 0 70.5 -27t26.5 -76q0 -68 -39.5 -117.5t-105.5 -49.5z" />
    <glyph glyph-name="at" unicode="@" horiz-adv-x="1479" 
d="M627 -178q-130 0 -232.5 41t-173 117.5t-107.5 184.5t-37 242q0 162 39 317t113.5 290t180 236.5t238.5 159t290 57.5q167 0 280 -69.5t170.5 -192t57.5 -280.5q0 -99 -19 -199t-54.5 -190t-85.5 -160.5t-113 -110.5t-136 -40q-91 0 -130 46t-47 120h-6q-39 -74 -97 -121
t-135 -47q-95 0 -150 63t-55 188q0 81 20.5 165.5t60 161.5t95.5 137.5t126.5 96t152.5 35.5q79 0 137.5 -14.5t104.5 -34.5l-108 -428q-13 -51 -20.5 -87.5t-7.5 -63.5q0 -48 19 -70t51 -22q46 0 85 36.5t70 98t53.5 135.5t34 150.5t11.5 142.5q0 131 -40.5 226.5
t-125.5 147t-218 51.5q-128 0 -236 -50t-193 -139t-145 -206t-91.5 -251t-31.5 -274q0 -139 45.5 -244t138 -164t233.5 -59q93 0 182.5 21t168.5 55v-127q-82 -36 -175.5 -57t-187.5 -21zM659 350q70 0 122 80.5t92 228.5l71 272q-17 6 -39 10.5t-50 4.5q-64 0 -117 -44
t-91 -113t-58.5 -149t-20.5 -152t24 -105t67 -33z" />
    <glyph glyph-name="A" unicode="A" horiz-adv-x="1015" 
d="M-125 0l704 1465h226l91 -1465h-192l-24 444h-392l-206 -444h-207zM364 613h312l-13 427q-3 60 -5.5 123t-1.5 116h-6q-19 -53 -43.5 -113t-55.5 -125z" />
    <glyph glyph-name="B" unicode="B" horiz-adv-x="1067" 
d="M39 0l309 1462h335q114 0 199.5 -33t133 -101t47.5 -174q0 -95 -35 -175t-102 -135.5t-166 -78.5v-7q90 -25 143 -98.5t53 -182.5q0 -144 -63 -251.5t-178.5 -166.5t-272.5 -59h-403zM264 164h183q102 0 171.5 40.5t105 111.5t35.5 164q0 96 -53.5 150t-163.5 54h-168z
M407 843h168q87 0 151.5 35t101 99t36.5 147q0 87 -50.5 131t-158.5 44h-151z" />
    <glyph glyph-name="C" unicode="C" horiz-adv-x="1011" 
d="M535 -20q-138 0 -233 61t-144.5 176.5t-49.5 280.5q0 128 28.5 266t85 266t142 230.5t199.5 163t257 60.5q92 0 168 -20t141 -61l-85 -156q-48 32 -103 50t-121 18q-105 0 -187.5 -52.5t-143.5 -140t-101.5 -194.5t-60.5 -216.5t-20 -204.5q0 -178 68 -268.5t200 -90.5
q67 0 133 16t132 42v-169q-66 -26 -141 -41.5t-164 -15.5z" />
    <glyph glyph-name="D" unicode="D" horiz-adv-x="1168" 
d="M39 0l309 1462h300q226 0 350.5 -126.5t124.5 -379.5q0 -143 -30 -282t-90 -260.5t-152 -214.5t-216 -146t-281 -53h-315zM264 168h108q113 0 201.5 45t154 123t109 178.5t65 212t21.5 222.5q0 182 -78.5 264.5t-218.5 82.5h-123z" />
    <glyph glyph-name="E" unicode="E" horiz-adv-x="915" 
d="M38 0l310 1462h651l-35 -167h-461l-95 -448h431l-36 -167h-430l-110 -512h462l-36 -168h-651z" />
    <glyph glyph-name="F" unicode="F" horiz-adv-x="862" 
d="M38 0l310 1462h651l-35 -167h-461l-107 -509h430l-36 -167h-431l-130 -619h-191z" />
    <glyph glyph-name="G" unicode="G" horiz-adv-x="1206" 
d="M581 -20q-230 0 -351 132t-121 379q0 163 33.5 311t98 272.5t155.5 216.5t205.5 142.5t249.5 50.5q110 0 199.5 -24t164.5 -66l-81 -164q-67 40 -139 62.5t-154 22.5q-120 0 -218.5 -67.5t-169 -183t-108.5 -260.5t-38 -300q0 -114 32.5 -193.5t98 -121t165.5 -41.5
q57 0 107 8.5t92 22.5l93 434h-234l35 165h424l-156 -727q-89 -32 -183.5 -51.5t-199.5 -19.5z" />
    <glyph glyph-name="H" unicode="H" horiz-adv-x="1203" 
d="M39 0l310 1462h190l-130 -613h503l130 613h189l-310 -1462h-190l144 679h-502l-144 -679h-190z" />
    <glyph glyph-name="I" unicode="I" horiz-adv-x="510" 
d="M38 0l311 1462h188l-310 -1462h-189z" />
    <glyph glyph-name="J" unicode="J" horiz-adv-x="504" 
d="M-160 -397q-49 0 -87 6.5t-66 17.5l22 166q28 -10 59 -16t65 -6q57 0 98 28.5t70 84t46 135.5l305 1443h191l-311 -1470q-30 -138 -83 -224t-130 -125.5t-179 -39.5z" />
    <glyph glyph-name="K" unicode="K" horiz-adv-x="1011" 
d="M38 0l310 1462h190l-152 -716l121 161l461 555h220l-547 -662l252 -800h-208l-201 673l-138 -115l-117 -558h-191z" />
    <glyph glyph-name="L" unicode="L" horiz-adv-x="851" 
d="M38 0l310 1462h190l-275 -1293h459l-35 -169h-649z" />
    <glyph glyph-name="M" unicode="M" horiz-adv-x="1538" 
d="M38 0l309 1462h263l86 -1175h7l581 1175h282l-308 -1462h-187l193 909q12 54 24 106t24 99.5t23 86.5h-5l-603 -1201h-171l-92 1200h-6q-6 -42 -14.5 -94t-18 -107t-20.5 -107l-188 -892h-179z" />
    <glyph glyph-name="N" unicode="N" horiz-adv-x="1267" 
d="M38 0l309 1462h215l312 -1162h5q10 59 21.5 125.5t24 131.5t23.5 117l168 788h180l-310 -1462h-211l-316 1177h-6q-6 -41 -14.5 -93.5t-18.5 -108.5t-20.5 -108.5t-19.5 -94.5l-163 -772h-179z" />
    <glyph glyph-name="O" unicode="O" horiz-adv-x="1254" 
d="M541 -20q-143 0 -239.5 58.5t-145 170.5t-48.5 272q0 116 19 234.5t57 231t95 210t132 171t168 115t204 41.5q208 0 316.5 -128t108.5 -367q0 -108 -17.5 -224.5t-53 -229.5t-89.5 -213t-128 -177t-168 -121t-211 -44zM553 149q74 0 136.5 36.5t113 101t89.5 148
t65 177.5t39.5 191t13.5 188q0 158 -62.5 241.5t-179.5 83.5q-76 0 -140.5 -38t-115.5 -103.5t-89.5 -149.5t-64.5 -178t-39 -187.5t-13 -177.5q0 -111 29 -185t84 -111t134 -37z" />
    <glyph glyph-name="P" unicode="P" horiz-adv-x="1010" 
d="M39 0l309 1462h290q137 0 224 -44t128.5 -124t41.5 -188q0 -121 -37.5 -221t-109.5 -171.5t-176.5 -110.5t-239.5 -39h-121l-119 -564h-190zM383 729h98q113 0 192.5 43.5t121 124.5t41.5 195q0 105 -55.5 155t-167.5 50h-109z" />
    <glyph glyph-name="Q" unicode="Q" horiz-adv-x="1254" 
d="M705 -348l-151 331q-9 -1 -16.5 -1.5t-16.5 0.5q-136 3 -228 62t-138.5 170t-46.5 267q0 116 19 234.5t57 231t95 210t132 171t168 115t204 41.5q208 0 316.5 -128t108.5 -367q0 -110 -18 -228t-54.5 -233t-92 -216t-131.5 -177t-172 -115l194 -368h-229zM553 149
q75 0 137.5 36.5t113 101t89.5 148t65 177.5t39 191t13 188q0 158 -62.5 241.5t-179.5 83.5q-76 0 -140.5 -38t-115.5 -103.5t-89.5 -149.5t-64.5 -178t-39 -187.5t-13 -177.5q0 -111 29 -185t84 -111t134 -37z" />
    <glyph glyph-name="R" unicode="R" horiz-adv-x="1029" 
d="M39 0l309 1462h279q196 0 298 -88t102 -259q0 -116 -37.5 -212t-110.5 -163.5t-180 -97.5l188 -642h-207l-160 603h-164l-127 -603h-190zM390 763h120q81 0 141 26t99.5 72t59 106.5t19.5 129.5q0 104 -56 152t-168 48h-101z" />
    <glyph glyph-name="S" unicode="S" horiz-adv-x="913" 
d="M313 -20q-100 0 -178.5 18t-138.5 52l14 190q61 -37 138.5 -63t167.5 -26q58 0 109.5 15.5t90 47t60 79t21.5 111.5q0 56 -18.5 98.5t-60 85t-112.5 96.5q-63 50 -113 102t-78 117.5t-28 154.5q0 98 33 176.5t94 134t144 85t182 29.5q95 0 177.5 -22.5t147.5 -61.5
l-80 -164q-54 33 -118.5 54.5t-132.5 21.5q-52 0 -97 -15.5t-79 -45.5t-53 -74t-19 -101q0 -59 21 -101.5t62.5 -82t103.5 -89.5q71 -52 120.5 -106t76 -119.5t26.5 -154.5q0 -103 -34 -185t-97.5 -139.5t-152.5 -87.5t-199 -30z" />
    <glyph glyph-name="T" unicode="T" horiz-adv-x="879" 
d="M220 0l274 1293h-322l36 169h836l-36 -169h-322l-275 -1293h-191z" />
    <glyph glyph-name="U" unicode="U" horiz-adv-x="1187" 
d="M490 -20q-122 0 -206 42t-127.5 122t-43.5 194q0 35 5.5 81t15.5 95l202 948h191l-203 -955q-10 -41 -15 -82t-5 -71q0 -100 52.5 -152.5t152.5 -52.5q91 0 152.5 38t101.5 116t65 196l207 963h190l-210 -982q-32 -154 -95.5 -266.5t-168 -173t-261.5 -60.5z" />
    <glyph glyph-name="V" unicode="V" horiz-adv-x="997" 
d="M265 0l-81 1462h190l39 -927q2 -49 3 -99t0.5 -102t-4.5 -104h5q14 42 32 88t40 96.5t47 105.5l434 942h205l-698 -1462h-212z" />
    <glyph glyph-name="W" unicode="W" horiz-adv-x="1560" 
d="M207 0l-11 1462h185l-1 -892q0 -84 -3.5 -162.5t-8.5 -144.5h5q27 74 58.5 157t65.5 158l377 884h178l4 -870q1 -88 -1 -173t-5 -157h5q18 53 37 106.5t39.5 106.5t41.5 106l361 881h197l-618 -1462h-213l-4 893q-1 43 -1 85.5t1.5 84t2.5 81.5h-5q-18 -57 -40 -113.5
t-51 -124.5l-385 -906h-211z" />
    <glyph glyph-name="X" unicode="X" horiz-adv-x="948" 
d="M-115 0l519 768l-180 694h196l126 -540l351 540h207l-478 -709l192 -753h-203l-131 594l-392 -594h-207z" />
    <glyph glyph-name="Y" unicode="Y" horiz-adv-x="910" 
d="M233 0l119 557l-170 905h195l110 -684l397 684h209l-551 -904l-118 -558h-191z" />
    <glyph glyph-name="Z" unicode="Z" horiz-adv-x="900" 
d="M-57 0l29 142l776 1152h-515l36 168h740l-29 -143l-777 -1150h550l-35 -169h-775z" />
    <glyph glyph-name="bracketleft" unicode="[" horiz-adv-x="598" 
d="M-41 -328l383 1798h404l-32 -148h-234l-319 -1501h234l-32 -149h-404z" />
    <glyph glyph-name="backslash" unicode="\" horiz-adv-x="731" 
d="M417 -4l-204 1470h167l206 -1470h-169z" />
    <glyph glyph-name="bracketright" unicode="]" horiz-adv-x="598" 
d="M-141 -328l30 149h234l319 1501h-234l32 148h405l-384 -1798h-402z" />
    <glyph glyph-name="asciicircum" unicode="^" horiz-adv-x="994" 
d="M43 602l490 865h109l315 -865h-163l-233 639l-347 -639h-171z" />
    <glyph glyph-name="underscore" unicode="_" horiz-adv-x="722" 
d="M-182 -311l27 134h724l-28 -134h-723z" />
    <glyph glyph-name="grave" unicode="`" horiz-adv-x="553" 
d="M501 1241q-33 38 -73.5 93.5t-75.5 113.5t-53 101v19h203q14 -48 32 -99.5t40 -102.5t46 -102l-1 -23h-118z" />
    <glyph glyph-name="a" unicode="a" horiz-adv-x="1024" 
d="M331 -20q-78 0 -136.5 39t-90.5 116.5t-32 190.5q0 105 21 216t61 214.5t99.5 186t136.5 131t171 48.5q59 0 104.5 -22.5t77 -62t48.5 -91.5h8l54 155h150l-233 -1101h-148l19 175h-6q-40 -55 -86.5 -99.5t-100 -70t-117.5 -25.5zM396 137q70 0 129 54.5t103 142.5
t69 189q19 76 27.5 137.5t8.5 116.5q0 85 -39.5 135.5t-109.5 50.5q-57 0 -106.5 -39t-89 -104.5t-67.5 -147t-43 -169t-15 -168.5q0 -99 34.5 -148.5t98.5 -49.5z" />
    <glyph glyph-name="b" unicode="b" horiz-adv-x="1029" 
d="M470 -20q-63 0 -110 22.5t-78 61.5t-48 88h-8l-57 -152h-144l329 1556h186l-89 -414q-8 -40 -18.5 -81.5t-20 -76t-16.5 -53.5h6q39 55 84 97.5t98 67.5t115 25q78 0 136.5 -38.5t90.5 -115t32 -191.5q0 -103 -20 -214t-60 -214.5t-99 -186.5t-136.5 -132t-172.5 -49z
M450 136q58 0 107 40t88 106.5t66.5 149t41.5 169.5t14 165q0 100 -34 148.5t-102 48.5q-48 0 -92 -29t-81.5 -79.5t-68 -115t-51.5 -135.5t-32 -141.5t-11 -132.5q0 -91 38.5 -142.5t116.5 -51.5z" />
    <glyph glyph-name="c" unicode="c" horiz-adv-x="803" 
d="M412 -20q-104 0 -180 41.5t-117 124.5t-41 207q0 108 21.5 217.5t64 208t106.5 176t148.5 122.5t190.5 45q67 0 127 -14t110 -41l-64 -151q-35 20 -79.5 33.5t-92.5 13.5q-82 0 -145.5 -54t-107.5 -143t-66.5 -193.5t-22.5 -205.5q0 -75 21 -126.5t62 -77.5t99 -26
q56 0 110 18.5t109 47.5v-159q-50 -28 -114 -46t-139 -18z" />
    <glyph glyph-name="d" unicode="d" horiz-adv-x="1033" 
d="M330 -20q-78 0 -136 38.5t-90 116t-32 191.5q0 103 20.5 213.5t60 214t98 186.5t135.5 132t171 49q61 0 107 -22t77.5 -60t48.5 -87h8q5 36 11 74.5t13 77.5t15 76l79 376h185l-330 -1556h-149l18 173h-6q-41 -57 -87 -100.5t-99 -68t-118 -24.5zM398 136q50 0 94.5 30.5
t82 83t67.5 118.5t50.5 138t31.5 141.5t11 128.5q0 87 -37.5 137t-115.5 50q-59 0 -108.5 -40.5t-89 -108t-66.5 -150t-41 -168.5t-14 -163q0 -98 34 -147.5t101 -49.5z" />
    <glyph glyph-name="e" unicode="e" horiz-adv-x="922" 
d="M424 -20q-109 0 -187.5 44.5t-121 129t-42.5 204.5q0 148 37 285t106.5 245t166.5 170.5t217 62.5q132 0 204.5 -65.5t72.5 -183.5q0 -87 -37 -159t-110 -124t-181 -80t-252 -28h-27q-5 -27 -7.5 -55.5t-2.5 -56.5q0 -117 51 -177t152 -60q69 0 128.5 18.5t131.5 55.5
v-153q-67 -36 -138.5 -54.5t-160.5 -18.5zM295 623h18q123 0 209 28t131.5 81.5t45.5 128.5q0 51 -29 81t-88 30t-115 -43.5t-101 -121.5t-71 -184z" />
    <glyph glyph-name="f" unicode="f" horiz-adv-x="577" 
d="M-115 -492q-35 0 -67 5t-58 14v159q24 -8 50 -13t52 -5q72 0 106.5 56.5t57.5 162.5l226 1065h-151l19 92l163 59l25 109q20 91 47.5 157.5t66 110.5t93 65.5t128.5 21.5q48 0 95.5 -10t83.5 -28l-58 -143q-24 10 -51.5 17.5t-58.5 7.5q-67 0 -103.5 -49t-58.5 -154
l-23 -107h191l-30 -149h-192l-232 -1085q-22 -105 -59 -186t-99.5 -127t-162.5 -46z" />
    <glyph glyph-name="g" unicode="g" horiz-adv-x="944" 
d="M255 -492q-178 0 -275.5 69t-96.5 200q1 108 70.5 190t208.5 131q-35 18 -54 50.5t-19 74.5q0 61 43 112.5t127 98.5q-52 31 -82 91t-30 141q0 105 40 201t114 158q50 45 116 70t142 25q42 0 77 -6.5t64 -16.5h317l-24 -112l-169 -28q16 -26 23.5 -60.5t7.5 -74.5
q0 -91 -32 -176t-88 -145q-54 -56 -127 -87t-163 -31q-26 0 -45.5 0.5t-32.5 1.5q-59 -24 -88 -58.5t-29 -68.5q0 -31 23 -46q13 -10 35 -15t52 -8l140 -7q99 -7 160.5 -37.5t90 -84.5t28.5 -129q0 -112 -49 -197.5t-136 -139.5q-66 -41 -152.5 -63t-186.5 -23zM263 -354
q73 0 134.5 17t105.5 49q46 32 72.5 80t26.5 105q0 25 -7 45.5t-23 36.5q-20 19 -56.5 30t-91.5 15l-142 8q-64 -8 -115.5 -43t-81.5 -86.5t-30 -107.5q0 -78 53.5 -114t154.5 -35zM449 511q67 0 116.5 43.5t78.5 116.5t32 160q2 43 -6 75t-26 52q-15 16 -37 24t-51 8
q-51 0 -92 -27t-71.5 -72.5t-47.5 -101.5t-19 -115q-1 -35 5 -64t19 -49q30 -50 99 -50z" />
    <glyph glyph-name="h" unicode="h" horiz-adv-x="1024" 
d="M26 0l330 1556h185l-84 -385q-7 -37 -17.5 -78t-21.5 -81.5t-22 -77.5h7q34 52 78 94t99.5 67.5t123.5 25.5q74 0 127 -29t81 -85t28 -137q0 -41 -7.5 -91.5t-17.5 -99.5l-145 -679h-186l143 674q10 47 16.5 89t6.5 77q0 58 -28 89t-87 31q-63 0 -122.5 -45t-107.5 -137
t-78 -235l-116 -543h-185z" />
    <glyph glyph-name="i" unicode="i" horiz-adv-x="471" 
d="M25 0l234 1101h185l-233 -1101h-186zM401 1280q-43 0 -69 23t-26 68q0 38 14 71t42.5 53.5t70.5 20.5q44 0 68.5 -21.5t24.5 -65.5q0 -64 -34.5 -106.5t-90.5 -42.5z" />
    <glyph glyph-name="j" unicode="j" horiz-adv-x="473" 
d="M-140 -492q-35 0 -66.5 5t-56.5 14v160q22 -9 48.5 -14t53.5 -5q44 0 74.5 22t52.5 71t38 129l256 1211h185l-261 -1229q-23 -110 -60 -191.5t-100 -127t-164 -45.5zM402 1280q-43 0 -69 23t-26 68q0 38 14.5 71t43 53.5t70.5 20.5q44 0 68 -21.5t24 -65.5
q0 -64 -35 -106.5t-90 -42.5z" />
    <glyph glyph-name="k" unicode="k" horiz-adv-x="901" 
d="M24 0l331 1556h186l-148 -693q-13 -59 -25.5 -109.5t-24.5 -92.5t-21 -77h5l446 517h211l-408 -464l207 -637h-202l-156 503l-136 -124l-78 -379h-187z" />
    <glyph glyph-name="l" unicode="l" horiz-adv-x="469" 
d="M24 0l332 1556h185l-331 -1556h-186z" />
    <glyph glyph-name="m" unicode="m" horiz-adv-x="1538" 
d="M25 0l233 1101h150l-22 -176h8q34 54 78 98.5t99 71.5t122 27q97 0 150.5 -50.5t67.5 -143.5h6q36 54 82 98t103 70t123 26q110 0 170 -63.5t60 -183.5q0 -38 -5.5 -79t-14.5 -83l-151 -713h-186l149 704q9 41 13.5 75t4.5 59q0 60 -27.5 91.5t-82.5 31.5
q-47 0 -90 -26.5t-79.5 -75t-64.5 -115t-45 -146.5l-127 -598h-185l151 711q8 39 11.5 70.5t3.5 54.5q0 60 -25.5 92.5t-81.5 32.5q-51 0 -96.5 -30t-84 -86t-68 -134t-49.5 -173l-114 -538h-186z" />
    <glyph glyph-name="n" unicode="n" horiz-adv-x="1024" 
d="M22 0l234 1103h154l-22 -178h5q35 55 80 100t102 72t125 27q73 0 127.5 -28t85 -83.5t30.5 -137.5q0 -43 -8 -93.5t-18 -98.5l-146 -683h-190l144 679q10 46 17 88t7 75q0 57 -28.5 86.5t-84.5 29.5q-65 0 -124.5 -48t-107.5 -142.5t-78 -233.5l-113 -534h-191z" />
    <glyph glyph-name="o" unicode="o" horiz-adv-x="1004" 
d="M414 -18q-106 0 -182 45t-117 130t-41 204q0 96 19.5 200.5t59.5 204t102 179.5t146 127.5t192 47.5q106 0 182 -46t116.5 -132t40.5 -207q0 -102 -20 -208.5t-61 -204t-103 -174.5t-145.5 -121.5t-188.5 -44.5zM430 138q57 0 105 35t86.5 95.5t65.5 138t41.5 164.5
t14.5 173q0 62 -16.5 111.5t-52.5 78.5t-94 29q-62 0 -112.5 -38.5t-89 -102.5t-64.5 -143.5t-39.5 -162.5t-13.5 -158q0 -106 43.5 -163t125.5 -57z" />
    <glyph glyph-name="p" unicode="p" horiz-adv-x="1029" 
d="M-75 -484l334 1585h151l-22 -180h7q40 59 86.5 104t101 70.5t117.5 25.5q78 0 136 -38t90 -115t32 -194q0 -105 -20.5 -216.5t-60.5 -214.5t-99 -185t-136 -130t-171 -48q-61 0 -106 22.5t-76 61.5t-49 87h-7q-6 -51 -15 -107.5t-19 -102.5l-91 -425h-183zM449 137
q58 0 107.5 39.5t88.5 105.5t66.5 148t42 169.5t14.5 167.5q0 100 -34 149t-101 49q-49 0 -93 -29.5t-81 -80.5t-67.5 -116t-52 -137t-33 -142.5t-11.5 -132.5q0 -89 38.5 -139.5t115.5 -50.5z" />
    <glyph glyph-name="q" unicode="q" horiz-adv-x="1033" 
d="M483 -489l96 453q6 25 15 60t19.5 73t19.5 72h-7q-38 -55 -83.5 -98t-98.5 -67t-117 -24q-76 0 -133.5 38t-89.5 114.5t-32 190.5q0 102 20 212.5t60 215t99.5 188t137 133.5t173.5 50q64 0 109 -22.5t76 -62t48 -92.5h7l54 156h149l-337 -1590h-185zM400 137
q48 0 91 29.5t80.5 81t67.5 116.5t51.5 136.5t33 143t11.5 133.5q0 83 -38.5 134.5t-114.5 51.5q-58 0 -107.5 -40t-89 -106t-66.5 -148.5t-41.5 -169t-14.5 -165.5q0 -99 34 -148t103 -49z" />
    <glyph glyph-name="r" unicode="r" horiz-adv-x="700" 
d="M25 0l233 1101h147l-23 -194h9q36 63 79 111.5t96 76t119 27.5q24 0 48.5 -3.5t46.5 -10.5l-47 -183q-20 6 -42.5 9.5t-46.5 3.5q-63 0 -114.5 -34t-92 -91t-68.5 -128t-44 -146l-114 -539h-186z" />
    <glyph glyph-name="s" unicode="s" horiz-adv-x="782" 
d="M271 -20q-89 0 -157.5 17t-116.5 44v175q49 -33 119.5 -57t141.5 -24q64 0 109.5 20t69.5 58t24 91q0 38 -13 68t-46 62t-90 75q-60 44 -101.5 87.5t-62.5 93.5t-21 113q0 94 42.5 165.5t121 112.5t187.5 41q89 0 164.5 -21.5t132.5 -55.5l-70 -145q-46 30 -103 49
t-121 19q-75 0 -120.5 -39t-45.5 -106q0 -35 12.5 -63.5t43.5 -58t85 -68.5q60 -46 104.5 -89t68.5 -94.5t24 -125.5q0 -107 -46 -184t-131.5 -118.5t-204.5 -41.5z" />
    <glyph glyph-name="t" unicode="t" horiz-adv-x="611" 
d="M299 -20q-101 0 -158 52t-57 163q0 29 4.5 65.5t13.5 77.5l130 614h-132l20 95l153 61l106 241h123l-53 -248h221l-32 -149h-220l-132 -622q-6 -28 -10.5 -55.5t-4.5 -49.5q0 -41 19.5 -64t64.5 -23q29 0 59.5 6t62.5 18v-146q-33 -15 -82.5 -25.5t-95.5 -10.5z" />
    <glyph glyph-name="u" unicode="u" horiz-adv-x="1026" 
d="M320 -20q-76 0 -129.5 29t-81.5 85t-28 136q0 40 7 88t16 95l147 688h187l-147 -688q-9 -43 -14.5 -81.5t-5.5 -70.5q0 -58 27 -89.5t86 -31.5q66 0 126.5 48.5t109 144t77.5 235.5l114 533h184l-233 -1101h-149l19 175h-7q-35 -53 -80.5 -97t-101.5 -71t-123 -27z" />
    <glyph glyph-name="v" unicode="v" horiz-adv-x="839" 
d="M186 0l-76 1101h186l28 -609q3 -40 4.5 -93.5t2 -104.5t-1.5 -82h8q15 40 33.5 84.5t38 88t36.5 78.5l303 638h196l-543 -1101h-215z" />
    <glyph glyph-name="w" unicode="w" horiz-adv-x="1318" 
d="M138 0l-14 1101h180l-2 -589q1 -82 -2.5 -153.5t-8.5 -131.5h6q13 38 30.5 85t36 92.5t32.5 80.5l264 616h204l5 -595q0 -65 -2 -140.5t-5 -143.5h6q16 47 34.5 99t39.5 107.5t43 109.5l234 563h191l-478 -1101h-215l-1 630q-1 41 0 83t3 86.5t3 89.5h-6q-13 -38 -27 -75
t-29.5 -75.5t-34.5 -81.5l-277 -657h-210z" />
    <glyph glyph-name="x" unicode="x" horiz-adv-x="868" 
d="M-88 0l416 569l-171 532h194l111 -388l266 388h211l-400 -543l185 -558h-195l-123 412l-285 -412h-209z" />
    <glyph glyph-name="y" unicode="y" horiz-adv-x="847" 
d="M-58 -493q-43 0 -72.5 6t-54.5 14l12 158q24 -7 50 -12t56 -5q71 0 119 48t92 136l72 148l-99 1101h185l37 -577q4 -49 6.5 -103.5t3 -106.5t-1.5 -92h7q13 37 32 85t40.5 97.5t39.5 87.5l288 609h197l-638 -1294q-47 -96 -99.5 -163t-117.5 -102t-154 -35z" />
    <glyph glyph-name="z" unicode="z" horiz-adv-x="757" 
d="M-55 0l25 121l579 831h-377l32 149h585l-29 -135l-569 -815h415l-32 -151h-629z" />
    <glyph glyph-name="braceleft" unicode="{" horiz-adv-x="694" 
d="M439 -324q-155 1 -228.5 60.5t-73.5 174.5q0 30 5 60t11 62l52 241q5 25 8.5 47.5t3.5 44.5q0 68 -44 101t-142 33l33 153q113 0 176.5 45t85.5 150l69 324q24 110 71.5 173.5t126.5 90t197 26.5h26l-34 -152q-96 -1 -145.5 -37t-71.5 -134l-69 -320q-23 -104 -82.5 -167
t-172.5 -81v-5q78 -21 114.5 -70.5t36.5 -122.5q0 -24 -3.5 -52.5t-10.5 -59.5l-50 -236q-5 -23 -8 -43.5t-3 -37.5q0 -64 36.5 -89t110.5 -26l-2 -153h-23z" />
    <glyph glyph-name="bar" unicode="|" horiz-adv-x="939" 
d="M406 -486v2046h156v-2046h-156z" />
    <glyph glyph-name="braceright" unicode="}" horiz-adv-x="694" 
d="M-104 -324l2 153q68 1 114.5 16.5t75.5 53t43 101.5l69 320q22 104 82.5 166.5t172.5 79.5v6q-77 22 -114 71t-37 122q0 25 4 53.5t11 58.5l51 237q5 23 7.5 43.5t2.5 36.5q0 63 -40 89t-120 27l30 152h15q103 0 168 -26t95 -77t30 -128q0 -29 -4 -61t-11 -64l-52 -242
q-5 -24 -9 -46.5t-4 -44.5q0 -68 45 -101t142 -33l-33 -153q-75 0 -128 -20t-86 -63t-47 -112l-70 -324q-24 -111 -71 -174.5t-125 -90t-194 -26.5h-15z" />
    <glyph glyph-name="asciitilde" unicode="~" horiz-adv-x="1034" 
d="M518 648q-60 29 -107.5 43t-90.5 14q-51 0 -107.5 -33t-105.5 -88v170q45 52 101.5 79t124.5 27q59 0 112.5 -15.5t125.5 -48.5q63 -29 108.5 -42.5t88.5 -13.5q53 0 110 33.5t104 85.5v-168q-45 -50 -101.5 -77.5t-123.5 -27.5q-61 0 -113.5 14t-125.5 48z" />
    <glyph glyph-name="uni00A0" unicode="&#xa0;" horiz-adv-x="440" 
 />
    <glyph glyph-name="exclamdown" unicode="&#xa1;" horiz-adv-x="511" 
d="M-42 -375l262 1048h143l-187 -1048h-218zM332 846q-46 0 -72.5 26.5t-26.5 74.5q0 71 39.5 119.5t106.5 48.5q49 0 75 -26.5t26 -74.5q0 -42 -16 -80.5t-49 -63t-83 -24.5z" />
    <glyph glyph-name="cent" unicode="&#xa2;" horiz-adv-x="971" 
d="M353 -20l45 210q-110 26 -170.5 116.5t-60.5 247.5q0 99 19.5 201t57 196t93.5 171t130 128.5t166 65.5l34 167h126l-35 -167q51 -4 96 -17.5t82 -31.5l-64 -153q-36 20 -80 33.5t-90 13.5q-80 0 -144 -53t-108.5 -141t-68.5 -194t-24 -210q0 -114 47 -170.5t133 -56.5
q56 0 107.5 16.5t101.5 43.5l21 -149q-51 -31 -114 -47.5t-131 -20.5l-42 -199h-127z" />
    <glyph glyph-name="sterling" unicode="&#xa3;" horiz-adv-x="973" 
d="M-33 0l33 157q54 18 97.5 53.5t75.5 92.5t50 141l44 209h-166l30 145h166l68 323q26 120 78 200.5t130.5 121t184.5 40.5q87 0 160 -23.5t129 -60.5l-79 -149q-42 28 -95 48.5t-114 20.5q-81 0 -134 -51.5t-78 -170.5l-63 -299h289l-31 -145h-288l-45 -205
q-24 -115 -71.5 -179.5t-110.5 -99.5h589l-35 -169h-814z" />
    <glyph glyph-name="currency" unicode="&#xa4;" horiz-adv-x="1085" 
d="M923 279l-133 131q-48 -34 -103.5 -52t-115.5 -18t-117 18.5t-104 52.5l-130 -130l-91 93l130 131q-35 48 -53 103t-18 115q0 59 18 114t53 105l-132 132l93 94l132 -132q48 35 104.5 53t114.5 18q60 0 115 -18t104 -53l132 132l94 -93l-132 -131q34 -48 53 -104t19 -117
t-18.5 -117t-52.5 -103l130 -131zM571 474q70 0 127.5 34t91.5 90.5t34 124.5q0 69 -34.5 126t-92 91.5t-126.5 34.5q-68 0 -125 -34t-91 -91t-34 -127q0 -69 34 -125.5t90.5 -90t125.5 -33.5z" />
    <glyph glyph-name="yen" unicode="&#xa5;" horiz-adv-x="968" 
d="M263 0l56 262h-245l29 132h243l35 166h-244l30 132h200l-134 770h186l97 -672l379 672h198l-460 -770h205l-28 -132h-248l-35 -166h248l-27 -132h-247l-57 -262h-181z" />
    <glyph glyph-name="brokenbar" unicode="&#xa6;" horiz-adv-x="939" 
d="M406 776v783h156v-783h-156zM406 -485v783h156v-783h-156z" />
    <glyph glyph-name="section" unicode="&#xa7;" horiz-adv-x="860" 
d="M295 21q-89 0 -158.5 18t-113.5 45v157q54 -37 126 -60.5t143 -23.5q102 0 160.5 47t58.5 125q0 35 -17.5 62.5t-52.5 54t-89 56.5q-61 34 -109 73t-75.5 89t-27.5 117q0 70 27.5 124t76 94.5t110.5 70.5q-47 38 -73.5 86.5t-26.5 113.5q0 82 43 147t122.5 104t187.5 41
q87 0 160 -19.5t132 -54.5l-64 -129q-53 31 -110 48.5t-118 17.5q-47 0 -88.5 -16.5t-67.5 -49t-26 -82.5q0 -54 39 -90t117 -78q68 -38 115.5 -77.5t72 -86t24.5 -105.5q0 -69 -25.5 -124.5t-71 -100t-104.5 -80.5q38 -33 64.5 -79.5t26.5 -109.5q0 -96 -47 -169
t-134 -114.5t-207 -41.5zM497 603q55 34 93 87t38 119q0 40 -18 70.5t-56.5 60t-100.5 61.5q-42 -16 -76 -43.5t-54 -65t-20 -83.5q0 -41 19.5 -74t62.5 -64t112 -68z" />
    <glyph glyph-name="dieresis" unicode="&#xa8;" horiz-adv-x="1045" 
d="M824 1290q-39 0 -61.5 21t-22.5 62q0 53 30 92t85 39q38 0 59 -20t21 -59q0 -60 -31.5 -97.5t-79.5 -37.5zM482 1290q-38 0 -61 21t-23 62q0 53 29.5 92t85.5 39q25 0 42.5 -9t27 -26.5t9.5 -43.5q0 -60 -31 -97.5t-79 -37.5z" />
    <glyph glyph-name="copyright" unicode="&#xa9;" horiz-adv-x="1701" 
d="M849 -20q-167 0 -305.5 57t-238.5 159.5t-153.5 239t-53.5 295.5q0 164 57 302t159.5 238.5t239.5 156t297 55.5q161 0 298.5 -57t239.5 -158.5t158.5 -239t56.5 -297.5q0 -163 -56.5 -300.5t-158 -238.5t-239.5 -156.5t-301 -55.5zM882 272q-199 0 -305 122t-106 335
q0 138 49.5 241.5t143 160.5t225.5 57q67 0 133 -15.5t126 -45.5l-57 -120q-51 26 -101 38.5t-97 12.5q-126 0 -195.5 -86t-69.5 -241q0 -164 65 -246t199 -82q50 0 107.5 13t111.5 36v-129q-52 -23 -107 -37t-122 -14zM851 90q136 0 251.5 48t201 134.5t133 203.5t47.5 255
q0 136 -47.5 253t-132.5 204.5t-201 136t-253 48.5q-140 0 -256 -48.5t-200.5 -135.5t-131 -204t-46.5 -255q0 -139 47.5 -255.5t133 -203t201.5 -134t253 -47.5z" />
    <glyph glyph-name="ordfeminine" unicode="&#xaa;" horiz-adv-x="637" 
d="M330 779q-46 0 -87.5 24.5t-67 77t-25.5 136.5q0 82 20 163.5t60.5 148.5t100 108t137.5 41q62 0 96.5 -29.5t51.5 -73.5h7l35 90h97l-143 -673h-100l13 103h-7q-33 -50 -77.5 -83t-110.5 -33zM368 892q41 0 72.5 23.5t55 61.5t39.5 83.5t23.5 90.5t7.5 81q0 63 -23 98.5
t-73 35.5q-43 0 -77.5 -30t-59 -79.5t-37.5 -109.5t-13 -121q0 -69 22.5 -101.5t62.5 -32.5z" />
    <glyph glyph-name="guillemotleft" unicode="&#xab;" horiz-adv-x="940" 
d="M273 115l-207 428l2 25l367 403l114 -87l-287 -340l152 -368zM662 115l-204 414l3 26l360 412l115 -83l-281 -352l147 -356z" />
    <glyph glyph-name="logicalnot" unicode="&#xac;" horiz-adv-x="1034" 
d="M968 800v-548h-154v393h-705v155h859z" />
    <glyph glyph-name="uni00AD" unicode="&#xad;" horiz-adv-x="594" 
d="M42 464l35 173h467l-36 -173h-466z" />
    <glyph glyph-name="registered" unicode="&#xae;" horiz-adv-x="1701" 
d="M572 292v887h256q160 0 241 -65.5t81 -197.5q0 -93 -43 -151t-112 -87l217 -386h-170l-185 349h-133v-349h-152zM723 760h98q81 0 127.5 38.5t46.5 112.5q0 75 -42.5 108t-131.5 33h-98v-292zM849 -20q-167 0 -305.5 57t-238.5 159.5t-153.5 239t-53.5 295.5
q0 164 57 302t159.5 238.5t239.5 156t297 55.5q161 0 298.5 -57t239.5 -158.5t158.5 -239t56.5 -297.5q0 -163 -56.5 -300.5t-158 -238.5t-239.5 -156.5t-301 -55.5zM851 90q136 0 251.5 48t201 134.5t133 203.5t47.5 255q0 136 -47.5 253t-132.5 204.5t-201 136t-253 48.5
q-140 0 -256 -48.5t-200.5 -135.5t-131 -204t-46.5 -255q0 -139 47.5 -255.5t133 -203t201.5 -134t253 -47.5z" />
    <glyph glyph-name="overscore" unicode="&#xaf;" horiz-adv-x="847" 
d="M196 1556l33 141h847l-32 -141h-848z" />
    <glyph glyph-name="degree" unicode="&#xb0;" horiz-adv-x="811" 
d="M405 883q-90 0 -159.5 37t-109 105t-39.5 157q0 90 39.5 157.5t109 105t159.5 37.5t159.5 -37.5t109 -105t39.5 -157.5t-40 -157.5t-109.5 -104.5t-158.5 -37zM406 1007q81 0 127 48t46 127q0 81 -46 129t-127 48q-85 0 -129.5 -49t-44.5 -128q0 -80 46.5 -127.5
t127.5 -47.5z" />
    <glyph glyph-name="plusminus" unicode="&#xb1;" horiz-adv-x="1034" 
d="M109 0v154h870v-154h-870zM621 833h357v-155h-357v-409h-155v409h-358v155h358v412h155v-412z" />
    <glyph glyph-name="uni00B2" unicode="&#xb2;" horiz-adv-x="655" 
d="M110 852l23 118l255 245q67 63 113 114t70.5 97.5t24.5 97.5q0 47 -26.5 74t-73.5 27q-45 0 -88 -21.5t-86 -57.5l-59 102q56 49 122.5 75t143.5 26q109 0 164 -58t55 -143q0 -73 -30 -136t-84.5 -123t-129.5 -127l-193 -180h347l-27 -130h-521z" />
    <glyph glyph-name="uni00B3" unicode="&#xb3;" horiz-adv-x="655" 
d="M344 837q-65 0 -119.5 13.5t-94.5 37.5v137q45 -30 99.5 -47.5t115.5 -17.5q89 0 137.5 45t48.5 119q0 61 -37 92.5t-105 31.5h-85l24 114h78q60 0 103 20.5t66.5 56.5t23.5 82q0 51 -28.5 78.5t-79.5 26.5q-48 -1 -90 -18t-84 -47l-56 101q52 40 116.5 63.5t139.5 23.5
q79 0 129 -26.5t75 -71.5t25 -103q0 -91 -52.5 -150.5t-143.5 -86.5l-1 -8q61 -19 94.5 -65t33.5 -116q0 -86 -40 -150t-114.5 -99.5t-178.5 -35.5z" />
    <glyph glyph-name="acute" unicode="&#xb4;" horiz-adv-x="545" 
d="M233 1241l1 22q41 47 82.5 100t79.5 106.5t66 99.5h214l-1 -18q-21 -29 -60.5 -70.5t-86.5 -87t-92.5 -86t-79.5 -66.5h-123z" />
    <glyph glyph-name="uni00B5" unicode="&#xb5;" horiz-adv-x="1030" 
d="M-80 -491l337 1592h185l-144 -686q-10 -45 -15 -80.5t-5 -62.5q0 -62 28.5 -96.5t86.5 -34.5q63 0 122 44t107.5 137.5t79.5 239.5l116 539h183l-233 -1101h-146l15 165h-7q-33 -54 -74 -96t-90 -65.5t-109 -23.5q-51 0 -86 22.5t-55 62.5h-6q-3 -27 -8 -62t-10.5 -70
t-11.5 -64l-76 -360h-184z" />
    <glyph glyph-name="paragraph" unicode="&#xb6;" horiz-adv-x="1144" 
d="M614 -260l-1 869q-22 -7 -47.5 -11t-59.5 -4q-82 0 -143.5 32.5t-102.5 94.5t-61.5 151t-20.5 200q0 123 25 213.5t72.5 150.5t116.5 90t157 30h472v-1816h-119v1682h-169v-1682h-119z" />
    <glyph glyph-name="periodcentered" unicode="&#xb7;" horiz-adv-x="480" 
d="M247 583q-50 0 -76.5 27t-26.5 74q0 66 37.5 117.5t113.5 51.5q45 0 71 -27t26 -76q0 -68 -39.5 -117.5t-105.5 -49.5z" />
    <glyph glyph-name="cedilla" unicode="&#xb8;" horiz-adv-x="398" 
d="M-53 -492q-35 0 -65.5 4.5t-55.5 10.5v113q19 -5 45.5 -9t55.5 -4q47 0 79.5 13t49.5 38t17 60q0 43 -35.5 66.5t-104.5 30.5l102 169h114l-62 -104q59 -14 98.5 -52.5t39.5 -107.5q0 -70 -34 -121t-96 -79t-148 -28z" />
    <glyph glyph-name="uni00B9" unicode="&#xb9;" horiz-adv-x="655" 
d="M342 851l119 553q9 42 20.5 84.5t20.5 74.5q-18 -16 -37 -32t-37 -28l-117 -79l-61 99l299 205h130l-187 -877h-150z" />
    <glyph glyph-name="ordmasculine" unicode="&#xba;" horiz-adv-x="642" 
d="M382 778q-105 0 -164 67t-59 189q0 81 20.5 160t62 143.5t103 103t143.5 38.5q108 0 164.5 -66.5t56.5 -185.5q0 -77 -19 -156.5t-59 -145.5t-102 -106.5t-147 -40.5zM396 893q46 0 80 29.5t56.5 78t33.5 106.5t11 114q0 71 -25.5 106.5t-75.5 35.5q-46 0 -80.5 -29
t-57.5 -76.5t-34.5 -105t-11.5 -115.5q0 -73 26.5 -108.5t77.5 -35.5z" />
    <glyph glyph-name="guillemotright" unicode="&#xbb;" horiz-adv-x="941" 
d="M500 115l-113 88l287 339l-152 368l141 61l207 -428l-2 -27zM114 120l-115 83l282 350l-148 357l140 61l203 -414l-1 -27z" />
    <glyph glyph-name="onequarter" unicode="&#xbc;" horiz-adv-x="1447" 
d="M140 0l1077 1462h160l-1077 -1462h-160zM292 586l119 553q9 42 20.5 84.5t20.5 74.5q-18 -16 -37 -32t-37 -28l-117 -79l-61 99l299 205h130l-187 -877h-150zM1043 1l39 189h-333l22 110l450 584h154l-122 -573h109l-25 -121h-109l-41 -189h-144zM911 311h197l49 222
q10 45 19 84.5t20 78.5q-17 -28 -42.5 -65t-49.5 -68z" />
    <glyph glyph-name="onehalf" unicode="&#xbd;" horiz-adv-x="1554" 
d="M135 0l1077 1462h160l-1077 -1462h-160zM292 586l119 553q9 42 20.5 84.5t20.5 74.5q-18 -16 -37 -32t-37 -28l-117 -79l-61 99l299 205h130l-187 -877h-150zM836 1l23 118l255 245q67 63 113 114t70.5 97.5t24.5 97.5q0 47 -26.5 74t-73.5 27q-45 0 -88 -21.5t-86 -57.5
l-59 102q56 49 122.5 75t143.5 26q109 0 164 -58t55 -143q0 -73 -30 -136t-84.5 -123t-129.5 -127l-193 -180h347l-27 -130h-521z" />
    <glyph glyph-name="threequarters" unicode="&#xbe;" horiz-adv-x="1504" 
d="M294 571q-65 0 -119.5 13.5t-94.5 37.5v137q45 -30 99.5 -47.5t115.5 -17.5q89 0 137.5 45t48.5 119q0 61 -37 92.5t-105 31.5h-85l24 114h78q60 0 103 20.5t66.5 56.5t23.5 82q0 51 -28.5 78.5t-79.5 26.5q-48 -1 -90 -18t-84 -47l-56 101q52 40 116.5 63.5t139.5 23.5
q79 0 129 -26.5t75 -71.5t25 -103q0 -91 -52.5 -150.5t-143.5 -86.5l-1 -8q61 -19 94.5 -65t33.5 -116q0 -86 -40 -150t-114.5 -99.5t-178.5 -35.5zM208 0l1077 1462h160l-1077 -1462h-160zM1099 0l39 189h-333l22 110l450 584h154l-122 -573h109l-25 -121h-109l-41 -189
h-144zM967 310h197l49 222q10 45 19 84.5t20 78.5q-17 -28 -42.5 -65t-49.5 -68z" />
    <glyph glyph-name="questiondown" unicode="&#xbf;" horiz-adv-x="747" 
d="M553 668q-17 -95 -43 -163.5t-67.5 -124t-106.5 -116.5q-62 -59 -112 -109t-79 -104.5t-29 -128.5q0 -73 39 -112.5t112 -39.5q65 0 126 24.5t120 57.5l51 -144q-75 -47 -159.5 -74.5t-169.5 -27.5q-143 0 -224.5 74.5t-81.5 210.5q0 94 33.5 169t93 142.5t136.5 134.5
q68 61 107.5 106.5t61.5 96.5t38 128h154zM549 1111q50 0 76.5 -27t26.5 -74q0 -66 -37 -117.5t-114 -51.5q-44 0 -70.5 27t-26.5 76q0 69 39.5 118t105.5 49z" />
    <glyph glyph-name="Agrave" unicode="&#xc0;" horiz-adv-x="1015" 
d="M-125 0l704 1465h226l91 -1465h-192l-24 444h-392l-206 -444h-207zM364 613h312l-13 427q-3 60 -5.5 123t-1.5 116h-6q-19 -53 -43.5 -113t-55.5 -125zM716 1612q-33 38 -73.5 93.5t-75.5 113.5t-53 101v19h203q14 -48 32 -99.5t40 -102.5t46 -102l-1 -23h-118z" />
    <glyph glyph-name="Aacute" unicode="&#xc1;" horiz-adv-x="1015" 
d="M-125 0l704 1465h226l91 -1465h-192l-24 444h-392l-206 -444h-207zM364 613h312l-13 427q-3 60 -5.5 123t-1.5 116h-6q-19 -53 -43.5 -113t-55.5 -125zM606 1611l1 22q41 47 82.5 100t79.5 106.5t66 99.5h214l-1 -18q-21 -29 -60.5 -70.5t-86.5 -87t-92.5 -86
t-79.5 -66.5h-123z" />
    <glyph glyph-name="Acircumflex" unicode="&#xc2;" horiz-adv-x="1015" 
d="M-125 0l704 1465h226l91 -1465h-192l-24 444h-392l-206 -444h-207zM364 613h312l-13 427q-3 60 -5.5 123t-1.5 116h-6q-19 -53 -43.5 -113t-55.5 -125zM408 1611l3 23q42 42 91.5 95t96 108t77.5 102h179q14 -45 39 -101t53 -110.5t50 -93.5l-3 -23h-112q-21 24 -44.5 54
t-47 64t-45.5 70q-57 -55 -112 -103t-104 -85h-121z" />
    <glyph glyph-name="Atilde" unicode="&#xc3;" horiz-adv-x="1015" 
d="M-125 0l704 1465h226l91 -1465h-192l-24 444h-392l-206 -444h-207zM364 613h312l-13 427q-3 60 -5.5 123t-1.5 116h-6q-19 -53 -43.5 -113t-55.5 -125zM393 1614q18 85 48 144t73.5 90t102.5 31q45 0 80 -17.5t64.5 -40.5t56 -40.5t53.5 -17.5q37 0 59.5 26t42.5 92h114
q-20 -93 -52 -151.5t-75 -86.5t-96 -28q-42 0 -76 18t-63.5 41t-57.5 41t-58 18q-37 0 -61 -29.5t-41 -89.5h-114z" />
    <glyph glyph-name="Adieresis" unicode="&#xc4;" horiz-adv-x="1015" 
d="M-125 0l704 1465h226l91 -1465h-192l-24 444h-392l-206 -444h-207zM364 613h312l-13 427q-3 60 -5.5 123t-1.5 116h-6q-19 -53 -43.5 -113t-55.5 -125zM894 1660q-39 0 -61.5 21t-22.5 62q0 53 30 92t85 39q38 0 59 -20t21 -59q0 -60 -31.5 -97.5t-79.5 -37.5zM552 1660
q-38 0 -61 21t-23 62q0 53 29.5 92t85.5 39q25 0 42.5 -9t27 -26.5t9.5 -43.5q0 -60 -31 -97.5t-79 -37.5z" />
    <glyph glyph-name="Aring" unicode="&#xc5;" horiz-adv-x="1015" 
d="M-125 0l704 1465h226l91 -1465h-192l-24 444h-392l-206 -444h-207zM364 613h312l-13 427q-3 60 -5.5 123t-1.5 116h-6q-19 -53 -43.5 -113t-55.5 -125zM732 1592q-99 0 -158.5 57.5t-59.5 157.5q0 97 61 154.5t157 57.5q98 0 159 -57.5t61 -152.5q0 -99 -61 -158
t-159 -59zM733 1694q50 0 81 30.5t31 81.5q0 50 -30.5 81t-81.5 31q-50 0 -80.5 -31t-30.5 -81q0 -51 28.5 -81.5t82.5 -30.5z" />
    <glyph glyph-name="AE" unicode="&#xc6;" horiz-adv-x="1438" 
d="M-128 0l813 1462h838l-35 -167h-462l-96 -448h433l-35 -167h-432l-108 -512h461l-35 -168h-653l95 445h-334l-241 -445h-209zM416 614h276l144 680h-54z" />
    <glyph glyph-name="Ccedilla" unicode="&#xc7;" horiz-adv-x="1011" 
d="M535 -20q-138 0 -233 61t-144.5 176.5t-49.5 280.5q0 128 28.5 266t85 266t142 230.5t199.5 163t257 60.5q92 0 168 -20t141 -61l-85 -156q-48 32 -103 50t-121 18q-105 0 -187.5 -52.5t-143.5 -140t-101.5 -194.5t-60.5 -216.5t-20 -204.5q0 -178 68 -268.5t200 -90.5
q67 0 133 16t132 42v-169q-66 -26 -141 -41.5t-164 -15.5zM369 -492q-35 0 -65.5 4.5t-55.5 10.5v113q19 -5 45.5 -9t55.5 -4q47 0 79.5 13t49.5 38t17 60q0 43 -35.5 66.5t-104.5 30.5l102 169h114l-62 -104q59 -14 98.5 -52.5t39.5 -107.5q0 -70 -34 -121t-96 -79
t-148 -28z" />
    <glyph glyph-name="Egrave" unicode="&#xc8;" horiz-adv-x="915" 
d="M38 0l310 1462h651l-35 -167h-461l-95 -448h431l-36 -167h-430l-110 -512h462l-36 -168h-651zM683 1606q-33 38 -73.5 93.5t-75.5 113.5t-53 101v19h203q14 -48 32 -99.5t40 -102.5t46 -102l-1 -23h-118z" />
    <glyph glyph-name="Eacute" unicode="&#xc9;" horiz-adv-x="915" 
d="M38 0l310 1462h651l-35 -167h-461l-95 -448h431l-36 -167h-430l-110 -512h462l-36 -168h-651zM573 1605l1 22q41 47 82.5 100t79.5 106.5t66 99.5h214l-1 -18q-21 -29 -60.5 -70.5t-86.5 -87t-92.5 -86t-79.5 -66.5h-123z" />
    <glyph glyph-name="Ecircumflex" unicode="&#xca;" horiz-adv-x="915" 
d="M38 0l310 1462h651l-35 -167h-461l-95 -448h431l-36 -167h-430l-110 -512h462l-36 -168h-651zM389 1591l3 23q42 42 91.5 95t96 108t77.5 102h179q14 -45 39 -101t53 -110.5t50 -93.5l-3 -23h-112q-21 24 -44.5 54t-47 64t-45.5 70q-57 -55 -112 -103t-104 -85h-121z" />
    <glyph glyph-name="Edieresis" unicode="&#xcb;" horiz-adv-x="915" 
d="M38 0l310 1462h651l-35 -167h-461l-95 -448h431l-36 -167h-430l-110 -512h462l-36 -168h-651zM869 1640q-39 0 -61.5 21t-22.5 62q0 53 30 92t85 39q38 0 59 -20t21 -59q0 -60 -31.5 -97.5t-79.5 -37.5zM527 1640q-38 0 -61 21t-23 62q0 53 29.5 92t85.5 39q25 0 42.5 -9
t27 -26.5t9.5 -43.5q0 -60 -31 -97.5t-79 -37.5z" />
    <glyph glyph-name="Igrave" unicode="&#xcc;" horiz-adv-x="510" 
d="M38 0l311 1462h188l-310 -1462h-189zM459 1611q-33 38 -73.5 93.5t-75.5 113.5t-53 101v19h203q14 -48 32 -99.5t40 -102.5t46 -102l-1 -23h-118z" />
    <glyph glyph-name="Iacute" unicode="&#xcd;" horiz-adv-x="510" 
d="M38 0l311 1462h188l-310 -1462h-189zM366 1611l1 22q41 47 82.5 100t79.5 106.5t66 99.5h214l-1 -18q-21 -29 -60.5 -70.5t-86.5 -87t-92.5 -86t-79.5 -66.5h-123z" />
    <glyph glyph-name="Icircumflex" unicode="&#xce;" horiz-adv-x="510" 
d="M38 0l311 1462h188l-310 -1462h-189zM175 1613l3 23q42 42 91.5 95t96 108t77.5 102h179q14 -45 39 -101t53 -110.5t50 -93.5l-3 -23h-112q-21 24 -44.5 54t-47 64t-45.5 70q-57 -55 -112 -103t-104 -85h-121z" />
    <glyph glyph-name="Idieresis" unicode="&#xcf;" horiz-adv-x="510" 
d="M38 0l311 1462h188l-310 -1462h-189zM661 1661q-39 0 -61.5 21t-22.5 62q0 53 30 92t85 39q38 0 59 -20t21 -59q0 -60 -31.5 -97.5t-79.5 -37.5zM319 1661q-38 0 -61 21t-23 62q0 53 29.5 92t85.5 39q25 0 42.5 -9t27 -26.5t9.5 -43.5q0 -60 -31 -97.5t-79 -37.5z" />
    <glyph glyph-name="Eth" unicode="&#xd0;" horiz-adv-x="1169" 
d="M39 0l138 662h-125l35 159h124l137 641h300q226 0 350.5 -126.5t124.5 -379.5q0 -144 -30 -283t-90.5 -260.5t-152.5 -214.5t-215.5 -145.5t-280.5 -52.5h-315zM264 168h108q115 0 204.5 47t155 127.5t108 181.5t63 210.5t20.5 214.5q0 182 -78.5 264.5t-218.5 82.5h-123
l-101 -475h239l-34 -159h-240z" />
    <glyph glyph-name="Ntilde" unicode="&#xd1;" horiz-adv-x="1267" 
d="M38 0l309 1462h215l312 -1162h5q10 59 21.5 125.5t24 131.5t23.5 117l168 788h180l-310 -1462h-211l-316 1177h-6q-6 -41 -14.5 -93.5t-18.5 -108.5t-20.5 -108.5t-19.5 -94.5l-163 -772h-179zM522 1594q18 85 48 144t73.5 90t102.5 31q45 0 80 -17.5t64.5 -40.5
t56 -40.5t53.5 -17.5q37 0 59.5 26t42.5 92h114q-20 -93 -52 -151.5t-75 -86.5t-96 -28q-42 0 -76 18t-63.5 41t-57.5 41t-58 18q-37 0 -61 -29.5t-41 -89.5h-114z" />
    <glyph glyph-name="Ograve" unicode="&#xd2;" horiz-adv-x="1254" 
d="M541 -20q-143 0 -239.5 58.5t-145 170.5t-48.5 272q0 116 19 234.5t57 231t95 210t132 171t168 115t204 41.5q208 0 316.5 -128t108.5 -367q0 -108 -17.5 -224.5t-53 -229.5t-89.5 -213t-128 -177t-168 -121t-211 -44zM553 149q74 0 136.5 36.5t113 101t89.5 148
t65 177.5t39.5 191t13.5 188q0 158 -62.5 241.5t-179.5 83.5q-76 0 -140.5 -38t-115.5 -103.5t-89.5 -149.5t-64.5 -178t-39 -187.5t-13 -177.5q0 -111 29 -185t84 -111t134 -37zM835 1606q-33 38 -73.5 93.5t-75.5 113.5t-53 101v19h203q14 -48 32 -99.5t40 -102.5t46 -102
l-1 -23h-118z" />
    <glyph glyph-name="Oacute" unicode="&#xd3;" horiz-adv-x="1254" 
d="M541 -20q-143 0 -239.5 58.5t-145 170.5t-48.5 272q0 116 19 234.5t57 231t95 210t132 171t168 115t204 41.5q208 0 316.5 -128t108.5 -367q0 -108 -17.5 -224.5t-53 -229.5t-89.5 -213t-128 -177t-168 -121t-211 -44zM553 149q74 0 136.5 36.5t113 101t89.5 148
t65 177.5t39.5 191t13.5 188q0 158 -62.5 241.5t-179.5 83.5q-76 0 -140.5 -38t-115.5 -103.5t-89.5 -149.5t-64.5 -178t-39 -187.5t-13 -177.5q0 -111 29 -185t84 -111t134 -37zM725 1605l1 22q41 47 82.5 100t79.5 106.5t66 99.5h214l-1 -18q-21 -29 -60.5 -70.5
t-86.5 -87t-92.5 -86t-79.5 -66.5h-123z" />
    <glyph glyph-name="Ocircumflex" unicode="&#xd4;" horiz-adv-x="1254" 
d="M541 -20q-143 0 -239.5 58.5t-145 170.5t-48.5 272q0 116 19 234.5t57 231t95 210t132 171t168 115t204 41.5q208 0 316.5 -128t108.5 -367q0 -108 -17.5 -224.5t-53 -229.5t-89.5 -213t-128 -177t-168 -121t-211 -44zM553 149q74 0 136.5 36.5t113 101t89.5 148
t65 177.5t39.5 191t13.5 188q0 158 -62.5 241.5t-179.5 83.5q-76 0 -140.5 -38t-115.5 -103.5t-89.5 -149.5t-64.5 -178t-39 -187.5t-13 -177.5q0 -111 29 -185t84 -111t134 -37zM520 1591l3 23q42 42 91.5 95t96 108t77.5 102h179q14 -45 39 -101t53 -110.5t50 -93.5
l-3 -23h-112q-21 24 -44.5 54t-47 64t-45.5 70q-57 -55 -112 -103t-104 -85h-121z" />
    <glyph glyph-name="Otilde" unicode="&#xd5;" horiz-adv-x="1254" 
d="M541 -20q-143 0 -239.5 58.5t-145 170.5t-48.5 272q0 116 19 234.5t57 231t95 210t132 171t168 115t204 41.5q208 0 316.5 -128t108.5 -367q0 -108 -17.5 -224.5t-53 -229.5t-89.5 -213t-128 -177t-168 -121t-211 -44zM553 149q74 0 136.5 36.5t113 101t89.5 148
t65 177.5t39.5 191t13.5 188q0 158 -62.5 241.5t-179.5 83.5q-76 0 -140.5 -38t-115.5 -103.5t-89.5 -149.5t-64.5 -178t-39 -187.5t-13 -177.5q0 -111 29 -185t84 -111t134 -37zM507 1594q18 85 48 144t73.5 90t102.5 31q45 0 80 -17.5t64.5 -40.5t56 -40.5t53.5 -17.5
q37 0 59.5 26t42.5 92h114q-20 -93 -52 -151.5t-75 -86.5t-96 -28q-42 0 -76 18t-63.5 41t-57.5 41t-58 18q-37 0 -61 -29.5t-41 -89.5h-114z" />
    <glyph glyph-name="Odieresis" unicode="&#xd6;" horiz-adv-x="1254" 
d="M541 -20q-143 0 -239.5 58.5t-145 170.5t-48.5 272q0 116 19 234.5t57 231t95 210t132 171t168 115t204 41.5q208 0 316.5 -128t108.5 -367q0 -108 -17.5 -224.5t-53 -229.5t-89.5 -213t-128 -177t-168 -121t-211 -44zM553 149q74 0 136.5 36.5t113 101t89.5 148
t65 177.5t39.5 191t13.5 188q0 158 -62.5 241.5t-179.5 83.5q-76 0 -140.5 -38t-115.5 -103.5t-89.5 -149.5t-64.5 -178t-39 -187.5t-13 -177.5q0 -111 29 -185t84 -111t134 -37zM1009 1640q-39 0 -61.5 21t-22.5 62q0 53 30 92t85 39q38 0 59 -20t21 -59q0 -60 -31.5 -97.5
t-79.5 -37.5zM667 1640q-38 0 -61 21t-23 62q0 53 29.5 92t85.5 39q25 0 42.5 -9t27 -26.5t9.5 -43.5q0 -60 -31 -97.5t-79 -37.5z" />
    <glyph glyph-name="multiply" unicode="&#xd7;" horiz-adv-x="1034" 
d="M853 1140l108 -106l-310 -311l306 -309l-106 -106l-309 306l-307 -307l-107 108l306 308l-306 306l107 110l308 -308z" />
    <glyph glyph-name="Oslash" unicode="&#xd8;" horiz-adv-x="1255" 
d="M151 -91l-105 74l134 189q-37 59 -54.5 137.5t-17.5 171.5q0 116 19 234.5t57 231t95 210t132 171t168.5 115t204.5 41.5q85 0 153 -24t120 -74l113 158l107 -75l-135 -187q33 -55 49.5 -130.5t16.5 -162.5q0 -108 -17.5 -224.5t-53 -229.5t-89.5 -213t-128 -177
t-168.5 -121t-210.5 -44q-85 0 -152.5 22.5t-119.5 68.5zM553 148q72 0 133.5 34.5t112 94.5t88.5 139t65 170t41.5 185.5t15.5 185.5q1 34 -2.5 66t-10.5 57l-617 -852q29 -39 73 -59.5t101 -20.5zM324 368l621 861q-30 44 -74 66t-104 22q-74 0 -137 -35.5t-113.5 -97.5
t-89 -142t-65 -170t-40.5 -181.5t-15 -175.5q-1 -41 3.5 -78.5t13.5 -68.5z" />
    <glyph glyph-name="Ugrave" unicode="&#xd9;" horiz-adv-x="1187" 
d="M490 -20q-122 0 -206 42t-127.5 122t-43.5 194q0 35 5.5 81t15.5 95l202 948h191l-203 -955q-10 -41 -15 -82t-5 -71q0 -100 52.5 -152.5t152.5 -52.5q91 0 152.5 38t101.5 116t65 196l207 963h190l-210 -982q-32 -154 -95.5 -266.5t-168 -173t-261.5 -60.5zM802 1606
q-33 38 -73.5 93.5t-75.5 113.5t-53 101v19h203q14 -48 32 -99.5t40 -102.5t46 -102l-1 -23h-118z" />
    <glyph glyph-name="Uacute" unicode="&#xda;" horiz-adv-x="1187" 
d="M490 -20q-122 0 -206 42t-127.5 122t-43.5 194q0 35 5.5 81t15.5 95l202 948h191l-203 -955q-10 -41 -15 -82t-5 -71q0 -100 52.5 -152.5t152.5 -52.5q91 0 152.5 38t101.5 116t65 196l207 963h190l-210 -982q-32 -154 -95.5 -266.5t-168 -173t-261.5 -60.5zM692 1605
l1 22q41 47 82.5 100t79.5 106.5t66 99.5h214l-1 -18q-21 -29 -60.5 -70.5t-86.5 -87t-92.5 -86t-79.5 -66.5h-123z" />
    <glyph glyph-name="Ucircumflex" unicode="&#xdb;" horiz-adv-x="1187" 
d="M490 -20q-122 0 -206 42t-127.5 122t-43.5 194q0 35 5.5 81t15.5 95l202 948h191l-203 -955q-10 -41 -15 -82t-5 -71q0 -100 52.5 -152.5t152.5 -52.5q91 0 152.5 38t101.5 116t65 196l207 963h190l-210 -982q-32 -154 -95.5 -266.5t-168 -173t-261.5 -60.5zM497 1591
l3 23q42 42 91.5 95t96 108t77.5 102h179q14 -45 39 -101t53 -110.5t50 -93.5l-3 -23h-112q-21 24 -44.5 54t-47 64t-45.5 70q-57 -55 -112 -103t-104 -85h-121z" />
    <glyph glyph-name="Udieresis" unicode="&#xdc;" horiz-adv-x="1187" 
d="M490 -20q-122 0 -206 42t-127.5 122t-43.5 194q0 35 5.5 81t15.5 95l202 948h191l-203 -955q-10 -41 -15 -82t-5 -71q0 -100 52.5 -152.5t152.5 -52.5q91 0 152.5 38t101.5 116t65 196l207 963h190l-210 -982q-32 -154 -95.5 -266.5t-168 -173t-261.5 -60.5zM979 1640
q-39 0 -61.5 21t-22.5 62q0 53 30 92t85 39q38 0 59 -20t21 -59q0 -60 -31.5 -97.5t-79.5 -37.5zM637 1640q-38 0 -61 21t-23 62q0 53 29.5 92t85.5 39q25 0 42.5 -9t27 -26.5t9.5 -43.5q0 -60 -31 -97.5t-79 -37.5z" />
    <glyph glyph-name="Yacute" unicode="&#xdd;" horiz-adv-x="910" 
d="M233 0l119 557l-170 905h195l110 -684l397 684h209l-551 -904l-118 -558h-191zM553 1605l1 22q41 47 82.5 100t79.5 106.5t66 99.5h214l-1 -18q-21 -29 -60.5 -70.5t-86.5 -87t-92.5 -86t-79.5 -66.5h-123z" />
    <glyph glyph-name="Thorn" unicode="&#xde;" horiz-adv-x="1006" 
d="M38 0l310 1462h190l-52 -249h95q137 0 224.5 -44t129.5 -123.5t42 -186.5q0 -123 -38 -223t-111.5 -172t-178.5 -110.5t-239 -38.5h-115l-66 -315h-191zM330 480h95q111 0 191 42.5t123 124t43 196.5q0 105 -55.5 154.5t-168.5 49.5h-108z" />
    <glyph glyph-name="germandbls" unicode="&#xdf;" horiz-adv-x="1046" 
d="M-146 -492q-34 0 -65 5.5t-56 13.5v161q22 -9 48 -14t52 -5q65 0 101 50t59 160l275 1290q28 131 83 220t141 133.5t207 44.5q150 0 235 -71.5t85 -191.5q0 -70 -22.5 -124t-62.5 -99.5t-92 -90.5q-59 -51 -100 -96t-41 -105q0 -28 14.5 -55.5t36.5 -54.5t45 -55
q56 -60 93 -124t37 -156q0 -113 -48 -195t-133.5 -125.5t-198.5 -43.5q-74 0 -133.5 15.5t-100.5 42.5l12 170q45 -33 100.5 -53t111.5 -20q97 0 148 53.5t51 136.5q0 39 -11 71.5t-34.5 65.5t-60.5 74q-60 64 -90 118t-30 118q0 60 21.5 107t59 87.5t84.5 78.5
q45 38 79.5 73t54.5 75t20 92q0 59 -38.5 92t-106.5 33q-65 0 -110.5 -29t-75 -84.5t-47.5 -137.5l-273 -1289q-23 -107 -60 -189t-99.5 -127.5t-164.5 -45.5z" />
    <glyph glyph-name="agrave" unicode="&#xe0;" horiz-adv-x="1024" 
d="M331 -20q-78 0 -136.5 39t-90.5 116.5t-32 190.5q0 105 21 216t61 214.5t99.5 186t136.5 131t171 48.5q59 0 104.5 -22.5t77 -62t48.5 -91.5h8l54 155h150l-233 -1101h-148l19 175h-6q-40 -55 -86.5 -99.5t-100 -70t-117.5 -25.5zM396 137q70 0 129 54.5t103 142.5
t69 189q19 76 27.5 137.5t8.5 116.5q0 85 -39.5 135.5t-109.5 50.5q-57 0 -106.5 -39t-89 -104.5t-67.5 -147t-43 -169t-15 -168.5q0 -99 34.5 -148.5t98.5 -49.5zM648 1247q-33 38 -73.5 93.5t-75.5 113.5t-53 101v19h203q14 -48 32 -99.5t40 -102.5t46 -102l-1 -23h-118z
" />
    <glyph glyph-name="aacute" unicode="&#xe1;" horiz-adv-x="1024" 
d="M331 -20q-78 0 -136.5 39t-90.5 116.5t-32 190.5q0 105 21 216t61 214.5t99.5 186t136.5 131t171 48.5q59 0 104.5 -22.5t77 -62t48.5 -91.5h8l54 155h150l-233 -1101h-148l19 175h-6q-40 -55 -86.5 -99.5t-100 -70t-117.5 -25.5zM396 137q70 0 129 54.5t103 142.5
t69 189q19 76 27.5 137.5t8.5 116.5q0 85 -39.5 135.5t-109.5 50.5q-57 0 -106.5 -39t-89 -104.5t-67.5 -147t-43 -169t-15 -168.5q0 -99 34.5 -148.5t98.5 -49.5zM533 1246l1 22q41 47 82.5 100t79.5 106.5t66 99.5h214l-1 -18q-21 -29 -60.5 -70.5t-86.5 -87t-92.5 -86
t-79.5 -66.5h-123z" />
    <glyph glyph-name="acircumflex" unicode="&#xe2;" horiz-adv-x="1024" 
d="M331 -20q-78 0 -136.5 39t-90.5 116.5t-32 190.5q0 105 21 216t61 214.5t99.5 186t136.5 131t171 48.5q59 0 104.5 -22.5t77 -62t48.5 -91.5h8l54 155h150l-233 -1101h-148l19 175h-6q-40 -55 -86.5 -99.5t-100 -70t-117.5 -25.5zM396 137q70 0 129 54.5t103 142.5
t69 189q19 76 27.5 137.5t8.5 116.5q0 85 -39.5 135.5t-109.5 50.5q-57 0 -106.5 -39t-89 -104.5t-67.5 -147t-43 -169t-15 -168.5q0 -99 34.5 -148.5t98.5 -49.5zM351 1243l3 23q42 42 91.5 95t96 108t77.5 102h179q14 -45 39 -101t53 -110.5t50 -93.5l-3 -23h-112
q-21 24 -44.5 54t-47 64t-45.5 70q-57 -55 -112 -103t-104 -85h-121z" />
    <glyph glyph-name="atilde" unicode="&#xe3;" horiz-adv-x="1024" 
d="M331 -20q-78 0 -136.5 39t-90.5 116.5t-32 190.5q0 105 21 216t61 214.5t99.5 186t136.5 131t171 48.5q59 0 104.5 -22.5t77 -62t48.5 -91.5h8l54 155h150l-233 -1101h-148l19 175h-6q-40 -55 -86.5 -99.5t-100 -70t-117.5 -25.5zM396 137q70 0 129 54.5t103 142.5
t69 189q19 76 27.5 137.5t8.5 116.5q0 85 -39.5 135.5t-109.5 50.5q-57 0 -106.5 -39t-89 -104.5t-67.5 -147t-43 -169t-15 -168.5q0 -99 34.5 -148.5t98.5 -49.5zM335 1246q18 85 48 144t73.5 90t102.5 31q45 0 80 -17.5t64.5 -40.5t56 -40.5t53.5 -17.5q37 0 59.5 26
t42.5 92h114q-20 -93 -52 -151.5t-75 -86.5t-96 -28q-42 0 -76 18t-63.5 41t-57.5 41t-58 18q-37 0 -61 -29.5t-41 -89.5h-114z" />
    <glyph glyph-name="adieresis" unicode="&#xe4;" horiz-adv-x="1024" 
d="M331 -20q-78 0 -136.5 39t-90.5 116.5t-32 190.5q0 105 21 216t61 214.5t99.5 186t136.5 131t171 48.5q59 0 104.5 -22.5t77 -62t48.5 -91.5h8l54 155h150l-233 -1101h-148l19 175h-6q-40 -55 -86.5 -99.5t-100 -70t-117.5 -25.5zM396 137q70 0 129 54.5t103 142.5
t69 189q19 76 27.5 137.5t8.5 116.5q0 85 -39.5 135.5t-109.5 50.5q-57 0 -106.5 -39t-89 -104.5t-67.5 -147t-43 -169t-15 -168.5q0 -99 34.5 -148.5t98.5 -49.5zM837 1292q-39 0 -61.5 21t-22.5 62q0 53 30 92t85 39q38 0 59 -20t21 -59q0 -60 -31.5 -97.5t-79.5 -37.5z
M495 1292q-38 0 -61 21t-23 62q0 53 29.5 92t85.5 39q25 0 42.5 -9t27 -26.5t9.5 -43.5q0 -60 -31 -97.5t-79 -37.5z" />
    <glyph glyph-name="aring" unicode="&#xe5;" horiz-adv-x="1024" 
d="M331 -20q-78 0 -136.5 39t-90.5 116.5t-32 190.5q0 105 21 216t61 214.5t99.5 186t136.5 131t171 48.5q59 0 104.5 -22.5t77 -62t48.5 -91.5h8l54 155h150l-233 -1101h-148l19 175h-6q-40 -55 -86.5 -99.5t-100 -70t-117.5 -25.5zM396 137q70 0 129 54.5t103 142.5
t69 189q19 76 27.5 137.5t8.5 116.5q0 85 -39.5 135.5t-109.5 50.5q-57 0 -106.5 -39t-89 -104.5t-67.5 -147t-43 -169t-15 -168.5q0 -99 34.5 -148.5t98.5 -49.5zM678 1244q-99 0 -158.5 57.5t-59.5 157.5q0 97 61 154.5t157 57.5q98 0 159 -57.5t61 -152.5q0 -99 -61 -158
t-159 -59zM679 1346q50 0 81 30.5t31 81.5q0 50 -30.5 81t-81.5 31q-50 0 -80.5 -31t-30.5 -81q0 -51 28.5 -81.5t82.5 -30.5z" />
    <glyph glyph-name="ae" unicode="&#xe6;" horiz-adv-x="1493" 
d="M314 -20q-74 0 -128 40t-84 117t-30 188q0 118 22.5 233t65 216.5t101.5 179.5t133 123t160 45q55 0 96.5 -21t71.5 -59t48 -89h7l48 148h127l-27 -130q48 65 118.5 107.5t162.5 42.5q111 0 181 -64.5t70 -184.5q0 -88 -36.5 -160t-109.5 -124t-181 -79.5t-251 -27.5h-30
q-4 -27 -7 -55.5t-3 -55.5q0 -110 49 -174t159 -64q66 0 131 21t133 56l-11 -158q-68 -35 -137 -53t-150 -18q-97 0 -163.5 39t-96.5 115l-28 -134h-128l24 172h-5q-42 -58 -87.5 -101t-98 -67t-116.5 -24zM384 136q50 0 94.5 30t82 83t66.5 121.5t48 145.5q18 77 26.5 141
t8.5 120q0 86 -33.5 136t-96.5 50q-54 0 -102 -37t-87.5 -100.5t-68 -144.5t-44 -170.5t-15.5 -176.5q0 -100 32 -149t89 -49zM874 623h20q122 0 208.5 28t131.5 81.5t45 127.5q0 55 -29.5 83.5t-81.5 28.5q-64 0 -121 -44.5t-101 -123t-72 -181.5z" />
    <glyph glyph-name="ccedilla" unicode="&#xe7;" horiz-adv-x="803" 
d="M412 -20q-104 0 -180 41.5t-117 124.5t-41 207q0 108 21.5 217.5t64 208t106.5 176t148.5 122.5t190.5 45q67 0 127 -14t110 -41l-64 -151q-35 20 -79.5 33.5t-92.5 13.5q-82 0 -145.5 -54t-107.5 -143t-66.5 -193.5t-22.5 -205.5q0 -75 21 -126.5t62 -77.5t99 -26
q56 0 110 18.5t109 47.5v-159q-50 -28 -114 -46t-139 -18zM225 -492q-35 0 -65.5 4.5t-55.5 10.5v113q19 -5 45.5 -9t55.5 -4q47 0 79.5 13t49.5 38t17 60q0 43 -35.5 66.5t-104.5 30.5l102 169h114l-62 -104q59 -14 98.5 -52.5t39.5 -107.5q0 -70 -34 -121t-96 -79
t-148 -28z" />
    <glyph glyph-name="egrave" unicode="&#xe8;" horiz-adv-x="922" 
d="M424 -20q-109 0 -187.5 44.5t-121 129t-42.5 204.5q0 148 37 285t106.5 245t166.5 170.5t217 62.5q132 0 204.5 -65.5t72.5 -183.5q0 -87 -37 -159t-110 -124t-181 -80t-252 -28h-27q-5 -27 -7.5 -55.5t-2.5 -56.5q0 -117 51 -177t152 -60q69 0 128.5 18.5t131.5 55.5
v-153q-67 -36 -138.5 -54.5t-160.5 -18.5zM295 623h18q123 0 209 28t131.5 81.5t45.5 128.5q0 51 -29 81t-88 30t-115 -43.5t-101 -121.5t-71 -184zM605 1241q-33 38 -73.5 93.5t-75.5 113.5t-53 101v19h203q14 -48 32 -99.5t40 -102.5t46 -102l-1 -23h-118z" />
    <glyph glyph-name="eacute" unicode="&#xe9;" horiz-adv-x="922" 
d="M424 -20q-109 0 -187.5 44.5t-121 129t-42.5 204.5q0 148 37 285t106.5 245t166.5 170.5t217 62.5q132 0 204.5 -65.5t72.5 -183.5q0 -87 -37 -159t-110 -124t-181 -80t-252 -28h-27q-5 -27 -7.5 -55.5t-2.5 -56.5q0 -117 51 -177t152 -60q69 0 128.5 18.5t131.5 55.5
v-153q-67 -36 -138.5 -54.5t-160.5 -18.5zM295 623h18q123 0 209 28t131.5 81.5t45.5 128.5q0 51 -29 81t-88 30t-115 -43.5t-101 -121.5t-71 -184zM490 1240l1 22q41 47 82.5 100t79.5 106.5t66 99.5h214l-1 -18q-21 -29 -60.5 -70.5t-86.5 -87t-92.5 -86t-79.5 -66.5h-123
z" />
    <glyph glyph-name="ecircumflex" unicode="&#xea;" horiz-adv-x="922" 
d="M424 -20q-109 0 -187.5 44.5t-121 129t-42.5 204.5q0 148 37 285t106.5 245t166.5 170.5t217 62.5q132 0 204.5 -65.5t72.5 -183.5q0 -87 -37 -159t-110 -124t-181 -80t-252 -28h-27q-5 -27 -7.5 -55.5t-2.5 -56.5q0 -117 51 -177t152 -60q69 0 128.5 18.5t131.5 55.5
v-153q-67 -36 -138.5 -54.5t-160.5 -18.5zM295 623h18q123 0 209 28t131.5 81.5t45.5 128.5q0 51 -29 81t-88 30t-115 -43.5t-101 -121.5t-71 -184zM315 1241l3 23q42 42 91.5 95t96 108t77.5 102h179q14 -45 39 -101t53 -110.5t50 -93.5l-3 -23h-112q-21 24 -44.5 54
t-47 64t-45.5 70q-57 -55 -112 -103t-104 -85h-121z" />
    <glyph glyph-name="edieresis" unicode="&#xeb;" horiz-adv-x="922" 
d="M424 -20q-109 0 -187.5 44.5t-121 129t-42.5 204.5q0 148 37 285t106.5 245t166.5 170.5t217 62.5q132 0 204.5 -65.5t72.5 -183.5q0 -87 -37 -159t-110 -124t-181 -80t-252 -28h-27q-5 -27 -7.5 -55.5t-2.5 -56.5q0 -117 51 -177t152 -60q69 0 128.5 18.5t131.5 55.5
v-153q-67 -36 -138.5 -54.5t-160.5 -18.5zM295 623h18q123 0 209 28t131.5 81.5t45.5 128.5q0 51 -29 81t-88 30t-115 -43.5t-101 -121.5t-71 -184zM802 1290q-39 0 -61.5 21t-22.5 62q0 53 30 92t85 39q38 0 59 -20t21 -59q0 -60 -31.5 -97.5t-79.5 -37.5zM460 1290
q-38 0 -61 21t-23 62q0 53 29.5 92t85.5 39q25 0 42.5 -9t27 -26.5t9.5 -43.5q0 -60 -31 -97.5t-79 -37.5z" />
    <glyph glyph-name="igrave" unicode="&#xec;" horiz-adv-x="471" 
d="M25 0l234 1101h185l-234 -1101h-185zM370 1246q-33 38 -73.5 93.5t-75.5 113.5t-53 101v19h203q14 -48 32 -99.5t40 -102.5t46 -102l-1 -23h-118z" />
    <glyph glyph-name="iacute" unicode="&#xed;" horiz-adv-x="471" 
d="M25 0l234 1101h185l-234 -1101h-185zM258 1245l1 22q41 47 82.5 100t79.5 106.5t66 99.5h214l-1 -18q-21 -29 -60.5 -70.5t-86.5 -87t-92.5 -86t-79.5 -66.5h-123z" />
    <glyph glyph-name="icircumflex" unicode="&#xee;" horiz-adv-x="471" 
d="M25 0l234 1101h185l-234 -1101h-185zM71 1241l3 23q42 42 91.5 95t96 108t77.5 102h179q14 -45 39 -101t53 -110.5t50 -93.5l-3 -23h-112q-21 24 -44.5 54t-47 64t-45.5 70q-57 -55 -112 -103t-104 -85h-121z" />
    <glyph glyph-name="idieresis" unicode="&#xef;" horiz-adv-x="471" 
d="M25 0l234 1101h185l-234 -1101h-185zM557 1290q-39 0 -61.5 21t-22.5 62q0 53 30 92t85 39q38 0 59 -20t21 -59q0 -60 -31.5 -97.5t-79.5 -37.5zM215 1290q-38 0 -61 21t-23 62q0 53 29.5 92t85.5 39q25 0 42.5 -9t27 -26.5t9.5 -43.5q0 -60 -31 -97.5t-79 -37.5z" />
    <glyph glyph-name="eth" unicode="&#xf0;" horiz-adv-x="1004" 
d="M394 -20q-106 0 -182.5 42.5t-117.5 124t-41 200.5q0 108 31 218.5t92 203t149.5 149t204.5 56.5q94 0 146.5 -46.5t76.5 -110.5l5 1q0 124 -26.5 231.5t-98.5 198.5l-226 -132l-60 100l212 125q-25 27 -60.5 56t-78.5 57l93 115q50 -29 97 -64.5t90 -78.5l223 132
l63 -100l-209 -123q48 -67 81.5 -144.5t50.5 -166.5t17 -192q0 -111 -17 -230t-54.5 -230t-99 -199.5t-151.5 -140.5t-210 -52zM407 134q61 0 109.5 30.5t84.5 81t60.5 112.5t36 127t11.5 122q0 44 -9.5 82.5t-30 68t-52.5 46t-78 16.5q-73 0 -129 -43t-93 -113t-56 -153
t-19 -163q0 -102 41 -158t124 -56z" />
    <glyph glyph-name="ntilde" unicode="&#xf1;" horiz-adv-x="1024" 
d="M22 0l234 1103h154l-22 -178h5q35 55 80 100t102 72t125 27q73 0 127.5 -28t85 -83.5t30.5 -137.5q0 -43 -8 -93.5t-18 -98.5l-146 -683h-190l144 679q10 46 17 88t7 75q0 57 -28.5 86.5t-84.5 29.5q-65 0 -124.5 -48t-107.5 -142.5t-78 -233.5l-113 -534h-191zM334 1246
q18 85 48 144t73.5 90t102.5 31q45 0 80 -17.5t64.5 -40.5t56 -40.5t53.5 -17.5q37 0 59.5 26t42.5 92h114q-20 -93 -52 -151.5t-75 -86.5t-96 -28q-42 0 -76 18t-63.5 41t-57.5 41t-58 18q-37 0 -61 -29.5t-41 -89.5h-114z" />
    <glyph glyph-name="ograve" unicode="&#xf2;" horiz-adv-x="1004" 
d="M414 -18q-106 0 -182 45t-117 130t-41 204q0 96 19.5 200.5t59.5 204t102 179.5t146 127.5t192 47.5q106 0 182 -46t116.5 -132t40.5 -207q0 -102 -20 -208.5t-61 -204t-103 -174.5t-145.5 -121.5t-188.5 -44.5zM430 138q57 0 105 35t86.5 95.5t65.5 138t41.5 164.5
t14.5 173q0 62 -16.5 111.5t-52.5 78.5t-94 29q-62 0 -112.5 -38.5t-89 -102.5t-64.5 -143.5t-39.5 -162.5t-13.5 -158q0 -106 43.5 -163t125.5 -57zM620 1241q-33 38 -73.5 93.5t-75.5 113.5t-53 101v19h203q14 -48 32 -99.5t40 -102.5t46 -102l-1 -23h-118z" />
    <glyph glyph-name="oacute" unicode="&#xf3;" horiz-adv-x="1004" 
d="M414 -18q-106 0 -182 45t-117 130t-41 204q0 96 19.5 200.5t59.5 204t102 179.5t146 127.5t192 47.5q106 0 182 -46t116.5 -132t40.5 -207q0 -102 -20 -208.5t-61 -204t-103 -174.5t-145.5 -121.5t-188.5 -44.5zM430 138q57 0 105 35t86.5 95.5t65.5 138t41.5 164.5
t14.5 173q0 62 -16.5 111.5t-52.5 78.5t-94 29q-62 0 -112.5 -38.5t-89 -102.5t-64.5 -143.5t-39.5 -162.5t-13.5 -158q0 -106 43.5 -163t125.5 -57zM511 1240l1 22q41 47 82.5 100t79.5 106.5t66 99.5h214l-1 -18q-21 -29 -60.5 -70.5t-86.5 -87t-92.5 -86t-79.5 -66.5
h-123z" />
    <glyph glyph-name="ocircumflex" unicode="&#xf4;" horiz-adv-x="1004" 
d="M414 -18q-106 0 -182 45t-117 130t-41 204q0 96 19.5 200.5t59.5 204t102 179.5t146 127.5t192 47.5q106 0 182 -46t116.5 -132t40.5 -207q0 -102 -20 -208.5t-61 -204t-103 -174.5t-145.5 -121.5t-188.5 -44.5zM430 138q57 0 105 35t86.5 95.5t65.5 138t41.5 164.5
t14.5 173q0 62 -16.5 111.5t-52.5 78.5t-94 29q-62 0 -112.5 -38.5t-89 -102.5t-64.5 -143.5t-39.5 -162.5t-13.5 -158q0 -106 43.5 -163t125.5 -57zM320 1241l3 23q42 42 91.5 95t96 108t77.5 102h179q14 -45 39 -101t53 -110.5t50 -93.5l-3 -23h-112q-21 24 -44.5 54
t-47 64t-45.5 70q-57 -55 -112 -103t-104 -85h-121z" />
    <glyph glyph-name="otilde" unicode="&#xf5;" horiz-adv-x="1004" 
d="M414 -18q-106 0 -182 45t-117 130t-41 204q0 96 19.5 200.5t59.5 204t102 179.5t146 127.5t192 47.5q106 0 182 -46t116.5 -132t40.5 -207q0 -102 -20 -208.5t-61 -204t-103 -174.5t-145.5 -121.5t-188.5 -44.5zM430 138q57 0 105 35t86.5 95.5t65.5 138t41.5 164.5
t14.5 173q0 62 -16.5 111.5t-52.5 78.5t-94 29q-62 0 -112.5 -38.5t-89 -102.5t-64.5 -143.5t-39.5 -162.5t-13.5 -158q0 -106 43.5 -163t125.5 -57zM300 1244q18 85 48 144t73.5 90t102.5 31q45 0 80 -17.5t64.5 -40.5t56 -40.5t53.5 -17.5q37 0 59.5 26t42.5 92h114
q-20 -93 -52 -151.5t-75 -86.5t-96 -28q-42 0 -76 18t-63.5 41t-57.5 41t-58 18q-37 0 -61 -29.5t-41 -89.5h-114z" />
    <glyph glyph-name="odieresis" unicode="&#xf6;" horiz-adv-x="1004" 
d="M414 -18q-106 0 -182 45t-117 130t-41 204q0 96 19.5 200.5t59.5 204t102 179.5t146 127.5t192 47.5q106 0 182 -46t116.5 -132t40.5 -207q0 -102 -20 -208.5t-61 -204t-103 -174.5t-145.5 -121.5t-188.5 -44.5zM430 138q57 0 105 35t86.5 95.5t65.5 138t41.5 164.5
t14.5 173q0 62 -16.5 111.5t-52.5 78.5t-94 29q-62 0 -112.5 -38.5t-89 -102.5t-64.5 -143.5t-39.5 -162.5t-13.5 -158q0 -106 43.5 -163t125.5 -57zM805 1290q-39 0 -61.5 21t-22.5 62q0 53 30 92t85 39q38 0 59 -20t21 -59q0 -60 -31.5 -97.5t-79.5 -37.5zM463 1290
q-38 0 -61 21t-23 62q0 53 29.5 92t85.5 39q25 0 42.5 -9t27 -26.5t9.5 -43.5q0 -60 -31 -97.5t-79 -37.5z" />
    <glyph glyph-name="divide" unicode="&#xf7;" horiz-adv-x="1034" 
d="M108 645v155h870v-155h-870zM545 233q-51 0 -82 31.5t-31 96.5q0 67 30.5 97.5t82.5 30.5q49 0 79 -30.5t30 -97.5q0 -65 -31 -96.5t-78 -31.5zM545 955q-51 0 -82 31.5t-31 96.5q0 66 30.5 96.5t82.5 30.5q49 0 79 -30.5t30 -96.5q0 -65 -31 -96.5t-78 -31.5z" />
    <glyph glyph-name="oslash" unicode="&#xf8;" horiz-adv-x="1005" 
d="M113 -103l-100 70l117 163q-27 46 -41.5 103.5t-14.5 127.5q0 94 19.5 198t59 203.5t101 180.5t146.5 129t193 48q63 0 114 -16.5t91 -48.5l92 130l101 -70l-110 -149q25 -45 37.5 -103t12.5 -122q0 -96 -19.5 -201t-59 -204t-101 -179t-145.5 -127.5t-191 -47.5
q-59 0 -109.5 14.5t-90.5 43.5zM430 133q56 0 103.5 32t86 87.5t66 127t43.5 153t18 162.5q2 23 0 45t-6 37l-428 -596q20 -24 50.5 -36t66.5 -12zM265 310l434 604q-18 25 -47.5 39t-70.5 14q-60 0 -109.5 -34t-88 -92.5t-66 -132t-43 -153.5t-17.5 -157q0 -26 2 -49t6 -39
z" />
    <glyph glyph-name="ugrave" unicode="&#xf9;" horiz-adv-x="1026" 
d="M320 -20q-76 0 -129.5 29t-81.5 85t-28 136q0 40 7 88t16 95l147 688h187l-147 -688q-9 -43 -14.5 -81.5t-5.5 -70.5q0 -58 27 -89.5t86 -31.5q66 0 126.5 48.5t109 144t77.5 235.5l114 533h184l-233 -1101h-149l19 175h-7q-35 -53 -80.5 -97t-101.5 -71t-123 -27z
M644 1241q-33 38 -73.5 93.5t-75.5 113.5t-53 101v19h203q14 -48 32 -99.5t40 -102.5t46 -102l-1 -23h-118z" />
    <glyph glyph-name="uacute" unicode="&#xfa;" horiz-adv-x="1026" 
d="M320 -20q-76 0 -129.5 29t-81.5 85t-28 136q0 40 7 88t16 95l147 688h187l-147 -688q-9 -43 -14.5 -81.5t-5.5 -70.5q0 -58 27 -89.5t86 -31.5q66 0 126.5 48.5t109 144t77.5 235.5l114 533h184l-233 -1101h-149l19 175h-7q-35 -53 -80.5 -97t-101.5 -71t-123 -27z
M537 1240l1 22q41 47 82.5 100t79.5 106.5t66 99.5h214l-1 -18q-21 -29 -60.5 -70.5t-86.5 -87t-92.5 -86t-79.5 -66.5h-123z" />
    <glyph glyph-name="ucircumflex" unicode="&#xfb;" horiz-adv-x="1026" 
d="M320 -20q-76 0 -129.5 29t-81.5 85t-28 136q0 40 7 88t16 95l147 688h187l-147 -688q-9 -43 -14.5 -81.5t-5.5 -70.5q0 -58 27 -89.5t86 -31.5q66 0 126.5 48.5t109 144t77.5 235.5l114 533h184l-233 -1101h-149l19 175h-7q-35 -53 -80.5 -97t-101.5 -71t-123 -27z
M347 1241l3 23q42 42 91.5 95t96 108t77.5 102h179q14 -45 39 -101t53 -110.5t50 -93.5l-3 -23h-112q-21 24 -44.5 54t-47 64t-45.5 70q-57 -55 -112 -103t-104 -85h-121z" />
    <glyph glyph-name="udieresis" unicode="&#xfc;" horiz-adv-x="1026" 
d="M320 -20q-76 0 -129.5 29t-81.5 85t-28 136q0 40 7 88t16 95l147 688h187l-147 -688q-9 -43 -14.5 -81.5t-5.5 -70.5q0 -58 27 -89.5t86 -31.5q66 0 126.5 48.5t109 144t77.5 235.5l114 533h184l-233 -1101h-149l19 175h-7q-35 -53 -80.5 -97t-101.5 -71t-123 -27z
M826 1290q-39 0 -61.5 21t-22.5 62q0 53 30 92t85 39q38 0 59 -20t21 -59q0 -60 -31.5 -97.5t-79.5 -37.5zM484 1290q-38 0 -61 21t-23 62q0 53 29.5 92t85.5 39q25 0 42.5 -9t27 -26.5t9.5 -43.5q0 -60 -31 -97.5t-79 -37.5z" />
    <glyph glyph-name="yacute" unicode="&#xfd;" horiz-adv-x="847" 
d="M-58 -493q-43 0 -72.5 6t-54.5 14l12 158q24 -7 50 -12t56 -5q71 0 119 48t92 136l72 148l-99 1101h185l37 -577q4 -49 6.5 -103.5t3 -106.5t-1.5 -92h7q13 37 32 85t40.5 97.5t39.5 87.5l288 609h197l-638 -1294q-47 -96 -99.5 -163t-117.5 -102t-154 -35zM430 1240
l1 22q41 47 82.5 100t79.5 106.5t66 99.5h214l-1 -18q-21 -29 -60.5 -70.5t-86.5 -87t-92.5 -86t-79.5 -66.5h-123z" />
    <glyph glyph-name="thorn" unicode="&#xfe;" horiz-adv-x="1029" 
d="M-75 -484l431 2040h184l-93 -434q-11 -52 -23.5 -100.5t-24.5 -86.5h7q39 54 84 96t97 66t112 24q120 0 189.5 -87t69.5 -260q0 -104 -20 -214.5t-59 -214t-97.5 -186t-135.5 -131t-172 -48.5q-61 0 -107 22.5t-78 61.5t-50 88h-7q-4 -44 -12 -95t-16 -91l-96 -450h-183z
M449 137q61 0 111 41t89 108.5t65.5 150.5t40 168.5t13.5 161.5q0 100 -34.5 149t-102.5 49q-67 0 -126.5 -54t-105 -143t-71.5 -192q-16 -66 -24.5 -131.5t-8.5 -117.5q0 -89 38 -139.5t116 -50.5z" />
    <glyph glyph-name="ydieresis" unicode="&#xff;" horiz-adv-x="847" 
d="M-58 -493q-43 0 -72.5 6t-54.5 14l12 158q24 -7 50 -12t56 -5q71 0 119 48t92 136l72 148l-99 1101h185l37 -577q4 -49 6.5 -103.5t3 -106.5t-1.5 -92h7q13 37 32 85t40.5 97.5t39.5 87.5l288 609h197l-638 -1294q-47 -96 -99.5 -163t-117.5 -102t-154 -35zM718 1290
q-39 0 -61.5 21t-22.5 62q0 53 30 92t85 39q38 0 59 -20t21 -59q0 -60 -31.5 -97.5t-79.5 -37.5zM376 1290q-38 0 -61 21t-23 62q0 53 29.5 92t85.5 39q25 0 42.5 -9t27 -26.5t9.5 -43.5q0 -60 -31 -97.5t-79 -37.5z" />
    <glyph glyph-name="Amacron" unicode="&#x100;" horiz-adv-x="1015" 
d="M-125 0l704 1465h226l91 -1465h-192l-24 444h-392l-206 -444h-207zM364 613h312l-13 427q-3 60 -5.5 123t-1.5 116h-6q-19 -53 -43.5 -113t-55.5 -125zM444 1615l30 143h531l-31 -143h-530z" />
    <glyph glyph-name="amacron" unicode="&#x101;" horiz-adv-x="1024" 
d="M331 -20q-78 0 -136.5 39t-90.5 116.5t-32 190.5q0 105 21 216t61 214.5t99.5 186t136.5 131t171 48.5q59 0 104.5 -22.5t77 -62t48.5 -91.5h8l54 155h150l-233 -1101h-148l19 175h-6q-40 -55 -86.5 -99.5t-100 -70t-117.5 -25.5zM396 137q70 0 129 54.5t103 142.5
t69 189q19 76 27.5 137.5t8.5 116.5q0 85 -39.5 135.5t-109.5 50.5q-57 0 -106.5 -39t-89 -104.5t-67.5 -147t-43 -169t-15 -168.5q0 -99 34.5 -148.5t98.5 -49.5zM385 1247l30 143h531l-31 -143h-530z" />
    <glyph glyph-name="Abreve" unicode="&#x102;" horiz-adv-x="1015" 
d="M-125 0l704 1465h226l91 -1465h-192l-24 444h-392l-206 -444h-207zM364 613h312l-13 427q-3 60 -5.5 123t-1.5 116h-6q-19 -53 -43.5 -113t-55.5 -125zM715 1611q-79 0 -132.5 27.5t-80 77.5t-26.5 116q0 17 1 32.5t4 30.5h114q0 -46 12.5 -77t42 -46.5t77.5 -15.5
q75 0 117 33.5t60 105.5h120q-28 -142 -105 -213t-204 -71z" />
    <glyph glyph-name="abreve" unicode="&#x103;" horiz-adv-x="1024" 
d="M331 -20q-78 0 -136.5 39t-90.5 116.5t-32 190.5q0 105 21 216t61 214.5t99.5 186t136.5 131t171 48.5q59 0 104.5 -22.5t77 -62t48.5 -91.5h8l54 155h150l-233 -1101h-148l19 175h-6q-40 -55 -86.5 -99.5t-100 -70t-117.5 -25.5zM396 137q70 0 129 54.5t103 142.5
t69 189q19 76 27.5 137.5t8.5 116.5q0 85 -39.5 135.5t-109.5 50.5q-57 0 -106.5 -39t-89 -104.5t-67.5 -147t-43 -169t-15 -168.5q0 -99 34.5 -148.5t98.5 -49.5zM657 1243q-79 0 -132.5 27.5t-80 77.5t-26.5 116q0 17 1 32.5t4 30.5h114q0 -46 12.5 -77t42 -46.5
t77.5 -15.5q75 0 117 33.5t60 105.5h120q-28 -142 -105 -213t-204 -71z" />
    <glyph glyph-name="Aogonek" unicode="&#x104;" horiz-adv-x="1015" 
d="M-125 0l704 1465h226l91 -1465h-192l-24 444h-392l-206 -444h-207zM364 613h312l-13 427q-3 60 -5.5 123t-1.5 116h-6q-19 -53 -43.5 -113t-55.5 -125zM684 -459q-80 0 -126 42.5t-46 116.5q0 62 25.5 113t73 97t113.5 91l124 -1q-51 -44 -92 -86.5t-65 -86t-24 -91.5
q0 -33 17.5 -50t48.5 -17q20 0 41 3.5t42 7.5l-13 -121q-27 -9 -57 -13.5t-62 -4.5z" />
    <glyph glyph-name="aogonek" unicode="&#x105;" horiz-adv-x="1024" 
d="M331 -20q-78 0 -136.5 39t-90.5 116.5t-32 190.5q0 105 21 216t61 214.5t99.5 186t136.5 131t171 48.5q59 0 104.5 -22.5t77 -62t48.5 -91.5h8l54 155h150l-233 -1101h-148l19 175h-6q-40 -55 -86.5 -99.5t-100 -70t-117.5 -25.5zM396 137q70 0 129 54.5t103 142.5
t69 189q19 76 27.5 137.5t8.5 116.5q0 85 -39.5 135.5t-109.5 50.5q-57 0 -106.5 -39t-89 -104.5t-67.5 -147t-43 -169t-15 -168.5q0 -99 34.5 -148.5t98.5 -49.5zM588 -459q-80 0 -126 42.5t-46 116.5q0 62 25.5 113t73 97t113.5 91l124 -1q-51 -44 -92 -86.5t-65 -86
t-24 -91.5q0 -33 17.5 -50t48.5 -17q20 0 41 3.5t42 7.5l-13 -121q-27 -9 -57 -13.5t-62 -4.5z" />
    <glyph glyph-name="Cacute" unicode="&#x106;" horiz-adv-x="1011" 
d="M535 -20q-138 0 -233 61t-144.5 176.5t-49.5 280.5q0 128 28.5 266t85 266t142 230.5t199.5 163t257 60.5q92 0 168 -20t141 -61l-85 -156q-48 32 -103 50t-121 18q-105 0 -187.5 -52.5t-143.5 -140t-101.5 -194.5t-60.5 -216.5t-20 -204.5q0 -178 68 -268.5t200 -90.5
q67 0 133 16t132 42v-169q-66 -26 -141 -41.5t-164 -15.5zM673 1605l1 22q41 47 82.5 100t79.5 106.5t66 99.5h214l-1 -18q-21 -29 -60.5 -70.5t-86.5 -87t-92.5 -86t-79.5 -66.5h-123z" />
    <glyph glyph-name="cacute" unicode="&#x107;" horiz-adv-x="803" 
d="M412 -20q-104 0 -180 41.5t-117 124.5t-41 207q0 108 21.5 217.5t64 208t106.5 176t148.5 122.5t190.5 45q67 0 127 -14t110 -41l-64 -151q-35 20 -79.5 33.5t-92.5 13.5q-82 0 -145.5 -54t-107.5 -143t-66.5 -193.5t-22.5 -205.5q0 -75 21 -126.5t62 -77.5t99 -26
q56 0 110 18.5t109 47.5v-159q-50 -28 -114 -46t-139 -18zM460 1245l1 22q41 47 82.5 100t79.5 106.5t66 99.5h214l-1 -18q-21 -29 -60.5 -70.5t-86.5 -87t-92.5 -86t-79.5 -66.5h-123z" />
    <glyph glyph-name="Ccircumflex" unicode="&#x108;" horiz-adv-x="1011" 
d="M535 -20q-138 0 -233 61t-144.5 176.5t-49.5 280.5q0 128 28.5 266t85 266t142 230.5t199.5 163t257 60.5q92 0 168 -20t141 -61l-85 -156q-48 32 -103 50t-121 18q-105 0 -187.5 -52.5t-143.5 -140t-101.5 -194.5t-60.5 -216.5t-20 -204.5q0 -178 68 -268.5t200 -90.5
q67 0 133 16t132 42v-169q-66 -26 -141 -41.5t-164 -15.5zM514 1591l3 23q42 42 91.5 95t96 108t77.5 102h179q14 -45 39 -101t53 -110.5t50 -93.5l-3 -23h-112q-21 24 -44.5 54t-47 64t-45.5 70q-57 -55 -112 -103t-104 -85h-121z" />
    <glyph glyph-name="ccircumflex" unicode="&#x109;" horiz-adv-x="803" 
d="M412 -20q-104 0 -180 41.5t-117 124.5t-41 207q0 108 21.5 217.5t64 208t106.5 176t148.5 122.5t190.5 45q67 0 127 -14t110 -41l-64 -151q-35 20 -79.5 33.5t-92.5 13.5q-82 0 -145.5 -54t-107.5 -143t-66.5 -193.5t-22.5 -205.5q0 -75 21 -126.5t62 -77.5t99 -26
q56 0 110 18.5t109 47.5v-159q-50 -28 -114 -46t-139 -18zM291 1241l3 23q42 42 91.5 95t96 108t77.5 102h179q14 -45 39 -101t53 -110.5t50 -93.5l-3 -23h-112q-21 24 -44.5 54t-47 64t-45.5 70q-57 -55 -112 -103t-104 -85h-121z" />
    <glyph glyph-name="Cdot" unicode="&#x10a;" horiz-adv-x="1011" 
d="M535 -20q-138 0 -233 61t-144.5 176.5t-49.5 280.5q0 128 28.5 266t85 266t142 230.5t199.5 163t257 60.5q92 0 168 -20t141 -61l-85 -156q-48 32 -103 50t-121 18q-105 0 -187.5 -52.5t-143.5 -140t-101.5 -194.5t-60.5 -216.5t-20 -204.5q0 -178 68 -268.5t200 -90.5
q67 0 133 16t132 42v-169q-66 -26 -141 -41.5t-164 -15.5zM849 1633q-44 0 -70.5 24t-26.5 70q0 57 33.5 99.5t93.5 42.5q31 0 52 -10t32 -30.5t11 -50.5q0 -62 -34 -103.5t-91 -41.5z" />
    <glyph glyph-name="cdot" unicode="&#x10b;" horiz-adv-x="803" 
d="M412 -20q-104 0 -180 41.5t-117 124.5t-41 207q0 108 21.5 217.5t64 208t106.5 176t148.5 122.5t190.5 45q67 0 127 -14t110 -41l-64 -151q-35 20 -79.5 33.5t-92.5 13.5q-82 0 -145.5 -54t-107.5 -143t-66.5 -193.5t-22.5 -205.5q0 -75 21 -126.5t62 -77.5t99 -26
q56 0 110 18.5t109 47.5v-159q-50 -28 -114 -46t-139 -18zM626 1280q-44 0 -70.5 24t-26.5 70q0 57 33.5 99.5t93.5 42.5q31 0 52 -10t32 -30.5t11 -50.5q0 -62 -34 -103.5t-91 -41.5z" />
    <glyph glyph-name="Ccaron" unicode="&#x10c;" horiz-adv-x="1011" 
d="M535 -20q-138 0 -233 61t-144.5 176.5t-49.5 280.5q0 128 28.5 266t85 266t142 230.5t199.5 163t257 60.5q92 0 168 -20t141 -61l-85 -156q-48 32 -103 50t-121 18q-105 0 -187.5 -52.5t-143.5 -140t-101.5 -194.5t-60.5 -216.5t-20 -204.5q0 -178 68 -268.5t200 -90.5
q67 0 133 16t132 42v-169q-66 -26 -141 -41.5t-164 -15.5zM738 1591q-14 44 -39 100.5t-52.5 111t-50.5 92.5l3 24h112q20 -22 42.5 -51t47 -64t46.5 -73q57 55 112.5 103.5t106.5 84.5h119l-2 -24q-35 -33 -87 -89t-102 -114t-77 -101h-179z" />
    <glyph glyph-name="ccaron" unicode="&#x10d;" horiz-adv-x="803" 
d="M412 -20q-104 0 -180 41.5t-117 124.5t-41 207q0 108 21.5 217.5t64 208t106.5 176t148.5 122.5t190.5 45q67 0 127 -14t110 -41l-64 -151q-35 20 -79.5 33.5t-92.5 13.5q-82 0 -145.5 -54t-107.5 -143t-66.5 -193.5t-22.5 -205.5q0 -75 21 -126.5t62 -77.5t99 -26
q56 0 110 18.5t109 47.5v-159q-50 -28 -114 -46t-139 -18zM512 1241q-14 44 -39 100.5t-52.5 111t-50.5 92.5l3 24h112q20 -22 42.5 -51t47 -64t46.5 -73q57 55 112.5 103.5t106.5 84.5h119l-2 -24q-35 -33 -87 -89t-102 -114t-77 -101h-179z" />
    <glyph glyph-name="Dcaron" unicode="&#x10e;" horiz-adv-x="1168" 
d="M39 0l309 1462h300q226 0 350.5 -126.5t124.5 -379.5q0 -143 -30 -282t-90 -260.5t-152 -214.5t-216 -146t-281 -53h-315zM264 168h108q113 0 201.5 45t154 123t109 178.5t65 212t21.5 222.5q0 182 -78.5 264.5t-218.5 82.5h-123zM666 1591q-14 44 -39 100.5t-52.5 111
t-50.5 92.5l3 24h112q20 -22 42.5 -51t47 -64t46.5 -73q57 55 112.5 103.5t106.5 84.5h119l-2 -24q-35 -33 -87 -89t-102 -114t-77 -101h-179z" />
    <glyph glyph-name="dcaron" unicode="&#x10f;" horiz-adv-x="1153" 
d="M329 -20q-78 0 -136 38.5t-90 116t-32 191.5q0 103 20.5 213.5t60 214t98 186.5t135.5 132t171 49q61 0 107 -22t77.5 -60t48.5 -87h8q5 36 11 74.5t13 77.5t15 76l79 376h185l-330 -1556h-149l18 173h-6q-41 -57 -87 -100.5t-99 -68t-118 -24.5zM397 136q50 0 94.5 30.5
t82 83t67.5 118.5t50.5 138t31.5 141.5t11 128.5q0 87 -37.5 137t-115.5 50q-59 0 -108.5 -40.5t-89 -108t-66.5 -150t-41 -168.5t-14 -163q0 -98 34 -147.5t101 -49.5zM1121 1229v22q24 45 48.5 99t45.5 108t34 98h180l-1 -20q-17 -40 -49.5 -95.5t-71.5 -112t-76 -99.5
h-110z" />
    <glyph glyph-name="Dcroat" unicode="&#x110;" horiz-adv-x="1169" 
d="M39 0l138 662h-125l35 159h124l137 641h300q226 0 350.5 -126.5t124.5 -379.5q0 -144 -30 -283t-90.5 -260.5t-152.5 -214.5t-215.5 -145.5t-280.5 -52.5h-315zM264 168h108q115 0 204.5 47t155 127.5t108 181.5t63 210.5t20.5 214.5q0 182 -78.5 264.5t-218.5 82.5h-123
l-101 -475h239l-34 -159h-240z" />
    <glyph glyph-name="dcroat" unicode="&#x111;" horiz-adv-x="1033" 
d="M332 -20q-79 0 -137.5 39.5t-90.5 117t-32 189.5q0 101 19.5 210t58.5 212t97 185.5t135 131.5t171 49q63 0 109 -21.5t78 -59t49 -85.5h8l8.5 59.5t10 64t11.5 62.5l21 105h-272l28 137h275l37 180h185l-37 -180h133l-28 -137h-135l-263 -1239h-149l18 173h-6
q-41 -56 -86.5 -99.5t-98.5 -68.5t-117 -25zM399 136q50 0 94 30t81.5 82t67 117t50.5 136.5t32 141t11 128.5q0 86 -37.5 135.5t-115.5 49.5q-60 0 -110 -40t-89 -106.5t-65.5 -148.5t-40.5 -167t-14 -161q0 -98 34.5 -147.5t101.5 -49.5z" />
    <glyph glyph-name="Emacron" unicode="&#x112;" horiz-adv-x="915" 
d="M38 0l310 1462h651l-35 -167h-461l-95 -448h431l-36 -167h-430l-110 -512h462l-36 -168h-651zM422 1595l30 143h531l-31 -143h-530z" />
    <glyph glyph-name="emacron" unicode="&#x113;" horiz-adv-x="922" 
d="M424 -20q-109 0 -187.5 44.5t-121 129t-42.5 204.5q0 148 37 285t106.5 245t166.5 170.5t217 62.5q132 0 204.5 -65.5t72.5 -183.5q0 -87 -37 -159t-110 -124t-181 -80t-252 -28h-27q-5 -27 -7.5 -55.5t-2.5 -56.5q0 -117 51 -177t152 -60q69 0 128.5 18.5t131.5 55.5
v-153q-67 -36 -138.5 -54.5t-160.5 -18.5zM295 623h18q123 0 209 28t131.5 81.5t45.5 128.5q0 51 -29 81t-88 30t-115 -43.5t-101 -121.5t-71 -184zM353 1245l30 143h531l-31 -143h-530z" />
    <glyph glyph-name="Ebreve" unicode="&#x114;" horiz-adv-x="915" 
d="M38 0l310 1462h651l-35 -167h-461l-95 -448h431l-36 -167h-430l-110 -512h462l-36 -168h-651zM693 1591q-79 0 -132.5 27.5t-80 77.5t-26.5 116q0 17 1 32.5t4 30.5h114q0 -46 12.5 -77t42 -46.5t77.5 -15.5q75 0 117 33.5t60 105.5h120q-28 -142 -105 -213t-204 -71z
" />
    <glyph glyph-name="ebreve" unicode="&#x115;" horiz-adv-x="922" 
d="M424 -20q-109 0 -187.5 44.5t-121 129t-42.5 204.5q0 148 37 285t106.5 245t166.5 170.5t217 62.5q132 0 204.5 -65.5t72.5 -183.5q0 -87 -37 -159t-110 -124t-181 -80t-252 -28h-27q-5 -27 -7.5 -55.5t-2.5 -56.5q0 -117 51 -177t152 -60q69 0 128.5 18.5t131.5 55.5
v-153q-67 -36 -138.5 -54.5t-160.5 -18.5zM295 623h18q123 0 209 28t131.5 81.5t45.5 128.5q0 51 -29 81t-88 30t-115 -43.5t-101 -121.5t-71 -184zM635 1241q-79 0 -132.5 27.5t-80 77.5t-26.5 116q0 17 1 32.5t4 30.5h114q0 -46 12.5 -77t42 -46.5t77.5 -15.5
q75 0 117 33.5t60 105.5h120q-28 -142 -105 -213t-204 -71z" />
    <glyph glyph-name="Edotaccent" unicode="&#x116;" horiz-adv-x="915" 
d="M38 0l310 1462h651l-35 -167h-461l-95 -448h431l-36 -167h-430l-110 -512h462l-36 -168h-651zM711 1615q-44 0 -70.5 24t-26.5 70q0 57 33.5 99.5t93.5 42.5q31 0 52 -10t32 -30.5t11 -50.5q0 -62 -34 -103.5t-91 -41.5z" />
    <glyph glyph-name="edotaccent" unicode="&#x117;" horiz-adv-x="922" 
d="M424 -20q-109 0 -187.5 44.5t-121 129t-42.5 204.5q0 148 37 285t106.5 245t166.5 170.5t217 62.5q132 0 204.5 -65.5t72.5 -183.5q0 -87 -37 -159t-110 -124t-181 -80t-252 -28h-27q-5 -27 -7.5 -55.5t-2.5 -56.5q0 -117 51 -177t152 -60q69 0 128.5 18.5t131.5 55.5
v-153q-67 -36 -138.5 -54.5t-160.5 -18.5zM295 623h18q123 0 209 28t131.5 81.5t45.5 128.5q0 51 -29 81t-88 30t-115 -43.5t-101 -121.5t-71 -184zM651 1280q-44 0 -70.5 24t-26.5 70q0 57 33.5 99.5t93.5 42.5q31 0 52 -10t32 -30.5t11 -50.5q0 -62 -34 -103.5t-91 -41.5z
" />
    <glyph glyph-name="Eogonek" unicode="&#x118;" horiz-adv-x="915" 
d="M38 0l310 1462h651l-35 -167h-461l-95 -448h431l-36 -167h-430l-110 -512h462l-36 -168h-651zM462 -459q-80 0 -126 42.5t-46 116.5q0 62 25.5 113t73 97t113.5 91l124 -1q-51 -44 -92 -86.5t-65 -86t-24 -91.5q0 -33 17.5 -50t48.5 -17q20 0 41 3.5t42 7.5l-13 -121
q-27 -9 -57 -13.5t-62 -4.5z" />
    <glyph glyph-name="eogonek" unicode="&#x119;" horiz-adv-x="922" 
d="M487 -444q-80 0 -125 43t-45 117q0 62 25 112.5t72 96.5t112 91l162 27q-64 -49 -112 -98.5t-75 -98t-28 -96.5q0 -33 17 -49.5t47 -16.5q20 0 40.5 3.5t41.5 7.5l-13 -121q-27 -10 -57 -14t-62 -4zM423 -20q-108 0 -187 44.5t-121 129t-42 204.5q0 148 37 285t106 245
t166 170.5t217 62.5q133 0 205 -65.5t72 -183.5q0 -87 -37 -159t-109.5 -124t-181 -80t-251.5 -28h-28q-4 -27 -7 -55.5t-3 -56.5q0 -117 51 -177t152 -60q69 0 128.5 18.5t131.5 55.5v-153q-67 -36 -138.5 -54.5t-160.5 -18.5zM294 623h18q123 0 209 28t131.5 81.5
t45.5 128.5q0 51 -29 81t-88 30t-115 -43.5t-101 -121.5t-71 -184z" />
    <glyph glyph-name="Ecaron" unicode="&#x11a;" horiz-adv-x="915" 
d="M38 0l310 1462h651l-35 -167h-461l-95 -448h431l-36 -167h-430l-110 -512h462l-36 -168h-651zM595 1591q-14 44 -39 100.5t-52.5 111t-50.5 92.5l3 24h112q20 -22 42.5 -51t47 -64t46.5 -73q57 55 112.5 103.5t106.5 84.5h119l-2 -24q-35 -33 -87 -89t-102 -114t-77 -101
h-179z" />
    <glyph glyph-name="ecaron" unicode="&#x11b;" horiz-adv-x="922" 
d="M424 -20q-109 0 -187.5 44.5t-121 129t-42.5 204.5q0 148 37 285t106.5 245t166.5 170.5t217 62.5q132 0 204.5 -65.5t72.5 -183.5q0 -87 -37 -159t-110 -124t-181 -80t-252 -28h-27q-5 -27 -7.5 -55.5t-2.5 -56.5q0 -117 51 -177t152 -60q69 0 128.5 18.5t131.5 55.5
v-153q-67 -36 -138.5 -54.5t-160.5 -18.5zM295 623h18q123 0 209 28t131.5 81.5t45.5 128.5q0 51 -29 81t-88 30t-115 -43.5t-101 -121.5t-71 -184zM528 1241q-14 44 -39 100.5t-52.5 111t-50.5 92.5l3 24h112q20 -22 42.5 -51t47 -64t46.5 -73q57 55 112.5 103.5
t106.5 84.5h119l-2 -24q-35 -33 -87 -89t-102 -114t-77 -101h-179z" />
    <glyph glyph-name="Gcircumflex" unicode="&#x11c;" horiz-adv-x="1206" 
d="M581 -20q-230 0 -351 132t-121 379q0 163 33.5 311t98 272.5t155.5 216.5t205.5 142.5t249.5 50.5q110 0 199.5 -24t164.5 -66l-81 -164q-67 40 -139 62.5t-154 22.5q-120 0 -218.5 -67.5t-169 -183t-108.5 -260.5t-38 -300q0 -114 32.5 -193.5t98 -121t165.5 -41.5
q57 0 107 8.5t92 22.5l93 434h-234l35 165h424l-156 -727q-89 -32 -183.5 -51.5t-199.5 -19.5zM560 1591l3 23q42 42 91.5 95t96 108t77.5 102h179q14 -45 39 -101t53 -110.5t50 -93.5l-3 -23h-112q-21 24 -44.5 54t-47 64t-45.5 70q-57 -55 -112 -103t-104 -85h-121z" />
    <glyph glyph-name="gcircumflex" unicode="&#x11d;" horiz-adv-x="944" 
d="M255 -492q-178 0 -275.5 69t-96.5 200q1 108 70.5 190t208.5 131q-35 18 -54 50.5t-19 74.5q0 61 43 112.5t127 98.5q-52 31 -82 91t-30 141q0 105 40 201t114 158q50 45 116 70t142 25q42 0 77 -6.5t64 -16.5h317l-24 -112l-169 -28q16 -26 23.5 -60.5t7.5 -74.5
q0 -91 -32 -176t-88 -145q-54 -56 -127 -87t-163 -31q-26 0 -45.5 0.5t-32.5 1.5q-59 -24 -88 -58.5t-29 -68.5q0 -31 23 -46q13 -10 35 -15t52 -8l140 -7q99 -7 160.5 -37.5t90 -84.5t28.5 -129q0 -112 -49 -197.5t-136 -139.5q-66 -41 -152.5 -63t-186.5 -23zM263 -354
q73 0 134.5 17t105.5 49q46 32 72.5 80t26.5 105q0 25 -7 45.5t-23 36.5q-20 19 -56.5 30t-91.5 15l-142 8q-64 -8 -115.5 -43t-81.5 -86.5t-30 -107.5q0 -78 53.5 -114t154.5 -35zM449 511q67 0 116.5 43.5t78.5 116.5t32 160q2 43 -6 75t-26 52q-15 16 -37 24t-51 8
q-51 0 -92 -27t-71.5 -72.5t-47.5 -101.5t-19 -115q-1 -35 5 -64t19 -49q30 -50 99 -50zM335 1244l3 23q42 42 91.5 95t96 108t77.5 102h179q14 -45 39 -101t53 -110.5t50 -93.5l-3 -23h-112q-21 24 -44.5 54t-47 64t-45.5 70q-57 -55 -112 -103t-104 -85h-121z" />
    <glyph glyph-name="Gbreve" unicode="&#x11e;" horiz-adv-x="1206" 
d="M581 -20q-230 0 -351 132t-121 379q0 163 33.5 311t98 272.5t155.5 216.5t205.5 142.5t249.5 50.5q110 0 199.5 -24t164.5 -66l-81 -164q-67 40 -139 62.5t-154 22.5q-120 0 -218.5 -67.5t-169 -183t-108.5 -260.5t-38 -300q0 -114 32.5 -193.5t98 -121t165.5 -41.5
q57 0 107 8.5t92 22.5l93 434h-234l35 165h424l-156 -727q-89 -32 -183.5 -51.5t-199.5 -19.5zM872 1591q-79 0 -132.5 27.5t-80 77.5t-26.5 116q0 17 1 32.5t4 30.5h114q0 -46 12.5 -77t42 -46.5t77.5 -15.5q75 0 117 33.5t60 105.5h120q-28 -142 -105 -213t-204 -71z" />
    <glyph glyph-name="gbreve" unicode="&#x11f;" horiz-adv-x="944" 
d="M255 -492q-178 0 -275.5 69t-96.5 200q1 108 70.5 190t208.5 131q-35 18 -54 50.5t-19 74.5q0 61 43 112.5t127 98.5q-52 31 -82 91t-30 141q0 105 40 201t114 158q50 45 116 70t142 25q42 0 77 -6.5t64 -16.5h317l-24 -112l-169 -28q16 -26 23.5 -60.5t7.5 -74.5
q0 -91 -32 -176t-88 -145q-54 -56 -127 -87t-163 -31q-26 0 -45.5 0.5t-32.5 1.5q-59 -24 -88 -58.5t-29 -68.5q0 -31 23 -46q13 -10 35 -15t52 -8l140 -7q99 -7 160.5 -37.5t90 -84.5t28.5 -129q0 -112 -49 -197.5t-136 -139.5q-66 -41 -152.5 -63t-186.5 -23zM263 -354
q73 0 134.5 17t105.5 49q46 32 72.5 80t26.5 105q0 25 -7 45.5t-23 36.5q-20 19 -56.5 30t-91.5 15l-142 8q-64 -8 -115.5 -43t-81.5 -86.5t-30 -107.5q0 -78 53.5 -114t154.5 -35zM449 511q67 0 116.5 43.5t78.5 116.5t32 160q2 43 -6 75t-26 52q-15 16 -37 24t-51 8
q-51 0 -92 -27t-71.5 -72.5t-47.5 -101.5t-19 -115q-1 -35 5 -64t19 -49q30 -50 99 -50zM590 1244q-79 0 -132.5 27.5t-80 77.5t-26.5 116q0 17 1 32.5t4 30.5h114q0 -46 12.5 -77t42 -46.5t77.5 -15.5q75 0 117 33.5t60 105.5h120q-28 -142 -105 -213t-204 -71z" />
    <glyph glyph-name="Gdot" unicode="&#x120;" horiz-adv-x="1206" 
d="M581 -20q-230 0 -351 132t-121 379q0 163 33.5 311t98 272.5t155.5 216.5t205.5 142.5t249.5 50.5q110 0 199.5 -24t164.5 -66l-81 -164q-67 40 -139 62.5t-154 22.5q-120 0 -218.5 -67.5t-169 -183t-108.5 -260.5t-38 -300q0 -114 32.5 -193.5t98 -121t165.5 -41.5
q57 0 107 8.5t92 22.5l93 434h-234l35 165h424l-156 -727q-89 -32 -183.5 -51.5t-199.5 -19.5zM893 1630q-44 0 -70.5 24t-26.5 70q0 57 33.5 99.5t93.5 42.5q31 0 52 -10t32 -30.5t11 -50.5q0 -62 -34 -103.5t-91 -41.5z" />
    <glyph glyph-name="gdot" unicode="&#x121;" horiz-adv-x="944" 
d="M255 -492q-178 0 -275.5 69t-96.5 200q1 108 70.5 190t208.5 131q-35 18 -54 50.5t-19 74.5q0 61 43 112.5t127 98.5q-52 31 -82 91t-30 141q0 105 40 201t114 158q50 45 116 70t142 25q42 0 77 -6.5t64 -16.5h317l-24 -112l-169 -28q16 -26 23.5 -60.5t7.5 -74.5
q0 -91 -32 -176t-88 -145q-54 -56 -127 -87t-163 -31q-26 0 -45.5 0.5t-32.5 1.5q-59 -24 -88 -58.5t-29 -68.5q0 -31 23 -46q13 -10 35 -15t52 -8l140 -7q99 -7 160.5 -37.5t90 -84.5t28.5 -129q0 -112 -49 -197.5t-136 -139.5q-66 -41 -152.5 -63t-186.5 -23zM263 -354
q73 0 134.5 17t105.5 49q46 32 72.5 80t26.5 105q0 25 -7 45.5t-23 36.5q-20 19 -56.5 30t-91.5 15l-142 8q-64 -8 -115.5 -43t-81.5 -86.5t-30 -107.5q0 -78 53.5 -114t154.5 -35zM449 511q67 0 116.5 43.5t78.5 116.5t32 160q2 43 -6 75t-26 52q-15 16 -37 24t-51 8
q-51 0 -92 -27t-71.5 -72.5t-47.5 -101.5t-19 -115q-1 -35 5 -64t19 -49q30 -50 99 -50zM614 1283q-44 0 -70.5 24t-26.5 70q0 57 33.5 99.5t93.5 42.5q31 0 52 -10t32 -30.5t11 -50.5q0 -62 -34 -103.5t-91 -41.5z" />
    <glyph glyph-name="uni0122" unicode="&#x122;" horiz-adv-x="1206" 
d="M581 -20q-230 0 -351 132t-121 379q0 163 33.5 311t98 272.5t155.5 216.5t205.5 142.5t249.5 50.5q110 0 199.5 -24t164.5 -66l-81 -164q-67 40 -139 62.5t-154 22.5q-120 0 -218.5 -67.5t-169 -183t-108.5 -260.5t-38 -300q0 -114 32.5 -193.5t98 -121t165.5 -41.5
q57 0 107 8.5t92 22.5l93 434h-234l35 165h424l-156 -727q-89 -32 -183.5 -51.5t-199.5 -19.5zM326 -453v27q22 36 49.5 89.5t52.5 110.5t40 101h177v-20q-16 -41 -51 -97.5t-77 -113t-82 -97.5h-109z" />
    <glyph glyph-name="uni0123" unicode="&#x123;" horiz-adv-x="944" 
d="M493 1241v21q18 41 52.5 97t76.5 112.5t82 97.5h108l1 -25q-21 -33 -49 -88.5t-53.5 -114t-39.5 -100.5h-178zM255 -492q-178 0 -275.5 69t-96.5 200q1 108 70.5 190t208.5 131q-35 18 -54 50.5t-19 74.5q0 61 43 112.5t127 98.5q-52 31 -82 91t-30 141q0 105 40 201
t114 158q50 45 116 70t142 25q42 0 77 -6.5t64 -16.5h317l-24 -112l-169 -28q16 -26 23.5 -60.5t7.5 -74.5q0 -91 -32 -176t-88 -145q-54 -56 -127 -87t-163 -31q-26 0 -45.5 0.5t-32.5 1.5q-59 -24 -88 -58.5t-29 -68.5q0 -31 23 -46q13 -10 35 -15t52 -8l140 -7
q99 -7 160.5 -37.5t90 -84.5t28.5 -129q0 -112 -49 -197.5t-136 -139.5q-66 -41 -152.5 -63t-186.5 -23zM263 -354q73 0 134.5 17t105.5 49q46 32 72.5 80t26.5 105q0 25 -7 45.5t-23 36.5q-20 19 -56.5 30t-91.5 15l-142 8q-64 -8 -115.5 -43t-81.5 -86.5t-30 -107.5
q0 -78 53.5 -114t154.5 -35zM449 511q67 0 116.5 43.5t78.5 116.5t32 160q2 43 -6 75t-26 52q-15 16 -37 24t-51 8q-51 0 -92 -27t-71.5 -72.5t-47.5 -101.5t-19 -115q-1 -35 5 -64t19 -49q30 -50 99 -50z" />
    <glyph glyph-name="Hcircumflex" unicode="&#x124;" horiz-adv-x="1203" 
d="M39 0l310 1462h190l-130 -613h503l130 613h189l-310 -1462h-190l144 679h-502l-144 -679h-190zM502 1591l3 23q42 42 91.5 95t96 108t77.5 102h179q14 -45 39 -101t53 -110.5t50 -93.5l-3 -23h-112q-21 24 -44.5 54t-47 64t-45.5 70q-57 -55 -112 -103t-104 -85h-121z
" />
    <glyph glyph-name="hcircumflex" unicode="&#x125;" horiz-adv-x="1024" 
d="M26 0l330 1556h185l-84 -385q-7 -37 -17.5 -78t-21.5 -81.5t-22 -77.5h7q34 52 78 94t99.5 67.5t123.5 25.5q74 0 127 -29t81 -85t28 -137q0 -41 -7.5 -91.5t-17.5 -99.5l-145 -679h-186l143 674q10 47 16.5 89t6.5 77q0 58 -28 89t-87 31q-63 0 -122.5 -45t-107.5 -137
t-78 -235l-116 -543h-185zM166 1698l3 23q42 42 91.5 95t96 108t77.5 102h179q14 -45 39 -101t53 -110.5t50 -93.5l-3 -23h-112q-21 24 -44.5 54t-47 64t-45.5 70q-57 -55 -112 -103t-104 -85h-121z" />
    <glyph glyph-name="Hbar" unicode="&#x126;" horiz-adv-x="1201" 
d="M38 0l228 1079h-158l30 145h159l51 238h190l-51 -238h502l52 238h191l-50 -238h154l-30 -145h-156l-228 -1079h-191l144 679h-503l-143 -679h-191zM407 845h502l50 234h-502z" />
    <glyph glyph-name="hbar" unicode="&#x127;" horiz-adv-x="1026" 
d="M26 0l263 1239h-139l31 137h136l39 180h185l-39 -180h267l-30 -137h-266q-18 -84 -33.5 -145.5t-27 -105.5t-20.5 -76h6q35 52 78.5 94.5t99 68t123.5 25.5q75 0 127.5 -29.5t80.5 -86t28 -137.5q0 -40 -7.5 -90t-18.5 -100l-139 -657h-186l139 651q10 48 17 89.5t7 76.5
q0 59 -29.5 90.5t-86.5 31.5q-64 0 -124 -46t-108 -138.5t-77 -233.5l-111 -521h-185z" />
    <glyph glyph-name="Itilde" unicode="&#x128;" horiz-adv-x="510" 
d="M38 0l311 1462h188l-310 -1462h-189zM164 1614q18 85 48 144t73.5 90t102.5 31q45 0 80 -17.5t64.5 -40.5t56 -40.5t53.5 -17.5q37 0 59.5 26t42.5 92h114q-20 -93 -52 -151.5t-75 -86.5t-96 -28q-42 0 -76 18t-63.5 41t-57.5 41t-58 18q-37 0 -61 -29.5t-41 -89.5h-114z
" />
    <glyph glyph-name="itilde" unicode="&#x129;" horiz-adv-x="471" 
d="M25 0l234 1101h185l-234 -1101h-185zM55 1244q18 85 48 144t73.5 90t102.5 31q45 0 80 -17.5t64.5 -40.5t56 -40.5t53.5 -17.5q37 0 59.5 26t42.5 92h114q-20 -93 -52 -151.5t-75 -86.5t-96 -28q-42 0 -76 18t-63.5 41t-57.5 41t-58 18q-37 0 -61 -29.5t-41 -89.5h-114z
" />
    <glyph glyph-name="Imacron" unicode="&#x12a;" horiz-adv-x="510" 
d="M38 0l311 1462h188l-310 -1462h-189zM209 1616l30 143h531l-31 -143h-530z" />
    <glyph glyph-name="imacron" unicode="&#x12b;" horiz-adv-x="471" 
d="M25 0l234 1101h185l-234 -1101h-185zM108 1245l30 143h531l-31 -143h-530z" />
    <glyph glyph-name="Ibreve" unicode="&#x12c;" horiz-adv-x="510" 
d="M38 0l311 1462h188l-310 -1462h-189zM477 1611q-79 0 -132.5 27.5t-80 77.5t-26.5 116q0 17 1 32.5t4 30.5h114q0 -46 12.5 -77t42 -46.5t77.5 -15.5q75 0 117 33.5t60 105.5h120q-28 -142 -105 -213t-204 -71z" />
    <glyph glyph-name="ibreve" unicode="&#x12d;" horiz-adv-x="471" 
d="M25 0l234 1101h185l-234 -1101h-185zM382 1241q-79 0 -132.5 27.5t-80 77.5t-26.5 116q0 17 1 32.5t4 30.5h114q0 -46 12.5 -77t42 -46.5t77.5 -15.5q75 0 117 33.5t60 105.5h120q-28 -142 -105 -213t-204 -71z" />
    <glyph glyph-name="Iogonek" unicode="&#x12e;" horiz-adv-x="510" 
d="M38 0l311 1462h188l-310 -1462h-189zM62 -459q-80 0 -126 42.5t-46 116.5q0 62 25.5 113t73 97t113.5 91l124 -1q-51 -44 -92 -86.5t-65 -86t-24 -91.5q0 -33 17.5 -50t48.5 -17q20 0 41 3.5t42 7.5l-13 -121q-27 -9 -57 -13.5t-62 -4.5z" />
    <glyph glyph-name="iogonek" unicode="&#x12f;" horiz-adv-x="471" 
d="M25 0l234 1101h185l-233 -1101h-186zM401 1280q-43 0 -69 23t-26 68q0 38 14 71t42.5 53.5t70.5 20.5q44 0 68.5 -21.5t24.5 -65.5q0 -64 -34.5 -106.5t-90.5 -42.5zM49 -459q-80 0 -126 42.5t-46 116.5q0 62 25.5 113t73 97t113.5 91l124 -1q-51 -44 -92 -86.5t-65 -86
t-24 -91.5q0 -33 17.5 -50t48.5 -17q20 0 41 3.5t42 7.5l-13 -121q-27 -9 -57 -13.5t-62 -4.5z" />
    <glyph glyph-name="Idotaccent" unicode="&#x130;" horiz-adv-x="510" 
d="M38 0l311 1462h188l-310 -1462h-189zM492 1650q-44 0 -70.5 24t-26.5 70q0 57 33.5 99.5t93.5 42.5q31 0 52 -10t32 -30.5t11 -50.5q0 -62 -34 -103.5t-91 -41.5z" />
    <glyph glyph-name="dotlessi" unicode="&#x131;" horiz-adv-x="471" 
d="M25 0l234 1101h185l-234 -1101h-185z" />
    <glyph glyph-name="IJ" unicode="&#x132;" horiz-adv-x="1013" 
d="M38 0l311 1462h188l-310 -1462h-189zM350 -397q-49 0 -87 6.5t-66 17.5l22 166q28 -10 59 -16t65 -6q57 0 98 28.5t70 84t46 135.5l305 1443h191l-311 -1470q-30 -138 -83 -224t-130 -125.5t-179 -39.5z" />
    <glyph glyph-name="ij" unicode="&#x133;" horiz-adv-x="942" 
d="M25 0l234 1101h185l-233 -1101h-186zM401 1280q-43 0 -69 23t-26 68q0 38 14 71t42.5 53.5t70.5 20.5q44 0 68.5 -21.5t24.5 -65.5q0 -64 -34.5 -106.5t-90.5 -42.5zM330 -492q-35 0 -66.5 5t-56.5 14v160q22 -9 48.5 -14t53.5 -5q44 0 74.5 22t52.5 71t38 129l256 1211
h185l-261 -1229q-23 -110 -60 -191.5t-100 -127t-164 -45.5zM872 1280q-43 0 -69 23t-26 68q0 38 14.5 71t43 53.5t70.5 20.5q44 0 68 -21.5t24 -65.5q0 -64 -35 -106.5t-90 -42.5z" />
    <glyph glyph-name="Jcircumflex" unicode="&#x134;" horiz-adv-x="504" 
d="M-160 -397q-49 0 -87 6.5t-66 17.5l22 166q28 -10 59 -16t65 -6q57 0 98 28.5t70 84t46 135.5l305 1443h191l-311 -1470q-30 -138 -83 -224t-130 -125.5t-179 -39.5zM158 1591l3 23q42 42 91.5 95t96 108t77.5 102h179q14 -45 39 -101t53 -110.5t50 -93.5l-3 -23h-112
q-21 24 -44.5 54t-47 64t-45.5 70q-57 -55 -112 -103t-104 -85h-121z" />
    <glyph glyph-name="jcircumflex" unicode="&#x135;" horiz-adv-x="471" 
d="M-140 -492q-35 0 -66.5 5t-56.5 14v160q22 -9 49 -14t53 -5q44 0 75 22t52.5 71t37.5 129l256 1211h185l-261 -1229q-23 -110 -60 -191.5t-99.5 -127t-164.5 -45.5zM70 1241l3 23q42 42 91.5 95t96 108t77.5 102h179q14 -45 39 -101t53 -110.5t50 -93.5l-3 -23h-112
q-21 24 -44.5 54t-47 64t-45.5 70q-57 -55 -112 -103t-104 -85h-121z" />
    <glyph glyph-name="uni0136" unicode="&#x136;" horiz-adv-x="1011" 
d="M38 0l310 1462h190l-152 -716l121 161l461 555h220l-547 -662l252 -800h-208l-201 673l-138 -115l-117 -558h-191zM199 -453v27q22 36 49.5 89.5t52.5 110.5t40 101h177v-20q-16 -41 -51 -97.5t-77 -113t-82 -97.5h-109z" />
    <glyph glyph-name="uni0137" unicode="&#x137;" horiz-adv-x="901" 
d="M24 0l331 1556h186l-148 -693q-13 -59 -25.5 -109.5t-24.5 -92.5t-21 -77h5l446 517h211l-408 -464l207 -637h-202l-156 503l-136 -124l-78 -379h-187zM149 -453v27q22 36 49.5 89.5t52.5 110.5t40 101h177v-20q-16 -41 -51 -97.5t-77 -113t-82 -97.5h-109z" />
    <glyph glyph-name="kgreenlandic" unicode="&#x138;" horiz-adv-x="901" 
d="M24 0l235 1101h186l-61 -277q-13 -59 -29.5 -121.5t-33.5 -119.5h5l447 518h211l-408 -464l207 -637h-202l-156 503l-136 -124l-78 -379h-187z" />
    <glyph glyph-name="Lacute" unicode="&#x139;" horiz-adv-x="851" 
d="M38 0l310 1462h190l-275 -1293h459l-35 -169h-649zM430 1605l1 22q41 47 82.5 100t79.5 106.5t66 99.5h214l-1 -18q-21 -29 -60.5 -70.5t-86.5 -87t-92.5 -86t-79.5 -66.5h-123z" />
    <glyph glyph-name="lacute" unicode="&#x13a;" horiz-adv-x="469" 
d="M24 0l332 1556h185l-331 -1556h-186zM356 1695l1 22q41 47 82.5 100t79.5 106.5t66 99.5h214l-1 -18q-21 -29 -60.5 -70.5t-86.5 -87t-92.5 -86t-79.5 -66.5h-123z" />
    <glyph glyph-name="uni013B" unicode="&#x13b;" horiz-adv-x="851" 
d="M38 0l310 1462h190l-275 -1293h459l-35 -169h-649zM129 -453v27q22 36 49.5 89.5t52.5 110.5t40 101h177v-20q-16 -41 -51 -97.5t-77 -113t-82 -97.5h-109z" />
    <glyph glyph-name="uni013C" unicode="&#x13c;" horiz-adv-x="469" 
d="M24 0l332 1556h185l-331 -1556h-186zM-103 -453v27q22 36 49.5 89.5t52.5 110.5t40 101h177v-20q-16 -41 -51 -97.5t-77 -113t-82 -97.5h-109z" />
    <glyph glyph-name="Lcaron" unicode="&#x13d;" horiz-adv-x="851" 
d="M38 0l310 1462h190l-275 -1293h459l-35 -169h-649zM648 1132v22q24 45 48.5 99t45.5 108t34 98h180l-1 -20q-17 -40 -49.5 -95.5t-71.5 -112t-76 -99.5h-110z" />
    <glyph glyph-name="lcaron" unicode="&#x13e;" horiz-adv-x="593" 
d="M24 0l332 1556h185l-331 -1556h-186zM560 1229v22q24 45 48.5 99t45.5 108t34 98h180l-1 -20q-17 -40 -49.5 -95.5t-71.5 -112t-76 -99.5h-110z" />
    <glyph glyph-name="Ldot" unicode="&#x13f;" horiz-adv-x="851" 
d="M38 0l310 1462h190l-275 -1293h459l-35 -169h-649zM679 627q-44 0 -70.5 24t-26.5 70q0 57 33.5 99.5t93.5 42.5q31 0 52 -10t32 -30.5t11 -50.5q0 -62 -34 -103.5t-91 -41.5z" />
    <glyph glyph-name="ldot" unicode="&#x140;" horiz-adv-x="638" 
d="M24 0l332 1556h185l-331 -1556h-186zM577 592q-44 0 -70.5 24t-26.5 70q0 57 33.5 99.5t93.5 42.5q31 0 52 -10t32 -30.5t11 -50.5q0 -62 -34 -103.5t-91 -41.5z" />
    <glyph glyph-name="Lslash" unicode="&#x141;" horiz-adv-x="857" 
d="M46 0l113 528l-107 -62l-69 123l215 129l158 744h190l-130 -610l203 119l71 -121l-314 -189l-104 -492h459l-35 -169h-650z" />
    <glyph glyph-name="lslash" unicode="&#x142;" horiz-adv-x="505" 
d="M37 0l130 608l-110 -63l-59 124l205 117l166 770h185l-141 -663l123 70l60 -123l-221 -124l-153 -716h-185z" />
    <glyph glyph-name="Nacute" unicode="&#x143;" horiz-adv-x="1267" 
d="M38 0l309 1462h215l312 -1162h5q10 59 21.5 125.5t24 131.5t23.5 117l168 788h180l-310 -1462h-211l-316 1177h-6q-6 -41 -14.5 -93.5t-18.5 -108.5t-20.5 -108.5t-19.5 -94.5l-163 -772h-179zM741 1605l1 22q41 47 82.5 100t79.5 106.5t66 99.5h214l-1 -18
q-21 -29 -60.5 -70.5t-86.5 -87t-92.5 -86t-79.5 -66.5h-123z" />
    <glyph glyph-name="nacute" unicode="&#x144;" horiz-adv-x="1024" 
d="M22 0l234 1103h154l-22 -178h5q35 55 80 100t102 72t125 27q73 0 127.5 -28t85 -83.5t30.5 -137.5q0 -43 -8 -93.5t-18 -98.5l-146 -683h-190l144 679q10 46 17 88t7 75q0 57 -28.5 86.5t-84.5 29.5q-65 0 -124.5 -48t-107.5 -142.5t-78 -233.5l-113 -534h-191zM540 1241
l1 22q41 47 82.5 100t79.5 106.5t66 99.5h214l-1 -18q-21 -29 -60.5 -70.5t-86.5 -87t-92.5 -86t-79.5 -66.5h-123z" />
    <glyph glyph-name="uni0145" unicode="&#x145;" horiz-adv-x="1267" 
d="M38 0l309 1462h215l312 -1162h5q10 59 21.5 125.5t24 131.5t23.5 117l168 788h180l-310 -1462h-211l-316 1177h-6q-6 -41 -14.5 -93.5t-18.5 -108.5t-20.5 -108.5t-19.5 -94.5l-163 -772h-179zM295 -453v27q22 36 49.5 89.5t52.5 110.5t40 101h177v-20q-16 -41 -51 -97.5
t-77 -113t-82 -97.5h-109z" />
    <glyph glyph-name="uni0146" unicode="&#x146;" horiz-adv-x="1024" 
d="M22 0l234 1103h154l-22 -178h5q35 55 80 100t102 72t125 27q73 0 127.5 -28t85 -83.5t30.5 -137.5q0 -43 -8 -93.5t-18 -98.5l-146 -683h-190l144 679q10 46 17 88t7 75q0 57 -28.5 86.5t-84.5 29.5q-65 0 -124.5 -48t-107.5 -142.5t-78 -233.5l-113 -534h-191zM179 -453
v27q22 36 49.5 89.5t52.5 110.5t40 101h177v-20q-16 -41 -51 -97.5t-77 -113t-82 -97.5h-109z" />
    <glyph glyph-name="Ncaron" unicode="&#x147;" horiz-adv-x="1267" 
d="M38 0l309 1462h215l312 -1162h5q10 59 21.5 125.5t24 131.5t23.5 117l168 788h180l-310 -1462h-211l-316 1177h-6q-6 -41 -14.5 -93.5t-18.5 -108.5t-20.5 -108.5t-19.5 -94.5l-163 -772h-179zM747 1591q-14 44 -39 100.5t-52.5 111t-50.5 92.5l3 24h112q20 -22 42.5 -51
t47 -64t46.5 -73q57 55 112.5 103.5t106.5 84.5h119l-2 -24q-35 -33 -87 -89t-102 -114t-77 -101h-179z" />
    <glyph glyph-name="ncaron" unicode="&#x148;" horiz-adv-x="1024" 
d="M22 0l234 1103h154l-22 -178h5q35 55 80 100t102 72t125 27q73 0 127.5 -28t85 -83.5t30.5 -137.5q0 -43 -8 -93.5t-18 -98.5l-146 -683h-190l144 679q10 46 17 88t7 75q0 57 -28.5 86.5t-84.5 29.5q-65 0 -124.5 -48t-107.5 -142.5t-78 -233.5l-113 -534h-191zM556 1241
q-14 44 -39 100.5t-52.5 111t-50.5 92.5l3 24h112q20 -22 42.5 -51t47 -64t46.5 -73q57 55 112.5 103.5t106.5 84.5h119l-2 -24q-35 -33 -87 -89t-102 -114t-77 -101h-179z" />
    <glyph glyph-name="napostrophe" unicode="&#x149;" horiz-adv-x="1164" 
d="M162 0l234 1103h154l-22 -178h5q35 55 80 100t102 72t125 27q73 0 127.5 -28t85 -83.5t30.5 -137.5q0 -43 -8 -93.5t-18 -98.5l-146 -683h-190l144 679q10 46 17 88t7 75q0 57 -28.5 86.5t-84.5 29.5q-65 0 -124.5 -48t-107.5 -142.5t-78 -233.5l-113 -534h-191zM52 959
q37 81 73 168t68 172.5t56 162.5h189l8 -22q-32 -78 -72 -160.5t-85.5 -164.5t-92.5 -156h-144z" />
    <glyph glyph-name="Eng" unicode="&#x14a;" horiz-adv-x="1267" 
d="M589 -396q-43 0 -81.5 7t-64.5 19l20 164q28 -10 59.5 -16.5t66.5 -6.5q55 0 96.5 24t70 74t43.5 126l-337 1193h-7q-5 -32 -11 -73t-14 -86.5t-16.5 -92t-18.5 -90.5l-178 -846h-179l309 1462h214l318 -1128h6q8 48 17.5 103.5t20 113t22.5 112.5l170 799h181
l-307 -1453q-29 -132 -79.5 -222.5t-129 -136.5t-191.5 -46z" />
    <glyph glyph-name="eng" unicode="&#x14b;" horiz-adv-x="1023" 
d="M417 -492q-37 0 -68 5.5t-55 13.5v160q23 -9 49.5 -14t52.5 -5q43 0 73.5 22t52.5 70.5t39 129.5l166 788q10 47 17 89t7 75q0 56 -28 87t-87 31q-66 0 -126 -48t-107.5 -141t-76.5 -229l-115 -542h-186l233 1101h149l-21 -178h7q35 54 80 99t102 72.5t125 27.5
q72 0 126 -27.5t84 -82t30 -137.5q0 -43 -7.5 -92.5t-17.5 -98.5l-173 -813q-26 -122 -65 -203t-101.5 -120.5t-158.5 -39.5z" />
    <glyph glyph-name="Omacron" unicode="&#x14c;" horiz-adv-x="1254" 
d="M541 -20q-143 0 -239.5 58.5t-145 170.5t-48.5 272q0 116 19 234.5t57 231t95 210t132 171t168 115t204 41.5q208 0 316.5 -128t108.5 -367q0 -108 -17.5 -224.5t-53 -229.5t-89.5 -213t-128 -177t-168 -121t-211 -44zM553 149q74 0 136.5 36.5t113 101t89.5 148
t65 177.5t39.5 191t13.5 188q0 158 -62.5 241.5t-179.5 83.5q-76 0 -140.5 -38t-115.5 -103.5t-89.5 -149.5t-64.5 -178t-39 -187.5t-13 -177.5q0 -111 29 -185t84 -111t134 -37zM562 1595l30 143h531l-31 -143h-530z" />
    <glyph glyph-name="omacron" unicode="&#x14d;" horiz-adv-x="1004" 
d="M414 -18q-106 0 -182 45t-117 130t-41 204q0 96 19.5 200.5t59.5 204t102 179.5t146 127.5t192 47.5q106 0 182 -46t116.5 -132t40.5 -207q0 -102 -20 -208.5t-61 -204t-103 -174.5t-145.5 -121.5t-188.5 -44.5zM430 138q57 0 105 35t86.5 95.5t65.5 138t41.5 164.5
t14.5 173q0 62 -16.5 111.5t-52.5 78.5t-94 29q-62 0 -112.5 -38.5t-89 -102.5t-64.5 -143.5t-39.5 -162.5t-13.5 -158q0 -106 43.5 -163t125.5 -57zM353 1245l30 143h531l-31 -143h-530z" />
    <glyph glyph-name="Obreve" unicode="&#x14e;" horiz-adv-x="1254" 
d="M541 -20q-143 0 -239.5 58.5t-145 170.5t-48.5 272q0 116 19 234.5t57 231t95 210t132 171t168 115t204 41.5q208 0 316.5 -128t108.5 -367q0 -108 -17.5 -224.5t-53 -229.5t-89.5 -213t-128 -177t-168 -121t-211 -44zM553 149q74 0 136.5 36.5t113 101t89.5 148
t65 177.5t39.5 191t13.5 188q0 158 -62.5 241.5t-179.5 83.5q-76 0 -140.5 -38t-115.5 -103.5t-89.5 -149.5t-64.5 -178t-39 -187.5t-13 -177.5q0 -111 29 -185t84 -111t134 -37zM835 1591q-79 0 -132.5 27.5t-80 77.5t-26.5 116q0 17 1 32.5t4 30.5h114q0 -46 12.5 -77
t42 -46.5t77.5 -15.5q75 0 117 33.5t60 105.5h120q-28 -142 -105 -213t-204 -71z" />
    <glyph glyph-name="obreve" unicode="&#x14f;" horiz-adv-x="1004" 
d="M414 -18q-106 0 -182 45t-117 130t-41 204q0 96 19.5 200.5t59.5 204t102 179.5t146 127.5t192 47.5q106 0 182 -46t116.5 -132t40.5 -207q0 -102 -20 -208.5t-61 -204t-103 -174.5t-145.5 -121.5t-188.5 -44.5zM430 138q57 0 105 35t86.5 95.5t65.5 138t41.5 164.5
t14.5 173q0 62 -16.5 111.5t-52.5 78.5t-94 29q-62 0 -112.5 -38.5t-89 -102.5t-64.5 -143.5t-39.5 -162.5t-13.5 -158q0 -106 43.5 -163t125.5 -57zM634 1241q-79 0 -132.5 27.5t-80 77.5t-26.5 116q0 17 1 32.5t4 30.5h114q0 -46 12.5 -77t42 -46.5t77.5 -15.5
q75 0 117 33.5t60 105.5h120q-28 -142 -105 -213t-204 -71z" />
    <glyph glyph-name="Ohungarumlaut" unicode="&#x150;" horiz-adv-x="1254" 
d="M541 -20q-143 0 -239.5 58.5t-145 170.5t-48.5 272q0 116 19 234.5t57 231t95 210t132 171t168 115t204 41.5q208 0 316.5 -128t108.5 -367q0 -108 -17.5 -224.5t-53 -229.5t-89.5 -213t-128 -177t-168 -121t-211 -44zM553 149q74 0 136.5 36.5t113 101t89.5 148
t65 177.5t39.5 191t13.5 188q0 158 -62.5 241.5t-179.5 83.5q-76 0 -140.5 -38t-115.5 -103.5t-89.5 -149.5t-64.5 -178t-39 -187.5t-13 -177.5q0 -111 29 -185t84 -111t134 -37zM912 1591l2 23q43 51 85.5 105.5t79.5 106.5t61 93h192l-1 -18q-22 -29 -59.5 -70.5t-83 -86
t-91.5 -84.5t-84 -69h-101zM579 1591l2 23q43 51 85.5 105.5t79 106.5t61.5 93h191l-1 -18q-20 -30 -57.5 -71t-83.5 -85t-92.5 -84t-86.5 -70h-98z" />
    <glyph glyph-name="ohungarumlaut" unicode="&#x151;" horiz-adv-x="1004" 
d="M414 -18q-106 0 -182 45t-117 130t-41 204q0 96 19.5 200.5t59.5 204t102 179.5t146 127.5t192 47.5q106 0 182 -46t116.5 -132t40.5 -207q0 -102 -20 -208.5t-61 -204t-103 -174.5t-145.5 -121.5t-188.5 -44.5zM430 138q57 0 105 35t86.5 95.5t65.5 138t41.5 164.5
t14.5 173q0 62 -16.5 111.5t-52.5 78.5t-94 29q-62 0 -112.5 -38.5t-89 -102.5t-64.5 -143.5t-39.5 -162.5t-13.5 -158q0 -106 43.5 -163t125.5 -57zM715 1241l2 23q43 51 85.5 105.5t79.5 106.5t61 93h192l-1 -18q-22 -29 -59.5 -70.5t-83 -86t-91.5 -84.5t-84 -69h-101z
M382 1241l2 23q43 51 85.5 105.5t79 106.5t61.5 93h191l-1 -18q-20 -30 -57.5 -71t-83.5 -85t-92.5 -84t-86.5 -70h-98z" />
    <glyph glyph-name="OE" unicode="&#x152;" horiz-adv-x="1497" 
d="M539 -15q-143 0 -239 60t-144 170.5t-48 259.5q0 134 25.5 275t78 271t132 233.5t188 164t246.5 60.5q60 0 108 -4t85 -13h613l-35 -167h-461l-96 -448h431l-34 -167h-432l-109 -512h462l-35 -168h-591q-29 -6 -66 -10.5t-79 -4.5zM562 154q29 0 53.5 3.5t43.5 10.5
l238 1124q-25 8 -57 13.5t-72 5.5q-89 0 -162 -49.5t-129 -135t-94 -192.5t-57.5 -223t-19.5 -226q0 -108 28.5 -181.5t86 -111.5t141.5 -38z" />
    <glyph glyph-name="oe" unicode="&#x153;" horiz-adv-x="1546" 
d="M402 -18q-151 0 -239.5 100t-88.5 282q0 91 18.5 194t58 202.5t100 181t145 130t194.5 48.5q119 0 186 -58.5t94 -160.5q66 103 158.5 161.5t200.5 58.5q125 0 199 -63.5t74 -184.5q0 -88 -36 -160t-109 -124t-180.5 -80t-250.5 -28h-32q-4 -27 -6.5 -55.5t-2.5 -56.5
q0 -117 51 -177t153 -60q69 0 130.5 20t128.5 54v-152q-68 -36 -141 -55t-158 -19q-75 0 -135.5 24t-102 71.5t-63.5 118.5q-58 -98 -144 -155t-202 -57zM426 138q60 0 109.5 36.5t87.5 98.5t64 140.5t39 164.5t13 169q0 101 -39.5 158t-122.5 57q-61 0 -110.5 -37
t-87.5 -100t-64.5 -141t-40 -161.5t-13.5 -160.5q0 -111 42.5 -167.5t122.5 -56.5zM918 623h21q123 0 209 28t131 82.5t45 130.5q0 48 -27.5 77.5t-82.5 29.5q-65 0 -125 -46.5t-104.5 -125.5t-66.5 -176z" />
    <glyph glyph-name="Racute" unicode="&#x154;" horiz-adv-x="1029" 
d="M39 0l309 1462h279q196 0 298 -88t102 -259q0 -116 -37.5 -212t-110.5 -163.5t-180 -97.5l188 -642h-207l-160 603h-164l-127 -603h-190zM390 763h120q81 0 141 26t99.5 72t59 106.5t19.5 129.5q0 104 -56 152t-168 48h-101zM610 1605l1 22q41 47 82.5 100t79.5 106.5
t66 99.5h214l-1 -18q-21 -29 -60.5 -70.5t-86.5 -87t-92.5 -86t-79.5 -66.5h-123z" />
    <glyph glyph-name="racute" unicode="&#x155;" horiz-adv-x="700" 
d="M25 0l233 1101h147l-23 -194h9q36 63 79 111.5t96 76t119 27.5q24 0 48.5 -3.5t46.5 -10.5l-47 -183q-20 6 -42.5 9.5t-46.5 3.5q-63 0 -114.5 -34t-92 -91t-68.5 -128t-44 -146l-114 -539h-186zM407 1240l1 22q41 47 82.5 100t79.5 106.5t66 99.5h214l-1 -18
q-21 -29 -60.5 -70.5t-86.5 -87t-92.5 -86t-79.5 -66.5h-123z" />
    <glyph glyph-name="uni0156" unicode="&#x156;" horiz-adv-x="1029" 
d="M39 0l309 1462h279q196 0 298 -88t102 -259q0 -116 -37.5 -212t-110.5 -163.5t-180 -97.5l188 -642h-207l-160 603h-164l-127 -603h-190zM390 763h120q81 0 141 26t99.5 72t59 106.5t19.5 129.5q0 104 -56 152t-168 48h-101zM202 -453v27q22 36 49.5 89.5t52.5 110.5
t40 101h177v-20q-16 -41 -51 -97.5t-77 -113t-82 -97.5h-109z" />
    <glyph glyph-name="uni0157" unicode="&#x157;" horiz-adv-x="700" 
d="M25 0l233 1101h147l-23 -194h9q36 63 79 111.5t96 76t119 27.5q24 0 48.5 -3.5t46.5 -10.5l-47 -183q-20 6 -42.5 9.5t-46.5 3.5q-63 0 -114.5 -34t-92 -91t-68.5 -128t-44 -146l-114 -539h-186zM-65 -453v27q22 36 49.5 89.5t52.5 110.5t40 101h177v-20
q-16 -41 -51 -97.5t-77 -113t-82 -97.5h-109z" />
    <glyph glyph-name="Rcaron" unicode="&#x158;" horiz-adv-x="1029" 
d="M39 0l309 1462h279q196 0 298 -88t102 -259q0 -116 -37.5 -212t-110.5 -163.5t-180 -97.5l188 -642h-207l-160 603h-164l-127 -603h-190zM390 763h120q81 0 141 26t99.5 72t59 106.5t19.5 129.5q0 104 -56 152t-168 48h-101zM616 1591q-14 44 -39 100.5t-52.5 111
t-50.5 92.5l3 24h112q20 -22 42.5 -51t47 -64t46.5 -73q57 55 112.5 103.5t106.5 84.5h119l-2 -24q-35 -33 -87 -89t-102 -114t-77 -101h-179z" />
    <glyph glyph-name="rcaron" unicode="&#x159;" horiz-adv-x="700" 
d="M25 0l233 1101h147l-23 -194h9q36 63 79 111.5t96 76t119 27.5q24 0 48.5 -3.5t46.5 -10.5l-47 -183q-20 6 -42.5 9.5t-46.5 3.5q-63 0 -114.5 -34t-92 -91t-68.5 -128t-44 -146l-114 -539h-186zM447 1241q-14 44 -39 100.5t-52.5 111t-50.5 92.5l3 24h112
q20 -22 42.5 -51t47 -64t46.5 -73q57 55 112.5 103.5t106.5 84.5h119l-2 -24q-35 -33 -87 -89t-102 -114t-77 -101h-179z" />
    <glyph glyph-name="Sacute" unicode="&#x15a;" horiz-adv-x="913" 
d="M313 -20q-100 0 -178.5 18t-138.5 52l14 190q61 -37 138.5 -63t167.5 -26q58 0 109.5 15.5t90 47t60 79t21.5 111.5q0 56 -18.5 98.5t-60 85t-112.5 96.5q-63 50 -113 102t-78 117.5t-28 154.5q0 98 33 176.5t94 134t144 85t182 29.5q95 0 177.5 -22.5t147.5 -61.5
l-80 -164q-54 33 -118.5 54.5t-132.5 21.5q-52 0 -97 -15.5t-79 -45.5t-53 -74t-19 -101q0 -59 21 -101.5t62.5 -82t103.5 -89.5q71 -52 120.5 -106t76 -119.5t26.5 -154.5q0 -103 -34 -185t-97.5 -139.5t-152.5 -87.5t-199 -30zM546 1605l1 22q41 47 82.5 100t79.5 106.5
t66 99.5h214l-1 -18q-21 -29 -60.5 -70.5t-86.5 -87t-92.5 -86t-79.5 -66.5h-123z" />
    <glyph glyph-name="sacute" unicode="&#x15b;" horiz-adv-x="782" 
d="M271 -20q-89 0 -157.5 17t-116.5 44v175q49 -33 119.5 -57t141.5 -24q64 0 109.5 20t69.5 58t24 91q0 38 -13 68t-46 62t-90 75q-60 44 -101.5 87.5t-62.5 93.5t-21 113q0 94 42.5 165.5t121 112.5t187.5 41q89 0 164.5 -21.5t132.5 -55.5l-70 -145q-46 30 -103 49
t-121 19q-75 0 -120.5 -39t-45.5 -106q0 -35 12.5 -63.5t43.5 -58t85 -68.5q60 -46 104.5 -89t68.5 -94.5t24 -125.5q0 -107 -46 -184t-131.5 -118.5t-204.5 -41.5zM404 1240l1 22q41 47 82.5 100t79.5 106.5t66 99.5h214l-1 -18q-21 -29 -60.5 -70.5t-86.5 -87t-92.5 -86
t-79.5 -66.5h-123z" />
    <glyph glyph-name="Scircumflex" unicode="&#x15c;" horiz-adv-x="913" 
d="M313 -20q-100 0 -178.5 18t-138.5 52l14 190q61 -37 138.5 -63t167.5 -26q58 0 109.5 15.5t90 47t60 79t21.5 111.5q0 56 -18.5 98.5t-60 85t-112.5 96.5q-63 50 -113 102t-78 117.5t-28 154.5q0 98 33 176.5t94 134t144 85t182 29.5q95 0 177.5 -22.5t147.5 -61.5
l-80 -164q-54 33 -118.5 54.5t-132.5 21.5q-52 0 -97 -15.5t-79 -45.5t-53 -74t-19 -101q0 -59 21 -101.5t62.5 -82t103.5 -89.5q71 -52 120.5 -106t76 -119.5t26.5 -154.5q0 -103 -34 -185t-97.5 -139.5t-152.5 -87.5t-199 -30zM352 1591l3 23q42 42 91.5 95t96 108
t77.5 102h179q14 -45 39 -101t53 -110.5t50 -93.5l-3 -23h-112q-21 24 -44.5 54t-47 64t-45.5 70q-57 -55 -112 -103t-104 -85h-121z" />
    <glyph glyph-name="scircumflex" unicode="&#x15d;" horiz-adv-x="782" 
d="M271 -20q-89 0 -157.5 17t-116.5 44v175q49 -33 119.5 -57t141.5 -24q64 0 109.5 20t69.5 58t24 91q0 38 -13 68t-46 62t-90 75q-60 44 -101.5 87.5t-62.5 93.5t-21 113q0 94 42.5 165.5t121 112.5t187.5 41q89 0 164.5 -21.5t132.5 -55.5l-70 -145q-46 30 -103 49
t-121 19q-75 0 -120.5 -39t-45.5 -106q0 -35 12.5 -63.5t43.5 -58t85 -68.5q60 -46 104.5 -89t68.5 -94.5t24 -125.5q0 -107 -46 -184t-131.5 -118.5t-204.5 -41.5zM211 1241l3 23q42 42 91.5 95t96 108t77.5 102h179q14 -45 39 -101t53 -110.5t50 -93.5l-3 -23h-112
q-21 24 -44.5 54t-47 64t-45.5 70q-57 -55 -112 -103t-104 -85h-121z" />
    <glyph glyph-name="Scedilla" unicode="&#x15e;" horiz-adv-x="913" 
d="M313 -20q-100 0 -178.5 18t-138.5 52l14 190q61 -37 138.5 -63t167.5 -26q58 0 109.5 15.5t90 47t60 79t21.5 111.5q0 56 -18.5 98.5t-60 85t-112.5 96.5q-63 50 -113 102t-78 117.5t-28 154.5q0 98 33 176.5t94 134t144 85t182 29.5q95 0 177.5 -22.5t147.5 -61.5
l-80 -164q-54 33 -118.5 54.5t-132.5 21.5q-52 0 -97 -15.5t-79 -45.5t-53 -74t-19 -101q0 -59 21 -101.5t62.5 -82t103.5 -89.5q71 -52 120.5 -106t76 -119.5t26.5 -154.5q0 -103 -34 -185t-97.5 -139.5t-152.5 -87.5t-199 -30zM195 -492q-35 0 -65.5 4.5t-55.5 10.5v113
q19 -5 45.5 -9t55.5 -4q47 0 79.5 13t49.5 38t17 60q0 43 -35.5 66.5t-104.5 30.5l102 169h114l-62 -104q59 -14 98.5 -52.5t39.5 -107.5q0 -70 -34 -121t-96 -79t-148 -28z" />
    <glyph glyph-name="scedilla" unicode="&#x15f;" horiz-adv-x="782" 
d="M271 -20q-89 0 -157.5 17t-116.5 44v175q49 -33 119.5 -57t141.5 -24q64 0 109.5 20t69.5 58t24 91q0 38 -13 68t-46 62t-90 75q-60 44 -101.5 87.5t-62.5 93.5t-21 113q0 94 42.5 165.5t121 112.5t187.5 41q89 0 164.5 -21.5t132.5 -55.5l-70 -145q-46 30 -103 49
t-121 19q-75 0 -120.5 -39t-45.5 -106q0 -35 12.5 -63.5t43.5 -58t85 -68.5q60 -46 104.5 -89t68.5 -94.5t24 -125.5q0 -107 -46 -184t-131.5 -118.5t-204.5 -41.5zM133 -492q-35 0 -65.5 4.5t-55.5 10.5v113q19 -5 45.5 -9t55.5 -4q47 0 79.5 13t49.5 38t17 60
q0 43 -35.5 66.5t-104.5 30.5l102 169h114l-62 -104q59 -14 98.5 -52.5t39.5 -107.5q0 -70 -34 -121t-96 -79t-148 -28z" />
    <glyph glyph-name="Scaron" unicode="&#x160;" horiz-adv-x="913" 
d="M313 -20q-100 0 -178.5 18t-138.5 52l14 190q61 -37 138.5 -63t167.5 -26q58 0 109.5 15.5t90 47t60 79t21.5 111.5q0 56 -18.5 98.5t-60 85t-112.5 96.5q-63 50 -113 102t-78 117.5t-28 154.5q0 98 33 176.5t94 134t144 85t182 29.5q95 0 177.5 -22.5t147.5 -61.5
l-80 -164q-54 33 -118.5 54.5t-132.5 21.5q-52 0 -97 -15.5t-79 -45.5t-53 -74t-19 -101q0 -59 21 -101.5t62.5 -82t103.5 -89.5q71 -52 120.5 -106t76 -119.5t26.5 -154.5q0 -103 -34 -185t-97.5 -139.5t-152.5 -87.5t-199 -30zM571 1591q-14 44 -39 100.5t-52.5 111
t-50.5 92.5l3 24h112q20 -22 42.5 -51t47 -64t46.5 -73q57 55 112.5 103.5t106.5 84.5h119l-2 -24q-35 -33 -87 -89t-102 -114t-77 -101h-179z" />
    <glyph glyph-name="scaron" unicode="&#x161;" horiz-adv-x="782" 
d="M271 -20q-89 0 -157.5 17t-116.5 44v175q49 -33 119.5 -57t141.5 -24q64 0 109.5 20t69.5 58t24 91q0 38 -13 68t-46 62t-90 75q-60 44 -101.5 87.5t-62.5 93.5t-21 113q0 94 42.5 165.5t121 112.5t187.5 41q89 0 164.5 -21.5t132.5 -55.5l-70 -145q-46 30 -103 49
t-121 19q-75 0 -120.5 -39t-45.5 -106q0 -35 12.5 -63.5t43.5 -58t85 -68.5q60 -46 104.5 -89t68.5 -94.5t24 -125.5q0 -107 -46 -184t-131.5 -118.5t-204.5 -41.5zM426 1241q-14 44 -39 100.5t-52.5 111t-50.5 92.5l3 24h112q20 -22 42.5 -51t47 -64t46.5 -73
q57 55 112.5 103.5t106.5 84.5h119l-2 -24q-35 -33 -87 -89t-102 -114t-77 -101h-179z" />
    <glyph glyph-name="uni0162" unicode="&#x162;" horiz-adv-x="879" 
d="M220 0l274 1293h-322l36 169h836l-36 -169h-322l-275 -1293h-191zM183 -492q-35 0 -65.5 4.5t-55.5 10.5v113q19 -5 45.5 -9t55.5 -4q47 0 79.5 13t49.5 38t17 60q0 43 -35.5 66.5t-104.5 30.5l102 169h114l-62 -104q59 -14 98.5 -52.5t39.5 -107.5q0 -70 -34 -121
t-96 -79t-148 -28z" />
    <glyph glyph-name="uni0163" unicode="&#x163;" horiz-adv-x="611" 
d="M299 -20q-101 0 -158 52t-57 163q0 29 4.5 65.5t13.5 77.5l130 614h-132l20 95l153 61l106 241h123l-53 -248h221l-32 -149h-220l-132 -622q-6 -28 -10.5 -55.5t-4.5 -49.5q0 -41 19.5 -64t64.5 -23q29 0 59.5 6t62.5 18v-146q-33 -15 -82.5 -25.5t-95.5 -10.5zM135 -492
q-35 0 -65.5 4.5t-55.5 10.5v113q19 -5 45.5 -9t55.5 -4q47 0 79.5 13t49.5 38t17 60q0 43 -35.5 66.5t-104.5 30.5l102 169h114l-62 -104q59 -14 98.5 -52.5t39.5 -107.5q0 -70 -34 -121t-96 -79t-148 -28z" />
    <glyph glyph-name="Tcaron" unicode="&#x164;" horiz-adv-x="879" 
d="M220 0l274 1293h-322l36 169h836l-36 -169h-322l-275 -1293h-191zM554 1591q-14 44 -39 100.5t-52.5 111t-50.5 92.5l3 24h112q20 -22 42.5 -51t47 -64t46.5 -73q57 55 112.5 103.5t106.5 84.5h119l-2 -24q-35 -33 -87 -89t-102 -114t-77 -101h-179z" />
    <glyph glyph-name="tcaron" unicode="&#x165;" horiz-adv-x="626" 
d="M299 -20q-101 0 -158 52t-57 163q0 29 4.5 65.5t13.5 77.5l130 614h-132l20 95l153 61l106 241h123l-53 -248h221l-32 -149h-220l-132 -622q-6 -28 -10.5 -55.5t-4.5 -49.5q0 -41 19.5 -64t64.5 -23q29 0 59.5 6t62.5 18v-146q-33 -15 -82.5 -25.5t-95.5 -10.5zM565 1221
v22q24 45 48.5 99t45.5 108t34 98h180l-1 -20q-17 -40 -49.5 -95.5t-71.5 -112t-76 -99.5h-110z" />
    <glyph glyph-name="Tbar" unicode="&#x166;" horiz-adv-x="877" 
d="M220 0l141 666h-226l33 152h224l102 475h-321l35 169h835l-35 -169h-323l-101 -475h233l-31 -152h-234l-140 -666h-192z" />
    <glyph glyph-name="tbar" unicode="&#x167;" horiz-adv-x="608" 
d="M299 -20q-102 0 -158.5 52t-56.5 162q0 29 4.5 64.5t12.5 76.5l47 222h-121l29 138h121l55 257h-132l20 95l153 61l106 241h123l-54 -248h222l-32 -149h-221l-55 -257h204l-29 -138h-203l-48 -227q-7 -28 -11 -54.5t-4 -47.5q0 -43 20.5 -66.5t65.5 -23.5q28 0 57.5 6
t62.5 18v-146q-33 -15 -82.5 -25.5t-95.5 -10.5z" />
    <glyph glyph-name="Utilde" unicode="&#x168;" horiz-adv-x="1187" 
d="M490 -20q-122 0 -206 42t-127.5 122t-43.5 194q0 35 5.5 81t15.5 95l202 948h191l-203 -955q-10 -41 -15 -82t-5 -71q0 -100 52.5 -152.5t152.5 -52.5q91 0 152.5 38t101.5 116t65 196l207 963h190l-210 -982q-32 -154 -95.5 -266.5t-168 -173t-261.5 -60.5zM481 1594
q18 85 48 144t73.5 90t102.5 31q45 0 80 -17.5t64.5 -40.5t56 -40.5t53.5 -17.5q37 0 59.5 26t42.5 92h114q-20 -93 -52 -151.5t-75 -86.5t-96 -28q-42 0 -76 18t-63.5 41t-57.5 41t-58 18q-37 0 -61 -29.5t-41 -89.5h-114z" />
    <glyph glyph-name="utilde" unicode="&#x169;" horiz-adv-x="1026" 
d="M320 -20q-76 0 -129.5 29t-81.5 85t-28 136q0 40 7 88t16 95l147 688h187l-147 -688q-9 -43 -14.5 -81.5t-5.5 -70.5q0 -58 27 -89.5t86 -31.5q66 0 126.5 48.5t109 144t77.5 235.5l114 533h184l-233 -1101h-149l19 175h-7q-35 -53 -80.5 -97t-101.5 -71t-123 -27z
M335 1244q18 85 48 144t73.5 90t102.5 31q45 0 80 -17.5t64.5 -40.5t56 -40.5t53.5 -17.5q37 0 59.5 26t42.5 92h114q-20 -93 -52 -151.5t-75 -86.5t-96 -28q-42 0 -76 18t-63.5 41t-57.5 41t-58 18q-37 0 -61 -29.5t-41 -89.5h-114z" />
    <glyph glyph-name="Umacron" unicode="&#x16a;" horiz-adv-x="1187" 
d="M490 -20q-122 0 -206 42t-127.5 122t-43.5 194q0 35 5.5 81t15.5 95l202 948h191l-203 -955q-10 -41 -15 -82t-5 -71q0 -100 52.5 -152.5t152.5 -52.5q91 0 152.5 38t101.5 116t65 196l207 963h190l-210 -982q-32 -154 -95.5 -266.5t-168 -173t-261.5 -60.5zM531 1595
l30 143h531l-31 -143h-530z" />
    <glyph glyph-name="umacron" unicode="&#x16b;" horiz-adv-x="1026" 
d="M320 -20q-76 0 -129.5 29t-81.5 85t-28 136q0 40 7 88t16 95l147 688h187l-147 -688q-9 -43 -14.5 -81.5t-5.5 -70.5q0 -58 27 -89.5t86 -31.5q66 0 126.5 48.5t109 144t77.5 235.5l114 533h184l-233 -1101h-149l19 175h-7q-35 -53 -80.5 -97t-101.5 -71t-123 -27z
M382 1245l30 143h531l-31 -143h-530z" />
    <glyph glyph-name="Ubreve" unicode="&#x16c;" horiz-adv-x="1187" 
d="M490 -20q-122 0 -206 42t-127.5 122t-43.5 194q0 35 5.5 81t15.5 95l202 948h191l-203 -955q-10 -41 -15 -82t-5 -71q0 -100 52.5 -152.5t152.5 -52.5q91 0 152.5 38t101.5 116t65 196l207 963h190l-210 -982q-32 -154 -95.5 -266.5t-168 -173t-261.5 -60.5zM801 1591
q-79 0 -132.5 27.5t-80 77.5t-26.5 116q0 17 1 32.5t4 30.5h114q0 -46 12.5 -77t42 -46.5t77.5 -15.5q75 0 117 33.5t60 105.5h120q-28 -142 -105 -213t-204 -71z" />
    <glyph glyph-name="ubreve" unicode="&#x16d;" horiz-adv-x="1026" 
d="M320 -20q-76 0 -129.5 29t-81.5 85t-28 136q0 40 7 88t16 95l147 688h187l-147 -688q-9 -43 -14.5 -81.5t-5.5 -70.5q0 -58 27 -89.5t86 -31.5q66 0 126.5 48.5t109 144t77.5 235.5l114 533h184l-233 -1101h-149l19 175h-7q-35 -53 -80.5 -97t-101.5 -71t-123 -27z
M655 1241q-79 0 -132.5 27.5t-80 77.5t-26.5 116q0 17 1 32.5t4 30.5h114q0 -46 12.5 -77t42 -46.5t77.5 -15.5q75 0 117 33.5t60 105.5h120q-28 -142 -105 -213t-204 -71z" />
    <glyph glyph-name="Uring" unicode="&#x16e;" horiz-adv-x="1187" 
d="M490 -20q-122 0 -206 42t-127.5 122t-43.5 194q0 35 5.5 81t15.5 95l202 948h191l-203 -955q-10 -41 -15 -82t-5 -71q0 -100 52.5 -152.5t152.5 -52.5q91 0 152.5 38t101.5 116t65 196l207 963h190l-210 -982q-32 -154 -95.5 -266.5t-168 -173t-261.5 -60.5zM818 1594
q-99 0 -158.5 57.5t-59.5 157.5q0 97 61 154.5t157 57.5q98 0 159 -57.5t61 -152.5q0 -99 -61 -158t-159 -59zM819 1696q50 0 81 30.5t31 81.5q0 50 -30.5 81t-81.5 31q-50 0 -80.5 -31t-30.5 -81q0 -51 28.5 -81.5t82.5 -30.5z" />
    <glyph glyph-name="uring" unicode="&#x16f;" horiz-adv-x="1026" 
d="M320 -20q-76 0 -129.5 29t-81.5 85t-28 136q0 40 7 88t16 95l147 688h187l-147 -688q-9 -43 -14.5 -81.5t-5.5 -70.5q0 -58 27 -89.5t86 -31.5q66 0 126.5 48.5t109 144t77.5 235.5l114 533h184l-233 -1101h-149l19 175h-7q-35 -53 -80.5 -97t-101.5 -71t-123 -27z
M675 1244q-99 0 -158.5 57.5t-59.5 157.5q0 97 61 154.5t157 57.5q98 0 159 -57.5t61 -152.5q0 -99 -61 -158t-159 -59zM676 1346q50 0 81 30.5t31 81.5q0 50 -30.5 81t-81.5 31q-50 0 -80.5 -31t-30.5 -81q0 -51 28.5 -81.5t82.5 -30.5z" />
    <glyph glyph-name="Uhungarumlaut" unicode="&#x170;" horiz-adv-x="1187" 
d="M490 -20q-122 0 -206 42t-127.5 122t-43.5 194q0 35 5.5 81t15.5 95l202 948h191l-203 -955q-10 -41 -15 -82t-5 -71q0 -100 52.5 -152.5t152.5 -52.5q91 0 152.5 38t101.5 116t65 196l207 963h190l-210 -982q-32 -154 -95.5 -266.5t-168 -173t-261.5 -60.5zM888 1591
l2 23q43 51 85.5 105.5t79.5 106.5t61 93h192l-1 -18q-22 -29 -59.5 -70.5t-83 -86t-91.5 -84.5t-84 -69h-101zM555 1591l2 23q43 51 85.5 105.5t79 106.5t61.5 93h191l-1 -18q-20 -30 -57.5 -71t-83.5 -85t-92.5 -84t-86.5 -70h-98z" />
    <glyph glyph-name="uhungarumlaut" unicode="&#x171;" horiz-adv-x="1026" 
d="M320 -20q-76 0 -129.5 29t-81.5 85t-28 136q0 40 7 88t16 95l147 688h187l-147 -688q-9 -43 -14.5 -81.5t-5.5 -70.5q0 -58 27 -89.5t86 -31.5q66 0 126.5 48.5t109 144t77.5 235.5l114 533h184l-233 -1101h-149l19 175h-7q-35 -53 -80.5 -97t-101.5 -71t-123 -27z
M735 1241l2 23q43 51 85.5 105.5t79.5 106.5t61 93h192l-1 -18q-22 -29 -59.5 -70.5t-83 -86t-91.5 -84.5t-84 -69h-101zM402 1241l2 23q43 51 85.5 105.5t79 106.5t61.5 93h191l-1 -18q-20 -30 -57.5 -71t-83.5 -85t-92.5 -84t-86.5 -70h-98z" />
    <glyph glyph-name="Uogonek" unicode="&#x172;" horiz-adv-x="1187" 
d="M490 -20q-122 0 -206 42t-127.5 122t-43.5 194q0 35 5.5 81t15.5 95l202 948h191l-203 -955q-10 -41 -15 -82t-5 -71q0 -100 52.5 -152.5t152.5 -52.5q91 0 152.5 38t101.5 116t65 196l207 963h190l-210 -982q-32 -154 -95.5 -266.5t-168 -173t-261.5 -60.5zM461 -459
q-80 0 -126 42.5t-46 116.5q0 62 25.5 113t73 97t113.5 91l124 -1q-51 -44 -92 -86.5t-65 -86t-24 -91.5q0 -33 17.5 -50t48.5 -17q20 0 41 3.5t42 7.5l-13 -121q-27 -9 -57 -13.5t-62 -4.5z" />
    <glyph glyph-name="uogonek" unicode="&#x173;" horiz-adv-x="1026" 
d="M320 -20q-76 0 -129.5 29t-81.5 85t-28 136q0 40 7 88t16 95l147 688h187l-147 -688q-9 -43 -14.5 -81.5t-5.5 -70.5q0 -58 27 -89.5t86 -31.5q66 0 126.5 48.5t109 144t77.5 235.5l114 533h184l-233 -1101h-149l19 175h-7q-35 -53 -80.5 -97t-101.5 -71t-123 -27z
M588 -459q-80 0 -126 42.5t-46 116.5q0 62 25.5 113t73 97t113.5 91l124 -1q-51 -44 -92 -86.5t-65 -86t-24 -91.5q0 -33 17.5 -50t48.5 -17q20 0 41 3.5t42 7.5l-13 -121q-27 -9 -57 -13.5t-62 -4.5z" />
    <glyph glyph-name="Wcircumflex" unicode="&#x174;" horiz-adv-x="1560" 
d="M207 0l-11 1462h185l-1 -892q0 -84 -3.5 -162.5t-8.5 -144.5h5q27 74 58.5 157t65.5 158l377 884h178l4 -870q1 -88 -1 -173t-5 -157h5q18 53 37 106.5t39.5 106.5t41.5 106l361 881h197l-618 -1462h-213l-4 893q-1 43 -1 85.5t1.5 84t2.5 81.5h-5q-18 -57 -40 -113.5
t-51 -124.5l-385 -906h-211zM675 1591l3 23q42 42 91.5 95t96 108t77.5 102h179q14 -45 39 -101t53 -110.5t50 -93.5l-3 -23h-112q-21 24 -44.5 54t-47 64t-45.5 70q-57 -55 -112 -103t-104 -85h-121z" />
    <glyph glyph-name="wcircumflex" unicode="&#x175;" horiz-adv-x="1318" 
d="M138 0l-14 1101h180l-2 -589q1 -82 -2.5 -153.5t-8.5 -131.5h6q13 38 30.5 85t36 92.5t32.5 80.5l264 616h204l5 -595q0 -65 -2 -140.5t-5 -143.5h6q16 47 34.5 99t39.5 107.5t43 109.5l234 563h191l-478 -1101h-215l-1 630q-1 41 0 83t3 86.5t3 89.5h-6q-13 -38 -27 -75
t-29.5 -75.5t-34.5 -81.5l-277 -657h-210zM483 1241l3 23q42 42 91.5 95t96 108t77.5 102h179q14 -45 39 -101t53 -110.5t50 -93.5l-3 -23h-112q-21 24 -44.5 54t-47 64t-45.5 70q-57 -55 -112 -103t-104 -85h-121z" />
    <glyph glyph-name="Ycircumflex" unicode="&#x176;" horiz-adv-x="910" 
d="M233 0l119 557l-170 905h195l110 -684l397 684h209l-551 -904l-118 -558h-191zM351 1591l3 23q42 42 91.5 95t96 108t77.5 102h179q14 -45 39 -101t53 -110.5t50 -93.5l-3 -23h-112q-21 24 -44.5 54t-47 64t-45.5 70q-57 -55 -112 -103t-104 -85h-121z" />
    <glyph glyph-name="ycircumflex" unicode="&#x177;" horiz-adv-x="847" 
d="M-58 -493q-43 0 -72.5 6t-54.5 14l12 158q24 -7 50 -12t56 -5q71 0 119 48t92 136l72 148l-99 1101h185l37 -577q4 -49 6.5 -103.5t3 -106.5t-1.5 -92h7q13 37 32 85t40.5 97.5t39.5 87.5l288 609h197l-638 -1294q-47 -96 -99.5 -163t-117.5 -102t-154 -35zM235 1241
l3 23q42 42 91.5 95t96 108t77.5 102h179q14 -45 39 -101t53 -110.5t50 -93.5l-3 -23h-112q-21 24 -44.5 54t-47 64t-45.5 70q-57 -55 -112 -103t-104 -85h-121z" />
    <glyph glyph-name="Ydieresis" unicode="&#x178;" horiz-adv-x="910" 
d="M233 0l119 557l-170 905h195l110 -684l397 684h209l-551 -904l-118 -558h-191zM833 1640q-39 0 -61.5 21t-22.5 62q0 53 30 92t85 39q38 0 59 -20t21 -59q0 -60 -31.5 -97.5t-79.5 -37.5zM491 1640q-38 0 -61 21t-23 62q0 53 29.5 92t85.5 39q25 0 42.5 -9t27 -26.5
t9.5 -43.5q0 -60 -31 -97.5t-79 -37.5z" />
    <glyph glyph-name="Zacute" unicode="&#x179;" horiz-adv-x="900" 
d="M-57 0l29 142l776 1152h-515l36 168h740l-29 -143l-777 -1150h550l-35 -169h-775zM547 1605l1 22q41 47 82.5 100t79.5 106.5t66 99.5h214l-1 -18q-21 -29 -60.5 -70.5t-86.5 -87t-92.5 -86t-79.5 -66.5h-123z" />
    <glyph glyph-name="zacute" unicode="&#x17a;" horiz-adv-x="757" 
d="M-55 0l25 121l579 831h-377l32 149h585l-29 -135l-569 -815h415l-32 -151h-629zM402 1240l1 22q41 47 82.5 100t79.5 106.5t66 99.5h214l-1 -18q-21 -29 -60.5 -70.5t-86.5 -87t-92.5 -86t-79.5 -66.5h-123z" />
    <glyph glyph-name="Zdotaccent" unicode="&#x17b;" horiz-adv-x="900" 
d="M-57 0l29 142l776 1152h-515l36 168h740l-29 -143l-777 -1150h550l-35 -169h-775zM671 1630q-44 0 -70.5 24t-26.5 70q0 57 33.5 99.5t93.5 42.5q31 0 52 -10t32 -30.5t11 -50.5q0 -62 -34 -103.5t-91 -41.5z" />
    <glyph glyph-name="zdotaccent" unicode="&#x17c;" horiz-adv-x="757" 
d="M-55 0l25 121l579 831h-377l32 149h585l-29 -135l-569 -815h415l-32 -151h-629zM535 1280q-44 0 -70.5 24t-26.5 70q0 57 33.5 99.5t93.5 42.5q31 0 52 -10t32 -30.5t11 -50.5q0 -62 -34 -103.5t-91 -41.5z" />
    <glyph glyph-name="Zcaron" unicode="&#x17d;" horiz-adv-x="900" 
d="M-57 0l29 142l776 1152h-515l36 168h740l-29 -143l-777 -1150h550l-35 -169h-775zM566 1591q-14 44 -39 100.5t-52.5 111t-50.5 92.5l3 24h112q20 -22 42.5 -51t47 -64t46.5 -73q57 55 112.5 103.5t106.5 84.5h119l-2 -24q-35 -33 -87 -89t-102 -114t-77 -101h-179z" />
    <glyph glyph-name="zcaron" unicode="&#x17e;" horiz-adv-x="757" 
d="M-55 0l25 121l579 831h-377l32 149h585l-29 -135l-569 -815h415l-32 -151h-629zM423 1241q-14 44 -39 100.5t-52.5 111t-50.5 92.5l3 24h112q20 -22 42.5 -51t47 -64t46.5 -73q57 55 112.5 103.5t106.5 84.5h119l-2 -24q-35 -33 -87 -89t-102 -114t-77 -101h-179z" />
    <glyph glyph-name="longs" unicode="&#x17f;" horiz-adv-x="523" 
d="M-138 -492q-35 0 -66 5t-56 14v160q22 -9 48 -14t52 -5q68 0 104.5 55.5t59.5 164.5l281 1325q25 118 66 196.5t106.5 118t163.5 39.5q49 0 96.5 -10.5t83.5 -27.5l-58 -144q-24 11 -52 18t-57 7q-48 0 -80 -26t-52 -74t-34 -116l-282 -1326q-23 -106 -60.5 -187.5
t-100 -127t-163.5 -45.5z" />
    <glyph glyph-name="florin" unicode="&#x192;" horiz-adv-x="971" 
d="M77 -492q-40 0 -72.5 6.5t-57.5 16.5v158q27 -10 56 -16.5t55 -6.5q62 0 98.5 51t59.5 163l201 946h-160l17 91l175 60l32 151q29 133 72.5 210.5t108.5 111t158 33.5q49 0 95.5 -11.5t86.5 -29.5l-59 -144q-29 13 -57 20t-59 7q-67 0 -103.5 -49t-59.5 -158l-29 -143
h201l-31 -149h-202l-204 -956q-25 -118 -64.5 -198.5t-101.5 -122t-156 -41.5z" />
    <glyph glyph-name="Ohorn" unicode="&#x1a0;" horiz-adv-x="1271" 
d="M541 -20q-143 0 -239.5 58.5t-145 170.5t-48.5 272q0 118 19.5 236.5t57.5 231t95 209.5t132 170.5t168 114.5t203 41q131 0 222.5 -53t140.5 -157q72 34 111.5 105t56.5 177h183l8 -22q-33 -145 -108.5 -239.5t-209.5 -146.5q10 -35 15.5 -74.5t5.5 -84.5
q0 -118 -18.5 -238t-55.5 -233t-92.5 -210.5t-129.5 -171t-166.5 -115t-204.5 -41.5zM553 149q74 0 136 37t113 101.5t90 148t65 177.5t39.5 191t13.5 187q0 158 -62.5 241.5t-179.5 83.5q-74 0 -136.5 -36t-114 -99.5t-90.5 -145.5t-66 -175.5t-41 -190t-14 -187.5
q0 -111 29 -185t84 -111t134 -37z" />
    <glyph glyph-name="ohorn" unicode="&#x1a1;" horiz-adv-x="1044" 
d="M410 -18q-105 0 -181.5 45t-117.5 130t-41 204q0 106 21 213.5t63 205t104.5 174.5t145.5 121.5t185 44.5q96 0 166.5 -38.5t112.5 -111.5q53 23 87 64.5t54 99.5t31 130h182l7 -23q-21 -98 -60.5 -173t-102 -127.5t-154.5 -83.5q9 -29 12.5 -59.5t3.5 -62.5
q0 -105 -21 -212t-63 -204.5t-104.5 -173t-144.5 -119.5t-185 -44zM426 138q57 0 105.5 35.5t86.5 97t65 139.5t41 165t14 172q0 62 -16.5 110.5t-52 76.5t-93.5 28q-60 0 -110.5 -38.5t-89 -103t-65 -144t-40 -162.5t-13.5 -159q0 -106 43 -161.5t125 -55.5z" />
    <glyph glyph-name="Uhorn" unicode="&#x1af;" horiz-adv-x="1294" 
d="M491 -20q-122 0 -206.5 43t-128 123.5t-43.5 193.5q0 36 5.5 82t15.5 92l202 948h191l-203 -955q-10 -43 -15 -81t-5 -68q0 -100 50.5 -154.5t154.5 -54.5q89 0 150.5 38t102.5 115.5t66 196.5l207 963h190l-44 -202q52 13 90 50.5t63.5 99t39.5 146.5h182l8 -22
q-18 -85 -53 -154.5t-86 -121.5t-119 -85t-153 -44l-138 -649q-32 -154 -95.5 -266.5t-168 -173t-260.5 -60.5z" />
    <glyph glyph-name="uhorn" unicode="&#x1b0;" horiz-adv-x="1143" 
d="M316 -20q-75 0 -128 29t-81 85.5t-28 137.5q0 40 7 87t17 96l146 686h187l-148 -688q-8 -43 -13.5 -81t-5.5 -67q0 -61 27.5 -92.5t85.5 -31.5q66 0 126.5 48t109 143.5t77.5 235.5l114 533h184l-28 -134q54 13 92 50.5t62.5 99.5t38.5 146h182l8 -22
q-18 -83 -52.5 -152.5t-85 -122t-119 -86t-154.5 -44.5l-177 -836h-148l18 175h-6q-35 -53 -81 -97t-102 -71t-125 -27z" />
    <glyph glyph-name="uni01EA" unicode="&#x1ea;" horiz-adv-x="1254" 
d="M541 -20q-143 0 -239.5 58.5t-145 170.5t-48.5 272q0 116 19 234.5t57 231t95 210t132 171t168 115t204 41.5q208 0 316.5 -128t108.5 -367q0 -108 -17.5 -224.5t-53 -229.5t-89.5 -213t-128 -177t-168 -121t-211 -44zM553 149q74 0 136.5 36.5t113 101t89.5 148
t65 177.5t39.5 191t13.5 188q0 158 -62.5 241.5t-179.5 83.5q-76 0 -140.5 -38t-115.5 -103.5t-89.5 -149.5t-64.5 -178t-39 -187.5t-13 -177.5q0 -111 29 -185t84 -111t134 -37zM477 -459q-80 0 -126 42.5t-46 116.5q0 62 25.5 113t73 97t113.5 91l124 -1
q-51 -44 -92 -86.5t-65 -86t-24 -91.5q0 -33 17.5 -50t48.5 -17q20 0 41 3.5t42 7.5l-13 -121q-27 -9 -57 -13.5t-62 -4.5z" />
    <glyph glyph-name="uni01EB" unicode="&#x1eb;" horiz-adv-x="1004" 
d="M414 -18q-106 0 -182 45t-117 130t-41 204q0 96 19.5 200.5t59.5 204t102 179.5t146 127.5t192 47.5q106 0 182 -46t116.5 -132t40.5 -207q0 -102 -20 -208.5t-61 -204t-103 -174.5t-145.5 -121.5t-188.5 -44.5zM430 138q57 0 105 35t86.5 95.5t65.5 138t41.5 164.5
t14.5 173q0 62 -16.5 111.5t-52.5 78.5t-94 29q-62 0 -112.5 -38.5t-89 -102.5t-64.5 -143.5t-39.5 -162.5t-13.5 -158q0 -106 43.5 -163t125.5 -57zM341 -459q-80 0 -126 42.5t-46 116.5q0 62 25.5 113t73 97t113.5 91l124 -1q-51 -44 -92 -86.5t-65 -86t-24 -91.5
q0 -33 17.5 -50t48.5 -17q20 0 41 3.5t42 7.5l-13 -121q-27 -9 -57 -13.5t-62 -4.5z" />
    <glyph glyph-name="uni01EC" unicode="&#x1ec;" horiz-adv-x="1254" 
d="M541 -20q-143 0 -239.5 58.5t-145 170.5t-48.5 272q0 116 19 234.5t57 231t95 210t132 171t168 115t204 41.5q208 0 316.5 -128t108.5 -367q0 -108 -17.5 -224.5t-53 -229.5t-89.5 -213t-128 -177t-168 -121t-211 -44zM553 149q74 0 136.5 36.5t113 101t89.5 148
t65 177.5t39.5 191t13.5 188q0 158 -62.5 241.5t-179.5 83.5q-76 0 -140.5 -38t-115.5 -103.5t-89.5 -149.5t-64.5 -178t-39 -187.5t-13 -177.5q0 -111 29 -185t84 -111t134 -37zM567 1608l30 143h531l-31 -143h-530zM477 -459q-80 0 -126 42.5t-46 116.5q0 62 25.5 113
t73 97t113.5 91l124 -1q-51 -44 -92 -86.5t-65 -86t-24 -91.5q0 -33 17.5 -50t48.5 -17q20 0 41 3.5t42 7.5l-13 -121q-27 -9 -57 -13.5t-62 -4.5z" />
    <glyph glyph-name="uni01ED" unicode="&#x1ed;" horiz-adv-x="1004" 
d="M414 -18q-106 0 -182 45t-117 130t-41 204q0 96 19.5 200.5t59.5 204t102 179.5t146 127.5t192 47.5q106 0 182 -46t116.5 -132t40.5 -207q0 -102 -20 -208.5t-61 -204t-103 -174.5t-145.5 -121.5t-188.5 -44.5zM430 138q57 0 105 35t86.5 95.5t65.5 138t41.5 164.5
t14.5 173q0 62 -16.5 111.5t-52.5 78.5t-94 29q-62 0 -112.5 -38.5t-89 -102.5t-64.5 -143.5t-39.5 -162.5t-13.5 -158q0 -106 43.5 -163t125.5 -57zM358 1245l30 143h531l-31 -143h-530zM341 -459q-80 0 -126 42.5t-46 116.5q0 62 25.5 113t73 97t113.5 91l124 -1
q-51 -44 -92 -86.5t-65 -86t-24 -91.5q0 -33 17.5 -50t48.5 -17q20 0 41 3.5t42 7.5l-13 -121q-27 -9 -57 -13.5t-62 -4.5z" />
    <glyph glyph-name="uni01F0" unicode="&#x1f0;" horiz-adv-x="471" 
d="M-140 -492q-35 0 -66.5 5t-56.5 14v160q22 -9 49 -14t53 -5q44 0 75 22t52.5 71t37.5 129l256 1211h185l-261 -1229q-23 -110 -60 -191.5t-99.5 -127t-164.5 -45.5zM283 1241q-14 44 -39 100.5t-52.5 111t-50.5 92.5l3 24h112q20 -22 42.5 -51t47 -64t46.5 -73
q57 55 112.5 103.5t106.5 84.5h119l-2 -24q-35 -33 -87 -89t-102 -114t-77 -101h-179z" />
    <glyph glyph-name="Aringacute" unicode="&#x1fa;" horiz-adv-x="1015" 
d="M-123 0l634 1297q-26 23 -40.5 58t-14.5 79q0 98 61.5 155.5t158.5 57.5t159 -58.5t62 -151.5q0 -61 -26.5 -105.5t-69.5 -68.5l97 -1263h-192l-30 433h-387l-205 -433h-207zM367 602h305l-18 378q-3 51 -6.5 106.5t-3.5 105.5h-15q-18 -48 -41 -101t-47 -105zM676 1323
q49 0 80 30t31 80t-30.5 81t-80.5 31q-49 0 -79.5 -31t-30.5 -81t27.5 -80t82.5 -30zM619 1701v17q36 34 74 75.5t74.5 84.5t63.5 83h226v-15q-32 -34 -85.5 -79.5t-112.5 -90.5t-106 -75h-134z" />
    <glyph glyph-name="aringacute" unicode="&#x1fb;" horiz-adv-x="1025" 
d="M332 -20q-79 0 -137.5 38.5t-90.5 115t-32 188.5q0 105 21 216t61 215t99.5 187.5t137 132.5t171.5 49q58 0 103 -21.5t77 -59.5t50 -90h8l53 150h150l-233 -1101h-147l18 172h-7q-41 -55 -87.5 -98.5t-100 -68.5t-114.5 -25zM395 137q70 0 129 54.5t103.5 142.5
t70.5 189q19 76 27 137t8 117q0 85 -39.5 135t-109.5 50q-57 0 -106.5 -39t-89 -105t-67.5 -148.5t-43 -171t-15 -170.5q0 -95 33 -143t99 -48zM659 1196q-99 0 -159 57t-60 156q0 98 61.5 156t157.5 58t157.5 -57t62.5 -153q0 -100 -61 -158.5t-159 -58.5zM660 1298
q48 0 79.5 30t31.5 81t-31 81.5t-80 30.5q-51 0 -81 -30.5t-30 -81.5q0 -53 27.5 -82t83.5 -29zM616 1696l1 16q33 35 70 75.5t73 84.5t66 86h230l-1 -15q-30 -33 -83.5 -78.5t-113.5 -91t-110 -77.5h-132z" />
    <glyph glyph-name="AEacute" unicode="&#x1fc;" horiz-adv-x="1438" 
d="M-128 0l813 1462h838l-35 -167h-462l-96 -448h433l-35 -167h-432l-108 -512h461l-35 -168h-653l95 445h-334l-241 -445h-209zM416 614h276l144 680h-54zM828 1605l1 22q41 47 82.5 100t79.5 106.5t66 99.5h214l-1 -18q-21 -29 -60.5 -70.5t-86.5 -87t-92.5 -86
t-79.5 -66.5h-123z" />
    <glyph glyph-name="aeacute" unicode="&#x1fd;" horiz-adv-x="1493" 
d="M314 -20q-74 0 -128 40t-84 117t-30 188q0 118 22.5 233t65 216.5t101.5 179.5t133 123t160 45q55 0 96.5 -21t71.5 -59t48 -89h7l48 148h127l-27 -130q48 65 118.5 107.5t162.5 42.5q111 0 181 -64.5t70 -184.5q0 -88 -36.5 -160t-109.5 -124t-181 -79.5t-251 -27.5h-30
q-4 -27 -7 -55.5t-3 -55.5q0 -110 49 -174t159 -64q66 0 131 21t133 56l-11 -158q-68 -35 -137 -53t-150 -18q-97 0 -163.5 39t-96.5 115l-28 -134h-128l24 172h-5q-42 -58 -87.5 -101t-98 -67t-116.5 -24zM384 136q50 0 94.5 30t82 83t66.5 121.5t48 145.5q18 77 26.5 141
t8.5 120q0 86 -33.5 136t-96.5 50q-54 0 -102 -37t-87.5 -100.5t-68 -144.5t-44 -170.5t-15.5 -176.5q0 -100 32 -149t89 -49zM874 623h20q122 0 208.5 28t131.5 81.5t45 127.5q0 55 -29.5 83.5t-81.5 28.5q-64 0 -121 -44.5t-101 -123t-72 -181.5zM767 1240l1 22
q41 47 82.5 100t79.5 106.5t66 99.5h214l-1 -18q-21 -29 -60.5 -70.5t-86.5 -87t-92.5 -86t-79.5 -66.5h-123z" />
    <glyph glyph-name="Oslashacute" unicode="&#x1fe;" horiz-adv-x="1255" 
d="M151 -91l-105 74l134 189q-37 59 -54.5 137.5t-17.5 171.5q0 116 19 234.5t57 231t95 210t132 171t168.5 115t204.5 41.5q85 0 153 -24t120 -74l113 158l107 -75l-135 -187q33 -55 49.5 -130.5t16.5 -162.5q0 -108 -17.5 -224.5t-53 -229.5t-89.5 -213t-128 -177
t-168.5 -121t-210.5 -44q-85 0 -152.5 22.5t-119.5 68.5zM553 148q72 0 133.5 34.5t112 94.5t88.5 139t65 170t41.5 185.5t15.5 185.5q1 34 -2.5 66t-10.5 57l-617 -852q29 -39 73 -59.5t101 -20.5zM324 368l621 861q-30 44 -74 66t-104 22q-74 0 -137 -35.5t-113.5 -97.5
t-89 -142t-65 -170t-40.5 -181.5t-15 -175.5q-1 -41 3.5 -78.5t13.5 -68.5zM731 1596l1 22q41 47 82.5 100t79.5 106.5t66 99.5h214l-1 -18q-21 -29 -60.5 -70.5t-86.5 -87t-92.5 -86t-79.5 -66.5h-123z" />
    <glyph glyph-name="oslashacute" unicode="&#x1ff;" horiz-adv-x="1005" 
d="M113 -103l-100 70l117 163q-27 46 -41.5 103.5t-14.5 127.5q0 94 19.5 198t59 203.5t101 180.5t146.5 129t193 48q63 0 114 -16.5t91 -48.5l92 130l101 -70l-110 -149q25 -45 37.5 -103t12.5 -122q0 -96 -19.5 -201t-59 -204t-101 -179t-145.5 -127.5t-191 -47.5
q-59 0 -109.5 14.5t-90.5 43.5zM430 133q56 0 103.5 32t86 87.5t66 127t43.5 153t18 162.5q2 23 0 45t-6 37l-428 -596q20 -24 50.5 -36t66.5 -12zM265 310l434 604q-18 25 -47.5 39t-70.5 14q-60 0 -109.5 -34t-88 -92.5t-66 -132t-43 -153.5t-17.5 -157q0 -26 2 -49t6 -39
zM541 1240l1 22q41 47 82.5 100t79.5 106.5t66 99.5h214l-1 -18q-21 -29 -60.5 -70.5t-86.5 -87t-92.5 -86t-79.5 -66.5h-123z" />
    <glyph glyph-name="uni0218" unicode="&#x218;" horiz-adv-x="913" 
d="M313 -20q-100 0 -178.5 18t-138.5 52l14 190q61 -37 138.5 -63t167.5 -26q58 0 109.5 15.5t90 47t60 79t21.5 111.5q0 56 -18.5 98.5t-60 85t-112.5 96.5q-63 50 -113 102t-78 117.5t-28 154.5q0 98 33 176.5t94 134t144 85t182 29.5q95 0 177.5 -22.5t147.5 -61.5
l-80 -164q-54 33 -118.5 54.5t-132.5 21.5q-52 0 -97 -15.5t-79 -45.5t-53 -74t-19 -101q0 -59 21 -101.5t62.5 -82t103.5 -89.5q71 -52 120.5 -106t76 -119.5t26.5 -154.5q0 -103 -34 -185t-97.5 -139.5t-152.5 -87.5t-199 -30zM115 -453v27q22 36 49.5 89.5t52.5 110.5
t40 101h177v-20q-16 -41 -51 -97.5t-77 -113t-82 -97.5h-109z" />
    <glyph glyph-name="uni0219" unicode="&#x219;" horiz-adv-x="782" 
d="M271 -20q-89 0 -157.5 17t-116.5 44v175q49 -33 119.5 -57t141.5 -24q64 0 109.5 20t69.5 58t24 91q0 38 -13 68t-46 62t-90 75q-60 44 -101.5 87.5t-62.5 93.5t-21 113q0 94 42.5 165.5t121 112.5t187.5 41q89 0 164.5 -21.5t132.5 -55.5l-70 -145q-46 30 -103 49
t-121 19q-75 0 -120.5 -39t-45.5 -106q0 -35 12.5 -63.5t43.5 -58t85 -68.5q60 -46 104.5 -89t68.5 -94.5t24 -125.5q0 -107 -46 -184t-131.5 -118.5t-204.5 -41.5zM53 -453v27q22 36 49.5 89.5t52.5 110.5t40 101h177v-20q-16 -41 -51 -97.5t-77 -113t-82 -97.5h-109z" />
    <glyph glyph-name="uni021A" unicode="&#x21a;" horiz-adv-x="879" 
d="M220 0l274 1293h-322l36 169h836l-36 -169h-322l-275 -1293h-191zM101 -453v27q22 36 49.5 89.5t52.5 110.5t40 101h177v-20q-16 -41 -51 -97.5t-77 -113t-82 -97.5h-109z" />
    <glyph glyph-name="uni021B" unicode="&#x21b;" horiz-adv-x="611" 
d="M299 -20q-101 0 -158 52t-57 163q0 29 4.5 65.5t13.5 77.5l130 614h-132l20 95l153 61l106 241h123l-53 -248h221l-32 -149h-220l-132 -622q-6 -28 -10.5 -55.5t-4.5 -49.5q0 -41 19.5 -64t64.5 -23q29 0 59.5 6t62.5 18v-146q-33 -15 -82.5 -25.5t-95.5 -10.5zM12 -453
v27q22 36 49.5 89.5t52.5 110.5t40 101h177v-20q-16 -41 -51 -97.5t-77 -113t-82 -97.5h-109z" />
    <glyph glyph-name="uni0237" unicode="&#x237;" horiz-adv-x="471" 
d="M-140 -492q-35 0 -66.5 5t-56.5 14v160q22 -9 49 -14t53 -5q44 0 75 22t52.5 71t37.5 129l256 1211h185l-261 -1229q-23 -110 -60 -191.5t-99.5 -127t-164.5 -45.5z" />
    <glyph glyph-name="uni0259" unicode="&#x259;" horiz-adv-x="922" 
d="M311 -20q-132 0 -204.5 65.5t-72.5 182.5q0 88 36.5 160t109.5 124t181.5 80t251.5 28h29q5 28 7 56t2 55q0 117 -51 177.5t-152 60.5q-69 0 -131 -19t-136 -58l11 159q67 34 136.5 52t159.5 18q109 0 187 -44t120 -129t42 -206q0 -148 -37 -285t-106.5 -244.5
t-166.5 -170t-216 -62.5zM330 129q59 0 114.5 43t101 121.5t69.5 184.5h-19q-123 0 -208.5 -28t-130.5 -81.5t-45 -128.5q0 -51 29.5 -81t88.5 -30z" />
    <glyph glyph-name="uni02BC" unicode="&#x2bc;" horiz-adv-x="368" 
d="M116 959q37 81 73 168t68 172.5t56 162.5h189l8 -22q-32 -78 -72 -160.5t-85.5 -164.5t-92.5 -156h-144z" />
    <glyph glyph-name="circumflex" unicode="&#x2c6;" horiz-adv-x="753" 
d="M231 1241l3 23q42 42 91.5 95t96 108t77.5 102h179q14 -45 39 -101t53 -110.5t50 -93.5l-3 -23h-112q-21 24 -44.5 54t-47 64t-45.5 70q-57 -55 -112 -103t-104 -85h-121z" />
    <glyph glyph-name="caron" unicode="&#x2c7;" horiz-adv-x="753" 
d="M438 1241q-14 44 -39 100.5t-52.5 111t-50.5 92.5l3 24h112q20 -22 42.5 -51t47 -64t46.5 -73q57 55 112.5 103.5t106.5 84.5h119l-2 -24q-35 -33 -87 -89t-102 -114t-77 -101h-179z" />
    <glyph glyph-name="macron" unicode="&#x2c9;" horiz-adv-x="695" 
d="M230 1245l30 143h531l-31 -143h-530z" />
    <glyph glyph-name="breve" unicode="&#x2d8;" horiz-adv-x="708" 
d="M523 1241q-79 0 -132.5 27.5t-80 77.5t-26.5 116q0 17 1 32.5t4 30.5h114q0 -46 12.5 -77t42 -46.5t77.5 -15.5q75 0 117 33.5t60 105.5h120q-28 -142 -105 -213t-204 -71z" />
    <glyph glyph-name="dotaccent" unicode="&#x2d9;" horiz-adv-x="383" 
d="M358 1280q-44 0 -70.5 24t-26.5 70q0 57 33.5 99.5t93.5 42.5q31 0 52 -10t32 -30.5t11 -50.5q0 -62 -34 -103.5t-91 -41.5z" />
    <glyph glyph-name="ring" unicode="&#x2da;" horiz-adv-x="615" 
d="M499 1244q-99 0 -158.5 57.5t-59.5 157.5q0 97 61 154.5t157 57.5q98 0 159 -57.5t61 -152.5q0 -99 -61 -158t-159 -59zM500 1346q50 0 81 30.5t31 81.5q0 50 -30.5 81t-81.5 31q-50 0 -80.5 -31t-30.5 -81q0 -51 28.5 -81.5t82.5 -30.5z" />
    <glyph glyph-name="ogonek" unicode="&#x2db;" horiz-adv-x="492" 
d="M80 -459q-80 0 -126 42.5t-46 116.5q0 62 25.5 113t73 97t113.5 91l124 -1q-51 -44 -92 -86.5t-65 -86t-24 -91.5q0 -33 17.5 -50t48.5 -17q20 0 41 3.5t42 7.5l-13 -121q-27 -9 -57 -13.5t-62 -4.5z" />
    <glyph glyph-name="tilde" unicode="&#x2dc;" horiz-adv-x="801" 
d="M229 1244q18 85 48 144t73.5 90t102.5 31q45 0 80 -17.5t64.5 -40.5t56 -40.5t53.5 -17.5q37 0 59.5 26t42.5 92h114q-20 -93 -52 -151.5t-75 -86.5t-96 -28q-42 0 -76 18t-63.5 41t-57.5 41t-58 18q-37 0 -61 -29.5t-41 -89.5h-114z" />
    <glyph glyph-name="hungarumlaut" unicode="&#x2dd;" horiz-adv-x="853" 
d="M565 1241l2 23q43 51 85.5 105.5t79.5 106.5t61 93h192l-1 -18q-22 -29 -59.5 -70.5t-83 -86t-91.5 -84.5t-84 -69h-101zM232 1241l2 23q43 51 85.5 105.5t79 106.5t61.5 93h191l-1 -18q-20 -30 -57.5 -71t-83.5 -85t-92.5 -84t-86.5 -70h-98z" />
    <glyph glyph-name="uni02F3" unicode="&#x2f3;" horiz-adv-x="679" 
d="M168 -547q-100 0 -159.5 57t-59.5 155q0 97 60.5 154.5t158.5 57.5q92 0 156.5 -57t64.5 -152q0 -98 -62 -156.5t-159 -58.5zM167 -446q50 0 80.5 30.5t30.5 80.5t-30.5 80.5t-80.5 30.5q-51 0 -81 -30.5t-30 -80.5q0 -51 28 -81t83 -30z" />
    <glyph glyph-name="gravecomb" unicode="&#x300;" 
d="M-474 1241q-33 38 -73.5 93.5t-75.5 113.5t-53 101v19h203q14 -48 32 -99.5t40 -102.5t46 -102l-1 -23h-118z" />
    <glyph glyph-name="acutecomb" unicode="&#x301;" 
d="M-495 1241l1 22q41 47 82.5 100t79.5 106.5t66 99.5h214l-1 -18q-21 -29 -60.5 -70.5t-86.5 -87t-92.5 -86t-79.5 -66.5h-123z" />
    <glyph glyph-name="uni0302" unicode="&#x302;" 
d="M-155 1241l3 23q42 42 91.5 95t96 108t77.5 102h179q14 -45 39 -101t53 -110.5t50 -93.5l-3 -23h-112q-21 24 -44.5 54t-47 64t-45.5 70q-57 -55 -112 -103t-104 -85h-121z" />
    <glyph glyph-name="tildecomb" unicode="&#x303;" 
d="M-780 1244q18 85 48 144t73.5 90t102.5 31q45 0 80 -17.5t64.5 -40.5t56 -40.5t53.5 -17.5q37 0 59.5 26t42.5 92h114q-20 -93 -52 -151.5t-75 -86.5t-96 -28q-42 0 -76 18t-63.5 41t-57.5 41t-58 18q-37 0 -61 -29.5t-41 -89.5h-114z" />
    <glyph glyph-name="uni0304" unicode="&#x304;" 
d="M-121 1245l30 143h531l-31 -143h-530z" />
    <glyph glyph-name="uni0306" unicode="&#x306;" 
d="M160 1241q-79 0 -132.5 27.5t-80 77.5t-26.5 116q0 17 1 32.5t4 30.5h114q0 -46 12.5 -77t42 -46.5t77.5 -15.5q75 0 117 33.5t60 105.5h120q-28 -142 -105 -213t-204 -71z" />
    <glyph glyph-name="uni0307" unicode="&#x307;" 
d="M169 1280q-44 0 -70.5 24t-26.5 70q0 57 33.5 99.5t93.5 42.5q31 0 52 -10t32 -30.5t11 -50.5q0 -62 -34 -103.5t-91 -41.5z" />
    <glyph glyph-name="uni0308" unicode="&#x308;" 
d="M338 1290q-39 0 -61.5 21t-22.5 62q0 53 30 92t85 39q38 0 59 -20t21 -59q0 -60 -31.5 -97.5t-79.5 -37.5zM-4 1290q-38 0 -61 21t-23 62q0 53 29.5 92t85.5 39q25 0 42.5 -9t27 -26.5t9.5 -43.5q0 -60 -31 -97.5t-79 -37.5z" />
    <glyph glyph-name="hookabovecomb" unicode="&#x309;" 
d="M-497 1212l24 167q51 6 86.5 20t55 38t19.5 59q0 37 -25.5 53.5t-66.5 16.5q-26 0 -50.5 -3.5t-44.5 -8.5v111q28 10 62 15t71 5q95 0 151 -43.5t56 -124.5q0 -83 -53.5 -134.5t-146.5 -70.5l-27 -100h-111z" />
    <glyph glyph-name="uni030A" unicode="&#x30a;" 
d="M188 1244q-99 0 -158.5 57.5t-59.5 157.5q0 97 61 154.5t157 57.5q98 0 159 -57.5t61 -152.5q0 -99 -61 -158t-159 -59zM189 1346q50 0 81 30.5t31 81.5q0 50 -30.5 81t-81.5 31q-50 0 -80.5 -31t-30.5 -81q0 -51 28.5 -81.5t82.5 -30.5z" />
    <glyph glyph-name="uni030B" unicode="&#x30b;" 
d="M175 1241l2 23q43 51 85.5 105.5t79.5 106.5t61 93h192l-1 -18q-22 -29 -59.5 -70.5t-83 -86t-91.5 -84.5t-84 -69h-101zM-158 1241l2 23q43 51 85.5 105.5t79 106.5t61.5 93h191l-1 -18q-20 -30 -57.5 -71t-83.5 -85t-92.5 -84t-86.5 -70h-98z" />
    <glyph glyph-name="uni030C" unicode="&#x30c;" 
d="M64 1241q-14 44 -39 100.5t-52.5 111t-50.5 92.5l3 24h112q20 -22 42.5 -51t47 -64t46.5 -73q57 55 112.5 103.5t106.5 84.5h119l-2 -24q-35 -33 -87 -89t-102 -114t-77 -101h-179z" />
    <glyph glyph-name="uni030F" unicode="&#x30f;" 
d="M-347 1241q-38 42 -77.5 96.5t-72 111t-51.5 100.5l1 19h187q13 -49 31 -100t40 -102.5t45 -100.5l-2 -24h-101zM-666 1241q-36 40 -75.5 95.5t-73 112t-50.5 100.5l1 19h187q13 -48 31.5 -101.5t40.5 -105.5t46 -96l-3 -24h-104z" />
    <glyph glyph-name="uni0312" unicode="&#x312;" 
d="M-41 959l-8 22q33 79 73.5 162.5t85.5 165t91 153.5h144q-25 -54 -52.5 -119.5t-54 -134t-50 -133t-40.5 -116.5h-189z" />
    <glyph glyph-name="dotbelowcomb" unicode="&#x323;" 
d="M-709 -369q-44 0 -70.5 23.5t-26.5 70.5q0 57 33 99.5t94 42.5q31 0 52 -10.5t31.5 -31t10.5 -49.5q0 -62 -34 -103.5t-90 -41.5z" />
    <glyph glyph-name="uni0326" unicode="&#x326;" 
d="M123 -453v27q22 36 49.5 89.5t52.5 110.5t40 101h177v-20q-16 -41 -51 -97.5t-77 -113t-82 -97.5h-109z" />
    <glyph glyph-name="uni0327" unicode="&#x327;" 
d="M-252 -492q-35 0 -65.5 4.5t-55.5 10.5v113q19 -5 45.5 -9t55.5 -4q47 0 79.5 13t49.5 38t17 60q0 43 -35.5 66.5t-104.5 30.5l102 169h114l-62 -104q59 -14 98.5 -52.5t39.5 -107.5q0 -70 -34 -121t-96 -79t-148 -28z" />
    <glyph glyph-name="uni0328" unicode="&#x328;" 
d="M-146 -459q-80 0 -126 42.5t-46 116.5q0 62 25.5 113t73 97t113.5 91l124 -1q-51 -44 -92 -86.5t-65 -86t-24 -91.5q0 -33 17.5 -50t48.5 -17q20 0 41 3.5t42 7.5l-13 -121q-27 -9 -57 -13.5t-62 -4.5z" />
    <glyph glyph-name="tonos" unicode="&#x384;" horiz-adv-x="1059" 
d="M544 1241l3 26q18 33 40.5 78.5t45.5 95.5t43 97t33 82h187l-2 -23q-15 -31 -43.5 -76.5t-63 -97t-68 -99.5t-60.5 -83h-115z" />
    <glyph glyph-name="dieresistonos" unicode="&#x385;" horiz-adv-x="975" 
d="M555 1393v21q21 38 46.5 93.5t49.5 111.5t38 97h179l-2 -19q-22 -40 -60 -96t-80.5 -112t-80.5 -96h-90zM391 1290q-37 0 -59 21t-22 62q0 53 29 92.5t82 39.5q37 0 57 -20.5t20 -59.5q0 -60 -31 -97.5t-76 -37.5zM840 1290q-36 0 -58 21t-22 62q0 53 29 92.5t81 39.5
q36 0 57 -20.5t21 -59.5q0 -60 -30.5 -97.5t-77.5 -37.5z" />
    <glyph glyph-name="Alphatonos" unicode="&#x386;" horiz-adv-x="1027" 
d="M-114 0l704 1465h226l91 -1465h-192l-24 444h-392l-206 -444h-207zM375 613h312l-13 427q-3 60 -5.5 123t-1.5 116h-6q-19 -53 -43.5 -113t-55.5 -125zM80 1083l3 26q18 33 40.5 78.5t45.5 95.5t43 97t33 82h187l-2 -23q-15 -31 -43.5 -76.5t-63 -97t-68 -99.5t-60.5 -83
h-115z" />
    <glyph glyph-name="anoteleia" unicode="&#x387;" horiz-adv-x="482" 
d="M302 847q-50 0 -76.5 27t-26.5 74q0 66 37.5 117.5t113.5 51.5q45 0 71 -27t26 -76q0 -68 -39.5 -117.5t-105.5 -49.5z" />
    <glyph glyph-name="Epsilontonos" unicode="&#x388;" horiz-adv-x="1109" 
d="M232 0l310 1462h651l-35 -167h-461l-95 -448h431l-36 -167h-430l-110 -512h462l-36 -168h-651zM89 1083l3 26q18 33 40.5 78.5t45.5 95.5t43 97t33 82h187l-2 -23q-15 -31 -43.5 -76.5t-63 -97t-68 -99.5t-60.5 -83h-115z" />
    <glyph glyph-name="Etatonos" unicode="&#x389;" horiz-adv-x="1386" 
d="M221 0l310 1462h190l-130 -613h503l130 613h189l-310 -1462h-190l144 679h-502l-144 -679h-190zM82 1083l3 26q18 33 40.5 78.5t45.5 95.5t43 97t33 82h187l-2 -23q-15 -31 -43.5 -76.5t-63 -97t-68 -99.5t-60.5 -83h-115z" />
    <glyph glyph-name="Iotatonos" unicode="&#x38a;" horiz-adv-x="697" 
d="M226 0l311 1462h188l-310 -1462h-189zM82 1083l3 26q18 33 40.5 78.5t45.5 95.5t43 97t33 82h187l-2 -23q-15 -31 -43.5 -76.5t-63 -97t-68 -99.5t-60.5 -83h-115z" />
    <glyph glyph-name="Omicrontonos" unicode="&#x38c;" horiz-adv-x="1366" 
d="M654 -20q-143 0 -239.5 58.5t-145 170.5t-48.5 272q0 116 19 234.5t57 231t95 210t132 171t168 115t204 41.5q208 0 316.5 -128t108.5 -367q0 -108 -17.5 -224.5t-53 -229.5t-89.5 -213t-128 -177t-168 -121t-211 -44zM666 149q74 0 136.5 36.5t113 101t89.5 148
t65 177.5t39.5 191t13.5 188q0 158 -62.5 241.5t-179.5 83.5q-76 0 -140.5 -38t-115.5 -103.5t-89.5 -149.5t-64.5 -178t-39 -187.5t-13 -177.5q0 -111 29 -185t84 -111t134 -37zM82 1083l3 26q18 33 40.5 78.5t45.5 95.5t43 97t33 82h187l-2 -23q-15 -31 -43.5 -76.5
t-63 -97t-68 -99.5t-60.5 -83h-115z" />
    <glyph glyph-name="Upsilontonos" unicode="&#x38e;" horiz-adv-x="1187" 
d="M511 0l119 557l-170 905h195l110 -684l397 684h209l-551 -904l-118 -558h-191zM57 1083l3 26q18 33 40.5 78.5t45.5 95.5t43 97t33 82h187l-2 -23q-15 -31 -43.5 -76.5t-63 -97t-68 -99.5t-60.5 -83h-115z" />
    <glyph glyph-name="Omegatonos" unicode="&#x38f;" horiz-adv-x="1409" 
d="M89 1083l3 26q18 33 40.5 78.5t45.5 95.5t43 97t33 82h187l-2 -23q-15 -31 -43.5 -76.5t-63 -97t-68 -99.5t-60.5 -83h-115zM85 0l34 168h305q-46 47 -83 114.5t-58.5 154.5t-21.5 191q0 123 27 245.5t80 232t132 195t183.5 134.5t233.5 49q149 0 248 -61t148 -169
t49 -248q0 -136 -30 -260t-85 -232t-129.5 -195t-162.5 -151h311l-36 -168h-508l33 162q94 66 169 155.5t128.5 198t82 228.5t28.5 245q0 102 -28.5 175t-87 112.5t-147.5 39.5q-91 0 -162.5 -45.5t-125.5 -122t-89 -171t-52.5 -194.5t-17.5 -191q0 -144 37.5 -247
t107.5 -183l-34 -162h-479z" />
    <glyph glyph-name="iotadieresistonos" unicode="&#x390;" horiz-adv-x="574" 
d="M284 -20q-97 0 -154.5 49t-57.5 157q0 26 5.5 62.5t14.5 79.5l164 773h185l-166 -785q-6 -25 -10 -49.5t-4 -45.5q0 -38 18.5 -60.5t58.5 -22.5q27 0 55.5 6.5t60.5 17.5v-145q-32 -15 -79 -26t-91 -11zM334 1393v21q21 38 46.5 93.5t49.5 111.5t38 97h179l-2 -19
q-22 -40 -60 -96t-80.5 -112t-80.5 -96h-90zM170 1290q-37 0 -59 21t-22 62q0 53 29 92.5t82 39.5q37 0 57 -20.5t20 -59.5q0 -60 -31 -97.5t-76 -37.5zM619 1290q-36 0 -58 21t-22 62q0 53 29 92.5t81 39.5q36 0 57 -20.5t21 -59.5q0 -60 -30.5 -97.5t-77.5 -37.5z" />
    <glyph glyph-name="Alpha" unicode="&#x391;" horiz-adv-x="1015" 
d="M-125 0l704 1465h226l91 -1465h-192l-24 444h-392l-206 -444h-207zM364 613h312l-13 427q-3 60 -5.5 123t-1.5 116h-6q-19 -53 -43.5 -113t-55.5 -125z" />
    <glyph glyph-name="Beta" unicode="&#x392;" horiz-adv-x="1067" 
d="M39 0l309 1462h335q114 0 199.5 -33t133 -101t47.5 -174q0 -95 -35 -175t-102 -135.5t-166 -78.5v-7q90 -25 143 -98.5t53 -182.5q0 -144 -63 -251.5t-178.5 -166.5t-272.5 -59h-403zM264 164h183q102 0 171.5 40.5t105 111.5t35.5 164q0 96 -53.5 150t-163.5 54h-168z
M407 843h168q87 0 151.5 35t101 99t36.5 147q0 87 -50.5 131t-158.5 44h-151z" />
    <glyph glyph-name="Gamma" unicode="&#x393;" horiz-adv-x="835" 
d="M38 0l310 1462h641l-35 -168h-452l-274 -1294h-190z" />
    <glyph glyph-name="uni0394" unicode="&#x394;" horiz-adv-x="1007" 
d="M-70 0l13 123l642 1342h221l84 -1344l-24 -121h-936zM161 170h539l-37 820q-2 35 -4 69.5t-3 69t-1.5 70t0.5 71.5q-14 -38 -31.5 -83.5t-38.5 -95t-47 -101.5z" />
    <glyph glyph-name="Epsilon" unicode="&#x395;" horiz-adv-x="915" 
d="M38 0l310 1462h651l-35 -167h-461l-95 -448h431l-36 -167h-430l-110 -512h462l-36 -168h-651z" />
    <glyph glyph-name="Zeta" unicode="&#x396;" horiz-adv-x="900" 
d="M-57 0l29 142l776 1152h-515l36 168h740l-29 -143l-777 -1150h550l-35 -169h-775z" />
    <glyph glyph-name="Eta" unicode="&#x397;" horiz-adv-x="1203" 
d="M39 0l310 1462h190l-130 -613h503l130 613h189l-310 -1462h-190l144 679h-502l-144 -679h-190z" />
    <glyph glyph-name="Theta" unicode="&#x398;" horiz-adv-x="1275" 
d="M550 -20q-145 0 -244 58.5t-148.5 171.5t-49.5 274q0 111 19 227t56.5 228t94.5 210.5t133 174t171.5 118t209.5 42.5q207 0 319.5 -128t112.5 -372q0 -119 -19 -239.5t-56.5 -233t-94 -208.5t-131.5 -168.5t-168.5 -113.5t-204.5 -41zM559 149q79 0 144 38.5t117 105
t91 151.5t65 179t39 188t13 178q0 158 -64.5 242.5t-185.5 84.5q-80 0 -146 -38.5t-118.5 -105t-92 -151t-65.5 -178t-38.5 -186t-12.5 -173.5q0 -110 29.5 -184.5t86.5 -112.5t138 -38zM458 665l35 164h380l-35 -164h-380z" />
    <glyph glyph-name="Iota" unicode="&#x399;" horiz-adv-x="510" 
d="M38 0l311 1462h188l-310 -1462h-189z" />
    <glyph glyph-name="Kappa" unicode="&#x39a;" horiz-adv-x="1011" 
d="M38 0l310 1462h190l-152 -716l121 161l461 555h220l-547 -662l252 -800h-208l-201 673l-138 -115l-117 -558h-191z" />
    <glyph glyph-name="Lambda" unicode="&#x39b;" horiz-adv-x="1004" 
d="M-125 0l706 1465h215l92 -1465h-192l-47 941q-4 67 -5.5 144.5t-0.5 146.5q-27 -75 -62 -155.5t-75 -166.5l-428 -910h-203z" />
    <glyph glyph-name="Mu" unicode="&#x39c;" horiz-adv-x="1538" 
d="M38 0l309 1462h263l86 -1175h7l581 1175h282l-308 -1462h-187l193 909q12 54 24 106t24 99.5t23 86.5h-5l-603 -1201h-171l-92 1200h-6q-6 -42 -14.5 -94t-18 -107t-20.5 -107l-188 -892h-179z" />
    <glyph glyph-name="Nu" unicode="&#x39d;" horiz-adv-x="1267" 
d="M38 0l309 1462h215l312 -1162h5q10 59 21.5 125.5t24 131.5t23.5 117l168 788h180l-310 -1462h-211l-316 1177h-6q-6 -41 -14.5 -93.5t-18.5 -108.5t-20.5 -108.5t-19.5 -94.5l-163 -772h-179z" />
    <glyph glyph-name="Xi" unicode="&#x39e;" horiz-adv-x="907" 
d="M-40 0l34 168h747l-35 -168h-746zM194 682l34 167h570l-36 -167h-568zM262 1295l35 167h692l-35 -167h-692z" />
    <glyph glyph-name="Omicron" unicode="&#x39f;" horiz-adv-x="1254" 
d="M541 -20q-143 0 -239.5 58.5t-145 170.5t-48.5 272q0 116 19 234.5t57 231t95 210t132 171t168 115t204 41.5q208 0 316.5 -128t108.5 -367q0 -108 -17.5 -224.5t-53 -229.5t-89.5 -213t-128 -177t-168 -121t-211 -44zM553 149q74 0 136.5 36.5t113 101t89.5 148
t65 177.5t39.5 191t13.5 188q0 158 -62.5 241.5t-179.5 83.5q-76 0 -140.5 -38t-115.5 -103.5t-89.5 -149.5t-64.5 -178t-39 -187.5t-13 -177.5q0 -111 29 -185t84 -111t134 -37z" />
    <glyph glyph-name="Pi" unicode="&#x3a0;" horiz-adv-x="1194" 
d="M38 0l310 1462h875l-309 -1462h-191l274 1293h-495l-273 -1293h-191z" />
    <glyph glyph-name="Rho" unicode="&#x3a1;" horiz-adv-x="1010" 
d="M39 0l309 1462h290q137 0 224 -44t128.5 -124t41.5 -188q0 -121 -37.5 -221t-109.5 -171.5t-176.5 -110.5t-239.5 -39h-121l-119 -564h-190zM383 729h98q113 0 192.5 43.5t121 124.5t41.5 195q0 105 -55.5 155t-167.5 50h-109z" />
    <glyph glyph-name="Sigma" unicode="&#x3a3;" horiz-adv-x="920" 
d="M-53 0l31 156l491 603l-234 550l32 153h741l-35 -167h-528l228 -545l-471 -582h575l-34 -168h-796z" />
    <glyph glyph-name="Tau" unicode="&#x3a4;" horiz-adv-x="879" 
d="M220 0l274 1293h-322l36 169h836l-36 -169h-322l-275 -1293h-191z" />
    <glyph glyph-name="Upsilon" unicode="&#x3a5;" horiz-adv-x="910" 
d="M233 0l119 557l-170 905h195l110 -684l397 684h209l-551 -904l-118 -558h-191z" />
    <glyph glyph-name="Phi" unicode="&#x3a6;" horiz-adv-x="1378" 
d="M461 -20l49 225q-127 9 -215.5 61.5t-134.5 145.5t-46 224q0 141 40.5 260.5t120 209t197.5 141t271 56.5l37 180h187l-36 -180q124 -8 212.5 -60t135.5 -144t47 -220q0 -135 -40 -255.5t-119 -213t-196.5 -147t-273.5 -58.5l-49 -225h-187zM543 366l166 775
q-103 -2 -178.5 -44.5t-125.5 -113t-74.5 -159t-24.5 -183.5q0 -87 28 -147t81 -92t128 -36zM730 366q99 4 174.5 46t126 112t76 159.5t25.5 188.5q0 84 -27.5 143t-80 91t-130.5 35z" />
    <glyph glyph-name="Chi" unicode="&#x3a7;" horiz-adv-x="948" 
d="M-115 0l519 768l-180 694h196l126 -540l351 540h207l-478 -709l192 -753h-203l-131 594l-392 -594h-207z" />
    <glyph glyph-name="Psi" unicode="&#x3a8;" horiz-adv-x="1369" 
d="M465 0l94 439h-8q-130 2 -213.5 47t-124 124.5t-40.5 185.5q0 45 7 101.5t20 118.5l94 446h191l-98 -466q-12 -57 -18 -102t-6 -80q0 -75 26 -121.5t75.5 -67t118.5 -20.5h10l182 857h187l-182 -857h9q112 0 182 44t110.5 125.5t64.5 192.5l105 495h192l-108 -514
q-24 -115 -65.5 -209t-107.5 -161t-164 -103t-235 -36h-18l-92 -439h-188z" />
    <glyph glyph-name="uni03A9" unicode="&#x3a9;" horiz-adv-x="1273" 
d="M-51 0l34 168h305q-46 47 -83 114.5t-58.5 154.5t-21.5 191q0 123 27 245.5t80 232t132 195t183.5 134.5t233.5 49q149 0 248 -61t148 -169t49 -248q0 -136 -30 -260t-85 -232t-129.5 -195t-162.5 -151h311l-36 -168h-508l33 162q94 66 169 155.5t128.5 198t82 228.5
t28.5 245q0 102 -28.5 175t-87 112.5t-147.5 39.5q-91 0 -162.5 -45.5t-125.5 -122t-89 -171t-52.5 -194.5t-17.5 -191q0 -144 37.5 -247t107.5 -183l-34 -162h-479z" />
    <glyph glyph-name="Iotadieresis" unicode="&#x3aa;" horiz-adv-x="510" 
d="M38 0l311 1462h188l-310 -1462h-189zM660 1661q-39 0 -61.5 21t-22.5 62q0 53 30 92t85 39q38 0 59 -20t21 -59q0 -60 -31.5 -97.5t-79.5 -37.5zM318 1661q-38 0 -61 21t-23 62q0 53 29.5 92t85.5 39q25 0 42.5 -9t27 -26.5t9.5 -43.5q0 -60 -31 -97.5t-79 -37.5z" />
    <glyph glyph-name="Upsilondieresis" unicode="&#x3ab;" horiz-adv-x="910" 
d="M233 0l119 557l-170 905h195l110 -684l397 684h209l-551 -904l-118 -558h-191zM833 1640q-39 0 -61.5 21t-22.5 62q0 53 30 92t85 39q38 0 59 -20t21 -59q0 -60 -31.5 -97.5t-79.5 -37.5zM491 1640q-38 0 -61 21t-23 62q0 53 29.5 92t85.5 39q25 0 42.5 -9t27 -26.5
t9.5 -43.5q0 -60 -31 -97.5t-79 -37.5z" />
    <glyph glyph-name="alphatonos" unicode="&#x3ac;" horiz-adv-x="1046" 
d="M331 -20q-117 0 -187.5 88t-70.5 258q0 116 22 230.5t63.5 216.5t101.5 180t135.5 123.5t164.5 45.5q97 0 155.5 -50.5t84.5 -130.5h8q11 27 25.5 56.5t30.5 57t33 46.5h154q-23 -46 -48 -112.5t-48 -145t-42 -164.5l-80 -368q-6 -31 -10 -59.5t-4 -50.5q0 -33 14.5 -48
t39.5 -15q13 0 29 3t31 9v-144q-20 -10 -55 -18t-66 -8q-66 0 -104 24.5t-54 67.5t-15 96h-7q-39 -55 -83.5 -97.5t-98 -66.5t-119.5 -24zM398 136q69 0 126.5 53t100 138.5t67.5 180.5q19 78 28.5 144.5t9.5 120.5q0 90 -38.5 140t-110.5 50q-59 0 -108.5 -40.5t-88.5 -108
t-65.5 -149t-41 -166.5t-14.5 -160q0 -102 34 -152.5t101 -50.5zM573 1241l3 26q18 33 40.5 78.5t45.5 95.5t43 97t33 82h187l-2 -23q-15 -31 -43.5 -76.5t-63 -97t-68 -99.5t-60.5 -83h-115z" />
    <glyph glyph-name="epsilontonos" unicode="&#x3ad;" horiz-adv-x="811" 
d="M357 -20q-107 0 -180.5 33.5t-111 95.5t-37.5 146q0 90 34.5 157.5t98 110.5t148.5 58l1 7q-57 26 -93 79.5t-36 132.5q0 103 50 174.5t134.5 109t187.5 37.5q90 0 160.5 -18.5t129.5 -55.5l-75 -141q-41 27 -94.5 44t-113.5 17q-90 0 -147 -46.5t-57 -135.5
q0 -64 40 -100t125 -36h92l-30 -147h-99q-79 0 -138.5 -25t-92.5 -73t-33 -117t41.5 -111t132.5 -42q76 0 141.5 21t127.5 54v-158q-57 -31 -135 -51t-171 -20zM490 1241l3 26q18 33 40.5 78.5t45.5 95.5t43 97t33 82h187l-2 -23q-15 -31 -43.5 -76.5t-63 -97t-68 -99.5
t-60.5 -83h-115z" />
    <glyph glyph-name="etatonos" unicode="&#x3ae;" horiz-adv-x="1025" 
d="M478 -492l249 1170q10 47 17 89t7 75q0 56 -28 87t-87 31q-66 0 -126 -48t-108 -143t-78 -235l-113 -534h-186l233 1101h149l-21 -178h7q35 54 80 99t102 72.5t125 27.5q72 0 126 -27.5t84 -82t30 -137.5q0 -43 -7.5 -93.5t-17.5 -97.5l-251 -1176h-186zM576 1241l3 26
q18 33 40.5 78.5t45.5 95.5t43 97t33 82h187l-2 -23q-15 -31 -43.5 -76.5t-63 -97t-68 -99.5t-60.5 -83h-115z" />
    <glyph glyph-name="iotatonos" unicode="&#x3af;" horiz-adv-x="571" 
d="M284 -20q-97 0 -154.5 49t-57.5 157q0 26 5.5 62.5t14.5 79.5l164 773h185l-166 -785q-6 -25 -10 -49.5t-4 -45.5q0 -38 18.5 -60.5t58.5 -22.5q27 0 55.5 6.5t60.5 17.5v-145q-32 -15 -79 -26t-91 -11zM298 1241l3 26q18 33 40.5 78.5t45.5 95.5t43 97t33 82h187l-2 -23
q-15 -31 -43.5 -76.5t-63 -97t-68 -99.5t-60.5 -83h-115z" />
    <glyph glyph-name="upsilondieresistonos" unicode="&#x3b0;" horiz-adv-x="1029" 
d="M409 -19q-158 0 -237 81.5t-79 225.5q0 44 7.5 97.5t21.5 124.5l126 591h186l-128 -601q-14 -62 -21 -109t-7 -85q0 -85 39.5 -126t108.5 -41q71 0 125 45t92.5 122.5t64.5 175.5t41 206.5t22 214.5t7 198h185q-1 -148 -14.5 -305t-48 -302.5t-96.5 -261t-158.5 -183.5
t-236.5 -68zM589 1393v21q21 38 46.5 93.5t49.5 111.5t38 97h179l-2 -19q-22 -40 -60 -96t-80.5 -112t-80.5 -96h-90zM425 1290q-37 0 -59 21t-22 62q0 53 29 92.5t82 39.5q37 0 57 -20.5t20 -59.5q0 -60 -31 -97.5t-76 -37.5zM874 1290q-36 0 -58 21t-22 62q0 53 29 92.5
t81 39.5q36 0 57 -20.5t21 -59.5q0 -60 -30.5 -97.5t-77.5 -37.5z" />
    <glyph glyph-name="alpha" unicode="&#x3b1;" horiz-adv-x="1046" 
d="M331 -20q-117 0 -187.5 88t-70.5 258q0 116 22 230.5t63.5 216.5t101.5 180t135.5 123.5t164.5 45.5q97 0 155.5 -50.5t84.5 -130.5h8q11 27 25.5 56.5t30.5 57t33 46.5h154q-23 -46 -48 -112.5t-48 -145t-42 -164.5l-80 -368q-6 -31 -10 -59.5t-4 -50.5q0 -33 14.5 -48
t39.5 -15q13 0 29 3t31 9v-144q-20 -10 -55 -18t-66 -8q-66 0 -104 24.5t-54 67.5t-15 96h-7q-39 -55 -83.5 -97.5t-98 -66.5t-119.5 -24zM398 136q69 0 126.5 53t100 138.5t67.5 180.5q19 78 28.5 144.5t9.5 120.5q0 90 -38.5 140t-110.5 50q-59 0 -108.5 -40.5t-88.5 -108
t-65.5 -149t-41 -166.5t-14.5 -160q0 -102 34 -152.5t101 -50.5z" />
    <glyph glyph-name="beta" unicode="&#x3b2;" horiz-adv-x="1043" 
d="M-79 -491l347 1633q27 128 78 223.5t138.5 148.5t223.5 53q103 0 176 -38.5t112.5 -109.5t39.5 -168q0 -111 -36.5 -201.5t-107.5 -150.5t-177 -82q99 -20 160 -103t61 -213q0 -96 -27.5 -188.5t-83 -167.5t-140.5 -120t-200 -45q-89 0 -153 25.5t-108 59.5l-120 -556
h-183zM461 138q76 0 130 32.5t88.5 85.5t51 117t16.5 126q0 111 -52 173t-160 62h-51l34 158h50q71 0 123 28.5t86 77t50.5 110t16.5 128.5q0 80 -39.5 127.5t-117.5 47.5q-67 0 -112.5 -33.5t-74.5 -95t-48 -146.5l-195 -921q36 -35 92 -56t112 -21z" />
    <glyph glyph-name="gamma" unicode="&#x3b3;" horiz-adv-x="839" 
d="M32 -492q17 83 42.5 166t57.5 166t70 165l-90 1096h186l34 -563q3 -34 4.5 -74t2 -82t0 -82.5t-1.5 -76.5h6q29 80 64 162t70 155l266 561h198l-516 -1045q-47 -94 -85.5 -189.5t-67 -186t-46.5 -172.5h-194z" />
    <glyph glyph-name="delta" unicode="&#x3b4;" horiz-adv-x="1008" 
d="M412 -20q-118 0 -197 47t-119 128.5t-40 186.5q0 145 55.5 262.5t158.5 202t243 131.5q-62 65 -103.5 137.5t-41.5 164.5q0 98 46 171t128 113.5t191 40.5q106 0 187 -30t134 -68l-82 -141q-53 36 -113 60.5t-130 24.5q-85 0 -131 -44t-46 -120q0 -49 20 -90t56 -81.5
t82 -87.5q59 -62 102 -128.5t66.5 -142.5t23.5 -168q0 -116 -31.5 -218.5t-93 -181.5t-153 -124t-212.5 -45zM431 136q70 0 122.5 36.5t87.5 96.5t52.5 131.5t17.5 141.5q0 101 -31 174t-82 127q-75 -26 -139 -73.5t-111.5 -111t-74 -140.5t-26.5 -161q0 -101 47 -161
t137 -60z" />
    <glyph glyph-name="epsilon" unicode="&#x3b5;" horiz-adv-x="811" 
d="M357 -20q-107 0 -180.5 33.5t-111 95.5t-37.5 146q0 90 34.5 157.5t98 110.5t148.5 58l1 7q-57 26 -93 79.5t-36 132.5q0 103 50 174.5t134.5 109t187.5 37.5q90 0 160.5 -18.5t129.5 -55.5l-75 -141q-41 27 -94.5 44t-113.5 17q-90 0 -147 -46.5t-57 -135.5
q0 -64 40 -100t125 -36h92l-30 -147h-99q-79 0 -138.5 -25t-92.5 -73t-33 -117t41.5 -111t132.5 -42q76 0 141.5 21t127.5 54v-158q-57 -31 -135 -51t-171 -20z" />
    <glyph glyph-name="zeta" unicode="&#x3b6;" horiz-adv-x="788" 
d="M253 -404q47 47 86.5 94t63 94t23.5 92q0 49 -37.5 80t-104.5 65q-73 39 -122.5 83t-74.5 105.5t-25 150.5q0 138 50 271.5t139.5 264.5t208 260t253.5 256q-39 -5 -87 -7.5t-102 -2.5h-197l34 154h601l-28 -131q-135 -128 -257 -259t-217 -261t-149.5 -257t-54.5 -246
q0 -64 20 -107.5t58 -76t94 -64.5q55 -28 98 -59.5t68 -73.5t25 -103q0 -62 -23 -118t-61.5 -106.5t-86.5 -97.5h-195z" />
    <glyph glyph-name="eta" unicode="&#x3b7;" horiz-adv-x="1025" 
d="M478 -492l249 1170q10 47 17 89t7 75q0 56 -28 87t-87 31q-66 0 -126 -48t-108 -143t-78 -235l-113 -534h-186l233 1101h149l-21 -178h7q35 54 80 99t102 72.5t125 27.5q72 0 126 -27.5t84 -82t30 -137.5q0 -43 -7.5 -93.5t-17.5 -97.5l-251 -1176h-186z" />
    <glyph glyph-name="theta" unicode="&#x3b8;" horiz-adv-x="1002" 
d="M385 -20q-101 0 -169 45.5t-101.5 136t-33.5 225.5q0 63 6 135.5t18.5 151t30.5 159.5q35 156 84.5 290.5t115.5 235.5t153.5 158t199.5 57q94 0 161.5 -42.5t103.5 -133t36 -236.5q0 -77 -11 -174t-32 -199.5t-51 -197.5q-37 -138 -85.5 -250.5t-110.5 -193t-140 -124
t-175 -43.5zM400 131q58 0 108 41.5t91.5 118.5t77 185t66.5 241h-443q-20 -104 -30 -189.5t-10 -150.5q0 -127 35 -186.5t105 -59.5zM334 870h439q16 92 25 172.5t9 143.5q0 118 -33.5 176.5t-102.5 58.5q-56 0 -104.5 -38.5t-90.5 -110.5t-77 -174t-65 -228z" />
    <glyph glyph-name="iota" unicode="&#x3b9;" horiz-adv-x="571" 
d="M284 -20q-97 0 -154.5 49t-57.5 157q0 26 5.5 62.5t14.5 79.5l164 773h185l-166 -785q-6 -25 -10 -49.5t-4 -45.5q0 -38 18.5 -60.5t58.5 -22.5q27 0 55.5 6.5t60.5 17.5v-145q-32 -15 -79 -26t-91 -11z" />
    <glyph glyph-name="kappa" unicode="&#x3ba;" horiz-adv-x="901" 
d="M24 0l235 1101h186l-61 -277q-13 -59 -29.5 -121.5t-33.5 -119.5h5l447 518h211l-408 -464l207 -637h-202l-156 503l-136 -124l-78 -379h-187z" />
    <glyph glyph-name="lambda" unicode="&#x3bb;" horiz-adv-x="902" 
d="M704 -20q-67 0 -107.5 26t-60.5 78t-25 131l-19 380q-3 55 -5 115.5t-2 117.5q-9 -24 -19 -48.5t-19.5 -48.5t-20.5 -47.5t-22 -46.5l-314 -637h-196l561 1081l-8 176q-5 79 -30.5 117t-80.5 38q-22 0 -41.5 -3t-39.5 -9l-13 152q26 7 62.5 12.5t71.5 5.5q89 0 141 -34
t77 -100t32 -162l59 -1010q3 -44 11 -71.5t23 -40t38 -12.5q14 0 29.5 2.5t32.5 8.5v-152q-21 -7 -53.5 -13t-61.5 -6z" />
    <glyph glyph-name="uni03BC" unicode="&#x3bc;" horiz-adv-x="1031" 
d="M-79 -491l337 1592h185l-144 -686q-10 -45 -15 -80.5t-5 -62.5q0 -62 28.5 -96.5t86.5 -34.5q63 0 122 44t107.5 137.5t79.5 239.5l116 539h183l-233 -1101h-146l15 165h-7q-33 -54 -74 -96t-90 -65.5t-109 -23.5q-51 0 -86 22.5t-55 62.5h-6q-3 -27 -8 -62t-10.5 -70
t-11.5 -64l-76 -360h-184z" />
    <glyph glyph-name="nu" unicode="&#x3bd;" horiz-adv-x="896" 
d="M182 0l-65 1101h186l32 -645q3 -67 4.5 -133t2.5 -126q99 115 176 254.5t134.5 302.5t96.5 347h188q-43 -213 -115.5 -404t-182 -364t-265.5 -333h-192z" />
    <glyph glyph-name="xi" unicode="&#x3be;" horiz-adv-x="794" 
d="M248 -404q47 48 87.5 96t65 96t24.5 93q-1 48 -34 77.5t-105 62.5q-76 36 -126.5 81.5t-76 108.5t-25.5 151q0 111 42 205t123 160t199 94v6q-81 28 -125.5 85.5t-44.5 143.5q0 64 22 120.5t62.5 103t95.5 80t121 51.5q-46 -4 -85.5 -6.5t-84.5 -2.5h-75l33 154h578
l-31 -146h-36q-64 0 -124 -16t-112.5 -45.5t-92 -71t-62 -93.5t-22.5 -112q0 -89 54.5 -135t168.5 -46h86l-32 -150h-81q-112 0 -199 -42.5t-136.5 -121t-49.5 -188.5q0 -61 18 -101t56.5 -69t99.5 -60q53 -24 96.5 -54.5t69 -74t25.5 -107.5q0 -61 -22 -117t-60 -107.5
t-88 -102.5h-197z" />
    <glyph glyph-name="omicron" unicode="&#x3bf;" horiz-adv-x="1004" 
d="M414 -18q-106 0 -182 45t-117 130t-41 204q0 96 19.5 200.5t59.5 204t102 179.5t146 127.5t192 47.5q106 0 182 -46t116.5 -132t40.5 -207q0 -102 -20 -208.5t-61 -204t-103 -174.5t-145.5 -121.5t-188.5 -44.5zM430 138q57 0 105 35t86.5 95.5t65.5 138t41.5 164.5
t14.5 173q0 62 -16.5 111.5t-52.5 78.5t-94 29q-62 0 -112.5 -38.5t-89 -102.5t-64.5 -143.5t-39.5 -162.5t-13.5 -158q0 -106 43.5 -163t125.5 -57z" />
    <glyph glyph-name="pi" unicode="&#x3c0;" horiz-adv-x="1102" 
d="M791 -17q-89 0 -138 47t-49 137q0 27 5 61.5t13 74.5l134 643h-300l-202 -946h-187l203 946h-185l17 83l153 72h898l-31 -155h-180l-137 -656q-5 -23 -8 -45t-3 -40q0 -32 16 -48t47 -16q22 0 43.5 5.5t38.5 12.5v-145q-30 -14 -68 -22.5t-80 -8.5z" />
    <glyph glyph-name="rho" unicode="&#x3c1;" horiz-adv-x="1022" 
d="M-77 -491l234 1116q33 152 86.5 263t143 172t228.5 61q110 0 185 -45.5t113.5 -130.5t38.5 -205q0 -96 -18.5 -201t-56.5 -204t-96 -179.5t-136 -128t-177 -47.5q-84 0 -144.5 29.5t-102.5 76.5q-7 -56 -17.5 -110.5t-22.5 -114.5l-75 -352h-183zM444 137q64 0 115.5 40
t89.5 105.5t63 145.5t37.5 161t12.5 150q0 106 -40 165t-121 59q-70 0 -119.5 -40.5t-84 -123t-60.5 -208.5l-75 -358q27 -40 73.5 -68t108.5 -28z" />
    <glyph glyph-name="uni03C2" unicode="&#x3c2;" horiz-adv-x="797" 
d="M265 -407q54 55 92 103.5t58.5 92t20.5 83.5q0 31 -12.5 55t-42 46t-79.5 47q-69 39 -120.5 86t-80 117.5t-28.5 176.5q0 96 21 197t63.5 194.5t106.5 168t149.5 118.5t193.5 44q70 0 129.5 -14.5t109.5 -40.5l-64 -150q-36 19 -80.5 32.5t-93.5 13.5q-67 0 -121.5 -35.5
t-96 -94.5t-69.5 -130t-42 -144t-14 -136q0 -74 19 -122t57.5 -81.5t94.5 -63.5q54 -29 97.5 -61t69.5 -77t26 -112q0 -55 -21 -107.5t-58 -104t-88 -101.5h-197z" />
    <glyph glyph-name="sigma" unicode="&#x3c3;" horiz-adv-x="1042" 
d="M415 -18q-156 0 -248.5 98.5t-92.5 292.5q0 107 21.5 212.5t66 198t114 164.5t165.5 112.5t220 40.5h440l-32 -155h-221q25 -49 44 -115t19 -159q0 -84 -17.5 -178.5t-54.5 -185.5t-95.5 -165t-140 -117.5t-188.5 -43.5zM431 138q63 0 111.5 35t84 94.5t58 135.5
t33.5 159.5t11 163.5q0 69 -10 124.5t-27 95.5h-49q-102 0 -174 -50.5t-117.5 -134t-67 -184.5t-21.5 -201q0 -120 43 -179t125 -59z" />
    <glyph glyph-name="tau" unicode="&#x3c4;" horiz-adv-x="748" 
d="M402 -21q-103 0 -165 51t-62 165q0 32 5.5 74.5t16.5 89.5l125 586h-242l17 83l151 73h570l-33 -156h-277l-127 -598q-8 -35 -12.5 -63.5t-4.5 -54.5q0 -43 23 -67.5t68 -24.5q29 0 59 7t61 18v-146q-32 -16 -79.5 -26.5t-93.5 -10.5z" />
    <glyph glyph-name="upsilon" unicode="&#x3c5;" horiz-adv-x="1029" 
d="M409 -19q-158 0 -237 81.5t-79 225.5q0 44 7.5 97.5t21.5 124.5l126 591h186l-128 -601q-14 -62 -21 -109t-7 -85q0 -85 39.5 -126t108.5 -41q71 0 125 45t92.5 122.5t64.5 175.5t41 206.5t22 214.5t7 198h185q-1 -148 -14.5 -305t-48 -302.5t-96.5 -261t-158.5 -183.5
t-236.5 -68z" />
    <glyph glyph-name="phi" unicode="&#x3c6;" horiz-adv-x="1274" 
d="M313 -491l100 475q-98 12 -174.5 61.5t-120.5 138.5t-44 218q0 138 38 262.5t110.5 237t177.5 214.5l124 -102q-81 -85 -140 -180t-90.5 -200.5t-31.5 -222.5q0 -87 24 -144.5t65.5 -88t95.5 -39.5l134 635q35 162 113 254.5t226 92.5q135 0 208 -92t73 -262
q0 -111 -23.5 -221t-71 -209t-120.5 -177t-170.5 -125.5t-221.5 -53.5l-99 -472h-182zM629 138q86 10 150.5 55t109.5 112.5t72.5 148t40 163t12.5 154.5q0 100 -28 148t-79 48q-55 0 -89 -47.5t-57 -162.5z" />
    <glyph glyph-name="chi" unicode="&#x3c7;" horiz-adv-x="895" 
d="M-240 -492l544 853l-34 459q-6 70 -24.5 101.5t-57.5 31.5q-17 0 -34 -4t-34 -9l-8 151q25 10 60 16t69 6q103 0 147 -62t54 -178l19 -304l318 532h200l-487 -776l40 -520q6 -71 26 -104t64 -33q18 0 38 4t39 11v-149q-30 -11 -65 -18.5t-72 -7.5q-69 0 -111.5 30t-64 88
t-28.5 144l-24 354l-371 -616h-203z" />
    <glyph glyph-name="psi" unicode="&#x3c8;" horiz-adv-x="1293" 
d="M329 -492l101 474q-170 17 -252.5 108.5t-82.5 244.5q0 47 7.5 100t19.5 115l117 551h186l-119 -565q-12 -52 -18.5 -99t-6.5 -88q0 -95 43 -148t139 -62l301 1418h180l-299 -1415q94 6 163 62.5t115 151t73 215.5t39 256.5t12 273.5h186q-1 -165 -17 -325.5t-55.5 -301
t-109.5 -249.5t-178 -173.5t-262 -70.5l-101 -473h-181z" />
    <glyph glyph-name="omega" unicode="&#x3c9;" horiz-adv-x="1302" 
d="M309 -20q-122 0 -184 88.5t-62 241.5q0 127 32.5 264t89 271.5t129.5 255.5h190q-71 -122 -129 -256.5t-92 -270.5t-34 -262q0 -91 28 -131t75 -40q70 0 111.5 73t72.5 221l60 282h181l-60 -273q-7 -39 -13 -71.5t-8.5 -59t-2.5 -48.5q0 -61 22.5 -92.5t67.5 -31.5
q55 0 98 47.5t74.5 126t52.5 172.5t31 188t10 171q0 74 -4.5 137t-13.5 118h183q9 -52 14 -116.5t5 -134.5q0 -104 -15 -222.5t-47 -233t-85.5 -208t-129.5 -150t-179 -56.5q-64 0 -106.5 23.5t-67 64t-32.5 91.5q-45 -87 -108.5 -133t-153.5 -46z" />
    <glyph glyph-name="iotadieresis" unicode="&#x3ca;" horiz-adv-x="571" 
d="M284 -20q-97 0 -154.5 49t-57.5 157q0 26 5.5 62.5t14.5 79.5l164 773h185l-166 -785q-6 -25 -10 -49.5t-4 -45.5q0 -38 18.5 -60.5t58.5 -22.5q27 0 55.5 6.5t60.5 17.5v-145q-32 -15 -79 -26t-91 -11zM560 1290q-39 0 -61.5 21t-22.5 62q0 53 30 92t85 39q38 0 59 -20
t21 -59q0 -60 -31.5 -97.5t-79.5 -37.5zM218 1290q-38 0 -61 21t-23 62q0 53 29.5 92t85.5 39q25 0 42.5 -9t27 -26.5t9.5 -43.5q0 -60 -31 -97.5t-79 -37.5z" />
    <glyph glyph-name="upsilondieresis" unicode="&#x3cb;" horiz-adv-x="1029" 
d="M409 -19q-158 0 -237 81.5t-79 225.5q0 44 7.5 97.5t21.5 124.5l126 591h186l-128 -601q-14 -62 -21 -109t-7 -85q0 -85 39.5 -126t108.5 -41q71 0 125 45t92.5 122.5t64.5 175.5t41 206.5t22 214.5t7 198h185q-1 -148 -14.5 -305t-48 -302.5t-96.5 -261t-158.5 -183.5
t-236.5 -68zM812 1290q-39 0 -61.5 21t-22.5 62q0 53 30 92t85 39q38 0 59 -20t21 -59q0 -60 -31.5 -97.5t-79.5 -37.5zM470 1290q-38 0 -61 21t-23 62q0 53 29.5 92t85.5 39q25 0 42.5 -9t27 -26.5t9.5 -43.5q0 -60 -31 -97.5t-79 -37.5z" />
    <glyph glyph-name="omicrontonos" unicode="&#x3cc;" horiz-adv-x="1004" 
d="M414 -18q-106 0 -182 45t-117 130t-41 204q0 96 19.5 200.5t59.5 204t102 179.5t146 127.5t192 47.5q106 0 182 -46t116.5 -132t40.5 -207q0 -102 -20 -208.5t-61 -204t-103 -174.5t-145.5 -121.5t-188.5 -44.5zM430 138q57 0 105 35t86.5 95.5t65.5 138t41.5 164.5
t14.5 173q0 62 -16.5 111.5t-52.5 78.5t-94 29q-62 0 -112.5 -38.5t-89 -102.5t-64.5 -143.5t-39.5 -162.5t-13.5 -158q0 -106 43.5 -163t125.5 -57zM524 1241l3 26q18 33 40.5 78.5t45.5 95.5t43 97t33 82h187l-2 -23q-15 -31 -43.5 -76.5t-63 -97t-68 -99.5t-60.5 -83
h-115z" />
    <glyph glyph-name="upsilontonos" unicode="&#x3cd;" horiz-adv-x="1029" 
d="M409 -19q-158 0 -237 81.5t-79 225.5q0 44 7.5 97.5t21.5 124.5l126 591h186l-128 -601q-14 -62 -21 -109t-7 -85q0 -85 39.5 -126t108.5 -41q71 0 125 45t92.5 122.5t64.5 175.5t41 206.5t22 214.5t7 198h185q-1 -148 -14.5 -305t-48 -302.5t-96.5 -261t-158.5 -183.5
t-236.5 -68zM546 1241l3 26q18 33 40.5 78.5t45.5 95.5t43 97t33 82h187l-2 -23q-15 -31 -43.5 -76.5t-63 -97t-68 -99.5t-60.5 -83h-115z" />
    <glyph glyph-name="omegatonos" unicode="&#x3ce;" horiz-adv-x="1302" 
d="M309 -20q-122 0 -184 88.5t-62 241.5q0 127 32.5 264t89 271.5t129.5 255.5h190q-71 -122 -129 -256.5t-92 -270.5t-34 -262q0 -91 28 -131t75 -40q70 0 111.5 73t72.5 221l60 282h181l-60 -273q-7 -39 -13 -71.5t-8.5 -59t-2.5 -48.5q0 -61 22.5 -92.5t67.5 -31.5
q55 0 98 47.5t74.5 126t52.5 172.5t31 188t10 171q0 74 -4.5 137t-13.5 118h183q9 -52 14 -116.5t5 -134.5q0 -104 -15 -222.5t-47 -233t-85.5 -208t-129.5 -150t-179 -56.5q-64 0 -106.5 23.5t-67 64t-32.5 91.5q-45 -87 -108.5 -133t-153.5 -46zM691 1241l3 26
q18 33 40.5 78.5t45.5 95.5t43 97t33 82h187l-2 -23q-15 -31 -43.5 -76.5t-63 -97t-68 -99.5t-60.5 -83h-115z" />
    <glyph glyph-name="uni03D1" unicode="&#x3d1;" horiz-adv-x="1091" 
d="M382 -20q-93 0 -159 30t-100.5 86.5t-34.5 136.5q0 65 17 126t39 121q15 47 28.5 87.5t13.5 73.5q0 27 -13 41.5t-36 14.5q-18 0 -41 -6.5t-43 -17.5l4 149q29 12 68.5 21.5t84.5 9.5q76 0 119 -43t43 -118q0 -50 -15 -103t-35 -108q-19 -57 -33.5 -113t-14.5 -109
q0 -59 29.5 -92.5t94.5 -33.5q63 0 115.5 35t95.5 98.5t77.5 149.5t62 189t47.5 215q-148 3 -250.5 48.5t-155.5 129t-53 198.5q0 105 42.5 191t121 136.5t187.5 50.5q115 0 187.5 -52.5t107 -150.5t34.5 -234q0 -40 -2.5 -82t-7.5 -84h130l-32 -152h-122
q-24 -137 -59.5 -263t-84.5 -230.5t-115 -182t-150.5 -120.5t-191.5 -43zM819 971q6 43 9 86.5t3 82.5q0 135 -36 208.5t-113 73.5q-52 0 -87.5 -31.5t-53.5 -82t-18 -107.5q0 -79 34.5 -129.5t100.5 -75t161 -25.5z" />
    <glyph glyph-name="uni03D2" unicode="&#x3d2;" horiz-adv-x="910" 
d="M231 0l119 557l-168 905h193l109 -684q39 82 80.5 162.5t81.5 154.5t76.5 135.5t65.5 104.5q50 71 98.5 105.5t119.5 34.5q31 0 58 -5.5t48 -14.5l-34 -154q-11 4 -24 7.5t-29 3.5q-32 0 -61 -25.5t-71 -89.5q-30 -49 -68.5 -116.5t-84 -151t-97 -180t-106.5 -203.5
l-115 -546h-191z" />
    <glyph glyph-name="uni03D6" unicode="&#x3d6;" horiz-adv-x="1406" 
d="M359 -20q-121 0 -185 84t-64 242q0 102 25 213.5t69 221t100 204.5h-210l18 83l154 73h1209l-34 -156h-190q7 -39 11.5 -84.5t4.5 -97.5q0 -97 -16.5 -205t-50 -210.5t-86 -185.5t-124 -132.5t-164.5 -49.5q-94 0 -144.5 49t-61.5 138q-46 -90 -107.5 -138.5
t-153.5 -48.5zM397 141q52 0 86.5 39t57.5 105.5t41 149.5l41 192h180l-38 -182q-8 -37 -14 -69.5t-9 -60t-3 -51.5q0 -60 23 -91.5t67 -31.5q49 0 89 41t71 109.5t52 152t31.5 170.5t10.5 164q0 45 -3 87.5t-8 79.5h-582q-54 -98 -98 -206.5t-69.5 -217.5t-25.5 -213
q0 -84 26.5 -125.5t73.5 -41.5z" />
    <glyph glyph-name="uni0400" unicode="&#x400;" horiz-adv-x="915" 
d="M38 0l310 1462h651l-35 -167h-461l-95 -448h431l-36 -167h-430l-110 -512h462l-36 -168h-651zM683 1606q-33 38 -73.5 93.5t-75.5 113.5t-53 101v19h203q14 -48 32 -99.5t40 -102.5t46 -102l-1 -23h-118z" />
    <glyph glyph-name="uni0401" unicode="&#x401;" horiz-adv-x="915" 
d="M38 0l310 1462h651l-35 -167h-461l-95 -448h431l-36 -167h-430l-110 -512h462l-36 -168h-651zM872 1640q-39 0 -61.5 21t-22.5 62q0 53 30 92t85 39q38 0 59 -20t21 -59q0 -60 -31.5 -97.5t-79.5 -37.5zM530 1640q-38 0 -61 21t-23 62q0 53 29.5 92t85.5 39q25 0 42.5 -9
t27 -26.5t9.5 -43.5q0 -60 -31 -97.5t-79 -37.5z" />
    <glyph glyph-name="uni0402" unicode="&#x402;" horiz-adv-x="1181" 
d="M670 -20q-39 0 -77.5 7t-65.5 17l16 165q25 -11 52.5 -16.5t55.5 -5.5q55 0 89.5 24t55 68.5t32.5 104.5l33 152q5 27 8.5 54.5t3.5 52.5q0 65 -38 98t-123 33h-194l-156 -734h-191l276 1293h-275l36 169h793l-36 -169h-328l-83 -390h188q162 0 241.5 -71t79.5 -201
q0 -31 -3.5 -70t-11.5 -76l-37 -179q-22 -109 -64 -181t-109.5 -108.5t-167.5 -36.5z" />
    <glyph glyph-name="uni0403" unicode="&#x403;" horiz-adv-x="835" 
d="M38 0l310 1462h641l-35 -168h-452l-274 -1294h-190zM561 1605l1 22q41 47 82.5 100t79.5 106.5t66 99.5h214l-1 -18q-21 -29 -60.5 -70.5t-86.5 -87t-92.5 -86t-79.5 -66.5h-123z" />
    <glyph glyph-name="uni0404" unicode="&#x404;" horiz-adv-x="1033" 
d="M542 -20q-145 0 -241 62t-144 178.5t-48 280.5q0 135 29.5 273.5t87.5 265.5t144 227t200 158.5t255 58.5q94 0 171.5 -20t140.5 -61l-85 -156q-49 31 -104.5 49.5t-121.5 18.5q-92 0 -167.5 -39.5t-134 -107t-100 -152t-66.5 -173.5h497l-35 -168h-499
q-6 -43 -9.5 -86.5t-3.5 -84.5q0 -113 29 -192.5t89 -121.5t153 -42q45 0 90 8t90 21.5t89 30.5v-168q-46 -19 -96.5 -32.5t-102.5 -20.5t-107 -7z" />
    <glyph glyph-name="uni0405" unicode="&#x405;" horiz-adv-x="913" 
d="M313 -20q-100 0 -178.5 18t-138.5 52l14 190q61 -37 138.5 -63t167.5 -26q58 0 109.5 15.5t90 47t60 79t21.5 111.5q0 56 -18.5 98.5t-60 85t-112.5 96.5q-63 50 -113 102t-78 117.5t-28 154.5q0 98 33 176.5t94 134t144 85t182 29.5q95 0 177.5 -22.5t147.5 -61.5
l-80 -164q-54 33 -118.5 54.5t-132.5 21.5q-52 0 -97 -15.5t-79 -45.5t-53 -74t-19 -101q0 -59 21 -101.5t62.5 -82t103.5 -89.5q71 -52 120.5 -106t76 -119.5t26.5 -154.5q0 -103 -34 -185t-97.5 -139.5t-152.5 -87.5t-199 -30z" />
    <glyph glyph-name="uni0406" unicode="&#x406;" horiz-adv-x="510" 
d="M38 0l311 1462h188l-310 -1462h-189z" />
    <glyph glyph-name="uni0407" unicode="&#x407;" horiz-adv-x="510" 
d="M38 0l311 1462h188l-310 -1462h-189zM659 1661q-39 0 -61.5 21t-22.5 62q0 53 30 92t85 39q38 0 59 -20t21 -59q0 -60 -31.5 -97.5t-79.5 -37.5zM317 1661q-38 0 -61 21t-23 62q0 53 29.5 92t85.5 39q25 0 42.5 -9t27 -26.5t9.5 -43.5q0 -60 -31 -97.5t-79 -37.5z" />
    <glyph glyph-name="uni0408" unicode="&#x408;" horiz-adv-x="504" 
d="M-160 -397q-49 0 -87 6.5t-66 17.5l22 166q28 -10 59 -16t65 -6q57 0 98 28.5t70 84t46 135.5l305 1443h191l-311 -1470q-30 -138 -83 -224t-130 -125.5t-179 -39.5z" />
    <glyph glyph-name="uni0409" unicode="&#x409;" horiz-adv-x="1600" 
d="M19 -18q-32 0 -60.5 5.5t-50.5 14.5v166q20 -7 42.5 -13t45.5 -6q46 0 82 21t70 78t72 163q30 81 66.5 194.5t77 251t84.5 291.5t89 314h617l-128 -607h76q140 0 227 -42.5t128 -120t41 -183.5q0 -112 -34.5 -205.5t-102 -161.5t-167.5 -105t-231 -37h-308l272 1289h-254
q-33 -123 -71.5 -257t-76.5 -262.5t-73 -237t-62 -181.5q-48 -130 -97.5 -211t-114 -119.5t-159.5 -38.5zM879 165h113q79 0 137.5 24t97 68.5t57.5 105t19 134.5q0 103 -56.5 148t-163.5 45h-92z" />
    <glyph glyph-name="uni040A" unicode="&#x40a;" horiz-adv-x="1593" 
d="M39 0l309 1462h190l-130 -608h420l130 608h190l-128 -606h76q138 0 225 -43t128.5 -121t41.5 -185q0 -119 -37 -213t-106.5 -159.5t-168.5 -100t-224 -34.5h-305l144 687h-420l-145 -687h-190zM874 165h113q101 0 169 39.5t103.5 113.5t35.5 177t-57.5 148.5t-166.5 45.5
h-84z" />
    <glyph glyph-name="uni040B" unicode="&#x40b;" horiz-adv-x="1189" 
d="M176 0l275 1293h-274l35 169h793l-35 -169h-329l-83 -390h191q160 0 237 -71t77 -202q0 -36 -5.5 -76.5t-13.5 -82.5l-100 -471h-191l107 493q6 29 9.5 58t3.5 52q0 67 -38.5 99t-123.5 32h-189l-156 -734h-190z" />
    <glyph glyph-name="uni040C" unicode="&#x40c;" horiz-adv-x="1002" 
d="M39 0l309 1462h190l-149 -703l573 703h218l-601 -720l318 -742h-210l-303 735l-155 -735h-190zM629 1605l1 22q41 47 82.5 100t79.5 106.5t66 99.5h214l-1 -18q-21 -29 -60.5 -70.5t-86.5 -87t-92.5 -86t-79.5 -66.5h-123z" />
    <glyph glyph-name="uni040D" unicode="&#x40d;" horiz-adv-x="1267" 
d="M38 0l310 1462h182l-154 -724q-14 -67 -30.5 -142.5t-33.5 -147.5t-33 -130h6l788 1144h224l-310 -1462h-180l151 719q17 74 34.5 154t35 154.5t33.5 130.5l-6 1l-791 -1159h-226zM842 1606q-33 38 -73.5 93.5t-75.5 113.5t-53 101v19h203q14 -48 32 -99.5t40 -102.5
t46 -102l-1 -23h-118z" />
    <glyph glyph-name="uni040E" unicode="&#x40e;" horiz-adv-x="966" 
d="M115 -19q-44 0 -83.5 7.5t-66.5 18.5v175q30 -16 67 -24t72 -8q43 0 77.5 14.5t65 46.5t62.5 83.5t71 126.5l-190 1041h193l104 -622q6 -35 11.5 -75.5t11 -80t9.5 -71.5q21 52 45.5 107t52.5 108l330 634h207l-601 -1116q-65 -119 -128.5 -200t-137.5 -123t-172 -42z
M692 1602q-103 0 -167 30.5t-93.5 85.5t-29.5 127q0 17 2.5 37t5.5 35h158q-2 -17 -4 -33.5t-2 -32.5q0 -61 34 -93.5t107 -32.5q83 0 133.5 45t71.5 147h165q-22 -103 -69 -173t-123.5 -106t-188.5 -36z" />
    <glyph glyph-name="uni040F" unicode="&#x40f;" horiz-adv-x="1194" 
d="M301 -394l84 394h-345l309 1462h192l-276 -1294h495l274 1294h190l-310 -1462h-344l-83 -394h-186z" />
    <glyph glyph-name="uni0410" unicode="&#x410;" horiz-adv-x="1015" 
d="M-125 0l704 1465h226l91 -1465h-192l-24 444h-392l-206 -444h-207zM364 613h312l-13 427q-3 60 -5.5 123t-1.5 116h-6q-19 -53 -43.5 -113t-55.5 -125z" />
    <glyph glyph-name="uni0411" unicode="&#x411;" horiz-adv-x="1009" 
d="M39 0l309 1462h672l-35 -168h-482l-93 -439h100q140 0 227.5 -42.5t128 -121t40.5 -186.5q0 -118 -36 -211.5t-105.5 -159t-169 -100t-226.5 -34.5h-330zM263 165h136q103 0 172 39.5t104.5 113t35.5 176.5q0 104 -58.5 150t-166.5 46h-111z" />
    <glyph glyph-name="uni0412" unicode="&#x412;" horiz-adv-x="1067" 
d="M39 0l309 1462h335q114 0 199.5 -33t133 -101t47.5 -174q0 -95 -35 -175t-102 -135.5t-166 -78.5v-7q90 -25 143 -98.5t53 -182.5q0 -144 -63 -251.5t-178.5 -166.5t-272.5 -59h-403zM264 164h183q102 0 171.5 40.5t105 111.5t35.5 164q0 96 -53.5 150t-163.5 54h-168z
M407 843h168q87 0 151.5 35t101 99t36.5 147q0 87 -50.5 131t-158.5 44h-151z" />
    <glyph glyph-name="uni0413" unicode="&#x413;" horiz-adv-x="835" 
d="M38 0l310 1462h641l-35 -168h-452l-274 -1294h-190z" />
    <glyph glyph-name="uni0414" unicode="&#x414;" horiz-adv-x="1154" 
d="M-185 -394l119 563h96q81 127 160.5 279.5t152 321t133 344t103.5 348.5h580l-275 -1293h153l-120 -563h-186l84 394h-732l-84 -394h-184zM238 169h454l240 1125h-217q-37 -138 -91 -290t-118 -303.5t-132.5 -288t-135.5 -243.5z" />
    <glyph glyph-name="uni0415" unicode="&#x415;" horiz-adv-x="915" 
d="M38 0l310 1462h651l-35 -167h-461l-95 -448h431l-36 -167h-430l-110 -512h462l-36 -168h-651z" />
    <glyph glyph-name="uni0416" unicode="&#x416;" horiz-adv-x="1414" 
d="M-121 0l586 768l-266 694h197l258 -698l148 698h185l-148 -698l539 698h213l-569 -721l270 -741h-203l-256 737l-156 -737h-184l156 737l-552 -737h-218z" />
    <glyph glyph-name="uni0417" unicode="&#x417;" horiz-adv-x="971" 
d="M317 -20q-108 0 -189 16.5t-146 50.5v186q64 -41 150 -66t179 -25q86 0 150.5 23.5t107.5 65.5t64 99t21 125q0 116 -70.5 169t-199.5 53h-152l34 162h146q101 0 181.5 35t127.5 102.5t47 165.5q0 85 -49.5 131.5t-141.5 46.5q-83 0 -154 -29.5t-139 -77.5l-74 138
q91 63 187.5 97.5t221.5 34.5q108 0 185 -39t118 -109.5t41 -164.5q0 -108 -43 -192.5t-121.5 -139.5t-185.5 -75l-1 -6q70 -14 124 -53t84 -102.5t30 -152.5q0 -100 -35 -185.5t-103 -149t-167 -99t-228 -35.5z" />
    <glyph glyph-name="uni0418" unicode="&#x418;" horiz-adv-x="1267" 
d="M38 0l310 1462h182l-154 -724q-14 -67 -30.5 -142.5t-33.5 -147.5t-33 -130h6l788 1144h224l-310 -1462h-180l151 719q17 74 34.5 154t35 154.5t33.5 130.5l-6 1l-791 -1159h-226z" />
    <glyph glyph-name="uni0419" unicode="&#x419;" horiz-adv-x="1267" 
d="M38 0l310 1462h182l-154 -724q-14 -67 -30.5 -142.5t-33.5 -147.5t-33 -130h6l788 1144h224l-310 -1462h-180l151 719q17 74 34.5 154t35 154.5t33.5 130.5l-6 1l-791 -1159h-226zM849 1602q-103 0 -167 30.5t-93.5 85.5t-29.5 127q0 17 2.5 37t5.5 35h158
q-2 -17 -4 -33.5t-2 -32.5q0 -61 34 -93.5t107 -32.5q83 0 133.5 45t71.5 147h165q-22 -103 -69 -173t-123.5 -106t-188.5 -36z" />
    <glyph glyph-name="uni041A" unicode="&#x41a;" horiz-adv-x="1002" 
d="M39 0l309 1462h190l-149 -703l573 703h218l-601 -720l318 -742h-210l-303 735l-155 -735h-190z" />
    <glyph glyph-name="uni041B" unicode="&#x41b;" horiz-adv-x="1153" 
d="M25 -18q-33 0 -62.5 5.5t-50.5 14.5v166q19 -7 42.5 -13t47.5 -6q43 0 78.5 20.5t67.5 71t65 139.5q31 84 69.5 206t82 267t88.5 301t87 308h653l-311 -1462h-191l275 1289h-290q-26 -94 -56 -201t-62 -216.5t-63.5 -213t-61 -193t-54.5 -153.5q-43 -111 -90 -184.5
t-110 -109.5t-154 -36z" />
    <glyph glyph-name="uni041C" unicode="&#x41c;" horiz-adv-x="1538" 
d="M38 0l309 1462h263l86 -1175h7l581 1175h282l-308 -1462h-187l193 909q12 54 24 106t24 99.5t23 86.5h-5l-603 -1201h-171l-92 1200h-6q-6 -42 -14.5 -94t-18 -107t-20.5 -107l-188 -892h-179z" />
    <glyph glyph-name="uni041D" unicode="&#x41d;" horiz-adv-x="1203" 
d="M39 0l310 1462h190l-130 -613h503l130 613h189l-310 -1462h-190l144 679h-502l-144 -679h-190z" />
    <glyph glyph-name="uni041E" unicode="&#x41e;" horiz-adv-x="1254" 
d="M541 -20q-143 0 -239.5 58.5t-145 170.5t-48.5 272q0 116 19 234.5t57 231t95 210t132 171t168 115t204 41.5q208 0 316.5 -128t108.5 -367q0 -108 -17.5 -224.5t-53 -229.5t-89.5 -213t-128 -177t-168 -121t-211 -44zM553 149q74 0 136.5 36.5t113 101t89.5 148
t65 177.5t39.5 191t13.5 188q0 158 -62.5 241.5t-179.5 83.5q-76 0 -140.5 -38t-115.5 -103.5t-89.5 -149.5t-64.5 -178t-39 -187.5t-13 -177.5q0 -111 29 -185t84 -111t134 -37z" />
    <glyph glyph-name="uni041F" unicode="&#x41f;" horiz-adv-x="1194" 
d="M38 0l310 1462h875l-309 -1462h-191l274 1293h-495l-273 -1293h-191z" />
    <glyph glyph-name="uni0420" unicode="&#x420;" horiz-adv-x="1010" 
d="M39 0l309 1462h290q137 0 224 -44t128.5 -124t41.5 -188q0 -121 -37.5 -221t-109.5 -171.5t-176.5 -110.5t-239.5 -39h-121l-119 -564h-190zM383 729h98q113 0 192.5 43.5t121 124.5t41.5 195q0 105 -55.5 155t-167.5 50h-109z" />
    <glyph glyph-name="uni0421" unicode="&#x421;" horiz-adv-x="1011" 
d="M535 -20q-138 0 -233 61t-144.5 176.5t-49.5 280.5q0 128 28.5 266t85 266t142 230.5t199.5 163t257 60.5q92 0 168 -20t141 -61l-85 -156q-48 32 -103 50t-121 18q-105 0 -187.5 -52.5t-143.5 -140t-101.5 -194.5t-60.5 -216.5t-20 -204.5q0 -178 68 -268.5t200 -90.5
q67 0 133 16t132 42v-169q-66 -26 -141 -41.5t-164 -15.5z" />
    <glyph glyph-name="uni0422" unicode="&#x422;" horiz-adv-x="879" 
d="M220 0l274 1293h-322l36 169h836l-36 -169h-322l-275 -1293h-191z" />
    <glyph glyph-name="uni0423" unicode="&#x423;" horiz-adv-x="966" 
d="M115 -19q-44 0 -83.5 7.5t-66.5 18.5v175q30 -16 67 -24t72 -8q43 0 77.5 14.5t65 46.5t62.5 83.5t71 126.5l-190 1041h193l104 -622q6 -35 11.5 -75.5t11 -80t9.5 -71.5q21 52 45.5 107t52.5 108l330 634h207l-601 -1116q-65 -119 -128.5 -200t-137.5 -123t-172 -42z
" />
    <glyph glyph-name="uni0424" unicode="&#x424;" horiz-adv-x="1378" 
d="M461 -20l49 225q-127 9 -215.5 61.5t-134.5 145.5t-46 224q0 141 40.5 260.5t120 209t197.5 141t271 56.5l37 180h187l-36 -180q124 -8 212.5 -60t135.5 -144t47 -220q0 -135 -40 -255.5t-119 -213t-196.5 -147t-273.5 -58.5l-49 -225h-187zM543 366l166 775
q-103 -2 -178.5 -44.5t-125.5 -113t-74.5 -159t-24.5 -183.5q0 -87 28 -147t81 -92t128 -36zM730 366q99 4 174.5 46t126 112t76 159.5t25.5 188.5q0 84 -27.5 143t-80 91t-130.5 35z" />
    <glyph glyph-name="uni0425" unicode="&#x425;" horiz-adv-x="948" 
d="M-115 0l519 768l-180 694h196l126 -540l351 540h207l-478 -709l192 -753h-203l-131 594l-392 -594h-207z" />
    <glyph glyph-name="uni0426" unicode="&#x426;" horiz-adv-x="1224" 
d="M793 -394l84 394h-836l310 1462h192l-275 -1293h488l274 1293h190l-274 -1295h153l-121 -561h-185z" />
    <glyph glyph-name="uni0427" unicode="&#x427;" horiz-adv-x="1142" 
d="M665 0l125 591q-66 -33 -151 -59.5t-172 -26.5q-88 0 -151.5 30.5t-97 90.5t-33.5 146q0 36 5 73t14 76l115 541h190l-112 -526q-7 -36 -11.5 -65t-4.5 -53q0 -72 37 -108t114 -36q78 0 153 23.5t140 54.5l149 710h191l-309 -1462h-191z" />
    <glyph glyph-name="uni0428" unicode="&#x428;" horiz-adv-x="1691" 
d="M38 0l309 1462h192l-275 -1293h402l275 1293h192l-274 -1293h401l274 1293h191l-309 -1462h-1378z" />
    <glyph glyph-name="uni0429" unicode="&#x429;" horiz-adv-x="1725" 
d="M1299 -394l84 394h-1345l309 1462h192l-275 -1293h402l275 1293h192l-274 -1293h401l275 1293h191l-275 -1295h154l-121 -561h-185z" />
    <glyph glyph-name="uni042A" unicode="&#x42a;" horiz-adv-x="1152" 
d="M186 0l273 1292h-295l37 170h484l-128 -607h96q140 0 227 -42.5t128 -121t41 -186.5q0 -117 -36.5 -210.5t-105 -159t-167 -100.5t-222.5 -35h-332zM411 165h131q103 0 172.5 39.5t104.5 113t35 176.5q0 104 -57.5 150t-161.5 46h-112z" />
    <glyph glyph-name="uni042B" unicode="&#x42b;" horiz-adv-x="1467" 
d="M39 0l308 1462h191l-129 -607h94q140 0 227 -42t127.5 -120.5t40.5 -185.5q0 -113 -35 -206t-103.5 -160t-167.5 -104t-229 -37h-324zM263 165h125q81 0 140 24t97.5 68t57.5 104.5t19 133.5q0 104 -57 149.5t-166 45.5h-104zM992 0l311 1462h191l-310 -1462h-192z" />
    <glyph glyph-name="uni042C" unicode="&#x42c;" horiz-adv-x="1004" 
d="M39 0l308 1462h190l-128 -607h99q140 0 227 -42.5t127.5 -120.5t40.5 -185q0 -113 -35 -206t-103 -160t-167.5 -104t-228.5 -37h-330zM263 165h130q81 0 140 24t98 68t58 104.5t19 133.5q0 104 -57.5 149.5t-162.5 45.5h-113z" />
    <glyph glyph-name="uni042D" unicode="&#x42d;" horiz-adv-x="1035" 
d="M288 -20q-90 0 -160.5 16t-133.5 49v178q47 -24 94 -40.5t96.5 -25.5t100.5 -9q124 0 217 62t155.5 179.5t95.5 284.5h-504l36 168h493q4 30 6 62t2 65q0 109 -29 186.5t-87 118.5t-144 41q-73 0 -135 -17t-127 -47l-51 155q72 34 157.5 56t180.5 22q137 0 233.5 -59
t147.5 -173.5t51 -282.5q0 -138 -24.5 -279t-76 -268t-133.5 -226.5t-196.5 -157.5t-264.5 -58z" />
    <glyph glyph-name="uni042E" unicode="&#x42e;" horiz-adv-x="1686" 
d="M1006 -20q-140 0 -229.5 59t-132.5 169t-43 259q0 46 4.5 100t13.5 112h-247l-143 -679h-191l310 1462h190l-130 -615h241q31 128 83 242.5t126 203.5t171 140t218 51q188 0 291.5 -123.5t103.5 -359.5q0 -108 -17 -224.5t-51 -231t-86 -216t-122.5 -180.5t-160 -124
t-199.5 -45zM1016 149q71 0 130 41t107 111t83.5 158t59.5 184.5t36 189.5t12 172q0 152 -56.5 231.5t-162.5 79.5q-69 0 -127.5 -39.5t-106.5 -107.5t-84.5 -154.5t-61.5 -181.5t-38 -189t-13 -177q0 -101 23.5 -172.5t73 -108.5t125.5 -37z" />
    <glyph glyph-name="uni042F" unicode="&#x42f;" horiz-adv-x="1033" 
d="M-101 0l470 658q-77 41 -124.5 116.5t-47.5 194.5q0 115 36.5 206t105.5 155t166 98t220 34h334l-308 -1462h-191l127 602h-148l-417 -602h-223zM612 764h110l113 535h-125q-75 0 -133.5 -22t-99 -64t-62 -101t-21.5 -132q0 -103 56.5 -159.5t161.5 -56.5z" />
    <glyph glyph-name="uni0430" unicode="&#x430;" horiz-adv-x="1024" 
d="M331 -20q-78 0 -136.5 39t-90.5 116.5t-32 190.5q0 105 21 216t61 214.5t99.5 186t136.5 131t171 48.5q59 0 104.5 -22.5t77 -62t48.5 -91.5h8l54 155h150l-233 -1101h-148l19 175h-6q-40 -55 -86.5 -99.5t-100 -70t-117.5 -25.5zM396 137q70 0 129 54.5t103 142.5
t69 189q19 76 27.5 137.5t8.5 116.5q0 85 -39.5 135.5t-109.5 50.5q-57 0 -106.5 -39t-89 -104.5t-67.5 -147t-43 -169t-15 -168.5q0 -99 34.5 -148.5t98.5 -49.5z" />
    <glyph glyph-name="uni0431" unicode="&#x431;" horiz-adv-x="986" 
d="M407 -20q-102 0 -176 44t-114.5 134.5t-40.5 230.5q0 103 17.5 230.5t55 260.5t98.5 253.5t148 210.5t204 130q36 14 90.5 28t118 26.5t128.5 22.5t122 16l12 -163q-63 -7 -133.5 -18t-139 -25.5t-124.5 -33.5q-84 -27 -148.5 -90.5t-112 -157.5t-79.5 -215h7
q49 66 125.5 112.5t168.5 46.5q88 0 147.5 -39t90 -115t30.5 -187q0 -123 -30 -247t-91.5 -227t-154 -165.5t-219.5 -62.5zM421 137q59 0 106 35t81.5 93t57.5 128t34 142t11 133q0 93 -31.5 147.5t-106.5 54.5q-53 0 -105 -28t-95.5 -73.5t-73.5 -96.5q-16 -78 -26 -152
t-10 -138q0 -77 17 -131.5t51.5 -84t89.5 -29.5z" />
    <glyph glyph-name="uni0432" unicode="&#x432;" horiz-adv-x="996" 
d="M445 -20q-120 0 -203 46t-126 134.5t-43 216.5q0 105 20.5 211t63.5 202t108.5 170.5t155 117.5t203.5 43q100 0 172 -30.5t110.5 -89.5t38.5 -144q0 -80 -32.5 -139.5t-91 -97.5t-139.5 -56l-1 -6q79 -17 129.5 -72.5t50.5 -158.5q0 -87 -44 -166.5t-136 -130
t-236 -50.5zM461 126q71 0 119 28t73 74.5t25 100.5q0 52 -22.5 87.5t-69 54.5t-120.5 19h-196q-3 -26 -5.5 -55t-2.5 -61q0 -134 53.5 -191t145.5 -57zM296 633h184q78 0 140.5 22.5t99 68.5t36.5 117q0 60 -35 96t-108 36q-77 0 -139 -41t-106.5 -117t-71.5 -182z" />
    <glyph glyph-name="uni0433" unicode="&#x433;" horiz-adv-x="805" 
d="M338 -20q-89 0 -160.5 27.5t-113.5 87t-43 153.5q0 79 25.5 138t70 103t102 78.5t122.5 62.5q75 35 128.5 67.5t82.5 71t29 93.5q0 50 -31 77.5t-96 27.5q-64 0 -122.5 -19.5t-109.5 -45.5l-49 141q65 33 142 55.5t166 22.5q88 0 152.5 -28t100 -83.5t35.5 -140.5
q0 -72 -24 -126.5t-67 -96.5t-98 -74.5t-118 -61.5q-86 -41 -141.5 -75.5t-82 -75t-26.5 -98.5q0 -61 40.5 -94t118.5 -33q47 0 91.5 10t87 27.5t82.5 37.5v-160q-64 -32 -136 -50.5t-158 -18.5z" />
    <glyph glyph-name="uni0434" unicode="&#x434;" horiz-adv-x="1019" 
d="M405 -20q-110 0 -183.5 46t-110.5 129.5t-37 195.5q0 90 18 187.5t54 188.5t91.5 164t130.5 116t171 43q61 0 107 -19t78 -50t53 -67h5q2 25 2.5 53.5t0.5 51.5q0 204 -55.5 302t-173.5 98q-46 0 -96 -13t-95 -36l-45 146q55 27 125 43t138 16q137 0 222.5 -66.5
t126 -192.5t40.5 -302q0 -104 -12.5 -220t-40 -232t-71.5 -220.5t-106.5 -186t-146 -128.5t-190.5 -47zM418 135q58 0 106 36t86 97t66.5 139t48 163t29.5 168q-15 46 -42.5 82.5t-65 58t-84.5 21.5q-56 0 -102.5 -33t-83 -89t-62 -127t-38.5 -148.5t-13 -151.5
q0 -103 37.5 -159.5t117.5 -56.5z" />
    <glyph glyph-name="uni0435" unicode="&#x435;" horiz-adv-x="922" 
d="M424 -20q-109 0 -187.5 44.5t-121 129t-42.5 204.5q0 148 37 285t106.5 245t166.5 170.5t217 62.5q132 0 204.5 -65.5t72.5 -183.5q0 -87 -37 -159t-110 -124t-181 -80t-252 -28h-27q-5 -27 -7.5 -55.5t-2.5 -56.5q0 -117 51 -177t152 -60q69 0 128.5 18.5t131.5 55.5
v-153q-67 -36 -138.5 -54.5t-160.5 -18.5zM295 623h18q123 0 209 28t131.5 81.5t45.5 128.5q0 51 -29 81t-88 30t-115 -43.5t-101 -121.5t-71 -184z" />
    <glyph glyph-name="uni0436" unicode="&#x436;" horiz-adv-x="1531" 
d="M40 -18q-26 0 -52.5 3t-48.5 8l35 155q14 -4 31.5 -6.5t37.5 -2.5q66 0 118 39t91 104.5t64.5 144.5t38 160t12.5 150q0 109 -38 167.5t-117 58.5q-20 0 -40 -3.5t-41 -9.5v155q24 6 53.5 10.5t62.5 4.5q148 0 226 -95.5t78 -275.5q0 -28 -1.5 -58.5t-6.5 -61.5h150
l101 472h176l-101 -472h144q21 93 59.5 180.5t96.5 157.5t138 111.5t182 41.5q28 0 54 -2.5t51 -8.5l-38 -155q-14 4 -31.5 6t-37.5 2q-64 0 -116 -38t-90.5 -101.5t-64.5 -142t-38.5 -160.5t-12.5 -156q0 -108 37 -167t117 -59q23 0 42.5 3.5t39.5 9.5v-155
q-22 -5 -52.5 -9.5t-63.5 -4.5q-98 0 -166.5 42t-104 124.5t-35.5 203.5q0 31 2.5 65t6.5 68h-150l-102 -485h-176l103 485h-143q-25 -108 -67 -200t-102 -160t-137.5 -105.5t-173.5 -37.5z" />
    <glyph glyph-name="uni0437" unicode="&#x437;" horiz-adv-x="804" 
d="M263 -20q-83 0 -157.5 17.5t-125.5 46.5v171q55 -34 126 -57.5t152 -23.5q76 0 130 26t83 74.5t29 113.5q0 73 -41 113.5t-133 40.5h-119l32 147h91q67 0 121.5 21.5t87 64t32.5 107.5q0 61 -35 93.5t-105 32.5q-55 0 -109 -15.5t-114 -43.5l-50 140q74 37 147.5 55
t159.5 18q92 0 157.5 -29t100 -85t34.5 -137q0 -74 -28.5 -132t-80.5 -97.5t-124 -59.5l-1 -6q76 -21 119 -79t43 -151q0 -104 -48 -187t-142 -131t-232 -48z" />
    <glyph glyph-name="uni0438" unicode="&#x438;" horiz-adv-x="1026" 
d="M320 -20q-76 0 -129.5 29t-81.5 85t-28 136q0 40 7 88t16 95l147 688h187l-147 -688q-9 -43 -14.5 -81.5t-5.5 -70.5q0 -58 27 -89.5t86 -31.5q66 0 126.5 48.5t109 144t77.5 235.5l114 533h184l-233 -1101h-149l19 175h-7q-35 -53 -80.5 -97t-101.5 -71t-123 -27z" />
    <glyph glyph-name="uni0439" unicode="&#x439;" horiz-adv-x="1026" 
d="M320 -20q-76 0 -129.5 29t-81.5 85t-28 136q0 40 7 88t16 95l147 688h187l-147 -688q-9 -43 -14.5 -81.5t-5.5 -70.5q0 -58 27 -89.5t86 -31.5q66 0 126.5 48.5t109 144t77.5 235.5l114 533h184l-233 -1101h-149l19 175h-7q-35 -53 -80.5 -97t-101.5 -71t-123 -27z
M651 1237q-103 0 -167 30.5t-93.5 85.5t-29.5 127q0 17 2.5 37t5.5 35h158q-2 -17 -4 -33.5t-2 -32.5q0 -61 34 -93.5t107 -32.5q83 0 133.5 45t71.5 147h165q-22 -103 -69 -173t-123.5 -106t-188.5 -36z" />
    <glyph glyph-name="uni043A" unicode="&#x43a;" horiz-adv-x="892" 
d="M26 0l233 1101h185l-111 -521l434 521h217l-462 -539l262 -562h-209l-247 554l-117 -554h-185z" />
    <glyph glyph-name="uni043B" unicode="&#x43b;" horiz-adv-x="978" 
d="M0 -14q-29 0 -50.5 4.5t-39.5 11.5v160q14 -6 30.5 -9.5t34.5 -3.5q40 1 72 22.5t60 70t55 129t58 196.5q37 139 77.5 241.5t94.5 170t132.5 100.5t193.5 33q67 0 127 -8t115 -20l-230 -1084h-187l203 946q-13 3 -29 4.5t-34 1.5q-77 0 -126.5 -44t-87.5 -141.5
t-84 -260.5q-35 -127 -70 -224t-77 -162.5t-100 -99t-138 -34.5z" />
    <glyph glyph-name="uni043C" unicode="&#x43c;" horiz-adv-x="1264" 
d="M27 0l234 1101h248l52 -848h4l415 848h260l-232 -1101h-175l131 607q16 68 31.5 133.5t30.5 125.5h-4l-431 -866h-156l-60 865h-3q-10 -58 -21.5 -121.5t-24.5 -126.5l-129 -617h-170z" />
    <glyph glyph-name="uni043D" unicode="&#x43d;" horiz-adv-x="1049" 
d="M25 0l235 1101h185l-95 -454h386l96 454h186l-233 -1101h-186l104 492h-387l-104 -492h-187z" />
    </font>
</defs>
</svg>
