<?xml version="1.0" standalone="no"?>
<!DOCTYPE svg PUBLIC "-//W3C//DTD SVG 1.1//EN" "http://www.w3.org/Graphics/SVG/1.1/DTD/svg11.dtd" >
<svg xmlns="http://www.w3.org/2000/svg" xmlns:xlink="http://www.w3.org/1999/xlink" version="1.1">
<metadata>
Created by FontForge 20170731 at Wed Feb 10 17:54:38 2021
 By Aleksey,,,
Copyright 2020 The Open Sans Project Authors (https://github.com/googlefonts/opensans)
</metadata>
<defs>
<font id="OpenSansSemiCondensed-Regular" horiz-adv-x="0" >
  <font-face 
    font-family="Open Sans SemiCondensed"
    font-weight="400"
    font-stretch="semi-condensed"
    units-per-em="2048"
    panose-1="0 0 0 0 0 0 0 0 0 0"
    ascent="1638"
    descent="-410"
    x-height="1097"
    cap-height="1462"
    bbox="-1096 -544 2158 2135"
    underline-thickness="50"
    underline-position="-175"
    unicode-range="U+000D-FFFD"
  />
<missing-glyph horiz-adv-x="1229" 
 />
    <glyph glyph-name="f_f" unicode="ff" horiz-adv-x="1198" 
d="M571 967h-223v-967h-159v967h-165v82l165 53v74q0 131 31 218t97 130t169 43q53 0 98 -9.5t85 -24.5l-41 -127q-31 10 -64.5 17.5t-67.5 7.5q-79 0 -113 -58t-35 -194v-82h223v-130zM1170 967h-223v-967h-159v967h-165v82l165 53v74q0 131 31 218t97 130t169 43
q53 0 98 -9.5t85 -24.5l-41 -127q-31 10 -64.5 17.5t-67.5 7.5q-79 0 -113 -58t-35 -194v-82h223v-130z" />
    <glyph glyph-name="fi" unicode="fi" horiz-adv-x="1068" 
d="M571 967h-223v-967h-159v967h-165v82l165 53v74q0 131 31 218t97 130t169 43q53 0 98 -9.5t85 -24.5l-41 -127q-31 10 -64.5 17.5t-67.5 7.5q-79 0 -113 -58t-35 -194v-82h223v-130zM913 1097v-1097h-159v1097h159zM836 1508q44 0 69.5 -28t25.5 -83q0 -53 -26.5 -81.5
t-68.5 -28.5q-43 0 -70 28.5t-27 81.5q0 56 26.5 83.5t70.5 27.5z" />
    <glyph glyph-name="fl" unicode="fl" horiz-adv-x="1067" 
d="M571 967h-223v-967h-159v967h-165v82l165 53v74q0 131 31 218t97 130t169 43q53 0 98 -9.5t85 -24.5l-41 -127q-31 10 -64.5 17.5t-67.5 7.5q-79 0 -113 -58t-35 -194v-82h223v-130zM913 0h-160v1556h160v-1556z" />
    <glyph glyph-name="f_f_i" unicode="ffi" horiz-adv-x="1666" 
d="M571 967h-223v-967h-159v967h-165v82l165 53v74q0 131 31 218t97 130t169 43q53 0 98 -9.5t85 -24.5l-41 -127q-31 10 -64.5 17.5t-67.5 7.5q-79 0 -113 -58t-35 -194v-82h223v-130zM1169 967h-223v-967h-159v967h-165v82l165 53v74q0 131 31 218t97 130t169 43
q53 0 98 -9.5t85 -24.5l-41 -127q-31 10 -64.5 17.5t-67.5 7.5q-79 0 -113 -58t-35 -194v-82h223v-130zM1511 1097v-1097h-159v1097h159zM1434 1508q44 0 69.5 -28t25.5 -83q0 -53 -26.5 -81.5t-68.5 -28.5q-43 0 -70 28.5t-27 81.5q0 56 26.5 83.5t70.5 27.5z" />
    <glyph glyph-name="f_f_l" unicode="ffl" horiz-adv-x="1664" 
d="M571 967h-223v-967h-159v967h-165v82l165 53v74q0 131 31 218t97 130t169 43q53 0 98 -9.5t85 -24.5l-41 -127q-31 10 -64.5 17.5t-67.5 7.5q-79 0 -113 -58t-35 -194v-82h223v-130zM1169 967h-223v-967h-159v967h-165v82l165 53v74q0 131 31 218t97 130t169 43
q53 0 98 -9.5t85 -24.5l-41 -127q-31 10 -64.5 17.5t-67.5 7.5q-79 0 -113 -58t-35 -194v-82h223v-130zM1511 0h-160v1556h160v-1556z" />
    <glyph glyph-name=".notdef" horiz-adv-x="1229" 
 />
    <glyph glyph-name=".null" 
 />
    <glyph glyph-name="nonmarkingreturn" horiz-adv-x="682" 
 />
    <glyph glyph-name="NULL" 
 />
    <glyph glyph-name="NULL" 
 />
    <glyph glyph-name="CR" unicode="&#xd;" horiz-adv-x="456" 
 />
    <glyph glyph-name="space" unicode=" " horiz-adv-x="456" 
 />
    <glyph glyph-name="exclam" unicode="!" horiz-adv-x="507" 
d="M310 406h-113l-41 1056h194zM142 106q0 65 30 96t81 31q49 0 80.5 -29.5t31.5 -97.5q0 -67 -32 -97.5t-80 -30.5q-51 0 -81 31.5t-30 96.5z" />
    <glyph glyph-name="quotedbl" unicode="&#x22;" horiz-adv-x="787" 
d="M307 1462l-34 -528h-110l-35 528h179zM660 1462l-34 -528h-110l-35 528h179z" />
    <glyph glyph-name="numbersign" unicode="#" horiz-adv-x="1129" 
d="M847 913l-53 -347h231v-126h-251l-71 -440h-127l70 440h-257l-68 -440h-125l66 440h-216v126h236l55 347h-230v124h249l66 425h129l-67 -425h258l67 425h124l-67 -425h218v-124h-237zM409 566h257l55 347h-258z" />
    <glyph glyph-name="dollar" unicode="$" horiz-adv-x="1021" 
d="M452 -119v214q-103 2 -194.5 20.5t-152.5 47.5v155q63 -33 157.5 -57.5t189.5 -26.5v450q-120 41 -197 89t-114 115t-37 162q0 98 43.5 170.5t122 115t182.5 49.5v170h109v-167q92 -3 171 -22t148 -51l-48 -132q-61 28 -129 45t-142 22v-449q119 -42 199 -87.5t120 -109
t40 -159.5q0 -140 -94 -230.5t-265 -111.5v-222h-109zM561 242q104 14 157 65t53 128q0 54 -21 90.5t-67 65t-122 53.5v-402zM452 842v405q-64 -6 -108.5 -31t-67 -65t-22.5 -93q0 -57 19.5 -96t63.5 -67t115 -53z" />
    <glyph glyph-name="percent" unicode="%" horiz-adv-x="1516" 
d="M358 1483q131 0 200.5 -118.5t69.5 -338.5q0 -219 -68 -340t-202 -121q-129 0 -197 121.5t-68 339.5q0 220 66 338.5t199 118.5zM357 1367q-68 0 -99 -85t-31 -256q0 -170 31 -256t100 -86t102.5 85.5t33.5 256.5t-34 256t-103 85zM1155 1462l-660 -1462h-135l659 1462
h136zM1155 898q130 0 200 -118.5t70 -338.5q0 -221 -68.5 -340.5t-201.5 -119.5q-129 0 -197 121t-68 339q0 223 66 340t199 117zM1154 781q-68 0 -99.5 -84.5t-31.5 -255.5q0 -170 31.5 -256t100.5 -86q70 0 102.5 86t32.5 256q0 168 -33.5 254t-102.5 86z" />
    <glyph glyph-name="ampersand" unicode="&#x26;" horiz-adv-x="1224" 
d="M519 1484q93 0 159 -36.5t101.5 -105.5t35.5 -167q0 -129 -64.5 -222.5t-175.5 -172.5l310 -379q40 60 65.5 137.5t38.5 168.5h162q-19 -116 -60.5 -229.5t-104.5 -198.5l235 -279h-205l-135 166q-54 -57 -114.5 -98.5t-133.5 -64.5t-166 -23q-121 0 -206 48.5t-130 137
t-45 208.5q0 97 31.5 172t92.5 137t151 120q-45 61 -79 118t-53 119t-19 136q0 96 37.5 165t107 106t164.5 37zM447 698q-65 -45 -108.5 -90.5t-65.5 -100t-22 -127.5q0 -118 62.5 -186.5t166.5 -68.5q101 0 175.5 42t131.5 113zM515 1353q-68 0 -109 -46.5t-41 -131.5
q0 -75 32 -148.5t90 -143.5q93 63 134 133.5t41 159.5q0 83 -39.5 130t-107.5 47z" />
    <glyph glyph-name="quotesingle" unicode="'" horiz-adv-x="433" 
d="M307 1462l-34 -528h-110l-35 528h179z" />
    <glyph glyph-name="parenleft" unicode="(" horiz-adv-x="597" 
d="M91 564q0 171 33.5 332.5t99.5 306.5t164 265h147q-139 -194 -210 -425.5t-71 -476.5q0 -161 32 -317.5t94.5 -301t152.5 -271.5h-145q-99 118 -165 259.5t-99 300.5t-33 328z" />
    <glyph glyph-name="parenright" unicode=")" horiz-adv-x="597" 
d="M506 566q0 -168 -33 -328t-99 -302.5t-164 -259.5h-146q91 127 153.5 272.5t94.5 302.5t32 316q0 165 -32 322.5t-94.5 303.5t-155.5 275h148q98 -120 163.5 -265.5t99 -306.5t33.5 -330z" />
    <glyph glyph-name="asterisk" unicode="*" horiz-adv-x="964" 
d="M566 1558l-33 -332l319 96l27 -161l-309 -32l208 -275l-146 -84l-152 301l-148 -301l-147 84l205 275l-307 31l29 160l315 -94l-32 332h171z" />
    <glyph glyph-name="plus" unicode="+" horiz-adv-x="1023" 
d="M577 789h360v-133h-360v-418h-134v418h-361v133h361v421h134v-421z" />
    <glyph glyph-name="comma" unicode="," horiz-adv-x="491" 
d="M348 234l13 -22q-18 -78 -43.5 -160.5t-55 -163.5t-62.5 -154h-121q22 82 41 169.5t34 173t24 157.5h170z" />
    <glyph glyph-name="hyphen" unicode="-" horiz-adv-x="609" 
d="M69 476v151h472v-151h-472z" />
    <glyph glyph-name="period" unicode="." horiz-adv-x="496" 
d="M136 106q0 65 30.5 96t80.5 31t81.5 -29.5t31.5 -97.5q0 -67 -32 -97.5t-81 -30.5t-80 31.5t-31 96.5z" />
    <glyph glyph-name="slash" unicode="/" horiz-adv-x="751" 
d="M726 1465l-540 -1467h-155l541 1467h154z" />
    <glyph glyph-name="zero" unicode="0" horiz-adv-x="1021" 
d="M926 732q0 -177 -23.5 -316.5t-73.5 -236.5t-129 -147.5t-190 -50.5q-137 0 -229.5 78.5t-139.5 244.5t-47 428q0 242 43 410t135 255t238 87q142 0 234 -87t137 -254.5t45 -410.5zM258 732q0 -202 25 -337.5t81 -203t146 -67.5t145.5 67.5t81 203t25.5 337.5
q0 200 -25.5 335.5t-80.5 204t-146 68.5t-146.5 -68t-80.5 -203t-25 -337z" />
    <glyph glyph-name="one" unicode="1" horiz-adv-x="1021" 
d="M655 0h-160v1020q0 52 0.5 95.5t2.5 84t4 82.5q-22 -26 -46.5 -49t-60.5 -56l-149 -130l-88 106l360 309h137v-1462z" />
    <glyph glyph-name="two" unicode="2" horiz-adv-x="1021" 
d="M917 0h-831v128l340 412q97 117 159 205.5t92 171t30 180.5q0 116 -62.5 179.5t-170.5 63.5q-84 0 -151 -29.5t-137 -88.5l-85 111q54 48 113 81.5t125 51t142 17.5q121 0 209 -46.5t135 -131.5t47 -200q0 -116 -36.5 -215t-105 -196t-165.5 -208l-281 -331v-7h633v-148z
" />
    <glyph glyph-name="three" unicode="3" horiz-adv-x="1021" 
d="M877 1124q0 -93 -33 -164.5t-94 -119.5t-146 -71v-8q151 -25 229 -116.5t78 -238.5q0 -125 -53 -221.5t-158.5 -150.5t-264.5 -54q-102 0 -187 16.5t-162 53.5v157q77 -42 166.5 -65t176.5 -23q163 0 237.5 80t74.5 213q0 93 -41.5 153.5t-121.5 90t-194 29.5h-111v140
h114q103 0 175.5 35.5t111.5 99.5t39 151q0 111 -63.5 171.5t-175.5 60.5q-63 0 -115 -14t-98.5 -39.5t-93.5 -60.5l-80 112q78 66 175.5 104t220.5 38q191 0 292.5 -98.5t101.5 -260.5z" />
    <glyph glyph-name="four" unicode="4" horiz-adv-x="1021" 
d="M988 331h-187v-331h-159v331h-603v135l591 1006h171v-999h187v-142zM642 473v534q0 39 1 76t2.5 71.5t2.5 66t2 58.5h-7q-18 -44 -39.5 -88.5t-42.5 -83.5l-369 -634h450z" />
    <glyph glyph-name="five" unicode="5" horiz-adv-x="1021" 
d="M495 895q130 0 224.5 -52t146 -148t51.5 -228q0 -148 -56.5 -257t-163.5 -169.5t-260 -60.5q-98 0 -180 18t-141 53v158q65 -41 149.5 -65t166.5 -24q101 0 172 41.5t109 117t38 177.5q0 146 -76.5 223.5t-232.5 77.5q-56 0 -117.5 -9.5t-110.5 -23.5l-73 58l50 680h636
v-148h-499l-34 -441q40 9 91.5 15.5t109.5 6.5z" />
    <glyph glyph-name="six" unicode="6" horiz-adv-x="1021" 
d="M104 624q0 149 18 280t57.5 237t105.5 182.5t161 118t224 41.5q44 0 89.5 -5t77.5 -16v-142q-34 12 -76 18t-87 6q-143 0 -231.5 -73.5t-131 -208t-48.5 -318.5h9q26 50 66.5 89t97.5 62t131 23q115 0 196 -57t123.5 -158.5t42.5 -236.5q0 -145 -46.5 -254.5t-136 -170.5
t-216.5 -61q-97 0 -175.5 41.5t-134.5 122.5t-86 201.5t-30 278.5zM528 121q111 0 176 85.5t65 257.5q0 151 -59 234.5t-178 83.5q-82 0 -141 -39t-90.5 -100.5t-31.5 -129.5q0 -64 15 -132.5t46 -127.5t80 -95.5t118 -36.5z" />
    <glyph glyph-name="seven" unicode="7" horiz-adv-x="1021" 
d="M241 0l521 1314h-682v148h851v-123l-516 -1339h-174z" />
    <glyph glyph-name="eight" unicode="8" horiz-adv-x="1021" 
d="M511 1483q116 0 202 -41t133.5 -117.5t47.5 -185.5q0 -85 -32 -152.5t-90 -120.5t-136 -96q86 -47 153 -102.5t106 -127t39 -166.5q0 -119 -52 -207.5t-145.5 -137.5t-220.5 -49q-136 0 -232.5 47t-146.5 133.5t-50 204.5q0 95 35 168.5t97.5 130.5t145.5 101
q-72 47 -125.5 102t-82.5 122t-29 150q0 107 48.5 184t135.5 118.5t199 41.5zM246 364q0 -109 67 -180t197 -71q128 0 196 72t68 187q0 64 -28.5 117t-84 98.5t-135.5 86.5l-38 20q-80 -41 -134 -88.5t-81 -106t-27 -135.5zM509 1348q-100 0 -161.5 -57t-61.5 -161
q0 -70 28.5 -121.5t79.5 -91.5t119 -76q69 36 118.5 77t76 93t26.5 119q0 104 -61 161t-164 57z" />
    <glyph glyph-name="nine" unicode="9" horiz-adv-x="1021" 
d="M916 845q0 -150 -18 -282t-59 -239t-107 -184t-161.5 -118.5t-223.5 -41.5q-40 0 -90.5 6t-82.5 15v144q35 -13 79 -20t91 -7q151 0 239 81t128 217.5t45 301.5h-9q-26 -49 -66.5 -88t-97.5 -62t-131 -23q-115 0 -196 56.5t-123.5 158t-42.5 236.5q0 144 48 254
t138 171.5t219 61.5q97 0 174.5 -41t132.5 -122t84.5 -200t29.5 -275zM495 1341q-113 0 -177.5 -85t-64.5 -257q0 -151 58 -235t177 -84q84 0 143 40.5t89.5 103.5t30.5 132q0 59 -13.5 126t-43.5 126t-79 96t-120 37z" />
    <glyph glyph-name="colon" unicode=":" horiz-adv-x="497" 
d="M137 106q0 65 30 96t81 31q50 0 81 -29.5t31 -97.5q0 -66 -31.5 -97t-80.5 -31q-51 0 -81 31.5t-30 96.5zM137 985q0 67 30 97.5t81 30.5t81.5 -30t30.5 -97q0 -66 -32 -97.5t-80 -31.5q-50 0 -80.5 32t-30.5 96z" />
    <glyph glyph-name="semicolon" unicode=";" horiz-adv-x="497" 
d="M340 234l13 -22q-18 -78 -43.5 -160.5t-55.5 -163.5t-62 -154h-122q22 83 41.5 170.5t35 172t24.5 157.5h169zM136 986q0 66 30 96.5t80 30.5q52 0 82.5 -30.5t30.5 -96.5t-31.5 -97.5t-81.5 -31.5t-80 32t-30 97z" />
    <glyph glyph-name="less" unicode="&#x3c;" horiz-adv-x="1023" 
d="M939 259l-858 418v94l858 439v-148l-680 -335l680 -321v-147z" />
    <glyph glyph-name="equal" unicode="=" horiz-adv-x="1023" 
d="M88 867v133h843v-133h-843zM88 443v132h843v-132h-843z" />
    <glyph glyph-name="greater" unicode="&#x3e;" horiz-adv-x="1023" 
d="M82 406l681 319l-681 337v148l858 -439v-94l-858 -418v147z" />
    <glyph glyph-name="question" unicode="?" horiz-adv-x="762" 
d="M243 406v55q0 75 12.5 132t43 107.5t84.5 105.5q63 64 101 112.5t54.5 98t16.5 112.5q0 104 -54.5 157.5t-152.5 53.5q-77 0 -138.5 -22t-122.5 -57l-58 128q72 44 153 69t175 25q170 0 262.5 -91t92.5 -255q0 -91 -24 -156.5t-70 -122.5t-112 -125q-54 -56 -83 -99
t-40 -87.5t-11 -103.5v-37h-129zM202 106q0 65 29.5 96t80.5 31q49 0 80.5 -29.5t31.5 -97.5q0 -66 -32 -97t-80 -31q-50 0 -80 31.5t-30 96.5z" />
    <glyph glyph-name="at" unicode="@" horiz-adv-x="1579" 
d="M1474 733q0 -108 -19 -200.5t-57.5 -161t-94.5 -106.5t-131 -38q-87 0 -135 52t-57 134h-10q-30 -88 -88 -137t-143 -49q-130 0 -200 100t-70 275q0 143 44 247t126 161t197 57q69 0 136 -12t114 -30l-18 -412q-1 -34 -2.5 -60t-1.5 -41q0 -94 31.5 -130.5t80.5 -36.5
q55 0 92 46.5t56 134.5t19 210q0 188 -63.5 326t-176.5 212.5t-263 74.5q-151 0 -263 -61t-187 -166.5t-112 -242t-37 -288.5q0 -194 58.5 -341t175.5 -228.5t291 -81.5q99 0 192.5 24t165.5 58v-126q-75 -35 -163 -55t-197 -20q-208 0 -354.5 90t-223.5 260t-77 411
q0 198 51 361t147 280.5t231 181t302 62.5q192 0 334.5 -93.5t221 -259t78.5 -381.5zM608 598q0 -129 40 -191t112 -62q82 0 122 83.5t49 243.5l13 266q-21 8 -50 12t-62 4q-76 0 -125.5 -45.5t-74 -125.5t-24.5 -185z" />
    <glyph glyph-name="A" unicode="A" horiz-adv-x="1101" 
d="M927 0l-145 467h-466l-145 -467h-171l463 1465h173l464 -1465h-173zM742 616l-142 479q-6 27 -16 65.5l-20 77t-17 68.5q-6 -37 -14.5 -74t-17.5 -71.5t-17 -64.5l-141 -480h385z" />
    <glyph glyph-name="B" unicode="B" horiz-adv-x="1145" 
d="M176 1462h366q233 0 351 -84.5t118 -270.5q0 -90 -28.5 -159t-82.5 -113t-134 -60v-9q89 -17 152.5 -59.5t97.5 -113.5t34 -176q0 -130 -53 -223.5t-151 -143.5t-236 -50h-434v1462zM340 834h219q155 0 219 64.5t64 191.5q0 118 -72.5 175t-225.5 57h-204v-488zM340 694
v-552h247q152 0 221 74t69 211q0 87 -33 146.5t-100.5 90t-173.5 30.5h-230z" />
    <glyph glyph-name="C" unicode="C" horiz-adv-x="1098" 
d="M711 1337q-104 0 -183.5 -45.5t-133 -127.5t-81 -192t-27.5 -240q0 -186 49.5 -322t145 -209.5t232.5 -73.5q80 0 151 16t135 40v-146q-64 -29 -137.5 -43t-169.5 -14q-186 0 -315 91.5t-196 260t-67 401.5q0 161 38 297.5t113 238.5t186.5 158.5t257.5 56.5
q92 0 176.5 -20t156.5 -58l-62 -140q-58 31 -125.5 51t-143.5 20z" />
    <glyph glyph-name="D" unicode="D" horiz-adv-x="1267" 
d="M1153 747q0 -247 -73.5 -413t-215 -250t-346.5 -84h-342v1462h370q193 0 328.5 -81t207 -240.5t71.5 -393.5zM981 740q0 194 -51.5 322.5t-151.5 192.5t-248 64h-190v-1174h165q241 0 358.5 149.5t117.5 445.5z" />
    <glyph glyph-name="E" unicode="E" horiz-adv-x="978" 
d="M870 0h-694v1462h694v-146h-530v-479h499v-145h-499v-544h530v-148z" />
    <glyph glyph-name="F" unicode="F" horiz-adv-x="915" 
d="M340 0h-164v1462h694v-146h-530v-541h499v-146h-499v-629z" />
    <glyph glyph-name="G" unicode="G" horiz-adv-x="1300" 
d="M727 766h441v-712q-102 -37 -210 -55.5t-232 -18.5q-203 0 -339 95t-204.5 264.5t-68.5 393.5q0 223 75 392t221 263.5t358 94.5q106 0 202 -23t180 -67l-61 -141q-75 39 -157 62t-168 23q-153 0 -259.5 -72.5t-162.5 -208t-56 -325.5q0 -178 48.5 -314.5t151.5 -213.5
t266 -77q79 0 140.5 10t113.5 26v457h-279v147z" />
    <glyph glyph-name="H" unicode="H" horiz-adv-x="1296" 
d="M1120 0h-164v691h-616v-691h-164v1462h164v-624h616v624h164v-1462z" />
    <glyph glyph-name="I" unicode="I" horiz-adv-x="515" 
d="M176 0v1462h164v-1462h-164z" />
    <glyph glyph-name="J" unicode="J" horiz-adv-x="500" 
d="M11 -388q-43 0 -78.5 6t-63.5 18v144q28 -9 61 -15t70 -6q52 0 89.5 24t58.5 78t21 146v1455h165v-1455q0 -138 -38.5 -225t-110.5 -128.5t-174 -41.5z" />
    <glyph glyph-name="K" unicode="K" horiz-adv-x="1077" 
d="M1081 0h-189l-421 699l-131 -135v-564h-164v1462h164v-735q35 47 79 105.5t95 129.5l361 500h186l-474 -640z" />
    <glyph glyph-name="L" unicode="L" horiz-adv-x="911" 
d="M176 0v1462h164v-1313h529v-149h-693z" />
    <glyph glyph-name="M" unicode="M" horiz-adv-x="1649" 
d="M749 0l-423 1268h-8q4 -54 6.5 -110t4 -110.5t1.5 -102.5v-945h-154v1462h238l406 -1216h7l410 1216h239v-1462h-162v949q0 46 1.5 98.5t4 108.5t5.5 111h-8l-426 -1267h-142z" />
    <glyph glyph-name="N" unicode="N" horiz-adv-x="1346" 
d="M1173 0h-195l-653 1219h-8q3 -51 6.5 -107t5 -114t1.5 -117v-881h-154v1462h193l653 -1208h6q-2 47 -5 105.5t-4.5 118.5t-1.5 111v873h156v-1462z" />
    <glyph glyph-name="O" unicode="O" horiz-adv-x="1355" 
d="M1242 733q0 -163 -34 -300.5t-103 -239t-175 -157.5t-250 -56q-148 0 -255.5 57t-176 159t-101.5 240t-33 299q0 237 63 404.5t189 256t315 88.5q191 0 315 -96t185 -265.5t61 -389.5zM286 733q0 -192 43.5 -328t130.5 -207.5t219 -71.5q133 0 219 71t128.5 206.5
t42.5 329.5q0 292 -95.5 448t-292.5 156q-134 0 -221.5 -71t-130.5 -205.5t-43 -327.5z" />
    <glyph glyph-name="P" unicode="P" horiz-adv-x="1064" 
d="M498 1462q249 0 365.5 -107t116.5 -320q0 -103 -28.5 -187.5t-89 -145.5t-155.5 -94t-228 -33h-139v-575h-164v1462h322zM487 1320h-147v-601h122q119 0 196 31t114.5 99.5t37.5 180.5q0 151 -78.5 220.5t-244.5 69.5z" />
    <glyph glyph-name="Q" unicode="Q" horiz-adv-x="1355" 
d="M1242 733q0 -185 -40 -329.5t-119 -242.5t-195 -143l282 -366h-216l-232 331q-10 0 -23 -1.5t-24 -1.5q-147 0 -253 57t-174 159.5t-101 240t-33 298.5q0 237 63 404.5t189 256t316 88.5q181 0 306 -88t189.5 -255.5t64.5 -407.5zM286 733q0 -192 43 -328t130.5 -207.5
t219.5 -71.5q133 0 219 71t128.5 206.5t42.5 329.5q0 293 -95.5 448.5t-291.5 155.5q-135 0 -222.5 -71t-130.5 -205.5t-43 -327.5z" />
    <glyph glyph-name="R" unicode="R" horiz-adv-x="1098" 
d="M498 1462q164 0 271 -44.5t159.5 -135t52.5 -230.5q0 -107 -33 -184t-92 -128.5t-138 -82.5l349 -657h-187l-311 614h-229v-614h-164v1462h322zM494 1317h-154v-564h173q149 0 223.5 73t74.5 218q0 147 -77 210t-240 63z" />
    <glyph glyph-name="S" unicode="S" horiz-adv-x="982" 
d="M894 394q0 -127 -56 -220t-157 -143.5t-237 -50.5q-70 0 -133.5 7.5t-118.5 22t-100 35.5v164q72 -34 165.5 -57.5t186.5 -23.5q92 0 155 32t96 89t33 131t-27.5 124.5t-91 92t-171.5 86.5q-79 34 -140.5 72.5t-104 86.5t-64.5 112.5t-22 150.5q-1 116 52.5 201
t148.5 131.5t218 45.5q100 0 187.5 -21t156.5 -54l-53 -146q-70 33 -144 52t-148 19q-80 0 -136 -28t-86 -78.5t-30 -118.5q0 -77 27.5 -127.5t88.5 -89.5t162 -83q112 -49 188.5 -104t115.5 -129t39 -181z" />
    <glyph glyph-name="T" unicode="T" horiz-adv-x="949" 
d="M556 0h-165v1315h-372v147h909v-147h-372v-1315z" />
    <glyph glyph-name="U" unicode="U" horiz-adv-x="1277" 
d="M1115 1462v-975q0 -161 -54 -274.5t-160 -173t-265 -59.5q-232 0 -353 131.5t-121 376.5v974h165v-977q0 -181 80 -270t234 -89q105 0 173 41t102 121t34 198v976h165z" />
    <glyph glyph-name="V" unicode="V" horiz-adv-x="1054" 
d="M1054 1462l-439 -1462h-178l-437 1462h172l285 -986q15 -50 27.5 -100t23 -97.5t18.5 -92.5q8 45 18 92.5t23.5 98t28.5 102.5l285 983h173z" />
    <glyph glyph-name="W" unicode="W" horiz-adv-x="1674" 
d="M1655 1462l-346 -1462h-180l-241 970q-8 31 -16 65.5t-15 71t-13.5 72.5t-10.5 69q-3 -24 -8 -56t-11.5 -68.5t-15 -75t-18.5 -77.5l-235 -971h-180l-346 1462h169l210 -921q11 -50 20.5 -97t17.5 -91t14.5 -83t10.5 -74q6 41 13.5 85t16 89t18 89t19.5 85l225 918h162
l229 -920q11 -43 21 -86.5t18 -87t15 -86.5t13 -86q8 57 17.5 114.5t21.5 116t25 115.5l211 920h169z" />
    <glyph glyph-name="X" unicode="X" horiz-adv-x="994" 
d="M984 0h-182l-302 627l-316 -627h-173l398 763l-362 699h177l280 -570l282 570h174l-363 -703z" />
    <glyph glyph-name="Y" unicode="Y" horiz-adv-x="966" 
d="M484 745l307 717h175l-401 -894v-568h-164v562l-401 900h176z" />
    <glyph glyph-name="Z" unicode="Z" horiz-adv-x="952" 
d="M892 0h-826v126l620 1188h-602v148h791v-127l-621 -1186h638v-149z" />
    <glyph glyph-name="bracketleft" unicode="[" horiz-adv-x="654" 
d="M596 -326h-438v1794h438v-133h-284v-1527h284v-134z" />
    <glyph glyph-name="backslash" unicode="\" horiz-adv-x="751" 
d="M184 1465l542 -1467h-156l-540 1467h154z" />
    <glyph glyph-name="bracketright" unicode="]" horiz-adv-x="654" 
d="M58 -192h284v1527h-284v133h439v-1794h-439v134z" />
    <glyph glyph-name="asciicircum" unicode="^" horiz-adv-x="1033" 
d="M56 619l405 848h95l423 -848h-150l-320 660l-304 -660h-149z" />
    <glyph glyph-name="underscore" unicode="_" horiz-adv-x="891" 
d="M895 -300h-899v122h899v-122z" />
    <glyph glyph-name="grave" unicode="`" horiz-adv-x="552" 
d="M273 1569q24 -47 58 -103.5t71 -109.5t69 -91v-24h-106q-34 28 -74.5 67.5t-81 83.5t-74 85t-53.5 73v19h191z" />
    <glyph glyph-name="a" unicode="a" horiz-adv-x="990" 
d="M507 1116q174 0 254 -92.5t80 -280.5v-743h-119l-28 159h-6q-36 -58 -79 -98t-98.5 -60.5t-133.5 -20.5q-92 0 -158 40t-101 112.5t-35 169.5q0 163 112 252t331 97l157 8v71q0 137 -48.5 196t-143.5 59q-66 0 -130.5 -20.5t-128.5 -54.5l-50 121q68 39 151 62t174 23z
M683 544l-134 -7q-161 -7 -231 -66t-70 -168q0 -99 47 -146t126 -47q119 0 190.5 84.5t71.5 243.5v106z" />
    <glyph glyph-name="b" unicode="b" horiz-adv-x="1095" 
d="M315 1556v-423q0 -50 -2.5 -101t-4.5 -91h8q43 80 116 127.5t179 47.5q181 0 283 -143t102 -423q0 -184 -46 -311.5t-132.5 -193t-206.5 -65.5q-106 0 -178 44.5t-117 122.5h-11l-28 -147h-122v1556h160zM581 979q-102 0 -160 -50t-82 -143.5t-24 -224.5v-28
q0 -207 61 -312t205 -105q126 0 188 109.5t62 326.5q0 212 -61 319.5t-189 107.5z" />
    <glyph glyph-name="c" unicode="c" horiz-adv-x="842" 
d="M533 -20q-135 0 -231.5 62t-148 187t-51.5 313q0 190 53.5 317.5t153 192.5t235.5 65q72 0 135 -14.5t109 -39.5l-50 -133q-43 20 -94 33t-97 13q-93 0 -155.5 -49t-94 -145t-31.5 -238q0 -137 30.5 -231.5t91.5 -143.5t153 -49q65 0 123 15.5t109 39.5v-139
q-48 -27 -109.5 -41.5t-130.5 -14.5z" />
    <glyph glyph-name="d" unicode="d" horiz-adv-x="1095" 
d="M486 -20q-182 0 -283.5 143.5t-101.5 421.5q0 279 103 425.5t281 146.5q70 0 126 -21.5t98.5 -59.5t71.5 -89h9q-3 38 -5.5 83.5t-2.5 78.5v447h159v-1556h-128l-23 152h-8q-30 -50 -71.5 -89t-96.5 -61t-128 -22zM516 115q140 0 203.5 98.5t63.5 291.5v53
q0 209 -60.5 315.5t-207.5 106.5q-126 0 -188 -114.5t-62 -322.5t61.5 -318t189.5 -110z" />
    <glyph glyph-name="e" unicode="e" horiz-adv-x="999" 
d="M517 1116q126 0 212 -63.5t130.5 -174t44.5 -252.5v-106h-640q2 -199 79.5 -301t223.5 -102q82 0 150.5 18.5t141.5 56.5v-142q-70 -36 -141.5 -53t-162.5 -17q-147 0 -248.5 69t-153 195.5t-51.5 297.5q0 180 49 309t142 197t224 68zM516 985q-110 0 -174 -85.5
t-76 -251.5h479q-1 95 -25.5 171.5t-74.5 121t-129 44.5z" />
    <glyph glyph-name="f" unicode="f" horiz-adv-x="599" 
d="M571 967h-223v-967h-159v967h-165v82l165 53v74q0 131 31 218t97 130t169 43q53 0 98 -9.5t85 -24.5l-41 -127q-31 10 -64.5 17.5t-67.5 7.5q-79 0 -113 -58t-35 -194v-82h223v-130z" />
    <glyph glyph-name="g" unicode="g" horiz-adv-x="951" 
d="M416 -492q-186 0 -289.5 80.5t-103.5 224.5q0 108 59.5 180.5t160.5 96.5q-43 20 -71.5 60t-28.5 94q0 58 30 103.5t89 87.5q-75 37 -120.5 120.5t-45.5 193.5q0 115 43 197.5t124 127t195 44.5q29 0 55.5 -2.5t49 -7.5t39.5 -11h324v-103l-175 -22q29 -42 45.5 -98
t16.5 -119q0 -167 -95.5 -263.5t-265.5 -96.5q-45 0 -83 9q-38 -26 -61 -58.5t-23 -77.5q0 -31 16.5 -51.5t48 -30.5t76.5 -10h176q151 0 232 -73t81 -218q0 -181 -128.5 -279t-370.5 -98zM425 -366q111 0 185 27t111 80t37 128q0 66 -25 100t-73 46.5t-117 12.5h-160
q-60 0 -106.5 -22t-72 -67t-25.5 -116q0 -93 64.5 -141t181.5 -48zM456 513q95 0 145 61t50 178q0 125 -51 186.5t-146 61.5q-92 0 -143 -65t-51 -186q0 -113 50 -174.5t146 -61.5z" />
    <glyph glyph-name="h" unicode="h" horiz-adv-x="1090" 
d="M315 1556v-458q0 -42 -2.5 -82.5t-7.5 -75.5h11q27 56 71 95t101 60t121 21q112 0 186 -42t110 -127.5t36 -216.5v-730h-159v710q0 139 -48 203.5t-151 64.5q-96 0 -155 -44.5t-86 -134.5t-27 -225v-574h-160v1556h160z" />
    <glyph glyph-name="i" unicode="i" horiz-adv-x="471" 
d="M315 1097v-1097h-159v1097h159zM238 1508q44 0 69.5 -28t25.5 -83q0 -53 -26.5 -81.5t-68.5 -28.5q-43 0 -70 28.5t-27 81.5q0 56 26.5 83.5t70.5 27.5z" />
    <glyph glyph-name="j" unicode="j" horiz-adv-x="471" 
d="M58 -492q-40 0 -71 6.5t-55 15.5v136q24 -9 49.5 -14t53.5 -5q58 0 89 40t31 136v1274h160v-1272q0 -104 -28.5 -174.5t-85.5 -106t-143 -36.5zM141 1397q0 56 26.5 83.5t70.5 27.5q43 0 69 -28t26 -83q0 -53 -26.5 -81.5t-68.5 -28.5q-43 0 -70 28.5t-27 81.5z" />
    <glyph glyph-name="k" unicode="k" horiz-adv-x="938" 
d="M314 1556v-792q0 -49 -2.5 -105.5t-5.5 -106.5h7q19 30 47.5 71t52.5 71l307 403h181l-353 -445l378 -652h-182l-305 536l-125 -134v-402h-159v1556h159z" />
    <glyph glyph-name="l" unicode="l" horiz-adv-x="469" 
d="M315 0h-160v1556h160v-1556z" />
    <glyph glyph-name="m" unicode="m" horiz-adv-x="1638" 
d="M1181 1117q155 0 232 -94t77 -294v-729h-159v712q0 138 -47 202.5t-138 64.5q-129 0 -186.5 -93t-57.5 -271v-615h-159v713q0 93 -20.5 152t-61.5 86.5t-104 27.5q-91 0 -144 -48t-75.5 -136.5t-22.5 -210.5v-584h-160v1097h128l22 -155h9q27 56 68.5 95t95 59.5
t117.5 20.5q110 0 179.5 -49t97.5 -135h10q46 93 121.5 138.5t177.5 45.5z" />
    <glyph glyph-name="n" unicode="n" horiz-adv-x="1090" 
d="M612 1117q162 0 245.5 -93t83.5 -293v-731h-159v710q0 135 -48.5 202t-149.5 67q-145 0 -207 -99.5t-62 -303.5v-576h-160v1097h128l21 -158h10q29 56 74 96t102 61t122 21z" />
    <glyph glyph-name="o" unicode="o" horiz-adv-x="1067" 
d="M968 550q0 -132 -28.5 -237.5t-84 -179.5t-137 -113.5t-187.5 -39.5q-100 0 -179.5 39.5t-135.5 113t-85.5 179.5t-29.5 238q0 181 50 307.5t147 193t238 66.5q134 0 230.5 -65.5t149 -192t52.5 -309.5zM265 550q0 -137 28.5 -234t88.5 -148t153 -51t152.5 50.5t88 147
t28.5 235.5q0 137 -28.5 233t-88 146.5t-153.5 50.5q-140 0 -204.5 -111t-64.5 -319z" />
    <glyph glyph-name="p" unicode="p" horiz-adv-x="1095" 
d="M611 1117q181 0 283 -141t102 -425q0 -185 -46.5 -312t-132 -193t-204.5 -66q-72 0 -129 22.5t-99 61.5t-70 89h-9q2 -40 5.5 -86t3.5 -83v-474h-160v1587h131l20 -161h9q30 55 71 96t97 63t128 22zM580 981q-92 0 -150 -44t-86 -132t-29 -221v-43q0 -140 27 -234.5
t86 -142t154 -47.5q83 0 138.5 50.5t83.5 147.5t28 236q0 206 -60.5 318t-191.5 112z" />
    <glyph glyph-name="q" unicode="q" horiz-adv-x="1095" 
d="M781 -490v467q0 36 2 85.5t6 97.5h-9q-45 -83 -118 -131.5t-182 -48.5q-176 0 -278 142.5t-102 422.5q0 187 47.5 314.5t134.5 192.5t206 65q106 0 177 -46.5t116 -128.5h8l21 155h131v-1587h-160zM517 117q91 0 149 43.5t86.5 129.5t29.5 214v52q0 213 -62 318.5
t-206 105.5q-127 0 -188 -115.5t-61 -322.5q0 -212 62.5 -318.5t189.5 -106.5z" />
    <glyph glyph-name="r" unicode="r" horiz-adv-x="726" 
d="M587 1117q28 0 57.5 -3.5t56.5 -10.5l-23 -156q-22 7 -48.5 10.5t-52.5 3.5q-56 0 -104 -28t-83.5 -79t-55 -121t-19.5 -153v-580h-160v1097h129l19 -198h9q28 62 67.5 111t91.5 78t116 29z" />
    <glyph glyph-name="s" unicode="s" horiz-adv-x="832" 
d="M753 295q0 -102 -44 -172.5t-127 -106.5t-200 -36q-95 0 -168.5 18t-127.5 47v157q56 -35 135 -60t161 -25q109 0 162 45t53 124q0 46 -21.5 80.5t-70 66.5t-132.5 69q-86 41 -150.5 83t-100 100t-35.5 145q0 134 98 210.5t258 76.5q84 0 158 -18.5t139 -52.5l-57 -128
q-55 29 -117 47.5t-127 18.5q-94 0 -146 -39.5t-52 -107.5q0 -48 22.5 -81t73.5 -63t135 -69q85 -41 148.5 -83.5t98 -100t34.5 -145.5z" />
    <glyph glyph-name="t" unicode="t" horiz-adv-x="625" 
d="M461 116q33 0 67 6.5t59 16.5v-128q-30 -13 -74 -22t-90 -9q-79 0 -137.5 31.5t-90.5 99.5t-32 181v676h-129v82l133 53l54 246h103v-252h253v-129h-253v-665q0 -94 34 -140.5t103 -46.5z" />
    <glyph glyph-name="u" unicode="u" horiz-adv-x="1090" 
d="M935 1097v-1097h-130l-20 155h-10q-28 -55 -73 -94.5t-101.5 -60t-123.5 -20.5q-113 0 -186 45t-108.5 133.5t-35.5 219.5v719h161v-699q0 -142 48 -211t147 -69q100 0 159 44.5t85.5 132.5t26.5 219v583h161z" />
    <glyph glyph-name="v" unicode="v" horiz-adv-x="882" 
d="M350 0l-346 1097h168l196 -665q20 -64 38.5 -136.5t28.5 -131.5h8q8 45 27 113.5t39 135.5l201 684h168l-348 -1097h-180z" />
    <glyph glyph-name="w" unicode="w" horiz-adv-x="1403" 
d="M924 1l-163 660q-9 34 -17.5 69t-15.5 68t-12.5 63.5t-10.5 56.5h-6q-4 -26 -9.5 -57t-12.5 -64.5t-15 -68.5t-18 -69l-172 -658h-181l-270 1097h163l138 -588q13 -57 25 -114.5t22 -111.5t16 -101h7q6 30 12.5 66.5t14.5 77t17.5 82.5t19.5 83l161 606h175l156 -607
q12 -43 23.5 -94t22 -105.5t18.5 -107.5h7q3 32 11 74.5t19 93t23 105.5l150 641h160l-273 -1097h-185z" />
    <glyph glyph-name="x" unicode="x" horiz-adv-x="912" 
d="M363 564l-311 533h177l229 -414l229 414h176l-312 -537l327 -560h-176l-246 440l-247 -440h-174z" />
    <glyph glyph-name="y" unicode="y" horiz-adv-x="886" 
d="M7 1097h169l198 -639q15 -49 28.5 -94.5t24 -89t17.5 -85.5h7q11 54 30 124.5t42 145.5l190 638h169l-402 -1265q-33 -106 -78 -178.5t-107 -109t-149 -36.5q-36 0 -66 5t-56 12v135q20 -6 46 -10t53 -4q50 0 86 21.5t63 66.5t49 115l50 154z" />
    <glyph glyph-name="z" unicode="z" horiz-adv-x="786" 
d="M723 0h-657v108l467 858h-437v131h614v-118l-462 -849h475v-130z" />
    <glyph glyph-name="braceleft" unicode="{" horiz-adv-x="753" 
d="M676 -326q-123 1 -207 36t-127 106t-43 180v308q0 71 -23.5 115.5t-73.5 65.5t-130 21v128q76 1 126.5 19.5t75.5 62.5t25 119v311q0 107 43.5 177t127.5 105.5t206 36.5v-131q-72 -2 -121 -22.5t-74 -63.5t-25 -114v-307q0 -109 -47.5 -171t-153.5 -81v-10
q108 -19 154.5 -82t46.5 -170v-309q0 -69 24 -112.5t73 -64t123 -21.5v-132z" />
    <glyph glyph-name="bar" unicode="|" horiz-adv-x="974" 
d="M416 1560h141v-2051h-141v2051z" />
    <glyph glyph-name="braceright" unicode="}" horiz-adv-x="753" 
d="M77 -326v132q74 1 122.5 21.5t73 64t24.5 113.5v307q0 109 48 171t152 81v10q-105 19 -152.5 81t-47.5 171v309q0 71 -25.5 114t-74.5 63.5t-120 21.5v131q122 -2 206 -36.5t127.5 -104.5t43.5 -179v-309q0 -71 23 -115.5t73 -65.5t131 -21v-128q-78 0 -128.5 -20
t-74.5 -64t-24 -117v-310q0 -107 -43.5 -178t-127.5 -106.5t-206 -36.5z" />
    <glyph glyph-name="asciitilde" unicode="~" horiz-adv-x="1023" 
d="M487 659q-59 29 -104.5 43t-88.5 14q-51 0 -107.5 -33t-105.5 -87v149q46 51 101 77.5t122 26.5q59 0 111 -15t122 -48q61 -29 105.5 -42.5t85.5 -13.5q53 0 110 33t103 85v-147q-44 -49 -99.5 -76.5t-121.5 -27.5q-60 0 -110.5 14t-122.5 48z" />
    <glyph glyph-name="uni00A0" unicode="&#xa0;" horiz-adv-x="456" 
 />
    <glyph glyph-name="exclamdown" unicode="&#xa1;" horiz-adv-x="507" 
d="M195 681h114l40 -1061h-195zM366 982q0 -67 -31.5 -97t-80.5 -30q-51 0 -81 30.5t-30 96.5q0 64 30 96.5t81 32.5q48 0 80 -31.5t32 -97.5z" />
    <glyph glyph-name="cent" unicode="&#xa2;" horiz-adv-x="1023" 
d="M638 1483v-165q63 -4 119.5 -18t100.5 -36l-48 -134q-46 21 -98.5 33.5t-95.5 12.5q-96 0 -159 -48.5t-93.5 -144.5t-30.5 -239q0 -144 31 -237.5t92 -139.5t154 -46q66 0 123 15.5t111 39.5v-139q-43 -23 -92.5 -37.5t-114.5 -18.5v-201h-115v204q-113 16 -192 82
t-119.5 184.5t-40.5 291.5q0 174 41.5 294.5t120 189t189.5 85.5v172h117z" />
    <glyph glyph-name="sterling" unicode="&#xa3;" horiz-adv-x="1020" 
d="M609 1482q91 0 166 -22.5t138 -60.5l-61 -129q-56 32 -115 51.5t-122 19.5q-100 0 -149 -60.5t-49 -194.5v-296h333v-125h-333v-234q0 -75 -17 -129.5t-47.5 -91.5t-70.5 -61h659v-149h-862v137q54 18 93.5 54.5t61 95.5t21.5 143v235h-175v125h175v306q0 125 41.5 211
t120.5 130.5t192 44.5z" />
    <glyph glyph-name="currency" unicode="&#xa4;" horiz-adv-x="1151" 
d="M177 723q0 64 20 123.5t56 109.5l-136 140l86 84l136 -136q51 38 110.5 58t125.5 20q65 0 123.5 -19.5t109.5 -57.5l137 135l87 -84l-135 -138q36 -50 56.5 -109.5t20.5 -125.5q0 -64 -19.5 -124.5t-57.5 -111.5l134 -137l-85 -84l-138 135q-50 -36 -109.5 -55.5
t-123.5 -19.5q-67 0 -127.5 19.5t-108.5 57.5l-136 -135l-84 84l134 137q-37 51 -56.5 110.5t-19.5 123.5zM295 723q0 -78 37.5 -142t101 -101.5t141.5 -37.5q81 0 145 38t101 102t37 141q0 78 -38.5 142.5t-102.5 103t-142 38.5q-77 0 -140.5 -38t-101.5 -102.5t-38 -143.5
z" />
    <glyph glyph-name="yen" unicode="&#xa5;" horiz-adv-x="1021" 
d="M509 753l285 709h168l-333 -776h234v-118h-274v-178h274v-118h-274v-272h-161v272h-272v118h272v178h-272v118h228l-330 776h169z" />
    <glyph glyph-name="brokenbar" unicode="&#xa6;" horiz-adv-x="974" 
d="M416 1556h141v-788h-141v788zM416 298h141v-789h-141v789z" />
    <glyph glyph-name="section" unicode="&#xa7;" horiz-adv-x="901" 
d="M111 824q0 90 46 151t115 93q-71 43 -109.5 99t-38.5 133q0 122 94 191.5t253 69.5q92 0 158.5 -17t133.5 -48l-51 -119q-60 29 -117 45.5t-129 16.5q-99 0 -147 -35.5t-48 -97.5q0 -44 23 -76t72.5 -60t127.5 -62q91 -39 155 -81.5t98.5 -97t34.5 -132.5
q0 -91 -40.5 -156t-98.5 -100q67 -43 101 -97.5t34 -128.5q0 -134 -101 -211.5t-278 -77.5q-93 0 -166.5 17.5t-130.5 48.5v140q38 -23 87.5 -42t104 -30.5t107.5 -11.5q119 0 173.5 46t54.5 111q0 47 -21.5 79t-73.5 62.5t-145 71.5q-91 42 -153 83t-93.5 94t-31.5 129z
M249 842q0 -48 24 -83.5t73 -66t124 -63.5l66 -30q45 27 76.5 70t31.5 105q0 51 -22.5 88t-78.5 72t-159 77q-57 -18 -96 -62t-39 -107z" />
    <glyph glyph-name="dieresis" unicode="&#xa8;" horiz-adv-x="1131" 
d="M299 1381q0 50 25 73.5t62 23.5t62 -24t25 -73q0 -50 -25 -75t-62 -25t-62 25t-25 75zM655 1381q0 50 25.5 73.5t61.5 23.5q37 0 62.5 -24t25.5 -73q0 -50 -25.5 -75t-62.5 -25t-62 25t-25 75z" />
    <glyph glyph-name="copyright" unicode="&#xa9;" horiz-adv-x="1702" 
d="M851 -20q-168 0 -306.5 57.5t-238 160t-153.5 239t-54 294.5q0 166 57 303.5t159.5 238t239.5 155.5t296 55q162 0 299.5 -57t239 -159t157.5 -239t56 -297q0 -162 -56 -299.5t-157.5 -238.5t-239 -157t-299.5 -56zM883 275q-198 0 -302.5 121t-104.5 333q0 137 49 239.5
t142 159.5t224 57q66 0 130.5 -15t123.5 -44l-53 -111q-51 25 -101 37.5t-98 12.5q-129 0 -201 -88t-72 -245q0 -167 67 -251.5t204 -84.5q50 0 106.5 12.5t110.5 35.5v-119q-51 -23 -105.5 -36.5t-119.5 -13.5zM851 82q138 0 255.5 49t204 137t134.5 206.5t48 256.5
t-47.5 255.5t-134 206.5t-203.5 138t-257 49q-142 0 -259.5 -48.5t-203.5 -136.5t-133 -206.5t-47 -257.5t48 -257.5t134.5 -206t204 -136.5t256.5 -49z" />
    <glyph glyph-name="ordfeminine" unicode="&#xaa;" horiz-adv-x="666" 
d="M335 1479q116 0 172.5 -56t56.5 -172v-452h-86l-22 95q-36 -51 -87 -79t-120 -28q-57 0 -99.5 23.5t-65.5 68.5t-23 107q0 69 31.5 114t95.5 69t159 29l99 5v52q0 67 -32.5 96t-90.5 29q-46 0 -89.5 -13.5t-86.5 -35.5l-39 91q50 27 107.5 42t119.5 15zM446 1118l-80 -5
q-103 -5 -144 -35.5t-41 -90.5q0 -52 27 -77.5t75 -25.5q82 0 122.5 49.5t40.5 133.5v51z" />
    <glyph glyph-name="guillemotleft" unicode="&#xab;" horiz-adv-x="973" 
d="M76 557l317 401l114 -61l-254 -353l254 -350l-114 -64l-317 399v28zM467 557l320 401l111 -61l-252 -353l253 -350l-112 -64l-320 399v28z" />
    <glyph glyph-name="logicalnot" unicode="&#xac;" horiz-adv-x="1023" 
d="M927 789v-534h-133v401h-711v133h844z" />
    <glyph glyph-name="uni00AD" unicode="&#xad;" horiz-adv-x="609" 
d="M69 476v151h472v-151h-472z" />
    <glyph glyph-name="registered" unicode="&#xae;" horiz-adv-x="1702" 
d="M579 291v885h250q157 0 237.5 -64t80.5 -196q0 -93 -43.5 -151t-113.5 -86l217 -388h-156l-189 353h-143v-353h-140zM718 755h105q83 0 132 40t49 116q0 78 -45 113t-137 35h-104v-304zM851 -20q-168 0 -306.5 57.5t-238 160t-153.5 239t-54 294.5q0 166 57 303.5
t159.5 238t239.5 155.5t296 55q162 0 299.5 -57t239 -159t157.5 -239t56 -297q0 -162 -56 -299.5t-157.5 -238.5t-239 -157t-299.5 -56zM851 82q138 0 255.5 49t204 137t134.5 206.5t48 256.5t-47.5 255.5t-134 206.5t-203.5 138t-257 49q-142 0 -259.5 -48.5t-203.5 -136.5
t-133 -206.5t-47 -257.5t48 -257.5t134.5 -206t204 -136.5t256.5 -49z" />
    <glyph glyph-name="overscore" unicode="&#xaf;" horiz-adv-x="953" 
d="M960 1556h-967v125h967v-125z" />
    <glyph glyph-name="degree" unicode="&#xb0;" horiz-adv-x="812" 
d="M405 898q-88 0 -155.5 36t-105.5 102t-38 154t38 154t105.5 102t155.5 36t155.5 -36t106.5 -102t39 -154t-39 -154t-107 -102t-155 -36zM407 1005q87 0 134 51t47 134q0 84 -47.5 135t-133.5 51q-91 0 -137 -52t-46 -134q0 -84 48 -134.5t135 -50.5z" />
    <glyph glyph-name="plusminus" unicode="&#xb1;" horiz-adv-x="1023" 
d="M83 0v133h855v-133h-855zM577 808h360v-133h-360v-418h-134v418h-361v133h361v421h134v-421z" />
    <glyph glyph-name="uni00B2" unicode="&#xb2;" horiz-adv-x="675" 
d="M589 851h-537v106l208 227q70 75 111 127t58.5 96.5t17.5 95.5q0 61 -35.5 96.5t-99.5 35.5q-52 0 -97.5 -22t-90.5 -63l-67 86q53 52 117.5 81.5t144.5 29.5q123 0 192 -64t69 -173q0 -70 -26 -129t-78.5 -121.5t-130.5 -144.5l-140 -150h384v-114z" />
    <glyph glyph-name="uni00B3" unicode="&#xb3;" horiz-adv-x="675" 
d="M313 1747q127 0 196 -61t69 -163q0 -80 -40.5 -133t-104.5 -75v-7q82 -20 126.5 -74t44.5 -140q0 -117 -83 -187.5t-236 -70.5q-65 0 -124 12.5t-113 39.5v123q57 -31 117.5 -47.5t119.5 -16.5q97 0 142 41.5t45 111.5q0 77 -52 114t-152 37h-95v106h93q92 0 137.5 41.5
t45.5 109.5q0 62 -38.5 94.5t-102.5 32.5q-54 0 -101 -19t-95 -56l-65 89q58 46 122 72t144 26z" />
    <glyph glyph-name="acute" unicode="&#xb4;" horiz-adv-x="552" 
d="M470 1569v-19q-20 -31 -53.5 -72t-74 -85t-81.5 -83.5t-74 -68.5h-105v24q36 46 72 99t68 106t56 99h192z" />
    <glyph glyph-name="uni00B5" unicode="&#xb5;" horiz-adv-x="1097" 
d="M942 1097v-1097h-129l-21 156h-10q-26 -54 -65.5 -93.5t-90.5 -61t-115 -21.5q-69 0 -117.5 26t-80.5 75h-7q3 -31 5 -66t3 -73.5t1 -78.5v-354h-160v1588h160v-707q0 -135 49 -203.5t149 -68.5q101 0 159.5 46t84 135.5t25.5 220.5v577h160z" />
    <glyph glyph-name="paragraph" unicode="&#xb6;" horiz-adv-x="1159" 
d="M961 -260h-112v1708h-178v-1708h-111v837q-24 -9 -53 -13.5t-59 -4.5q-102 0 -174.5 52t-110.5 161t-38 281q0 177 42 288t122.5 163t196.5 52h475v-1816z" />
    <glyph glyph-name="periodcentered" unicode="&#xb7;" horiz-adv-x="496" 
d="M136 716q0 65 30.5 96t80.5 31t81.5 -29.5t31.5 -97.5q0 -67 -32 -97.5t-81 -30.5t-80 31.5t-31 96.5z" />
    <glyph glyph-name="cedilla" unicode="&#xb8;" horiz-adv-x="437" 
d="M402 -284q0 -99 -69 -153.5t-198 -54.5q-33 0 -61.5 3.5t-47.5 8.5v104q20 -5 46.5 -8t53.5 -3q71 0 107.5 25.5t36.5 75.5q0 55 -48 81.5t-127 35.5l80 169h103l-50 -108q52 -11 91.5 -33.5t61 -58t21.5 -84.5z" />
    <glyph glyph-name="uni00B9" unicode="&#xb9;" horiz-adv-x="675" 
d="M458 1728v-877h-130v556q0 34 1 65t2.5 62t4.5 61q-19 -17 -38.5 -33t-39.5 -30l-115 -84l-66 90l260 190h121z" />
    <glyph glyph-name="ordmasculine" unicode="&#xba;" horiz-adv-x="702" 
d="M638 1135q0 -165 -76 -257t-211 -92q-132 0 -209 91t-77 258q0 165 77 255t212 90q88 0 151.5 -40t98 -116.5t34.5 -188.5zM188 1135q0 -124 39 -185.5t124 -61.5q87 0 126 61.5t39 185.5q0 122 -39 182t-125 60q-82 0 -123 -59.5t-41 -182.5z" />
    <glyph glyph-name="guillemotright" unicode="&#xbb;" horiz-adv-x="972" 
d="M897 530l-320 -400l-111 64l252 351l-252 352l111 61l320 -400v-28zM507 530l-320 -400l-111 64l252 351l-252 352l111 61l320 -400v-28z" />
    <glyph glyph-name="onequarter" unicode="&#xbc;" horiz-adv-x="1480" 
d="M287 0l812 1462h139l-814 -1462h-137zM312 586v557q0 34 1 65t2.5 62t3.5 61q-19 -17 -38.5 -33.5t-39.5 -30.5l-115 -83l-65 89l259 189h121v-876h-129zM1205 0v200h-367v95l367 587h131v-572h117v-110h-117v-200h-131zM965 310h240v236q0 48 1 94.5t3 83.5
q-8 -22 -28.5 -57t-40.5 -68z" />
    <glyph glyph-name="onehalf" unicode="&#xbd;" horiz-adv-x="1544" 
d="M247 0l812 1462h139l-814 -1462h-137zM300 586v557q0 25 0.5 49t2 47.5t3 46.5t2.5 45q-19 -17 -38.5 -33.5t-39.5 -30.5l-115 -83l-65 89l259 189h122v-876h-131zM921 0v107l209 226q69 74 110.5 126t59.5 96.5t18 95.5q0 62 -36.5 97.5t-100.5 35.5q-52 0 -97.5 -21.5
t-91.5 -63.5l-65 86q51 52 116.5 81.5t143.5 29.5q124 0 193 -64t69 -172q0 -71 -26 -129t-74.5 -116.5t-117.5 -131.5l-157 -168h385v-115h-538z" />
    <glyph glyph-name="threequarters" unicode="&#xbe;" horiz-adv-x="1533" 
d="M348 0l812 1462h139l-813 -1462h-138zM282 570q-65 0 -124 13t-113 41v122q57 -31 117.5 -47t120.5 -16q96 0 141.5 41t45.5 111q0 77 -53 114.5t-152 37.5h-95v106h93q92 0 137.5 41.5t45.5 109.5q0 62 -38.5 95t-102.5 33q-54 0 -101 -20.5t-95 -55.5l-65 88
q58 47 122 72.5t144 25.5q127 0 196 -61t69 -163q0 -79 -40.5 -132t-103.5 -76v-8q81 -19 125.5 -72.5t44.5 -139.5q0 -118 -83 -189t-236 -71zM1258 0v200h-367v95l368 587h130v-572h118v-110h-118v-200h-131zM1019 310h239v236q0 48 1 94.5t4 83.5q-9 -22 -29.5 -57
t-40.5 -68z" />
    <glyph glyph-name="questiondown" unicode="&#xbf;" horiz-adv-x="762" 
d="M517 682v-55q0 -75 -12 -132t-42.5 -107t-85.5 -106q-63 -64 -100.5 -112.5t-54.5 -97.5t-17 -113q0 -104 55 -157.5t152 -53.5q78 0 139.5 22t121.5 57l59 -128q-72 -44 -152.5 -69t-175.5 -25q-170 0 -262.5 91t-92.5 255q0 91 24 156.5t70.5 122.5t111.5 125
q54 56 83 99t40 87.5t11 103.5v37h128zM559 982q0 -65 -29.5 -96t-81.5 -31q-49 0 -80 29.5t-31 97.5q0 67 31.5 97.5t79.5 30.5q52 0 81.5 -31.5t29.5 -96.5z" />
    <glyph glyph-name="Agrave" unicode="&#xc0;" horiz-adv-x="1101" 
d="M927 0l-145 467h-466l-145 -467h-171l463 1465h173l464 -1465h-173zM742 616l-142 479q-6 27 -16 65.5l-20 77t-17 68.5q-6 -37 -14.5 -74t-17.5 -71.5t-17 -64.5l-141 -480h385zM452 1921q24 -47 58 -103.5t71 -109.5t69 -91v-24h-106q-34 28 -74.5 67.5t-81 83.5
t-74 85t-53.5 73v19h191z" />
    <glyph glyph-name="Aacute" unicode="&#xc1;" horiz-adv-x="1101" 
d="M927 0l-145 467h-466l-145 -467h-171l463 1465h173l464 -1465h-173zM742 616l-142 479q-6 27 -16 65.5l-20 77t-17 68.5q-6 -37 -14.5 -74t-17.5 -71.5t-17 -64.5l-141 -480h385zM829 1921v-19q-20 -31 -53.5 -72t-74 -85t-81.5 -83.5t-74 -68.5h-105v24q36 46 72 99
t68 106t56 99h192z" />
    <glyph glyph-name="Acircumflex" unicode="&#xc2;" horiz-adv-x="1101" 
d="M927 0l-145 467h-466l-145 -467h-171l463 1465h173l464 -1465h-173zM742 616l-142 479q-6 27 -16 65.5l-20 77t-17 68.5q-6 -37 -14.5 -74t-17.5 -71.5t-17 -64.5l-141 -480h385zM627 1920q24 -45 62.5 -101t81.5 -110t78 -95v-21h-102q-48 38 -98.5 89.5t-100.5 106.5
q-50 -54 -101 -106.5t-97 -89.5h-100v21q37 44 79 98.5t79.5 109t60.5 98.5h158z" />
    <glyph glyph-name="Atilde" unicode="&#xc3;" horiz-adv-x="1101" 
d="M927 0l-145 467h-466l-145 -467h-171l463 1465h173l464 -1465h-173zM742 616l-142 479q-6 27 -16 65.5l-20 77t-17 68.5q-6 -37 -14.5 -74t-17.5 -71.5t-17 -64.5l-141 -480h385zM213 1595q6 54 20 99.5t37.5 79t58 52t78.5 18.5q42 0 80 -18.5t73 -42t67.5 -41.5
t63.5 -18q40 0 61.5 31t33.5 91h98q-10 -118 -60.5 -183.5t-132.5 -65.5q-40 0 -78.5 18t-74 42t-68 42t-62.5 18q-39 0 -62.5 -30.5t-35.5 -91.5h-97z" />
    <glyph glyph-name="Adieresis" unicode="&#xc4;" horiz-adv-x="1101" 
d="M927 0l-145 467h-466l-145 -467h-171l463 1465h173l464 -1465h-173zM742 616l-142 479q-6 27 -16 65.5l-20 77t-17 68.5q-6 -37 -14.5 -74t-17.5 -71.5t-17 -64.5l-141 -480h385zM283 1733q0 50 25 73.5t62 23.5t62 -24t25 -73q0 -50 -25 -75t-62 -25t-62 25t-25 75z
M639 1733q0 50 25.5 73.5t61.5 23.5q37 0 62.5 -24t25.5 -73q0 -50 -25.5 -75t-62.5 -25t-62 25t-25 75z" />
    <glyph glyph-name="Aring" unicode="&#xc5;" horiz-adv-x="1101" 
d="M927 0l-145 467h-466l-145 -467h-171l463 1465h173l464 -1465h-173zM742 616l-142 479q-6 27 -16 65.5l-20 77t-17 68.5q-6 -37 -14.5 -74t-17.5 -71.5t-17 -64.5l-141 -480h385zM548 1375q-97 0 -156.5 56t-59.5 153q0 96 59.5 152t156.5 56q94 0 156 -55.5t62 -150.5
q0 -97 -60.5 -154t-157.5 -57zM549 1470q51 0 83.5 31t32.5 82q0 53 -32 84.5t-84 31.5q-50 0 -83 -31.5t-33 -83.5t29.5 -83t86.5 -31z" />
    <glyph glyph-name="AE" unicode="&#xc6;" horiz-adv-x="1515" 
d="M1411 0h-674v467h-387l-178 -467h-175l563 1462h851v-147h-509v-478h476v-145h-476v-544h509v-148zM402 616h336v697h-74z" />
    <glyph glyph-name="Ccedilla" unicode="&#xc7;" horiz-adv-x="1098" 
d="M711 1337q-104 0 -183.5 -45.5t-133 -127.5t-81 -192t-27.5 -240q0 -186 49.5 -322t145 -209.5t232.5 -73.5q80 0 151 16t135 40v-146q-64 -29 -137.5 -43t-169.5 -14q-186 0 -315 91.5t-196 260t-67 401.5q0 161 38 297.5t113 238.5t186.5 158.5t257.5 56.5
q92 0 176.5 -20t156.5 -58l-62 -140q-58 31 -125.5 51t-143.5 20zM843 -284q0 -99 -69 -153.5t-198 -54.5q-33 0 -61.5 3.5t-47.5 8.5v104q20 -5 46.5 -8t53.5 -3q71 0 107.5 25.5t36.5 75.5q0 55 -48 81.5t-127 35.5l80 169h103l-50 -108q52 -11 91.5 -33.5t61 -58
t21.5 -84.5z" />
    <glyph glyph-name="Egrave" unicode="&#xc8;" horiz-adv-x="978" 
d="M870 0h-694v1462h694v-146h-530v-479h499v-145h-499v-544h530v-148zM447 1921q24 -47 58 -103.5t71 -109.5t69 -91v-24h-106q-34 28 -74.5 67.5t-81 83.5t-74 85t-53.5 73v19h191z" />
    <glyph glyph-name="Eacute" unicode="&#xc9;" horiz-adv-x="978" 
d="M870 0h-694v1462h694v-146h-530v-479h499v-145h-499v-544h530v-148zM810 1921v-19q-20 -31 -53.5 -72t-74 -85t-81.5 -83.5t-74 -68.5h-105v24q36 46 72 99t68 106t56 99h192z" />
    <glyph glyph-name="Ecircumflex" unicode="&#xca;" horiz-adv-x="978" 
d="M870 0h-694v1462h694v-146h-530v-479h499v-145h-499v-544h530v-148zM611 1920q24 -45 62.5 -101t81.5 -110t78 -95v-21h-102q-48 38 -98.5 89.5t-100.5 106.5q-50 -54 -101 -106.5t-97 -89.5h-100v21q37 44 79 98.5t79.5 109t60.5 98.5h158z" />
    <glyph glyph-name="Edieresis" unicode="&#xcb;" horiz-adv-x="978" 
d="M870 0h-694v1462h694v-146h-530v-479h499v-145h-499v-544h530v-148zM264 1733q0 50 25 73.5t62 23.5t62 -24t25 -73q0 -50 -25 -75t-62 -25t-62 25t-25 75zM620 1733q0 50 25.5 73.5t61.5 23.5q37 0 62.5 -24t25.5 -73q0 -50 -25.5 -75t-62.5 -25t-62 25t-25 75z" />
    <glyph glyph-name="Igrave" unicode="&#xcc;" horiz-adv-x="515" 
d="M176 0v1462h164v-1462h-164zM166 1926q24 -47 58 -103.5t71 -109.5t69 -91v-24h-106q-34 28 -74.5 67.5t-81 83.5t-74 85t-53.5 73v19h191z" />
    <glyph glyph-name="Iacute" unicode="&#xcd;" horiz-adv-x="515" 
d="M176 0v1462h164v-1462h-164zM538 1926v-19q-20 -31 -53.5 -72t-74 -85t-81.5 -83.5t-74 -68.5h-105v24q36 46 72 99t68 106t56 99h192z" />
    <glyph glyph-name="Icircumflex" unicode="&#xce;" horiz-adv-x="515" 
d="M176 0v1462h164v-1462h-164zM336 1923q24 -45 62.5 -101t81.5 -110t78 -95v-21h-102q-48 38 -98.5 89.5t-100.5 106.5q-50 -54 -101 -106.5t-97 -89.5h-100v21q37 44 79 98.5t79.5 109t60.5 98.5h158z" />
    <glyph glyph-name="Idieresis" unicode="&#xcf;" horiz-adv-x="515" 
d="M176 0v1462h164v-1462h-164zM-7 1736q0 50 25 73.5t62 23.5t62 -24t25 -73q0 -50 -25 -75t-62 -25t-62 25t-25 75zM349 1736q0 50 25.5 73.5t61.5 23.5q37 0 62.5 -24t25.5 -73q0 -50 -25.5 -75t-62.5 -25t-62 25t-25 75z" />
    <glyph glyph-name="Eth" unicode="&#xd0;" horiz-adv-x="1268" 
d="M545 1462q193 0 328.5 -81t207.5 -240.5t72 -393.5q0 -247 -73.5 -413t-215 -250t-347.5 -84h-335v668h-130v139h130v655h363zM530 1319h-183v-512h290v-139h-290v-523h159q241 0 358 149.5t117 445.5q0 194 -51 322.5t-151.5 192.5t-248.5 64z" />
    <glyph glyph-name="Ntilde" unicode="&#xd1;" horiz-adv-x="1346" 
d="M1173 0h-195l-653 1219h-8q3 -51 6.5 -107t5 -114t1.5 -117v-881h-154v1462h193l653 -1208h6q-2 47 -5 105.5t-4.5 118.5t-1.5 111v873h156v-1462zM342 1595q6 54 20 99.5t37.5 79t58 52t78.5 18.5q42 0 80 -18.5t73 -42t67.5 -41.5t63.5 -18q40 0 61.5 31t33.5 91h98
q-10 -118 -60.5 -183.5t-132.5 -65.5q-40 0 -78.5 18t-74 42t-68 42t-62.5 18q-39 0 -62.5 -30.5t-35.5 -91.5h-97z" />
    <glyph glyph-name="Ograve" unicode="&#xd2;" horiz-adv-x="1355" 
d="M1242 733q0 -163 -34 -300.5t-103 -239t-175 -157.5t-250 -56q-148 0 -255.5 57t-176 159t-101.5 240t-33 299q0 237 63 404.5t189 256t315 88.5q191 0 315 -96t185 -265.5t61 -389.5zM286 733q0 -192 43.5 -328t130.5 -207.5t219 -71.5q133 0 219 71t128.5 206.5
t42.5 329.5q0 292 -95.5 448t-292.5 156q-134 0 -221.5 -71t-130.5 -205.5t-43 -327.5zM586 1921q24 -47 58 -103.5t71 -109.5t69 -91v-24h-106q-34 28 -74.5 67.5t-81 83.5t-74 85t-53.5 73v19h191z" />
    <glyph glyph-name="Oacute" unicode="&#xd3;" horiz-adv-x="1355" 
d="M1242 733q0 -163 -34 -300.5t-103 -239t-175 -157.5t-250 -56q-148 0 -255.5 57t-176 159t-101.5 240t-33 299q0 237 63 404.5t189 256t315 88.5q191 0 315 -96t185 -265.5t61 -389.5zM286 733q0 -192 43.5 -328t130.5 -207.5t219 -71.5q133 0 219 71t128.5 206.5
t42.5 329.5q0 292 -95.5 448t-292.5 156q-134 0 -221.5 -71t-130.5 -205.5t-43 -327.5zM958 1921v-19q-20 -31 -53.5 -72t-74 -85t-81.5 -83.5t-74 -68.5h-105v24q36 46 72 99t68 106t56 99h192z" />
    <glyph glyph-name="Ocircumflex" unicode="&#xd4;" horiz-adv-x="1355" 
d="M1242 733q0 -163 -34 -300.5t-103 -239t-175 -157.5t-250 -56q-148 0 -255.5 57t-176 159t-101.5 240t-33 299q0 237 63 404.5t189 256t315 88.5q191 0 315 -96t185 -265.5t61 -389.5zM286 733q0 -192 43.5 -328t130.5 -207.5t219 -71.5q133 0 219 71t128.5 206.5
t42.5 329.5q0 292 -95.5 448t-292.5 156q-134 0 -221.5 -71t-130.5 -205.5t-43 -327.5zM758 1920q24 -45 62.5 -101t81.5 -110t78 -95v-21h-102q-48 38 -98.5 89.5t-100.5 106.5q-50 -54 -101 -106.5t-97 -89.5h-100v21q37 44 79 98.5t79.5 109t60.5 98.5h158z" />
    <glyph glyph-name="Otilde" unicode="&#xd5;" horiz-adv-x="1355" 
d="M1242 733q0 -163 -34 -300.5t-103 -239t-175 -157.5t-250 -56q-148 0 -255.5 57t-176 159t-101.5 240t-33 299q0 237 63 404.5t189 256t315 88.5q191 0 315 -96t185 -265.5t61 -389.5zM286 733q0 -192 43.5 -328t130.5 -207.5t219 -71.5q133 0 219 71t128.5 206.5
t42.5 329.5q0 292 -95.5 448t-292.5 156q-134 0 -221.5 -71t-130.5 -205.5t-43 -327.5zM344 1595q6 54 20 99.5t37.5 79t58 52t78.5 18.5q42 0 80 -18.5t73 -42t67.5 -41.5t63.5 -18q40 0 61.5 31t33.5 91h98q-10 -118 -60.5 -183.5t-132.5 -65.5q-40 0 -78.5 18t-74 42
t-68 42t-62.5 18q-39 0 -62.5 -30.5t-35.5 -91.5h-97z" />
    <glyph glyph-name="Odieresis" unicode="&#xd6;" horiz-adv-x="1355" 
d="M1242 733q0 -163 -34 -300.5t-103 -239t-175 -157.5t-250 -56q-148 0 -255.5 57t-176 159t-101.5 240t-33 299q0 237 63 404.5t189 256t315 88.5q191 0 315 -96t185 -265.5t61 -389.5zM286 733q0 -192 43.5 -328t130.5 -207.5t219 -71.5q133 0 219 71t128.5 206.5
t42.5 329.5q0 292 -95.5 448t-292.5 156q-134 0 -221.5 -71t-130.5 -205.5t-43 -327.5zM415 1733q0 50 25 73.5t62 23.5t62 -24t25 -73q0 -50 -25 -75t-62 -25t-62 25t-25 75zM771 1733q0 50 25.5 73.5t61.5 23.5q37 0 62.5 -24t25.5 -73q0 -50 -25.5 -75t-62.5 -25t-62 25
t-25 75z" />
    <glyph glyph-name="multiply" unicode="&#xd7;" horiz-adv-x="1023" 
d="M829 1135l92 -92l-318 -320l315 -317l-91 -92l-318 315l-315 -316l-93 93l316 317l-316 315l93 95l316 -318z" />
    <glyph glyph-name="Oslash" unicode="&#xd8;" horiz-adv-x="1358" 
d="M1245 733q0 -174 -36 -313t-106.5 -237t-175.5 -150.5t-245 -52.5q-98 0 -178.5 26t-143.5 76l-96 -163l-107 60l111 191q-77 103 -114 245t-37 320q0 237 63 404.5t189 256t315 88.5q93 0 173 -26.5t144 -77.5l93 156l107 -64l-108 -183q75 -97 113.5 -237t38.5 -319z
M1073 733q0 121 -19 221t-57 173l-556 -909q45 -45 105.5 -69t134.5 -24q134 0 221 71t129 207t42 330zM288 733q0 -126 19.5 -226.5t57.5 -174.5l556 909q-45 49 -104 73t-133 24q-134 0 -222 -71t-131 -206t-43 -328z" />
    <glyph glyph-name="Ugrave" unicode="&#xd9;" horiz-adv-x="1277" 
d="M1115 1462v-975q0 -161 -54 -274.5t-160 -173t-265 -59.5q-232 0 -353 131.5t-121 376.5v974h165v-977q0 -181 80 -270t234 -89q105 0 173 41t102 121t34 198v976h165zM553 1921q24 -47 58 -103.5t71 -109.5t69 -91v-24h-106q-34 28 -74.5 67.5t-81 83.5t-74 85t-53.5 73
v19h191z" />
    <glyph glyph-name="Uacute" unicode="&#xda;" horiz-adv-x="1277" 
d="M1115 1462v-975q0 -161 -54 -274.5t-160 -173t-265 -59.5q-232 0 -353 131.5t-121 376.5v974h165v-977q0 -181 80 -270t234 -89q105 0 173 41t102 121t34 198v976h165zM924 1921v-19q-20 -31 -53.5 -72t-74 -85t-81.5 -83.5t-74 -68.5h-105v24q36 46 72 99t68 106t56 99
h192z" />
    <glyph glyph-name="Ucircumflex" unicode="&#xdb;" horiz-adv-x="1277" 
d="M1115 1462v-975q0 -161 -54 -274.5t-160 -173t-265 -59.5q-232 0 -353 131.5t-121 376.5v974h165v-977q0 -181 80 -270t234 -89q105 0 173 41t102 121t34 198v976h165zM719 1920q24 -45 62.5 -101t81.5 -110t78 -95v-21h-102q-48 38 -98.5 89.5t-100.5 106.5
q-50 -54 -101 -106.5t-97 -89.5h-100v21q37 44 79 98.5t79.5 109t60.5 98.5h158z" />
    <glyph glyph-name="Udieresis" unicode="&#xdc;" horiz-adv-x="1277" 
d="M1115 1462v-975q0 -161 -54 -274.5t-160 -173t-265 -59.5q-232 0 -353 131.5t-121 376.5v974h165v-977q0 -181 80 -270t234 -89q105 0 173 41t102 121t34 198v976h165zM374 1733q0 50 25 73.5t62 23.5t62 -24t25 -73q0 -50 -25 -75t-62 -25t-62 25t-25 75zM730 1733
q0 50 25.5 73.5t61.5 23.5q37 0 62.5 -24t25.5 -73q0 -50 -25.5 -75t-62.5 -25t-62 25t-25 75z" />
    <glyph glyph-name="Yacute" unicode="&#xdd;" horiz-adv-x="966" 
d="M484 745l307 717h175l-401 -894v-568h-164v562l-401 900h176zM752 1921v-19q-20 -31 -53.5 -72t-74 -85t-81.5 -83.5t-74 -68.5h-105v24q36 46 72 99t68 106t56 99h192z" />
    <glyph glyph-name="Thorn" unicode="&#xde;" horiz-adv-x="1058" 
d="M978 783q0 -102 -27.5 -187t-87 -146.5t-154.5 -95.5t-230 -34h-139v-320h-164v1462h164v-256h157q251 0 366 -107t115 -316zM340 464h122q122 0 198.5 32t112.5 101t36 178q0 149 -76 218.5t-245 69.5h-148v-599z" />
    <glyph glyph-name="germandbls" unicode="&#xdf;" horiz-adv-x="1097" 
d="M904 1269q0 -67 -24 -116.5t-59 -88.5t-70.5 -73t-59.5 -68t-24 -75q0 -34 14 -62t46.5 -60t87.5 -76q67 -58 112.5 -108t67.5 -104.5t22 -129.5q0 -106 -40 -179t-114.5 -111t-178.5 -38q-74 0 -136 15.5t-109 45.5v150q32 -19 69.5 -36t79.5 -27.5t87 -10.5
q94 0 139 48.5t45 131.5q0 50 -16 88.5t-52 76.5t-95 85q-69 56 -110 103t-58 93t-17 97q0 61 23.5 104t58 77.5t69 68t58 74.5t23.5 98q0 83 -54 125.5t-148 42.5q-67 0 -118 -26t-79.5 -80.5t-28.5 -142.5v-1181h-160v1184q0 129 48.5 214t135.5 127t203 42q111 0 192 -34
t125.5 -100.5t44.5 -163.5z" />
    <glyph glyph-name="agrave" unicode="&#xe0;" horiz-adv-x="990" 
d="M507 1116q174 0 254 -92.5t80 -280.5v-743h-119l-28 159h-6q-36 -58 -79 -98t-98.5 -60.5t-133.5 -20.5q-92 0 -158 40t-101 112.5t-35 169.5q0 163 112 252t331 97l157 8v71q0 137 -48.5 196t-143.5 59q-66 0 -130.5 -20.5t-128.5 -54.5l-50 121q68 39 151 62t174 23z
M683 544l-134 -7q-161 -7 -231 -66t-70 -168q0 -99 47 -146t126 -47q119 0 190.5 84.5t71.5 243.5v106zM436 1569q24 -47 58 -103.5t71 -109.5t69 -91v-24h-106q-34 28 -74.5 67.5t-81 83.5t-74 85t-53.5 73v19h191z" />
    <glyph glyph-name="aacute" unicode="&#xe1;" horiz-adv-x="990" 
d="M507 1116q174 0 254 -92.5t80 -280.5v-743h-119l-28 159h-6q-36 -58 -79 -98t-98.5 -60.5t-133.5 -20.5q-92 0 -158 40t-101 112.5t-35 169.5q0 163 112 252t331 97l157 8v71q0 137 -48.5 196t-143.5 59q-66 0 -130.5 -20.5t-128.5 -54.5l-50 121q68 39 151 62t174 23z
M683 544l-134 -7q-161 -7 -231 -66t-70 -168q0 -99 47 -146t126 -47q119 0 190.5 84.5t71.5 243.5v106zM760 1569v-19q-20 -31 -53.5 -72t-74 -85t-81.5 -83.5t-74 -68.5h-105v24q36 46 72 99t68 106t56 99h192z" />
    <glyph glyph-name="acircumflex" unicode="&#xe2;" horiz-adv-x="990" 
d="M507 1116q174 0 254 -92.5t80 -280.5v-743h-119l-28 159h-6q-36 -58 -79 -98t-98.5 -60.5t-133.5 -20.5q-92 0 -158 40t-101 112.5t-35 169.5q0 163 112 252t331 97l157 8v71q0 137 -48.5 196t-143.5 59q-66 0 -130.5 -20.5t-128.5 -54.5l-50 121q68 39 151 62t174 23z
M683 544l-134 -7q-161 -7 -231 -66t-70 -168q0 -99 47 -146t126 -47q119 0 190.5 84.5t71.5 243.5v106zM580 1568q24 -45 62.5 -101t81.5 -110t78 -95v-21h-102q-48 38 -98.5 89.5t-100.5 106.5q-50 -54 -101 -106.5t-97 -89.5h-100v21q37 44 79 98.5t79.5 109t60.5 98.5
h158z" />
    <glyph glyph-name="atilde" unicode="&#xe3;" horiz-adv-x="990" 
d="M507 1116q174 0 254 -92.5t80 -280.5v-743h-119l-28 159h-6q-36 -58 -79 -98t-98.5 -60.5t-133.5 -20.5q-92 0 -158 40t-101 112.5t-35 169.5q0 163 112 252t331 97l157 8v71q0 137 -48.5 196t-143.5 59q-66 0 -130.5 -20.5t-128.5 -54.5l-50 121q68 39 151 62t174 23z
M683 544l-134 -7q-161 -7 -231 -66t-70 -168q0 -99 47 -146t126 -47q119 0 190.5 84.5t71.5 243.5v106zM162 1244q6 54 20 99.5t37.5 79t58 52t78.5 18.5q42 0 80 -18.5t73 -42t67.5 -41.5t63.5 -18q40 0 61.5 31t33.5 91h98q-10 -118 -60.5 -183.5t-132.5 -65.5
q-40 0 -78.5 18t-74 42t-68 42t-62.5 18q-39 0 -62.5 -30.5t-35.5 -91.5h-97z" />
    <glyph glyph-name="adieresis" unicode="&#xe4;" horiz-adv-x="990" 
d="M507 1116q174 0 254 -92.5t80 -280.5v-743h-119l-28 159h-6q-36 -58 -79 -98t-98.5 -60.5t-133.5 -20.5q-92 0 -158 40t-101 112.5t-35 169.5q0 163 112 252t331 97l157 8v71q0 137 -48.5 196t-143.5 59q-66 0 -130.5 -20.5t-128.5 -54.5l-50 121q68 39 151 62t174 23z
M683 544l-134 -7q-161 -7 -231 -66t-70 -168q0 -99 47 -146t126 -47q119 0 190.5 84.5t71.5 243.5v106zM234 1381q0 50 25 73.5t62 23.5t62 -24t25 -73q0 -50 -25 -75t-62 -25t-62 25t-25 75zM590 1381q0 50 25.5 73.5t61.5 23.5q37 0 62.5 -24t25.5 -73q0 -50 -25.5 -75
t-62.5 -25t-62 25t-25 75z" />
    <glyph glyph-name="aring" unicode="&#xe5;" horiz-adv-x="990" 
d="M507 1116q174 0 254 -92.5t80 -280.5v-743h-119l-28 159h-6q-36 -58 -79 -98t-98.5 -60.5t-133.5 -20.5q-92 0 -158 40t-101 112.5t-35 169.5q0 163 112 252t331 97l157 8v71q0 137 -48.5 196t-143.5 59q-66 0 -130.5 -20.5t-128.5 -54.5l-50 121q68 39 151 62t174 23z
M683 544l-134 -7q-161 -7 -231 -66t-70 -168q0 -99 47 -146t126 -47q119 0 190.5 84.5t71.5 243.5v106zM501 1246q-97 0 -156.5 56t-59.5 153q0 96 59.5 152t156.5 56q94 0 156 -55.5t62 -150.5q0 -97 -60.5 -154t-157.5 -57zM502 1341q51 0 83.5 31t32.5 82q0 53 -32 84.5
t-84 31.5q-50 0 -83 -31.5t-33 -83.5t29.5 -83t86.5 -31z" />
    <glyph glyph-name="ae" unicode="&#xe6;" horiz-adv-x="1542" 
d="M1070 1116q123 0 207 -63.5t126.5 -173.5t42.5 -251v-107h-616q4 -205 76 -305t209 -100q79 0 148 18.5t139 55.5v-140q-69 -36 -139.5 -53t-156.5 -17q-85 0 -156 27.5t-124.5 80t-87.5 127.5q-38 -76 -87.5 -128.5t-115 -79.5t-152.5 -27q-94 0 -161.5 40t-103 112.5
t-35.5 169.5q0 109 49 185t145 117.5t237 46.5l155 8v76q0 132 -50 191t-142 59q-63 0 -128 -20t-129 -55l-51 121q64 37 147 61t173 24q110 0 180 -42.5t103 -134.5q47 85 122.5 131t175.5 46zM668 544l-129 -7q-155 -7 -223 -65t-68 -169q0 -98 45 -145t124 -47
q75 0 131.5 37.5t88 109.5t31.5 175v111zM1069 984q-103 0 -165 -84.5t-71 -251.5h453q1 98 -22.5 174t-71.5 119t-123 43z" />
    <glyph glyph-name="ccedilla" unicode="&#xe7;" horiz-adv-x="842" 
d="M533 -20q-135 0 -231.5 62t-148 187t-51.5 313q0 190 53.5 317.5t153 192.5t235.5 65q72 0 135 -14.5t109 -39.5l-50 -133q-43 20 -94 33t-97 13q-93 0 -155.5 -49t-94 -145t-31.5 -238q0 -137 30.5 -231.5t91.5 -143.5t153 -49q65 0 123 15.5t109 39.5v-139
q-48 -27 -109.5 -41.5t-130.5 -14.5zM698 -284q0 -99 -69 -153.5t-198 -54.5q-33 0 -61.5 3.5t-47.5 8.5v104q20 -5 46.5 -8t53.5 -3q71 0 107.5 25.5t36.5 75.5q0 55 -48 81.5t-127 35.5l80 169h103l-50 -108q52 -11 91.5 -33.5t61 -58t21.5 -84.5z" />
    <glyph glyph-name="egrave" unicode="&#xe8;" horiz-adv-x="999" 
d="M517 1116q126 0 212 -63.5t130.5 -174t44.5 -252.5v-106h-640q2 -199 79.5 -301t223.5 -102q82 0 150.5 18.5t141.5 56.5v-142q-70 -36 -141.5 -53t-162.5 -17q-147 0 -248.5 69t-153 195.5t-51.5 297.5q0 180 49 309t142 197t224 68zM516 985q-110 0 -174 -85.5
t-76 -251.5h479q-1 95 -25.5 171.5t-74.5 121t-129 44.5zM442 1569q24 -47 58 -103.5t71 -109.5t69 -91v-24h-106q-34 28 -74.5 67.5t-81 83.5t-74 85t-53.5 73v19h191z" />
    <glyph glyph-name="eacute" unicode="&#xe9;" horiz-adv-x="999" 
d="M517 1116q126 0 212 -63.5t130.5 -174t44.5 -252.5v-106h-640q2 -199 79.5 -301t223.5 -102q82 0 150.5 18.5t141.5 56.5v-142q-70 -36 -141.5 -53t-162.5 -17q-147 0 -248.5 69t-153 195.5t-51.5 297.5q0 180 49 309t142 197t224 68zM516 985q-110 0 -174 -85.5
t-76 -251.5h479q-1 95 -25.5 171.5t-74.5 121t-129 44.5zM787 1569v-19q-20 -31 -53.5 -72t-74 -85t-81.5 -83.5t-74 -68.5h-105v24q36 46 72 99t68 106t56 99h192z" />
    <glyph glyph-name="ecircumflex" unicode="&#xea;" horiz-adv-x="999" 
d="M517 1116q126 0 212 -63.5t130.5 -174t44.5 -252.5v-106h-640q2 -199 79.5 -301t223.5 -102q82 0 150.5 18.5t141.5 56.5v-142q-70 -36 -141.5 -53t-162.5 -17q-147 0 -248.5 69t-153 195.5t-51.5 297.5q0 180 49 309t142 197t224 68zM516 985q-110 0 -174 -85.5
t-76 -251.5h479q-1 95 -25.5 171.5t-74.5 121t-129 44.5zM586 1568q24 -45 62.5 -101t81.5 -110t78 -95v-21h-102q-48 38 -98.5 89.5t-100.5 106.5q-50 -54 -101 -106.5t-97 -89.5h-100v21q37 44 79 98.5t79.5 109t60.5 98.5h158z" />
    <glyph glyph-name="edieresis" unicode="&#xeb;" horiz-adv-x="999" 
d="M517 1116q126 0 212 -63.5t130.5 -174t44.5 -252.5v-106h-640q2 -199 79.5 -301t223.5 -102q82 0 150.5 18.5t141.5 56.5v-142q-70 -36 -141.5 -53t-162.5 -17q-147 0 -248.5 69t-153 195.5t-51.5 297.5q0 180 49 309t142 197t224 68zM516 985q-110 0 -174 -85.5
t-76 -251.5h479q-1 95 -25.5 171.5t-74.5 121t-129 44.5zM241 1381q0 50 25 73.5t62 23.5t62 -24t25 -73q0 -50 -25 -75t-62 -25t-62 25t-25 75zM597 1381q0 50 25.5 73.5t61.5 23.5q37 0 62.5 -24t25.5 -73q0 -50 -25.5 -75t-62.5 -25t-62 25t-25 75z" />
    <glyph glyph-name="igrave" unicode="&#xec;" horiz-adv-x="470" 
d="M315 0h-160v1097h160v-1097zM170 1569q24 -47 58 -103.5t71 -109.5t69 -91v-24h-106q-34 28 -74.5 67.5t-81 83.5t-74 85t-53.5 73v19h191z" />
    <glyph glyph-name="iacute" unicode="&#xed;" horiz-adv-x="470" 
d="M315 0h-160v1097h160v-1097zM514 1569v-19q-20 -31 -53.5 -72t-74 -85t-81.5 -83.5t-74 -68.5h-105v24q36 46 72 99t68 106t56 99h192z" />
    <glyph glyph-name="icircumflex" unicode="&#xee;" horiz-adv-x="470" 
d="M315 0h-160v1097h160v-1097zM314 1568q24 -45 62.5 -101t81.5 -110t78 -95v-21h-102q-48 38 -98.5 89.5t-100.5 106.5q-50 -54 -101 -106.5t-97 -89.5h-100v21q37 44 79 98.5t79.5 109t60.5 98.5h158z" />
    <glyph glyph-name="idieresis" unicode="&#xef;" horiz-adv-x="470" 
d="M315 0h-160v1097h160v-1097zM-32 1381q0 50 25 73.5t62 23.5t62 -24t25 -73q0 -50 -25 -75t-62 -25t-62 25t-25 75zM324 1381q0 50 25.5 73.5t61.5 23.5q37 0 62.5 -24t25.5 -73q0 -50 -25.5 -75t-62.5 -25t-62 25t-25 75z" />
    <glyph glyph-name="eth" unicode="&#xf0;" horiz-adv-x="1066" 
d="M380 1563q53 -27 104 -59t99 -71l203 124l66 -95l-181 -108q93 -97 159 -218.5t101 -269t35 -320.5q0 -185 -50.5 -311.5t-148 -190.5t-236.5 -64q-133 0 -230 64t-149 176t-52 255q0 156 51 266t142.5 168.5t214.5 58.5q60 0 109.5 -12.5t88 -37t64.5 -60.5l8 2
q-27 120 -86 224.5t-142 190.5l-212 -128l-66 95l190 114q-35 30 -73.5 56t-77.5 49zM537 833q-92 0 -153 -42t-91.5 -122.5t-30.5 -198.5q0 -102 29 -182.5t89.5 -126.5t154.5 -46q141 0 205.5 99t64.5 290q0 68 -16 127t-49 104.5t-83.5 71.5t-119.5 26z" />
    <glyph glyph-name="ntilde" unicode="&#xf1;" horiz-adv-x="1090" 
d="M612 1117q162 0 245.5 -93t83.5 -293v-731h-159v710q0 135 -48.5 202t-149.5 67q-145 0 -207 -99.5t-62 -303.5v-576h-160v1097h128l21 -158h10q29 56 74 96t102 61t122 21zM216 1244q6 54 20 99.5t37.5 79t58 52t78.5 18.5q42 0 80 -18.5t73 -42t67.5 -41.5t63.5 -18
q40 0 61.5 31t33.5 91h98q-10 -118 -60.5 -183.5t-132.5 -65.5q-40 0 -78.5 18t-74 42t-68 42t-62.5 18q-39 0 -62.5 -30.5t-35.5 -91.5h-97z" />
    <glyph glyph-name="ograve" unicode="&#xf2;" horiz-adv-x="1067" 
d="M968 550q0 -132 -28.5 -237.5t-84 -179.5t-137 -113.5t-187.5 -39.5q-100 0 -179.5 39.5t-135.5 113t-85.5 179.5t-29.5 238q0 181 50 307.5t147 193t238 66.5q134 0 230.5 -65.5t149 -192t52.5 -309.5zM265 550q0 -137 28.5 -234t88.5 -148t153 -51t152.5 50.5t88 147
t28.5 235.5q0 137 -28.5 233t-88 146.5t-153.5 50.5q-140 0 -204.5 -111t-64.5 -319zM469 1569q24 -47 58 -103.5t71 -109.5t69 -91v-24h-106q-34 28 -74.5 67.5t-81 83.5t-74 85t-53.5 73v19h191z" />
    <glyph glyph-name="oacute" unicode="&#xf3;" horiz-adv-x="1067" 
d="M968 550q0 -132 -28.5 -237.5t-84 -179.5t-137 -113.5t-187.5 -39.5q-100 0 -179.5 39.5t-135.5 113t-85.5 179.5t-29.5 238q0 181 50 307.5t147 193t238 66.5q134 0 230.5 -65.5t149 -192t52.5 -309.5zM265 550q0 -137 28.5 -234t88.5 -148t153 -51t152.5 50.5t88 147
t28.5 235.5q0 137 -28.5 233t-88 146.5t-153.5 50.5q-140 0 -204.5 -111t-64.5 -319zM812 1569v-19q-20 -31 -53.5 -72t-74 -85t-81.5 -83.5t-74 -68.5h-105v24q36 46 72 99t68 106t56 99h192z" />
    <glyph glyph-name="ocircumflex" unicode="&#xf4;" horiz-adv-x="1067" 
d="M968 550q0 -132 -28.5 -237.5t-84 -179.5t-137 -113.5t-187.5 -39.5q-100 0 -179.5 39.5t-135.5 113t-85.5 179.5t-29.5 238q0 181 50 307.5t147 193t238 66.5q134 0 230.5 -65.5t149 -192t52.5 -309.5zM265 550q0 -137 28.5 -234t88.5 -148t153 -51t152.5 50.5t88 147
t28.5 235.5q0 137 -28.5 233t-88 146.5t-153.5 50.5q-140 0 -204.5 -111t-64.5 -319zM613 1568q24 -45 62.5 -101t81.5 -110t78 -95v-21h-102q-48 38 -98.5 89.5t-100.5 106.5q-50 -54 -101 -106.5t-97 -89.5h-100v21q37 44 79 98.5t79.5 109t60.5 98.5h158z" />
    <glyph glyph-name="otilde" unicode="&#xf5;" horiz-adv-x="1067" 
d="M968 550q0 -132 -28.5 -237.5t-84 -179.5t-137 -113.5t-187.5 -39.5q-100 0 -179.5 39.5t-135.5 113t-85.5 179.5t-29.5 238q0 181 50 307.5t147 193t238 66.5q134 0 230.5 -65.5t149 -192t52.5 -309.5zM265 550q0 -137 28.5 -234t88.5 -148t153 -51t152.5 50.5t88 147
t28.5 235.5q0 137 -28.5 233t-88 146.5t-153.5 50.5q-140 0 -204.5 -111t-64.5 -319zM196 1244q6 54 20 99.5t37.5 79t58 52t78.5 18.5q42 0 80 -18.5t73 -42t67.5 -41.5t63.5 -18q40 0 61.5 31t33.5 91h98q-10 -118 -60.5 -183.5t-132.5 -65.5q-40 0 -78.5 18t-74 42
t-68 42t-62.5 18q-39 0 -62.5 -30.5t-35.5 -91.5h-97z" />
    <glyph glyph-name="odieresis" unicode="&#xf6;" horiz-adv-x="1067" 
d="M968 550q0 -132 -28.5 -237.5t-84 -179.5t-137 -113.5t-187.5 -39.5q-100 0 -179.5 39.5t-135.5 113t-85.5 179.5t-29.5 238q0 181 50 307.5t147 193t238 66.5q134 0 230.5 -65.5t149 -192t52.5 -309.5zM265 550q0 -137 28.5 -234t88.5 -148t153 -51t152.5 50.5t88 147
t28.5 235.5q0 137 -28.5 233t-88 146.5t-153.5 50.5q-140 0 -204.5 -111t-64.5 -319zM268 1381q0 50 25 73.5t62 23.5t62 -24t25 -73q0 -50 -25 -75t-62 -25t-62 25t-25 75zM624 1381q0 50 25.5 73.5t61.5 23.5q37 0 62.5 -24t25.5 -73q0 -50 -25.5 -75t-62.5 -25t-62 25
t-25 75z" />
    <glyph glyph-name="divide" unicode="&#xf7;" horiz-adv-x="1023" 
d="M82 656v133h856v-133h-856zM511 244q-47 0 -75 30t-28 90q0 62 28 90.5t75 28.5q46 0 73.5 -28.5t27.5 -90.5q0 -61 -28.5 -90.5t-72.5 -29.5zM511 961q-47 0 -75 29.5t-28 89.5q0 62 28 90.5t75 28.5q46 0 73.5 -28.5t27.5 -90.5q0 -61 -28.5 -90t-72.5 -29z" />
    <glyph glyph-name="oslash" unicode="&#xf8;" horiz-adv-x="1071" 
d="M970 550q0 -181 -52 -308.5t-149.5 -194.5t-235.5 -67q-67 0 -124.5 17.5t-104.5 52.5l-89 -152l-101 60l103 175q-56 76 -85 180t-29 237q0 276 114 421.5t322 145.5q67 0 125.5 -19t106.5 -57l82 138l103 -60l-96 -162q53 -74 81.5 -176t28.5 -231zM266 550
q0 -83 10 -150.5t32 -117.5l392 636q-31 31 -72 47.5t-91 16.5q-142 0 -206.5 -111.5t-64.5 -320.5zM809 550q0 79 -10.5 143.5t-29.5 113.5l-391 -635q30 -29 70.5 -43.5t87.5 -14.5q94 0 154.5 51t89.5 148.5t29 236.5z" />
    <glyph glyph-name="ugrave" unicode="&#xf9;" horiz-adv-x="1090" 
d="M935 1097v-1097h-130l-20 155h-10q-28 -55 -73 -94.5t-101.5 -60t-123.5 -20.5q-113 0 -186 45t-108.5 133.5t-35.5 219.5v719h161v-699q0 -142 48 -211t147 -69q100 0 159 44.5t85.5 132.5t26.5 219v583h161zM481 1569q24 -47 58 -103.5t71 -109.5t69 -91v-24h-106
q-34 28 -74.5 67.5t-81 83.5t-74 85t-53.5 73v19h191z" />
    <glyph glyph-name="uacute" unicode="&#xfa;" horiz-adv-x="1090" 
d="M935 1097v-1097h-130l-20 155h-10q-28 -55 -73 -94.5t-101.5 -60t-123.5 -20.5q-113 0 -186 45t-108.5 133.5t-35.5 219.5v719h161v-699q0 -142 48 -211t147 -69q100 0 159 44.5t85.5 132.5t26.5 219v583h161zM826 1569v-19q-20 -31 -53.5 -72t-74 -85t-81.5 -83.5
t-74 -68.5h-105v24q36 46 72 99t68 106t56 99h192z" />
    <glyph glyph-name="ucircumflex" unicode="&#xfb;" horiz-adv-x="1090" 
d="M935 1097v-1097h-130l-20 155h-10q-28 -55 -73 -94.5t-101.5 -60t-123.5 -20.5q-113 0 -186 45t-108.5 133.5t-35.5 219.5v719h161v-699q0 -142 48 -211t147 -69q100 0 159 44.5t85.5 132.5t26.5 219v583h161zM625 1568q24 -45 62.5 -101t81.5 -110t78 -95v-21h-102
q-48 38 -98.5 89.5t-100.5 106.5q-50 -54 -101 -106.5t-97 -89.5h-100v21q37 44 79 98.5t79.5 109t60.5 98.5h158z" />
    <glyph glyph-name="udieresis" unicode="&#xfc;" horiz-adv-x="1090" 
d="M935 1097v-1097h-130l-20 155h-10q-28 -55 -73 -94.5t-101.5 -60t-123.5 -20.5q-113 0 -186 45t-108.5 133.5t-35.5 219.5v719h161v-699q0 -142 48 -211t147 -69q100 0 159 44.5t85.5 132.5t26.5 219v583h161zM280 1381q0 50 25 73.5t62 23.5t62 -24t25 -73
q0 -50 -25 -75t-62 -25t-62 25t-25 75zM636 1381q0 50 25.5 73.5t61.5 23.5q37 0 62.5 -24t25.5 -73q0 -50 -25.5 -75t-62.5 -25t-62 25t-25 75z" />
    <glyph glyph-name="yacute" unicode="&#xfd;" horiz-adv-x="886" 
d="M7 1097h169l198 -639q15 -49 28.5 -94.5t24 -89t17.5 -85.5h7q11 54 30 124.5t42 145.5l190 638h169l-402 -1265q-33 -106 -78 -178.5t-107 -109t-149 -36.5q-36 0 -66 5t-56 12v135q20 -6 46 -10t53 -4q50 0 86 21.5t63 66.5t49 115l50 154zM722 1569v-19
q-20 -31 -53.5 -72t-74 -85t-81.5 -83.5t-74 -68.5h-105v24q36 46 72 99t68 106t56 99h192z" />
    <glyph glyph-name="thorn" unicode="&#xfe;" horiz-adv-x="1095" 
d="M996 551q0 -185 -46.5 -312t-132 -193t-203.5 -66q-72 0 -129.5 22.5t-99.5 61.5t-70 89h-9q2 -23 4.5 -53t4 -59.5t1.5 -52.5v-478h-161v2046h160v-454q0 -37 -1.5 -82.5t-4.5 -82.5h6q30 55 71.5 95.5t97 62.5t127.5 22q181 0 283 -143.5t102 -422.5zM832 551
q0 218 -60.5 323.5t-190.5 105.5q-139 0 -202 -98t-64 -296v-45q0 -211 62 -317.5t205 -106.5q89 0 144 53.5t80.5 151.5t25.5 229z" />
    <glyph glyph-name="ydieresis" unicode="&#xff;" horiz-adv-x="886" 
d="M7 1097h169l198 -639q15 -49 28.5 -94.5t24 -89t17.5 -85.5h7q11 54 30 124.5t42 145.5l190 638h169l-402 -1265q-33 -106 -78 -178.5t-107 -109t-149 -36.5q-36 0 -66 5t-56 12v135q20 -6 46 -10t53 -4q50 0 86 21.5t63 66.5t49 115l50 154zM177 1381q0 50 25 73.5
t62 23.5t62 -24t25 -73q0 -50 -25 -75t-62 -25t-62 25t-25 75zM533 1381q0 50 25.5 73.5t61.5 23.5q37 0 62.5 -24t25.5 -73q0 -50 -25.5 -75t-62.5 -25t-62 25t-25 75z" />
    <glyph glyph-name="Amacron" unicode="&#x100;" horiz-adv-x="1101" 
d="M927 0l-145 467h-466l-145 -467h-171l463 1465h173l464 -1465h-173zM742 616l-142 479q-6 27 -16 65.5l-20 77t-17 68.5q-6 -37 -14.5 -74t-17.5 -71.5t-17 -64.5l-141 -480h385zM820 1743v-126h-544v126h544z" />
    <glyph glyph-name="amacron" unicode="&#x101;" horiz-adv-x="990" 
d="M507 1116q174 0 254 -92.5t80 -280.5v-743h-119l-28 159h-6q-36 -58 -79 -98t-98.5 -60.5t-133.5 -20.5q-92 0 -158 40t-101 112.5t-35 169.5q0 163 112 252t331 97l157 8v71q0 137 -48.5 196t-143.5 59q-66 0 -130.5 -20.5t-128.5 -54.5l-50 121q68 39 151 62t174 23z
M683 544l-134 -7q-161 -7 -231 -66t-70 -168q0 -99 47 -146t126 -47q119 0 190.5 84.5t71.5 243.5v106zM772 1377v-126h-544v126h544z" />
    <glyph glyph-name="Abreve" unicode="&#x102;" horiz-adv-x="1101" 
d="M927 0l-145 467h-466l-145 -467h-171l463 1465h173l464 -1465h-173zM742 616l-142 479q-6 27 -16 65.5l-20 77t-17 68.5q-6 -37 -14.5 -74t-17.5 -71.5t-17 -64.5l-141 -480h385zM829 1878q-4 -82 -39 -142.5t-96.5 -93.5t-146.5 -33q-128 0 -197.5 70t-76.5 199h103
q5 -53 26.5 -84t59 -45t89.5 -14q48 0 85.5 14t60.5 45.5t29 83.5h103z" />
    <glyph glyph-name="abreve" unicode="&#x103;" horiz-adv-x="990" 
d="M507 1116q174 0 254 -92.5t80 -280.5v-743h-119l-28 159h-6q-36 -58 -79 -98t-98.5 -60.5t-133.5 -20.5q-92 0 -158 40t-101 112.5t-35 169.5q0 163 112 252t331 97l157 8v71q0 137 -48.5 196t-143.5 59q-66 0 -130.5 -20.5t-128.5 -54.5l-50 121q68 39 151 62t174 23z
M683 544l-134 -7q-161 -7 -231 -66t-70 -168q0 -99 47 -146t126 -47q119 0 190.5 84.5t71.5 243.5v106zM781 1512q-4 -82 -39 -142.5t-96.5 -93.5t-146.5 -33q-128 0 -197.5 70t-76.5 199h103q5 -53 26.5 -84t59 -45t89.5 -14q48 0 85.5 14t60.5 45.5t29 83.5h103z" />
    <glyph glyph-name="Aogonek" unicode="&#x104;" horiz-adv-x="1101" 
d="M927 0l-145 467h-466l-145 -467h-171l463 1465h173l464 -1465h-173zM742 616l-142 479q-6 27 -16 65.5l-20 77t-17 68.5q-6 -37 -14.5 -74t-17.5 -71.5t-17 -64.5l-141 -480h385zM913 -242q0 -49 24.5 -74t69.5 -25q28 0 47.5 4t33.5 8v-107q-22 -7 -48.5 -12t-60.5 -5
q-100 0 -149.5 49t-49.5 139q0 55 24.5 108t65 100.5t88.5 83.5l91 -27q-70 -67 -103 -123.5t-33 -118.5z" />
    <glyph glyph-name="aogonek" unicode="&#x105;" horiz-adv-x="990" 
d="M507 1116q174 0 254 -92.5t80 -280.5v-743h-119l-28 159h-6q-36 -58 -79 -98t-98.5 -60.5t-133.5 -20.5q-92 0 -158 40t-101 112.5t-35 169.5q0 163 112 252t331 97l157 8v71q0 137 -48.5 196t-143.5 59q-66 0 -130.5 -20.5t-128.5 -54.5l-50 121q68 39 151 62t174 23z
M683 544l-134 -7q-161 -7 -231 -66t-70 -168q0 -99 47 -146t126 -47q119 0 190.5 84.5t71.5 243.5v106zM700 -242q0 -49 24.5 -74t69.5 -25q28 0 47.5 4t33.5 8v-107q-22 -7 -48.5 -12t-60.5 -5q-100 0 -149.5 49t-49.5 139q0 55 24.5 108t65 100.5t88.5 83.5l91 -27
q-70 -67 -103 -123.5t-33 -118.5z" />
    <glyph glyph-name="Cacute" unicode="&#x106;" horiz-adv-x="1098" 
d="M711 1337q-104 0 -183.5 -45.5t-133 -127.5t-81 -192t-27.5 -240q0 -186 49.5 -322t145 -209.5t232.5 -73.5q80 0 151 16t135 40v-146q-64 -29 -137.5 -43t-169.5 -14q-186 0 -315 91.5t-196 260t-67 401.5q0 161 38 297.5t113 238.5t186.5 158.5t257.5 56.5
q92 0 176.5 -20t156.5 -58l-62 -140q-58 31 -125.5 51t-143.5 20zM952 1935v-19q-20 -31 -53.5 -72t-74 -85t-81.5 -83.5t-74 -68.5h-105v24q36 46 72 99t68 106t56 99h192z" />
    <glyph glyph-name="cacute" unicode="&#x107;" horiz-adv-x="842" 
d="M533 -20q-135 0 -231.5 62t-148 187t-51.5 313q0 190 53.5 317.5t153 192.5t235.5 65q72 0 135 -14.5t109 -39.5l-50 -133q-43 20 -94 33t-97 13q-93 0 -155.5 -49t-94 -145t-31.5 -238q0 -137 30.5 -231.5t91.5 -143.5t153 -49q65 0 123 15.5t109 39.5v-139
q-48 -27 -109.5 -41.5t-130.5 -14.5zM782 1569v-19q-20 -31 -53.5 -72t-74 -85t-81.5 -83.5t-74 -68.5h-105v24q36 46 72 99t68 106t56 99h192z" />
    <glyph glyph-name="Ccircumflex" unicode="&#x108;" horiz-adv-x="1098" 
d="M711 1337q-104 0 -183.5 -45.5t-133 -127.5t-81 -192t-27.5 -240q0 -186 49.5 -322t145 -209.5t232.5 -73.5q80 0 151 16t135 40v-146q-64 -29 -137.5 -43t-169.5 -14q-186 0 -315 91.5t-196 260t-67 401.5q0 161 38 297.5t113 238.5t186.5 158.5t257.5 56.5
q92 0 176.5 -20t156.5 -58l-62 -140q-58 31 -125.5 51t-143.5 20zM750 1934q24 -45 62.5 -101t81.5 -110t78 -95v-21h-102q-48 38 -98.5 89.5t-100.5 106.5q-50 -54 -101 -106.5t-97 -89.5h-100v21q37 44 79 98.5t79.5 109t60.5 98.5h158z" />
    <glyph glyph-name="ccircumflex" unicode="&#x109;" horiz-adv-x="842" 
d="M533 -20q-135 0 -231.5 62t-148 187t-51.5 313q0 190 53.5 317.5t153 192.5t235.5 65q72 0 135 -14.5t109 -39.5l-50 -133q-43 20 -94 33t-97 13q-93 0 -155.5 -49t-94 -145t-31.5 -238q0 -137 30.5 -231.5t91.5 -143.5t153 -49q65 0 123 15.5t109 39.5v-139
q-48 -27 -109.5 -41.5t-130.5 -14.5zM582 1568q24 -45 62.5 -101t81.5 -110t78 -95v-21h-102q-48 38 -98.5 89.5t-100.5 106.5q-50 -54 -101 -106.5t-97 -89.5h-100v21q37 44 79 98.5t79.5 109t60.5 98.5h158z" />
    <glyph glyph-name="Cdot" unicode="&#x10a;" horiz-adv-x="1098" 
d="M711 1337q-104 0 -183.5 -45.5t-133 -127.5t-81 -192t-27.5 -240q0 -186 49.5 -322t145 -209.5t232.5 -73.5q80 0 151 16t135 40v-146q-64 -29 -137.5 -43t-169.5 -14q-186 0 -315 91.5t-196 260t-67 401.5q0 161 38 297.5t113 238.5t186.5 158.5t257.5 56.5
q92 0 176.5 -20t156.5 -58l-62 -140q-58 31 -125.5 51t-143.5 20zM677 1872q43 0 68.5 -28t25.5 -83q0 -53 -26 -81.5t-68 -28.5q-43 0 -70 28.5t-27 81.5q0 56 26 83.5t71 27.5z" />
    <glyph glyph-name="cdot" unicode="&#x10b;" horiz-adv-x="842" 
d="M533 -20q-135 0 -231.5 62t-148 187t-51.5 313q0 190 53.5 317.5t153 192.5t235.5 65q72 0 135 -14.5t109 -39.5l-50 -133q-43 20 -94 33t-97 13q-93 0 -155.5 -49t-94 -145t-31.5 -238q0 -137 30.5 -231.5t91.5 -143.5t153 -49q65 0 123 15.5t109 39.5v-139
q-48 -27 -109.5 -41.5t-130.5 -14.5zM507 1508q43 0 68.5 -28t25.5 -83q0 -53 -26 -81.5t-68 -28.5q-43 0 -70 28.5t-27 81.5q0 56 26 83.5t71 27.5z" />
    <glyph glyph-name="Ccaron" unicode="&#x10c;" horiz-adv-x="1098" 
d="M711 1337q-104 0 -183.5 -45.5t-133 -127.5t-81 -192t-27.5 -240q0 -186 49.5 -322t145 -209.5t232.5 -73.5q80 0 151 16t135 40v-146q-64 -29 -137.5 -43t-169.5 -14q-186 0 -315 91.5t-196 260t-67 401.5q0 161 38 297.5t113 238.5t186.5 158.5t257.5 56.5
q92 0 176.5 -20t156.5 -58l-62 -140q-58 31 -125.5 51t-143.5 20zM591 1607q-24 46 -62 100.5t-79.5 108t-77.5 96.5v22h100q46 -37 98 -90t99 -108q53 59 99.5 105.5t99.5 92.5h102v-22q-35 -41 -77.5 -94.5t-81.5 -108.5t-63 -102h-157z" />
    <glyph glyph-name="ccaron" unicode="&#x10d;" horiz-adv-x="842" 
d="M533 -20q-135 0 -231.5 62t-148 187t-51.5 313q0 190 53.5 317.5t153 192.5t235.5 65q72 0 135 -14.5t109 -39.5l-50 -133q-43 20 -94 33t-97 13q-93 0 -155.5 -49t-94 -145t-31.5 -238q0 -137 30.5 -231.5t91.5 -143.5t153 -49q65 0 123 15.5t109 39.5v-139
q-48 -27 -109.5 -41.5t-130.5 -14.5zM423 1241q-24 46 -62 100.5t-79.5 108t-77.5 96.5v22h100q46 -37 98 -90t99 -108q53 59 99.5 105.5t99.5 92.5h102v-22q-35 -41 -77.5 -94.5t-81.5 -108.5t-63 -102h-157z" />
    <glyph glyph-name="Dcaron" unicode="&#x10e;" horiz-adv-x="1267" 
d="M1153 747q0 -247 -73.5 -413t-215 -250t-346.5 -84h-342v1462h370q193 0 328.5 -81t207 -240.5t71.5 -393.5zM981 740q0 194 -51.5 322.5t-151.5 192.5t-248 64h-190v-1174h165q241 0 358.5 149.5t117.5 445.5zM541 1607q-24 46 -62 100.5t-79.5 108t-77.5 96.5v22h100
q46 -37 98 -90t99 -108q53 59 99.5 105.5t99.5 92.5h102v-22q-35 -41 -77.5 -94.5t-81.5 -108.5t-63 -102h-157z" />
    <glyph glyph-name="dcaron" unicode="&#x10f;" horiz-adv-x="1095" 
d="M486 -20q-182 0 -283.5 143.5t-101.5 421.5q0 279 103 425.5t281 146.5q70 0 126 -21.5t98.5 -59.5t71.5 -89h9q-3 38 -5.5 83.5t-2.5 78.5v447h159v-1556h-128l-23 152h-8q-30 -50 -71.5 -89t-96.5 -61t-128 -22zM516 115q140 0 203.5 98.5t63.5 291.5v53
q0 209 -60.5 315.5t-207.5 106.5q-126 0 -188 -114.5t-62 -322.5t61.5 -318t189.5 -110zM1245 1556v-18q-9 -41 -31 -98.5t-49 -114t-54 -96.5h-88v23q8 22 16.5 61t17.5 84.5t15.5 88t8.5 70.5h164z" />
    <glyph glyph-name="Dcroat" unicode="&#x110;" horiz-adv-x="1268" 
d="M545 1462q193 0 328.5 -81t207.5 -240.5t72 -393.5q0 -247 -73.5 -413t-215 -250t-347.5 -84h-335v668h-130v139h130v655h363zM530 1319h-183v-512h290v-139h-290v-523h159q241 0 358 149.5t117 445.5q0 194 -51 322.5t-151.5 192.5t-248.5 64z" />
    <glyph glyph-name="dcroat" unicode="&#x111;" horiz-adv-x="1098" 
d="M486 -20q-182 0 -283.5 143t-101.5 418q0 280 103 423.5t281 143.5q70 0 126 -21.5t98.5 -59.5t71.5 -89h9q-3 38 -5.5 83.5t-2.5 79.5v148h-339v122h339v185h159v-185h138v-122h-138v-1249h-129l-23 153h-9q-30 -52 -71 -90.5t-95.5 -60.5t-127.5 -22zM517 115
q140 0 202.5 98t62.5 296v44q0 208 -60 312.5t-207 104.5q-126 0 -187.5 -112t-61.5 -319q0 -206 61 -315t190 -109z" />
    <glyph glyph-name="Emacron" unicode="&#x112;" horiz-adv-x="978" 
d="M870 0h-694v1462h694v-146h-530v-479h499v-145h-499v-544h530v-148zM805 1743v-126h-544v126h544z" />
    <glyph glyph-name="emacron" unicode="&#x113;" horiz-adv-x="999" 
d="M517 1116q126 0 212 -63.5t130.5 -174t44.5 -252.5v-106h-640q2 -199 79.5 -301t223.5 -102q82 0 150.5 18.5t141.5 56.5v-142q-70 -36 -141.5 -53t-162.5 -17q-147 0 -248.5 69t-153 195.5t-51.5 297.5q0 180 49 309t142 197t224 68zM516 985q-110 0 -174 -85.5
t-76 -251.5h479q-1 95 -25.5 171.5t-74.5 121t-129 44.5zM778 1377v-126h-544v126h544z" />
    <glyph glyph-name="Ebreve" unicode="&#x114;" horiz-adv-x="978" 
d="M870 0h-694v1462h694v-146h-530v-479h499v-145h-499v-544h530v-148zM814 1878q-4 -82 -39 -142.5t-96.5 -93.5t-146.5 -33q-128 0 -197.5 70t-76.5 199h103q5 -53 26.5 -84t59 -45t89.5 -14q48 0 85.5 14t60.5 45.5t29 83.5h103z" />
    <glyph glyph-name="ebreve" unicode="&#x115;" horiz-adv-x="999" 
d="M517 1116q126 0 212 -63.5t130.5 -174t44.5 -252.5v-106h-640q2 -199 79.5 -301t223.5 -102q82 0 150.5 18.5t141.5 56.5v-142q-70 -36 -141.5 -53t-162.5 -17q-147 0 -248.5 69t-153 195.5t-51.5 297.5q0 180 49 309t142 197t224 68zM516 985q-110 0 -174 -85.5
t-76 -251.5h479q-1 95 -25.5 171.5t-74.5 121t-129 44.5zM788 1512q-4 -82 -39 -142.5t-96.5 -93.5t-146.5 -33q-128 0 -197.5 70t-76.5 199h103q5 -53 26.5 -84t59 -45t89.5 -14q48 0 85.5 14t60.5 45.5t29 83.5h103z" />
    <glyph glyph-name="Edotaccent" unicode="&#x116;" horiz-adv-x="978" 
d="M870 0h-694v1462h694v-146h-530v-479h499v-145h-499v-544h530v-148zM538 1873q43 0 68.5 -28t25.5 -83q0 -53 -26 -81.5t-68 -28.5q-43 0 -70 28.5t-27 81.5q0 56 26 83.5t71 27.5z" />
    <glyph glyph-name="edotaccent" unicode="&#x117;" horiz-adv-x="999" 
d="M517 1116q126 0 212 -63.5t130.5 -174t44.5 -252.5v-106h-640q2 -199 79.5 -301t223.5 -102q82 0 150.5 18.5t141.5 56.5v-142q-70 -36 -141.5 -53t-162.5 -17q-147 0 -248.5 69t-153 195.5t-51.5 297.5q0 180 49 309t142 197t224 68zM516 985q-110 0 -174 -85.5
t-76 -251.5h479q-1 95 -25.5 171.5t-74.5 121t-129 44.5zM512 1508q43 0 68.5 -28t25.5 -83q0 -53 -26 -81.5t-68 -28.5q-43 0 -70 28.5t-27 81.5q0 56 26 83.5t71 27.5z" />
    <glyph glyph-name="Eogonek" unicode="&#x118;" horiz-adv-x="978" 
d="M870 0h-694v1462h694v-146h-530v-479h499v-145h-499v-544h530v-148zM680 -242q0 -49 24.5 -74t69.5 -25q28 0 47.5 4t33.5 8v-107q-22 -7 -48.5 -12t-60.5 -5q-100 0 -149.5 49t-49.5 139q0 55 24.5 108t65 100.5t88.5 83.5l91 -27q-70 -67 -103 -123.5t-33 -118.5z" />
    <glyph glyph-name="eogonek" unicode="&#x119;" horiz-adv-x="999" 
d="M671 -243q0 -47 24.5 -71.5t69.5 -24.5q26 0 48 4t36 8v-108q-25 -8 -52.5 -13t-60.5 -5q-100 0 -148.5 49.5t-48.5 140.5q0 55 24.5 106.5t64 96.5t83.5 79l147 31q-66 -58 -107.5 -109t-60.5 -96.5t-19 -87.5zM517 1116q126 0 212 -63.5t130.5 -174t44.5 -252.5v-106
h-640q2 -199 79.5 -301t223.5 -102q82 0 150.5 18.5t141.5 56.5v-142q-70 -36 -141.5 -53t-162.5 -17q-147 0 -248.5 69t-153 195.5t-51.5 297.5q0 180 49 309t142 197t224 68zM516 985q-110 0 -174 -85.5t-76 -251.5h479q-1 95 -25.5 171.5t-74.5 121t-129 44.5z" />
    <glyph glyph-name="Ecaron" unicode="&#x11a;" horiz-adv-x="978" 
d="M870 0h-694v1462h694v-146h-530v-479h499v-145h-499v-544h530v-148zM453 1607q-24 46 -62 100.5t-79.5 108t-77.5 96.5v22h100q46 -37 98 -90t99 -108q53 59 99.5 105.5t99.5 92.5h102v-22q-35 -41 -77.5 -94.5t-81.5 -108.5t-63 -102h-157z" />
    <glyph glyph-name="ecaron" unicode="&#x11b;" horiz-adv-x="999" 
d="M517 1116q126 0 212 -63.5t130.5 -174t44.5 -252.5v-106h-640q2 -199 79.5 -301t223.5 -102q82 0 150.5 18.5t141.5 56.5v-142q-70 -36 -141.5 -53t-162.5 -17q-147 0 -248.5 69t-153 195.5t-51.5 297.5q0 180 49 309t142 197t224 68zM516 985q-110 0 -174 -85.5
t-76 -251.5h479q-1 95 -25.5 171.5t-74.5 121t-129 44.5zM426 1241q-24 46 -62 100.5t-79.5 108t-77.5 96.5v22h100q46 -37 98 -90t99 -108q53 59 99.5 105.5t99.5 92.5h102v-22q-35 -41 -77.5 -94.5t-81.5 -108.5t-63 -102h-157z" />
    <glyph glyph-name="Gcircumflex" unicode="&#x11c;" horiz-adv-x="1300" 
d="M727 766h441v-712q-102 -37 -210 -55.5t-232 -18.5q-203 0 -339 95t-204.5 264.5t-68.5 393.5q0 223 75 392t221 263.5t358 94.5q106 0 202 -23t180 -67l-61 -141q-75 39 -157 62t-168 23q-153 0 -259.5 -72.5t-162.5 -208t-56 -325.5q0 -178 48.5 -314.5t151.5 -213.5
t266 -77q79 0 140.5 10t113.5 26v457h-279v147zM807 1934q24 -45 62.5 -101t81.5 -110t78 -95v-21h-102q-48 38 -98.5 89.5t-100.5 106.5q-50 -54 -101 -106.5t-97 -89.5h-100v21q37 44 79 98.5t79.5 109t60.5 98.5h158z" />
    <glyph glyph-name="gcircumflex" unicode="&#x11d;" horiz-adv-x="951" 
d="M416 -492q-186 0 -289.5 80.5t-103.5 224.5q0 108 59.5 180.5t160.5 96.5q-43 20 -71.5 60t-28.5 94q0 58 30 103.5t89 87.5q-75 37 -120.5 120.5t-45.5 193.5q0 115 43 197.5t124 127t195 44.5q29 0 55.5 -2.5t49 -7.5t39.5 -11h324v-103l-175 -22q29 -42 45.5 -98
t16.5 -119q0 -167 -95.5 -263.5t-265.5 -96.5q-45 0 -83 9q-38 -26 -61 -58.5t-23 -77.5q0 -31 16.5 -51.5t48 -30.5t76.5 -10h176q151 0 232 -73t81 -218q0 -181 -128.5 -279t-370.5 -98zM425 -366q111 0 185 27t111 80t37 128q0 66 -25 100t-73 46.5t-117 12.5h-160
q-60 0 -106.5 -22t-72 -67t-25.5 -116q0 -93 64.5 -141t181.5 -48zM456 513q95 0 145 61t50 178q0 125 -51 186.5t-146 61.5q-92 0 -143 -65t-51 -186q0 -113 50 -174.5t146 -61.5zM532 1568q24 -45 62.5 -101t81.5 -110t78 -95v-21h-102q-48 38 -98.5 89.5t-100.5 106.5
q-50 -54 -101 -106.5t-97 -89.5h-100v21q37 44 79 98.5t79.5 109t60.5 98.5h158z" />
    <glyph glyph-name="Gbreve" unicode="&#x11e;" horiz-adv-x="1300" 
d="M727 766h441v-712q-102 -37 -210 -55.5t-232 -18.5q-203 0 -339 95t-204.5 264.5t-68.5 393.5q0 223 75 392t221 263.5t358 94.5q106 0 202 -23t180 -67l-61 -141q-75 39 -157 62t-168 23q-153 0 -259.5 -72.5t-162.5 -208t-56 -325.5q0 -178 48.5 -314.5t151.5 -213.5
t266 -77q79 0 140.5 10t113.5 26v457h-279v147zM1010 1878q-4 -82 -39 -142.5t-96.5 -93.5t-146.5 -33q-128 0 -197.5 70t-76.5 199h103q5 -53 26.5 -84t59 -45t89.5 -14q48 0 85.5 14t60.5 45.5t29 83.5h103z" />
    <glyph glyph-name="gbreve" unicode="&#x11f;" horiz-adv-x="951" 
d="M416 -492q-186 0 -289.5 80.5t-103.5 224.5q0 108 59.5 180.5t160.5 96.5q-43 20 -71.5 60t-28.5 94q0 58 30 103.5t89 87.5q-75 37 -120.5 120.5t-45.5 193.5q0 115 43 197.5t124 127t195 44.5q29 0 55.5 -2.5t49 -7.5t39.5 -11h324v-103l-175 -22q29 -42 45.5 -98
t16.5 -119q0 -167 -95.5 -263.5t-265.5 -96.5q-45 0 -83 9q-38 -26 -61 -58.5t-23 -77.5q0 -31 16.5 -51.5t48 -30.5t76.5 -10h176q151 0 232 -73t81 -218q0 -181 -128.5 -279t-370.5 -98zM425 -366q111 0 185 27t111 80t37 128q0 66 -25 100t-73 46.5t-117 12.5h-160
q-60 0 -106.5 -22t-72 -67t-25.5 -116q0 -93 64.5 -141t181.5 -48zM456 513q95 0 145 61t50 178q0 125 -51 186.5t-146 61.5q-92 0 -143 -65t-51 -186q0 -113 50 -174.5t146 -61.5zM732 1512q-4 -82 -39 -142.5t-96.5 -93.5t-146.5 -33q-128 0 -197.5 70t-76.5 199h103
q5 -53 26.5 -84t59 -45t89.5 -14q48 0 85.5 14t60.5 45.5t29 83.5h103z" />
    <glyph glyph-name="Gdot" unicode="&#x120;" horiz-adv-x="1300" 
d="M727 766h441v-712q-102 -37 -210 -55.5t-232 -18.5q-203 0 -339 95t-204.5 264.5t-68.5 393.5q0 223 75 392t221 263.5t358 94.5q106 0 202 -23t180 -67l-61 -141q-75 39 -157 62t-168 23q-153 0 -259.5 -72.5t-162.5 -208t-56 -325.5q0 -178 48.5 -314.5t151.5 -213.5
t266 -77q79 0 140.5 10t113.5 26v457h-279v147zM735 1874q43 0 68.5 -28t25.5 -83q0 -53 -26 -81.5t-68 -28.5q-43 0 -70 28.5t-27 81.5q0 56 26 83.5t71 27.5z" />
    <glyph glyph-name="gdot" unicode="&#x121;" horiz-adv-x="951" 
d="M416 -492q-186 0 -289.5 80.5t-103.5 224.5q0 108 59.5 180.5t160.5 96.5q-43 20 -71.5 60t-28.5 94q0 58 30 103.5t89 87.5q-75 37 -120.5 120.5t-45.5 193.5q0 115 43 197.5t124 127t195 44.5q29 0 55.5 -2.5t49 -7.5t39.5 -11h324v-103l-175 -22q29 -42 45.5 -98
t16.5 -119q0 -167 -95.5 -263.5t-265.5 -96.5q-45 0 -83 9q-38 -26 -61 -58.5t-23 -77.5q0 -31 16.5 -51.5t48 -30.5t76.5 -10h176q151 0 232 -73t81 -218q0 -181 -128.5 -279t-370.5 -98zM425 -366q111 0 185 27t111 80t37 128q0 66 -25 100t-73 46.5t-117 12.5h-160
q-60 0 -106.5 -22t-72 -67t-25.5 -116q0 -93 64.5 -141t181.5 -48zM456 513q95 0 145 61t50 178q0 125 -51 186.5t-146 61.5q-92 0 -143 -65t-51 -186q0 -113 50 -174.5t146 -61.5zM457 1508q43 0 68.5 -28t25.5 -83q0 -53 -26 -81.5t-68 -28.5q-43 0 -70 28.5t-27 81.5
q0 56 26 83.5t71 27.5z" />
    <glyph glyph-name="uni0122" unicode="&#x122;" horiz-adv-x="1300" 
d="M727 766h441v-712q-102 -37 -210 -55.5t-232 -18.5q-203 0 -339 95t-204.5 264.5t-68.5 393.5q0 223 75 392t221 263.5t358 94.5q106 0 202 -23t180 -67l-61 -141q-75 39 -157 62t-168 23q-153 0 -259.5 -72.5t-162.5 -208t-56 -325.5q0 -178 48.5 -314.5t151.5 -213.5
t266 -77q79 0 140.5 10t113.5 26v457h-279v147zM834 -125v-18q-12 -45 -35 -100.5t-52.5 -110.5t-61.5 -99h-89v24q14 35 29.5 90.5t29 113.5t18.5 100h161z" />
    <glyph glyph-name="uni0123" unicode="&#x123;" horiz-adv-x="951" 
d="M596 1569v-23q-16 -36 -33.5 -92t-31.5 -114t-18 -99h-162v20q11 43 34 98.5t54.5 111t66.5 98.5h90zM416 -492q-186 0 -289.5 80.5t-103.5 224.5q0 108 59.5 180.5t160.5 96.5q-43 20 -71.5 60t-28.5 94q0 58 30 103.5t89 87.5q-75 37 -120.5 120.5t-45.5 193.5
q0 115 43 197.5t124 127t195 44.5q29 0 55.5 -2.5t49 -7.5t39.5 -11h324v-103l-175 -22q29 -42 45.5 -98t16.5 -119q0 -167 -95.5 -263.5t-265.5 -96.5q-45 0 -83 9q-38 -26 -61 -58.5t-23 -77.5q0 -31 16.5 -51.5t48 -30.5t76.5 -10h176q151 0 232 -73t81 -218
q0 -181 -128.5 -279t-370.5 -98zM425 -366q111 0 185 27t111 80t37 128q0 66 -25 100t-73 46.5t-117 12.5h-160q-60 0 -106.5 -22t-72 -67t-25.5 -116q0 -93 64.5 -141t181.5 -48zM456 513q95 0 145 61t50 178q0 125 -51 186.5t-146 61.5q-92 0 -143 -65t-51 -186
q0 -113 50 -174.5t146 -61.5z" />
    <glyph glyph-name="Hcircumflex" unicode="&#x124;" horiz-adv-x="1296" 
d="M1120 0h-164v691h-616v-691h-164v1462h164v-624h616v624h164v-1462zM730 1934q24 -45 62.5 -101t81.5 -110t78 -95v-21h-102q-48 38 -98.5 89.5t-100.5 106.5q-50 -54 -101 -106.5t-97 -89.5h-100v21q37 44 79 98.5t79.5 109t60.5 98.5h158z" />
    <glyph glyph-name="hcircumflex" unicode="&#x125;" horiz-adv-x="1090" 
d="M315 1556v-458q0 -42 -2.5 -82.5t-7.5 -75.5h11q27 56 71 95t101 60t121 21q112 0 186 -42t110 -127.5t36 -216.5v-730h-159v710q0 139 -48 203.5t-151 64.5q-96 0 -155 -44.5t-86 -134.5t-27 -225v-574h-160v1556h160zM316 2028q24 -45 62.5 -101t81.5 -110t78 -95v-21
h-102q-48 38 -98.5 89.5t-100.5 106.5q-50 -54 -101 -106.5t-97 -89.5h-100v21q37 44 79 98.5t79.5 109t60.5 98.5h158z" />
    <glyph glyph-name="Hbar" unicode="&#x126;" horiz-adv-x="1296" 
d="M174 0v1083h-176v131h176v248h165v-248h616v248h164v-248h177v-131h-177v-1083h-164v690h-616v-690h-165zM340 839h616v244h-616v-244z" />
    <glyph glyph-name="hbar" unicode="&#x127;" horiz-adv-x="1091" 
d="M316 1556v-187h339v-124h-339v-180q0 -39 -2.5 -76.5t-7.5 -72.5h11q27 55 70.5 94.5t101 61t122.5 21.5q111 0 184.5 -42.5t110 -128t36.5 -216.5v-706h-159v685q0 139 -48.5 203.5t-151.5 64.5q-95 0 -154.5 -43.5t-86.5 -132.5t-27 -226v-551h-159v1245h-138v124h138
v187h160z" />
    <glyph glyph-name="Itilde" unicode="&#x128;" horiz-adv-x="515" 
d="M176 0v1462h164v-1462h-164zM-75 1609q6 54 20 99.5t37.5 79t58 52t78.5 18.5q42 0 80 -18.5t73 -42t67.5 -41.5t63.5 -18q40 0 61.5 31t33.5 91h98q-10 -118 -60.5 -183.5t-132.5 -65.5q-40 0 -78.5 18t-74 42t-68 42t-62.5 18q-39 0 -62.5 -30.5t-35.5 -91.5h-97z" />
    <glyph glyph-name="itilde" unicode="&#x129;" horiz-adv-x="470" 
d="M315 0h-160v1097h160v-1097zM-104 1243q6 54 20 99.5t37.5 79t58 52t78.5 18.5q42 0 80 -18.5t73 -42t67.5 -41.5t63.5 -18q40 0 61.5 31t33.5 91h98q-10 -118 -60.5 -183.5t-132.5 -65.5q-40 0 -78.5 18t-74 42t-68 42t-62.5 18q-39 0 -62.5 -30.5t-35.5 -91.5h-97z" />
    <glyph glyph-name="Imacron" unicode="&#x12a;" horiz-adv-x="515" 
d="M176 0v1462h164v-1462h-164zM530 1743v-126h-544v126h544z" />
    <glyph glyph-name="imacron" unicode="&#x12b;" horiz-adv-x="470" 
d="M315 0h-160v1097h160v-1097zM507 1377v-126h-544v126h544z" />
    <glyph glyph-name="Ibreve" unicode="&#x12c;" horiz-adv-x="515" 
d="M176 0v1462h164v-1462h-164zM537 1878q-4 -82 -39 -142.5t-96.5 -93.5t-146.5 -33q-128 0 -197.5 70t-76.5 199h103q5 -53 26.5 -84t59 -45t89.5 -14q48 0 85.5 14t60.5 45.5t29 83.5h103z" />
    <glyph glyph-name="ibreve" unicode="&#x12d;" horiz-adv-x="470" 
d="M315 0h-160v1097h160v-1097zM515 1512q-4 -82 -39 -142.5t-96.5 -93.5t-146.5 -33q-128 0 -197.5 70t-76.5 199h103q5 -53 26.5 -84t59 -45t89.5 -14q48 0 85.5 14t60.5 45.5t29 83.5h103z" />
    <glyph glyph-name="Iogonek" unicode="&#x12e;" horiz-adv-x="515" 
d="M176 0v1462h164v-1462h-164zM205 -242q0 -49 24.5 -74t69.5 -25q28 0 47.5 4t33.5 8v-107q-22 -7 -48.5 -12t-60.5 -5q-100 0 -149.5 49t-49.5 139q0 55 24.5 108t65 100.5t88.5 83.5l91 -27q-70 -67 -103 -123.5t-33 -118.5z" />
    <glyph glyph-name="iogonek" unicode="&#x12f;" horiz-adv-x="471" 
d="M315 1097v-1097h-159v1097h159zM238 1508q44 0 69.5 -28t25.5 -83q0 -53 -26.5 -81.5t-68.5 -28.5q-43 0 -70 28.5t-27 81.5q0 56 26.5 83.5t70.5 27.5zM169 -242q0 -49 24.5 -74t69.5 -25q28 0 47.5 4t33.5 8v-107q-22 -7 -48.5 -12t-60.5 -5q-100 0 -149.5 49
t-49.5 139q0 55 24.5 108t65 100.5t88.5 83.5l91 -27q-70 -67 -103 -123.5t-33 -118.5z" />
    <glyph glyph-name="Idotaccent" unicode="&#x130;" horiz-adv-x="515" 
d="M176 0v1462h164v-1462h-164zM261 1872q43 0 68.5 -28t25.5 -83q0 -53 -26 -81.5t-68 -28.5q-43 0 -70 28.5t-27 81.5q0 56 26 83.5t71 27.5z" />
    <glyph glyph-name="dotlessi" unicode="&#x131;" horiz-adv-x="470" 
d="M315 0h-160v1097h160v-1097z" />
    <glyph glyph-name="IJ" unicode="&#x132;" horiz-adv-x="1016" 
d="M176 0v1462h164v-1462h-164zM526 -388q-43 0 -78.5 6t-63.5 18v144q28 -9 61 -15t70 -6q52 0 89.5 24t58.5 78t21 146v1455h165v-1455q0 -138 -38.5 -225t-110.5 -128.5t-174 -41.5z" />
    <glyph glyph-name="ij" unicode="&#x133;" horiz-adv-x="941" 
d="M315 1097v-1097h-159v1097h159zM238 1508q44 0 69.5 -28t25.5 -83q0 -53 -26.5 -81.5t-68.5 -28.5q-43 0 -70 28.5t-27 81.5q0 56 26.5 83.5t70.5 27.5zM528 -492q-40 0 -71 6.5t-55 15.5v136q24 -9 49.5 -14t53.5 -5q58 0 89 40t31 136v1274h160v-1272
q0 -104 -28.5 -174.5t-85.5 -106t-143 -36.5zM611 1397q0 56 26.5 83.5t70.5 27.5q43 0 69 -28t26 -83q0 -53 -26.5 -81.5t-68.5 -28.5q-43 0 -70 28.5t-27 81.5z" />
    <glyph glyph-name="Jcircumflex" unicode="&#x134;" horiz-adv-x="500" 
d="M11 -388q-43 0 -78.5 6t-63.5 18v144q28 -9 61 -15t70 -6q52 0 89.5 24t58.5 78t21 146v1455h165v-1455q0 -138 -38.5 -225t-110.5 -128.5t-174 -41.5zM331 1933q24 -45 62.5 -101t81.5 -110t78 -95v-21h-102q-48 38 -98.5 89.5t-100.5 106.5q-50 -54 -101 -106.5
t-97 -89.5h-100v21q37 44 79 98.5t79.5 109t60.5 98.5h158z" />
    <glyph glyph-name="jcircumflex" unicode="&#x135;" horiz-adv-x="471" 
d="M58 -492q-39 0 -71.5 6.5t-54.5 15.5v136q24 -9 49.5 -14t53.5 -5q58 0 89 40t31 134v1276h160v-1272q0 -103 -28.5 -173.5t-85.5 -107t-143 -36.5zM315 1568q24 -45 62.5 -101t81.5 -110t78 -95v-21h-102q-48 38 -98.5 89.5t-100.5 106.5q-50 -54 -101 -106.5t-97 -89.5
h-100v21q37 44 79 98.5t79.5 109t60.5 98.5h158z" />
    <glyph glyph-name="uni0136" unicode="&#x136;" horiz-adv-x="1077" 
d="M1081 0h-189l-421 699l-131 -135v-564h-164v1462h164v-735q35 47 79 105.5t95 129.5l361 500h186l-474 -640zM698 -125v-18q-12 -45 -35 -100.5t-52.5 -110.5t-61.5 -99h-89v24q14 35 29.5 90.5t29 113.5t18.5 100h161z" />
    <glyph glyph-name="uni0137" unicode="&#x137;" horiz-adv-x="938" 
d="M314 1556v-792q0 -49 -2.5 -105.5t-5.5 -106.5h7q19 30 47.5 71t52.5 71l307 403h181l-353 -445l378 -652h-182l-305 536l-125 -134v-402h-159v1556h159zM595 -125v-18q-12 -45 -35 -100.5t-52.5 -110.5t-61.5 -99h-89v24q14 35 29.5 90.5t29 113.5t18.5 100h161z" />
    <glyph glyph-name="kgreenlandic" unicode="&#x138;" horiz-adv-x="938" 
d="M900 1097l-340 -453l366 -644h-181l-296 529l-129 -134v-395h-165v1097h165v-303q0 -71 -3 -138.5t-8 -116.5h6q17 28 35.5 55t34.5 52l331 451h184z" />
    <glyph glyph-name="Lacute" unicode="&#x139;" horiz-adv-x="911" 
d="M176 0v1462h164v-1313h529v-149h-693zM539 1935v-19q-20 -31 -53.5 -72t-74 -85t-81.5 -83.5t-74 -68.5h-105v24q36 46 72 99t68 106t56 99h192z" />
    <glyph glyph-name="lacute" unicode="&#x13a;" horiz-adv-x="469" 
d="M315 0h-160v1556h160v-1556zM518 2029v-19q-20 -31 -53.5 -72t-74 -85t-81.5 -83.5t-74 -68.5h-105v24q36 46 72 99t68 106t56 99h192z" />
    <glyph glyph-name="uni013B" unicode="&#x13b;" horiz-adv-x="911" 
d="M176 0v1462h164v-1313h529v-149h-693zM633 -125v-18q-12 -45 -35 -100.5t-52.5 -110.5t-61.5 -99h-89v24q14 35 29.5 90.5t29 113.5t18.5 100h161z" />
    <glyph glyph-name="uni013C" unicode="&#x13c;" horiz-adv-x="469" 
d="M315 0h-160v1556h160v-1556zM343 -125v-18q-12 -45 -35 -100.5t-52.5 -110.5t-61.5 -99h-89v24q14 35 29.5 90.5t29 113.5t18.5 100h161z" />
    <glyph glyph-name="Lcaron" unicode="&#x13d;" horiz-adv-x="911" 
d="M176 0v1462h164v-1313h529v-149h-693zM883 1462v-18q-9 -41 -31 -98.5t-49 -114t-54 -96.5h-88v23q8 22 16.5 61t17.5 84.5t15.5 88t8.5 70.5h164z" />
    <glyph glyph-name="lcaron" unicode="&#x13e;" horiz-adv-x="469" 
d="M315 0h-160v1556h160v-1556zM619 1556v-18q-9 -41 -31 -98.5t-49 -114t-54 -96.5h-88v23q8 22 16.5 61t17.5 84.5t15.5 88t8.5 70.5h164z" />
    <glyph glyph-name="Ldot" unicode="&#x13f;" horiz-adv-x="911" 
d="M176 0v1462h164v-1313h529v-149h-693zM690 884q43 0 68.5 -28t25.5 -83q0 -53 -26 -81.5t-68 -28.5q-43 0 -70 28.5t-27 81.5q0 56 26 83.5t71 27.5z" />
    <glyph glyph-name="ldot" unicode="&#x140;" horiz-adv-x="538" 
d="M315 0h-160v1556h160v-1556zM506 913q43 0 68.5 -28t25.5 -83q0 -53 -26 -81.5t-68 -28.5q-43 0 -70 28.5t-27 81.5q0 56 26 83.5t71 27.5z" />
    <glyph glyph-name="Lslash" unicode="&#x141;" horiz-adv-x="919" 
d="M181 0v509l-102 -63l-72 109l174 111v796h165v-693l259 159l70 -112l-329 -203v-464h527v-149h-692z" />
    <glyph glyph-name="lslash" unicode="&#x142;" horiz-adv-x="486" 
d="M157 0v612l-113 -77l-71 107l184 129v785h160v-676l127 91l74 -107l-201 -142v-722h-160z" />
    <glyph glyph-name="Nacute" unicode="&#x143;" horiz-adv-x="1346" 
d="M1173 0h-195l-653 1219h-8q3 -51 6.5 -107t5 -114t1.5 -117v-881h-154v1462h193l653 -1208h6q-2 47 -5 105.5t-4.5 118.5t-1.5 111v873h156v-1462zM951 1935v-19q-20 -31 -53.5 -72t-74 -85t-81.5 -83.5t-74 -68.5h-105v24q36 46 72 99t68 106t56 99h192z" />
    <glyph glyph-name="nacute" unicode="&#x144;" horiz-adv-x="1090" 
d="M612 1117q162 0 245.5 -93t83.5 -293v-731h-159v710q0 135 -48.5 202t-149.5 67q-145 0 -207 -99.5t-62 -303.5v-576h-160v1097h128l21 -158h10q29 56 74 96t102 61t122 21zM834 1569v-19q-20 -31 -53.5 -72t-74 -85t-81.5 -83.5t-74 -68.5h-105v24q36 46 72 99t68 106
t56 99h192z" />
    <glyph glyph-name="uni0145" unicode="&#x145;" horiz-adv-x="1346" 
d="M1173 0h-195l-653 1219h-8q3 -51 6.5 -107t5 -114t1.5 -117v-881h-154v1462h193l653 -1208h6q-2 47 -5 105.5t-4.5 118.5t-1.5 111v873h156v-1462zM782 -125v-18q-12 -45 -35 -100.5t-52.5 -110.5t-61.5 -99h-89v24q14 35 29.5 90.5t29 113.5t18.5 100h161z" />
    <glyph glyph-name="uni0146" unicode="&#x146;" horiz-adv-x="1090" 
d="M612 1117q162 0 245.5 -93t83.5 -293v-731h-159v710q0 135 -48.5 202t-149.5 67q-145 0 -207 -99.5t-62 -303.5v-576h-160v1097h128l21 -158h10q29 56 74 96t102 61t122 21zM655 -125v-18q-12 -45 -35 -100.5t-52.5 -110.5t-61.5 -99h-89v24q14 35 29.5 90.5t29 113.5
t18.5 100h161z" />
    <glyph glyph-name="Ncaron" unicode="&#x147;" horiz-adv-x="1346" 
d="M1173 0h-195l-653 1219h-8q3 -51 6.5 -107t5 -114t1.5 -117v-881h-154v1462h193l653 -1208h6q-2 47 -5 105.5t-4.5 118.5t-1.5 111v873h156v-1462zM593 1607q-24 46 -62 100.5t-79.5 108t-77.5 96.5v22h100q46 -37 98 -90t99 -108q53 59 99.5 105.5t99.5 92.5h102v-22
q-35 -41 -77.5 -94.5t-81.5 -108.5t-63 -102h-157z" />
    <glyph glyph-name="ncaron" unicode="&#x148;" horiz-adv-x="1090" 
d="M612 1117q162 0 245.5 -93t83.5 -293v-731h-159v710q0 135 -48.5 202t-149.5 67q-145 0 -207 -99.5t-62 -303.5v-576h-160v1097h128l21 -158h10q29 56 74 96t102 61t122 21zM475 1241q-24 46 -62 100.5t-79.5 108t-77.5 96.5v22h100q46 -37 98 -90t99 -108
q53 59 99.5 105.5t99.5 92.5h102v-22q-35 -41 -77.5 -94.5t-81.5 -108.5t-63 -102h-157z" />
    <glyph glyph-name="napostrophe" unicode="&#x149;" horiz-adv-x="1217" 
d="M739 1117q162 0 245.5 -93t83.5 -293v-731h-159v710q0 135 -48.5 202t-149.5 67q-145 0 -207 -99.5t-62 -303.5v-576h-160v1097h128l21 -158h10q29 56 74 96t102 61t122 21zM270 1462l15 -22q-19 -78 -44.5 -159.5t-56 -162t-63.5 -155.5h-120q16 59 31 124.5t28.5 131.5
t23.5 128t17 115h169z" />
    <glyph glyph-name="Eng" unicode="&#x14a;" horiz-adv-x="1347" 
d="M850 -388q-43 0 -79 6t-64 19v143q28 -9 63 -15t73 -6q51 0 90 23t61.5 76.5t22.5 144.5l-693 1223h-7q3 -47 6 -106t5 -121.5t2 -120.5v-878h-154v1462h193l653 -1156h6q-2 50 -5 108t-4.5 118t-1.5 116v814h156v-1453q0 -134 -37.5 -222t-109.5 -131.5t-176 -43.5z" />
    <glyph glyph-name="eng" unicode="&#x14b;" horiz-adv-x="1090" 
d="M691 -492q-37 0 -66 6.5t-53 15.5v136q23 -9 46.5 -14t49.5 -5q53 0 83.5 41t30.5 136v887q0 134 -49 199.5t-151 65.5q-94 0 -153 -42.5t-86.5 -130.5t-27.5 -225v-578h-160v1097h128l23 -158h8q29 56 73 96t101.5 61t122.5 21q115 0 188 -45t108 -133t35 -219v-894
q0 -99 -27.5 -170.5t-83 -109.5t-140.5 -38z" />
    <glyph glyph-name="Omacron" unicode="&#x14c;" horiz-adv-x="1355" 
d="M1242 733q0 -163 -34 -300.5t-103 -239t-175 -157.5t-250 -56q-148 0 -255.5 57t-176 159t-101.5 240t-33 299q0 237 63 404.5t189 256t315 88.5q191 0 315 -96t185 -265.5t61 -389.5zM286 733q0 -192 43.5 -328t130.5 -207.5t219 -71.5q133 0 219 71t128.5 206.5
t42.5 329.5q0 292 -95.5 448t-292.5 156q-134 0 -221.5 -71t-130.5 -205.5t-43 -327.5zM950 1743v-126h-544v126h544z" />
    <glyph glyph-name="omacron" unicode="&#x14d;" horiz-adv-x="1067" 
d="M968 550q0 -132 -28.5 -237.5t-84 -179.5t-137 -113.5t-187.5 -39.5q-100 0 -179.5 39.5t-135.5 113t-85.5 179.5t-29.5 238q0 181 50 307.5t147 193t238 66.5q134 0 230.5 -65.5t149 -192t52.5 -309.5zM265 550q0 -137 28.5 -234t88.5 -148t153 -51t152.5 50.5t88 147
t28.5 235.5q0 137 -28.5 233t-88 146.5t-153.5 50.5q-140 0 -204.5 -111t-64.5 -319zM806 1377v-126h-544v126h544z" />
    <glyph glyph-name="Obreve" unicode="&#x14e;" horiz-adv-x="1355" 
d="M1242 733q0 -163 -34 -300.5t-103 -239t-175 -157.5t-250 -56q-148 0 -255.5 57t-176 159t-101.5 240t-33 299q0 237 63 404.5t189 256t315 88.5q191 0 315 -96t185 -265.5t61 -389.5zM286 733q0 -192 43.5 -328t130.5 -207.5t219 -71.5q133 0 219 71t128.5 206.5
t42.5 329.5q0 292 -95.5 448t-292.5 156q-134 0 -221.5 -71t-130.5 -205.5t-43 -327.5zM959 1878q-4 -82 -39 -142.5t-96.5 -93.5t-146.5 -33q-128 0 -197.5 70t-76.5 199h103q5 -53 26.5 -84t59 -45t89.5 -14q48 0 85.5 14t60.5 45.5t29 83.5h103z" />
    <glyph glyph-name="obreve" unicode="&#x14f;" horiz-adv-x="1067" 
d="M968 550q0 -132 -28.5 -237.5t-84 -179.5t-137 -113.5t-187.5 -39.5q-100 0 -179.5 39.5t-135.5 113t-85.5 179.5t-29.5 238q0 181 50 307.5t147 193t238 66.5q134 0 230.5 -65.5t149 -192t52.5 -309.5zM265 550q0 -137 28.5 -234t88.5 -148t153 -51t152.5 50.5t88 147
t28.5 235.5q0 137 -28.5 233t-88 146.5t-153.5 50.5q-140 0 -204.5 -111t-64.5 -319zM815 1512q-4 -82 -39 -142.5t-96.5 -93.5t-146.5 -33q-128 0 -197.5 70t-76.5 199h103q5 -53 26.5 -84t59 -45t89.5 -14q48 0 85.5 14t60.5 45.5t29 83.5h103z" />
    <glyph glyph-name="Ohungarumlaut" unicode="&#x150;" horiz-adv-x="1355" 
d="M1242 733q0 -163 -34 -300.5t-103 -239t-175 -157.5t-250 -56q-148 0 -255.5 57t-176 159t-101.5 240t-33 299q0 237 63 404.5t189 256t315 88.5q191 0 315 -96t185 -265.5t61 -389.5zM286 733q0 -192 43.5 -328t130.5 -207.5t219 -71.5q133 0 219 71t128.5 206.5
t42.5 329.5q0 292 -95.5 448t-292.5 156q-134 0 -221.5 -71t-130.5 -205.5t-43 -327.5zM1111 1935v-19q-16 -30 -46.5 -71.5t-67.5 -85.5t-75 -84t-69 -68h-88v23q31 42 64.5 98.5t63.5 112.5t47 94h171zM789 1935v-19q-17 -31 -46.5 -71.5t-66 -84t-74.5 -83t-73 -70.5h-86
v23q31 44 64 100t63 110.5t48 94.5h171z" />
    <glyph glyph-name="ohungarumlaut" unicode="&#x151;" horiz-adv-x="1067" 
d="M968 550q0 -132 -28.5 -237.5t-84 -179.5t-137 -113.5t-187.5 -39.5q-100 0 -179.5 39.5t-135.5 113t-85.5 179.5t-29.5 238q0 181 50 307.5t147 193t238 66.5q134 0 230.5 -65.5t149 -192t52.5 -309.5zM265 550q0 -137 28.5 -234t88.5 -148t153 -51t152.5 50.5t88 147
t28.5 235.5q0 137 -28.5 233t-88 146.5t-153.5 50.5q-140 0 -204.5 -111t-64.5 -319zM967 1569v-19q-16 -30 -46.5 -71.5t-67.5 -85.5t-75 -84t-69 -68h-88v23q31 42 64.5 98.5t63.5 112.5t47 94h171zM645 1569v-19q-17 -31 -46.5 -71.5t-66 -84t-74.5 -83t-73 -70.5h-86v23
q31 44 64 100t63 110.5t48 94.5h171z" />
    <glyph glyph-name="OE" unicode="&#x152;" horiz-adv-x="1604" 
d="M694 1478q43 0 82.5 -4t76.5 -12h643v-146h-512v-479h480v-145h-480v-544h512v-148h-638q-38 -5 -78 -9t-84 -4q-197 0 -326 90.5t-192.5 258t-63.5 399.5q0 230 63.5 396.5t192 256.5t324.5 90zM701 1331q-113 -1 -192 -43.5t-128 -120.5t-72 -187.5t-23 -246.5
q0 -183 42 -317.5t133.5 -208t240.5 -74.5q34 0 64.5 5t53.5 13v1161q-24 10 -54 14.5t-65 4.5z" />
    <glyph glyph-name="oe" unicode="&#x153;" horiz-adv-x="1681" 
d="M1202 1115q127 0 211.5 -63.5t127.5 -174t43 -251.5v-106h-631q2 -205 77 -304.5t219 -99.5q83 0 151 18t140 56v-140q-69 -36 -139 -53t-160 -17q-129 0 -220.5 57.5t-145.5 168.5q-50 -110 -138 -168t-210 -58q-131 0 -227 67.5t-148 195.5t-52 307q0 182 50 308.5
t147 192t235 65.5q118 0 204 -57.5t136 -166.5q33 72 80.5 121.5t110.5 75.5t139 26zM529 980q-139 0 -201.5 -108.5t-62.5 -321.5q0 -142 28.5 -239t87 -146t148.5 -49q92 0 149.5 48.5t85.5 144t28 238.5t-28 239t-86 145t-149 49zM1200 983q-107 0 -170.5 -83.5
t-73.5 -252.5h469q0 98 -24 174t-73.5 119t-127.5 43z" />
    <glyph glyph-name="Racute" unicode="&#x154;" horiz-adv-x="1098" 
d="M498 1462q164 0 271 -44.5t159.5 -135t52.5 -230.5q0 -107 -33 -184t-92 -128.5t-138 -82.5l349 -657h-187l-311 614h-229v-614h-164v1462h322zM494 1317h-154v-564h173q149 0 223.5 73t74.5 218q0 147 -77 210t-240 63zM835 1935v-19q-20 -31 -53.5 -72t-74 -85
t-81.5 -83.5t-74 -68.5h-105v24q36 46 72 99t68 106t56 99h192z" />
    <glyph glyph-name="racute" unicode="&#x155;" horiz-adv-x="726" 
d="M587 1117q28 0 57.5 -3.5t56.5 -10.5l-23 -156q-22 7 -48.5 10.5t-52.5 3.5q-56 0 -104 -28t-83.5 -79t-55 -121t-19.5 -153v-580h-160v1097h129l19 -198h9q28 62 67.5 111t91.5 78t116 29zM700 1569v-19q-20 -31 -53.5 -72t-74 -85t-81.5 -83.5t-74 -68.5h-105v24
q36 46 72 99t68 106t56 99h192z" />
    <glyph glyph-name="uni0156" unicode="&#x156;" horiz-adv-x="1098" 
d="M498 1462q164 0 271 -44.5t159.5 -135t52.5 -230.5q0 -107 -33 -184t-92 -128.5t-138 -82.5l349 -657h-187l-311 614h-229v-614h-164v1462h322zM494 1317h-154v-564h173q149 0 223.5 73t74.5 218q0 147 -77 210t-240 63zM687 -125v-18q-12 -45 -35 -100.5t-52.5 -110.5
t-61.5 -99h-89v24q14 35 29.5 90.5t29 113.5t18.5 100h161z" />
    <glyph glyph-name="uni0157" unicode="&#x157;" horiz-adv-x="726" 
d="M587 1117q28 0 57.5 -3.5t56.5 -10.5l-23 -156q-22 7 -48.5 10.5t-52.5 3.5q-56 0 -104 -28t-83.5 -79t-55 -121t-19.5 -153v-580h-160v1097h129l19 -198h9q28 62 67.5 111t91.5 78t116 29zM344 -125v-18q-12 -45 -35 -100.5t-52.5 -110.5t-61.5 -99h-89v24
q14 35 29.5 90.5t29 113.5t18.5 100h161z" />
    <glyph glyph-name="Rcaron" unicode="&#x158;" horiz-adv-x="1098" 
d="M498 1462q164 0 271 -44.5t159.5 -135t52.5 -230.5q0 -107 -33 -184t-92 -128.5t-138 -82.5l349 -657h-187l-311 614h-229v-614h-164v1462h322zM494 1317h-154v-564h173q149 0 223.5 73t74.5 218q0 147 -77 210t-240 63zM474 1607q-24 46 -62 100.5t-79.5 108t-77.5 96.5
v22h100q46 -37 98 -90t99 -108q53 59 99.5 105.5t99.5 92.5h102v-22q-35 -41 -77.5 -94.5t-81.5 -108.5t-63 -102h-157z" />
    <glyph glyph-name="rcaron" unicode="&#x159;" horiz-adv-x="726" 
d="M587 1117q28 0 57.5 -3.5t56.5 -10.5l-23 -156q-22 7 -48.5 10.5t-52.5 3.5q-56 0 -104 -28t-83.5 -79t-55 -121t-19.5 -153v-580h-160v1097h129l19 -198h9q28 62 67.5 111t91.5 78t116 29zM341 1241q-24 46 -62 100.5t-79.5 108t-77.5 96.5v22h100q46 -37 98 -90
t99 -108q53 59 99.5 105.5t99.5 92.5h102v-22q-35 -41 -77.5 -94.5t-81.5 -108.5t-63 -102h-157z" />
    <glyph glyph-name="Sacute" unicode="&#x15a;" horiz-adv-x="982" 
d="M894 394q0 -127 -56 -220t-157 -143.5t-237 -50.5q-70 0 -133.5 7.5t-118.5 22t-100 35.5v164q72 -34 165.5 -57.5t186.5 -23.5q92 0 155 32t96 89t33 131t-27.5 124.5t-91 92t-171.5 86.5q-79 34 -140.5 72.5t-104 86.5t-64.5 112.5t-22 150.5q-1 116 52.5 201
t148.5 131.5t218 45.5q100 0 187.5 -21t156.5 -54l-53 -146q-70 33 -144 52t-148 19q-80 0 -136 -28t-86 -78.5t-30 -118.5q0 -77 27.5 -127.5t88.5 -89.5t162 -83q112 -49 188.5 -104t115.5 -129t39 -181zM790 1935v-19q-20 -31 -53.5 -72t-74 -85t-81.5 -83.5t-74 -68.5
h-105v24q36 46 72 99t68 106t56 99h192z" />
    <glyph glyph-name="sacute" unicode="&#x15b;" horiz-adv-x="832" 
d="M753 295q0 -102 -44 -172.5t-127 -106.5t-200 -36q-95 0 -168.5 18t-127.5 47v157q56 -35 135 -60t161 -25q109 0 162 45t53 124q0 46 -21.5 80.5t-70 66.5t-132.5 69q-86 41 -150.5 83t-100 100t-35.5 145q0 134 98 210.5t258 76.5q84 0 158 -18.5t139 -52.5l-57 -128
q-55 29 -117 47.5t-127 18.5q-94 0 -146 -39.5t-52 -107.5q0 -48 22.5 -81t73.5 -63t135 -69q85 -41 148.5 -83.5t98 -100t34.5 -145.5zM705 1569v-19q-20 -31 -53.5 -72t-74 -85t-81.5 -83.5t-74 -68.5h-105v24q36 46 72 99t68 106t56 99h192z" />
    <glyph glyph-name="Scircumflex" unicode="&#x15c;" horiz-adv-x="982" 
d="M894 394q0 -127 -56 -220t-157 -143.5t-237 -50.5q-70 0 -133.5 7.5t-118.5 22t-100 35.5v164q72 -34 165.5 -57.5t186.5 -23.5q92 0 155 32t96 89t33 131t-27.5 124.5t-91 92t-171.5 86.5q-79 34 -140.5 72.5t-104 86.5t-64.5 112.5t-22 150.5q-1 116 52.5 201
t148.5 131.5t218 45.5q100 0 187.5 -21t156.5 -54l-53 -146q-70 33 -144 52t-148 19q-80 0 -136 -28t-86 -78.5t-30 -118.5q0 -77 27.5 -127.5t88.5 -89.5t162 -83q112 -49 188.5 -104t115.5 -129t39 -181zM591 1934q24 -45 62.5 -101t81.5 -110t78 -95v-21h-102
q-48 38 -98.5 89.5t-100.5 106.5q-50 -54 -101 -106.5t-97 -89.5h-100v21q37 44 79 98.5t79.5 109t60.5 98.5h158z" />
    <glyph glyph-name="scircumflex" unicode="&#x15d;" horiz-adv-x="832" 
d="M753 295q0 -102 -44 -172.5t-127 -106.5t-200 -36q-95 0 -168.5 18t-127.5 47v157q56 -35 135 -60t161 -25q109 0 162 45t53 124q0 46 -21.5 80.5t-70 66.5t-132.5 69q-86 41 -150.5 83t-100 100t-35.5 145q0 134 98 210.5t258 76.5q84 0 158 -18.5t139 -52.5l-57 -128
q-55 29 -117 47.5t-127 18.5q-94 0 -146 -39.5t-52 -107.5q0 -48 22.5 -81t73.5 -63t135 -69q85 -41 148.5 -83.5t98 -100t34.5 -145.5zM505 1568q24 -45 62.5 -101t81.5 -110t78 -95v-21h-102q-48 38 -98.5 89.5t-100.5 106.5q-50 -54 -101 -106.5t-97 -89.5h-100v21
q37 44 79 98.5t79.5 109t60.5 98.5h158z" />
    <glyph glyph-name="Scedilla" unicode="&#x15e;" horiz-adv-x="982" 
d="M894 394q0 -127 -56 -220t-157 -143.5t-237 -50.5q-70 0 -133.5 7.5t-118.5 22t-100 35.5v164q72 -34 165.5 -57.5t186.5 -23.5q92 0 155 32t96 89t33 131t-27.5 124.5t-91 92t-171.5 86.5q-79 34 -140.5 72.5t-104 86.5t-64.5 112.5t-22 150.5q-1 116 52.5 201
t148.5 131.5t218 45.5q100 0 187.5 -21t156.5 -54l-53 -146q-70 33 -144 52t-148 19q-80 0 -136 -28t-86 -78.5t-30 -118.5q0 -77 27.5 -127.5t88.5 -89.5t162 -83q112 -49 188.5 -104t115.5 -129t39 -181zM653 -284q0 -99 -69 -153.5t-198 -54.5q-33 0 -61.5 3.5t-47.5 8.5
v104q20 -5 46.5 -8t53.5 -3q71 0 107.5 25.5t36.5 75.5q0 55 -48 81.5t-127 35.5l80 169h103l-50 -108q52 -11 91.5 -33.5t61 -58t21.5 -84.5z" />
    <glyph glyph-name="scedilla" unicode="&#x15f;" horiz-adv-x="832" 
d="M753 295q0 -102 -44 -172.5t-127 -106.5t-200 -36q-95 0 -168.5 18t-127.5 47v157q56 -35 135 -60t161 -25q109 0 162 45t53 124q0 46 -21.5 80.5t-70 66.5t-132.5 69q-86 41 -150.5 83t-100 100t-35.5 145q0 134 98 210.5t258 76.5q84 0 158 -18.5t139 -52.5l-57 -128
q-55 29 -117 47.5t-127 18.5q-94 0 -146 -39.5t-52 -107.5q0 -48 22.5 -81t73.5 -63t135 -69q85 -41 148.5 -83.5t98 -100t34.5 -145.5zM595 -284q0 -99 -69 -153.5t-198 -54.5q-33 0 -61.5 3.5t-47.5 8.5v104q20 -5 46.5 -8t53.5 -3q71 0 107.5 25.5t36.5 75.5
q0 55 -48 81.5t-127 35.5l80 169h103l-50 -108q52 -11 91.5 -33.5t61 -58t21.5 -84.5z" />
    <glyph glyph-name="Scaron" unicode="&#x160;" horiz-adv-x="982" 
d="M894 394q0 -127 -56 -220t-157 -143.5t-237 -50.5q-70 0 -133.5 7.5t-118.5 22t-100 35.5v164q72 -34 165.5 -57.5t186.5 -23.5q92 0 155 32t96 89t33 131t-27.5 124.5t-91 92t-171.5 86.5q-79 34 -140.5 72.5t-104 86.5t-64.5 112.5t-22 150.5q-1 116 52.5 201
t148.5 131.5t218 45.5q100 0 187.5 -21t156.5 -54l-53 -146q-70 33 -144 52t-148 19q-80 0 -136 -28t-86 -78.5t-30 -118.5q0 -77 27.5 -127.5t88.5 -89.5t162 -83q112 -49 188.5 -104t115.5 -129t39 -181zM433 1607q-24 46 -62 100.5t-79.5 108t-77.5 96.5v22h100
q46 -37 98 -90t99 -108q53 59 99.5 105.5t99.5 92.5h102v-22q-35 -41 -77.5 -94.5t-81.5 -108.5t-63 -102h-157z" />
    <glyph glyph-name="scaron" unicode="&#x161;" horiz-adv-x="832" 
d="M753 295q0 -102 -44 -172.5t-127 -106.5t-200 -36q-95 0 -168.5 18t-127.5 47v157q56 -35 135 -60t161 -25q109 0 162 45t53 124q0 46 -21.5 80.5t-70 66.5t-132.5 69q-86 41 -150.5 83t-100 100t-35.5 145q0 134 98 210.5t258 76.5q84 0 158 -18.5t139 -52.5l-57 -128
q-55 29 -117 47.5t-127 18.5q-94 0 -146 -39.5t-52 -107.5q0 -48 22.5 -81t73.5 -63t135 -69q85 -41 148.5 -83.5t98 -100t34.5 -145.5zM346 1241q-24 46 -62 100.5t-79.5 108t-77.5 96.5v22h100q46 -37 98 -90t99 -108q53 59 99.5 105.5t99.5 92.5h102v-22
q-35 -41 -77.5 -94.5t-81.5 -108.5t-63 -102h-157z" />
    <glyph glyph-name="uni0162" unicode="&#x162;" horiz-adv-x="949" 
d="M556 0h-165v1315h-372v147h909v-147h-372v-1315zM659 -284q0 -99 -69 -153.5t-198 -54.5q-33 0 -61.5 3.5t-47.5 8.5v104q20 -5 46.5 -8t53.5 -3q71 0 107.5 25.5t36.5 75.5q0 55 -48 81.5t-127 35.5l80 169h103l-50 -108q52 -11 91.5 -33.5t61 -58t21.5 -84.5z" />
    <glyph glyph-name="uni0163" unicode="&#x163;" horiz-adv-x="625" 
d="M461 116q33 0 67 6.5t59 16.5v-128q-30 -13 -74 -22t-90 -9q-79 0 -137.5 31.5t-90.5 99.5t-32 181v676h-129v82l133 53l54 246h103v-252h253v-129h-253v-665q0 -94 34 -140.5t103 -46.5zM564 -284q0 -99 -69 -153.5t-198 -54.5q-33 0 -61.5 3.5t-47.5 8.5v104
q20 -5 46.5 -8t53.5 -3q71 0 107.5 25.5t36.5 75.5q0 55 -48 81.5t-127 35.5l80 169h103l-50 -108q52 -11 91.5 -33.5t61 -58t21.5 -84.5z" />
    <glyph glyph-name="Tcaron" unicode="&#x164;" horiz-adv-x="949" 
d="M556 0h-165v1315h-372v147h909v-147h-372v-1315zM395 1607q-24 46 -62 100.5t-79.5 108t-77.5 96.5v22h100q46 -37 98 -90t99 -108q53 59 99.5 105.5t99.5 92.5h102v-22q-35 -41 -77.5 -94.5t-81.5 -108.5t-63 -102h-157z" />
    <glyph glyph-name="tcaron" unicode="&#x165;" horiz-adv-x="625" 
d="M461 116q33 0 67 6.5t59 16.5v-128q-30 -13 -74 -22t-90 -9q-79 0 -137.5 31.5t-90.5 99.5t-32 181v676h-129v82l133 53l54 246h103v-252h253v-129h-253v-665q0 -94 34 -140.5t103 -46.5zM828 1556v-18q-9 -41 -31 -98.5t-49 -114t-54 -96.5h-88v23q8 22 16.5 61
t17.5 84.5t15.5 88t8.5 70.5h164z" />
    <glyph glyph-name="Tbar" unicode="&#x166;" horiz-adv-x="949" 
d="M391 0v674h-264v135h264v505h-372v148h909v-148h-373v-505h263v-135h-263v-674h-164z" />
    <glyph glyph-name="tbar" unicode="&#x167;" horiz-adv-x="625" 
d="M43 568v123h520v-123h-520zM461 116q33 0 67 6.5t59 16.5v-128q-30 -13 -74 -22t-90 -9q-79 0 -137.5 31.5t-90.5 99.5t-32 181v676h-129v82l133 53l54 246h103v-252h253v-129h-253v-665q0 -94 34 -140.5t103 -46.5z" />
    <glyph glyph-name="Utilde" unicode="&#x168;" horiz-adv-x="1277" 
d="M1115 1462v-975q0 -161 -54 -274.5t-160 -173t-265 -59.5q-232 0 -353 131.5t-121 376.5v974h165v-977q0 -181 80 -270t234 -89q105 0 173 41t102 121t34 198v976h165zM304 1609q6 54 20 99.5t37.5 79t58 52t78.5 18.5q42 0 80 -18.5t73 -42t67.5 -41.5t63.5 -18
q40 0 61.5 31t33.5 91h98q-10 -118 -60.5 -183.5t-132.5 -65.5q-40 0 -78.5 18t-74 42t-68 42t-62.5 18q-39 0 -62.5 -30.5t-35.5 -91.5h-97z" />
    <glyph glyph-name="utilde" unicode="&#x169;" horiz-adv-x="1090" 
d="M935 1097v-1097h-130l-20 155h-10q-28 -55 -73 -94.5t-101.5 -60t-123.5 -20.5q-113 0 -186 45t-108.5 133.5t-35.5 219.5v719h161v-699q0 -142 48 -211t147 -69q100 0 159 44.5t85.5 132.5t26.5 219v583h161zM210 1243q6 54 20 99.5t37.5 79t58 52t78.5 18.5
q42 0 80 -18.5t73 -42t67.5 -41.5t63.5 -18q40 0 61.5 31t33.5 91h98q-10 -118 -60.5 -183.5t-132.5 -65.5q-40 0 -78.5 18t-74 42t-68 42t-62.5 18q-39 0 -62.5 -30.5t-35.5 -91.5h-97z" />
    <glyph glyph-name="Umacron" unicode="&#x16a;" horiz-adv-x="1277" 
d="M1115 1462v-975q0 -161 -54 -274.5t-160 -173t-265 -59.5q-232 0 -353 131.5t-121 376.5v974h165v-977q0 -181 80 -270t234 -89q105 0 173 41t102 121t34 198v976h165zM911 1743v-126h-544v126h544z" />
    <glyph glyph-name="umacron" unicode="&#x16b;" horiz-adv-x="1090" 
d="M935 1097v-1097h-130l-20 155h-10q-28 -55 -73 -94.5t-101.5 -60t-123.5 -20.5q-113 0 -186 45t-108.5 133.5t-35.5 219.5v719h161v-699q0 -142 48 -211t147 -69q100 0 159 44.5t85.5 132.5t26.5 219v583h161zM818 1377v-126h-544v126h544z" />
    <glyph glyph-name="Ubreve" unicode="&#x16c;" horiz-adv-x="1277" 
d="M1115 1462v-975q0 -161 -54 -274.5t-160 -173t-265 -59.5q-232 0 -353 131.5t-121 376.5v974h165v-977q0 -181 80 -270t234 -89q105 0 173 41t102 121t34 198v976h165zM920 1878q-4 -82 -39 -142.5t-96.5 -93.5t-146.5 -33q-128 0 -197.5 70t-76.5 199h103
q5 -53 26.5 -84t59 -45t89.5 -14q48 0 85.5 14t60.5 45.5t29 83.5h103z" />
    <glyph glyph-name="ubreve" unicode="&#x16d;" horiz-adv-x="1090" 
d="M935 1097v-1097h-130l-20 155h-10q-28 -55 -73 -94.5t-101.5 -60t-123.5 -20.5q-113 0 -186 45t-108.5 133.5t-35.5 219.5v719h161v-699q0 -142 48 -211t147 -69q100 0 159 44.5t85.5 132.5t26.5 219v583h161zM827 1512q-4 -82 -39 -142.5t-96.5 -93.5t-146.5 -33
q-128 0 -197.5 70t-76.5 199h103q5 -53 26.5 -84t59 -45t89.5 -14q48 0 85.5 14t60.5 45.5t29 83.5h103z" />
    <glyph glyph-name="Uring" unicode="&#x16e;" horiz-adv-x="1277" 
d="M1115 1462v-975q0 -161 -54 -274.5t-160 -173t-265 -59.5q-232 0 -353 131.5t-121 376.5v974h165v-977q0 -181 80 -270t234 -89q105 0 173 41t102 121t34 198v976h165zM640 1612q-97 0 -156.5 56t-59.5 153q0 96 59.5 152t156.5 56q94 0 156 -55.5t62 -150.5
q0 -97 -60.5 -154t-157.5 -57zM641 1707q51 0 83.5 31t32.5 82q0 53 -32 84.5t-84 31.5q-50 0 -83 -31.5t-33 -83.5t29.5 -83t86.5 -31z" />
    <glyph glyph-name="uring" unicode="&#x16f;" horiz-adv-x="1090" 
d="M935 1097v-1097h-130l-20 155h-10q-28 -55 -73 -94.5t-101.5 -60t-123.5 -20.5q-113 0 -186 45t-108.5 133.5t-35.5 219.5v719h161v-699q0 -142 48 -211t147 -69q100 0 159 44.5t85.5 132.5t26.5 219v583h161zM546 1246q-97 0 -156.5 56t-59.5 153q0 96 59.5 152
t156.5 56q94 0 156 -55.5t62 -150.5q0 -97 -60.5 -154t-157.5 -57zM547 1341q51 0 83.5 31t32.5 82q0 53 -32 84.5t-84 31.5q-50 0 -83 -31.5t-33 -83.5t29.5 -83t86.5 -31z" />
    <glyph glyph-name="Uhungarumlaut" unicode="&#x170;" horiz-adv-x="1277" 
d="M1115 1462v-975q0 -161 -54 -274.5t-160 -173t-265 -59.5q-232 0 -353 131.5t-121 376.5v974h165v-977q0 -181 80 -270t234 -89q105 0 173 41t102 121t34 198v976h165zM1071 1935v-19q-16 -30 -46.5 -71.5t-67.5 -85.5t-75 -84t-69 -68h-88v23q31 42 64.5 98.5
t63.5 112.5t47 94h171zM749 1935v-19q-17 -31 -46.5 -71.5t-66 -84t-74.5 -83t-73 -70.5h-86v23q31 44 64 100t63 110.5t48 94.5h171z" />
    <glyph glyph-name="uhungarumlaut" unicode="&#x171;" horiz-adv-x="1090" 
d="M935 1097v-1097h-130l-20 155h-10q-28 -55 -73 -94.5t-101.5 -60t-123.5 -20.5q-113 0 -186 45t-108.5 133.5t-35.5 219.5v719h161v-699q0 -142 48 -211t147 -69q100 0 159 44.5t85.5 132.5t26.5 219v583h161zM977 1569v-19q-16 -30 -46.5 -71.5t-67.5 -85.5t-75 -84
t-69 -68h-88v23q31 42 64.5 98.5t63.5 112.5t47 94h171zM655 1569v-19q-17 -31 -46.5 -71.5t-66 -84t-74.5 -83t-73 -70.5h-86v23q31 44 64 100t63 110.5t48 94.5h171z" />
    <glyph glyph-name="Uogonek" unicode="&#x172;" horiz-adv-x="1277" 
d="M778 -234q0 -56 25 -81t69 -25q27 0 48.5 4t35.5 8v-108q-24 -8 -51.5 -12.5t-60.5 -4.5q-101 0 -149.5 50t-48.5 147q0 58 26.5 114t67.5 104t84 82l143 47q-68 -72 -109.5 -128t-60.5 -103t-19 -94zM1115 1462v-975q0 -161 -54 -274.5t-160 -173t-265 -59.5
q-232 0 -353 131.5t-121 376.5v974h165v-977q0 -181 80 -270t234 -89q105 0 173 41t102 121t34 198v976h165z" />
    <glyph glyph-name="uogonek" unicode="&#x173;" horiz-adv-x="1090" 
d="M935 1097v-1097h-130l-20 155h-10q-28 -55 -73 -94.5t-101.5 -60t-123.5 -20.5q-113 0 -186 45t-108.5 133.5t-35.5 219.5v719h161v-699q0 -142 48 -211t147 -69q100 0 159 44.5t85.5 132.5t26.5 219v583h161zM775 -242q0 -49 24.5 -74t69.5 -25q28 0 47.5 4t33.5 8v-107
q-22 -7 -48.5 -12t-60.5 -5q-100 0 -149.5 49t-49.5 139q0 55 24.5 108t65 100.5t88.5 83.5l91 -27q-70 -67 -103 -123.5t-33 -118.5z" />
    <glyph glyph-name="Wcircumflex" unicode="&#x174;" horiz-adv-x="1674" 
d="M1655 1462l-346 -1462h-180l-241 970q-8 31 -16 65.5t-15 71t-13.5 72.5t-10.5 69q-3 -24 -8 -56t-11.5 -68.5t-15 -75t-18.5 -77.5l-235 -971h-180l-346 1462h169l210 -921q11 -50 20.5 -97t17.5 -91t14.5 -83t10.5 -74q6 41 13.5 85t16 89t18 89t19.5 85l225 918h162
l229 -920q11 -43 21 -86.5t18 -87t15 -86.5t13 -86q8 57 17.5 114.5t21.5 116t25 115.5l211 920h169zM917 1934q24 -45 62.5 -101t81.5 -110t78 -95v-21h-102q-48 38 -98.5 89.5t-100.5 106.5q-50 -54 -101 -106.5t-97 -89.5h-100v21q37 44 79 98.5t79.5 109t60.5 98.5h158z
" />
    <glyph glyph-name="wcircumflex" unicode="&#x175;" horiz-adv-x="1403" 
d="M924 1l-163 660q-9 34 -17.5 69t-15.5 68t-12.5 63.5t-10.5 56.5h-6q-4 -26 -9.5 -57t-12.5 -64.5t-15 -68.5t-18 -69l-172 -658h-181l-270 1097h163l138 -588q13 -57 25 -114.5t22 -111.5t16 -101h7q6 30 12.5 66.5t14.5 77t17.5 82.5t19.5 83l161 606h175l156 -607
q12 -43 23.5 -94t22 -105.5t18.5 -107.5h7q3 32 11 74.5t19 93t23 105.5l150 641h160l-273 -1097h-185zM781 1568q24 -45 62.5 -101t81.5 -110t78 -95v-21h-102q-48 38 -98.5 89.5t-100.5 106.5q-50 -54 -101 -106.5t-97 -89.5h-100v21q37 44 79 98.5t79.5 109t60.5 98.5
h158z" />
    <glyph glyph-name="Ycircumflex" unicode="&#x176;" horiz-adv-x="966" 
d="M484 745l307 717h175l-401 -894v-568h-164v562l-401 900h176zM562 1934q24 -45 62.5 -101t81.5 -110t78 -95v-21h-102q-48 38 -98.5 89.5t-100.5 106.5q-50 -54 -101 -106.5t-97 -89.5h-100v21q37 44 79 98.5t79.5 109t60.5 98.5h158z" />
    <glyph glyph-name="ycircumflex" unicode="&#x177;" horiz-adv-x="886" 
d="M7 1097h169l198 -639q15 -49 28.5 -94.5t24 -89t17.5 -85.5h7q11 54 30 124.5t42 145.5l190 638h169l-402 -1265q-33 -106 -78 -178.5t-107 -109t-149 -36.5q-36 0 -66 5t-56 12v135q20 -6 46 -10t53 -4q50 0 86 21.5t63 66.5t49 115l50 154zM522 1568q24 -45 62.5 -101
t81.5 -110t78 -95v-21h-102q-48 38 -98.5 89.5t-100.5 106.5q-50 -54 -101 -106.5t-97 -89.5h-100v21q37 44 79 98.5t79.5 109t60.5 98.5h158z" />
    <glyph glyph-name="Ydieresis" unicode="&#x178;" horiz-adv-x="966" 
d="M484 745l307 717h175l-401 -894v-568h-164v562l-401 900h176zM216 1747q0 50 25 73.5t62 23.5t62 -24t25 -73q0 -50 -25 -75t-62 -25t-62 25t-25 75zM572 1747q0 50 25.5 73.5t61.5 23.5q37 0 62.5 -24t25.5 -73q0 -50 -25.5 -75t-62.5 -25t-62 25t-25 75z" />
    <glyph glyph-name="Zacute" unicode="&#x179;" horiz-adv-x="952" 
d="M892 0h-826v126l620 1188h-602v148h791v-127l-621 -1186h638v-149zM760 1935v-19q-20 -31 -53.5 -72t-74 -85t-81.5 -83.5t-74 -68.5h-105v24q36 46 72 99t68 106t56 99h192z" />
    <glyph glyph-name="zacute" unicode="&#x17a;" horiz-adv-x="786" 
d="M723 0h-657v108l467 858h-437v131h614v-118l-462 -849h475v-130zM679 1569v-19q-20 -31 -53.5 -72t-74 -85t-81.5 -83.5t-74 -68.5h-105v24q36 46 72 99t68 106t56 99h192z" />
    <glyph glyph-name="Zdotaccent" unicode="&#x17b;" horiz-adv-x="952" 
d="M892 0h-826v126l620 1188h-602v148h791v-127l-621 -1186h638v-149zM486 1873q43 0 68.5 -28t25.5 -83q0 -53 -26 -81.5t-68 -28.5q-43 0 -70 28.5t-27 81.5q0 56 26 83.5t71 27.5z" />
    <glyph glyph-name="zdotaccent" unicode="&#x17c;" horiz-adv-x="786" 
d="M723 0h-657v108l467 858h-437v131h614v-118l-462 -849h475v-130zM404 1508q43 0 68.5 -28t25.5 -83q0 -53 -26 -81.5t-68 -28.5q-43 0 -70 28.5t-27 81.5q0 56 26 83.5t71 27.5z" />
    <glyph glyph-name="Zcaron" unicode="&#x17d;" horiz-adv-x="952" 
d="M892 0h-826v126l620 1188h-602v148h791v-127l-621 -1186h638v-149zM401 1607q-24 46 -62 100.5t-79.5 108t-77.5 96.5v22h100q46 -37 98 -90t99 -108q53 59 99.5 105.5t99.5 92.5h102v-22q-35 -41 -77.5 -94.5t-81.5 -108.5t-63 -102h-157z" />
    <glyph glyph-name="zcaron" unicode="&#x17e;" horiz-adv-x="786" 
d="M723 0h-657v108l467 858h-437v131h614v-118l-462 -849h475v-130zM320 1241q-24 46 -62 100.5t-79.5 108t-77.5 96.5v22h100q46 -37 98 -90t99 -108q53 59 99.5 105.5t99.5 92.5h102v-22q-35 -41 -77.5 -94.5t-81.5 -108.5t-63 -102h-157z" />
    <glyph glyph-name="longs" unicode="&#x17f;" horiz-adv-x="557" 
d="M470 1430q-77 0 -113 -56.5t-37 -192.5v-1181h-161v1178q0 132 33.5 218.5t100.5 128.5t168 42q51 0 94 -9.5t82 -24.5l-40 -128q-29 10 -62 17.5t-65 7.5z" />
    <glyph glyph-name="florin" unicode="&#x192;" horiz-adv-x="1001" 
d="M703 1483q53 0 100.5 -11.5t91.5 -29.5l-43 -127q-32 13 -66 22t-69 9q-80 0 -114.5 -53.5t-34.5 -183.5v-148h234v-130h-232v-952q0 -126 -31 -208.5t-96 -122.5t-168 -40q-40 0 -75 5.5t-65 12.5v138q32 -8 63 -13t61 -5q79 0 114 50.5t35 167.5v967h-181v82l181 54
v143q0 133 32.5 215.5t98 120t164.5 37.5z" />
    <glyph glyph-name="Ohorn" unicode="&#x1a0;" horiz-adv-x="1359" 
d="M1241 733q0 -163 -33.5 -300.5t-102.5 -239t-175 -157.5t-250 -56q-149 0 -256 57t-175.5 159t-101.5 240t-33 299q0 237 63 404.5t189 256t315 88.5q142 0 248.5 -54.5t177.5 -158.5q51 20 77.5 60t37 97t10.5 128h159l15 -22q-17 -141 -73 -235t-167 -137
q38 -87 56.5 -194.5t18.5 -234.5zM286 733q0 -192 43 -328t130.5 -207.5t219.5 -71.5q133 0 219 71t128 206.5t42 329.5q0 292 -94.5 448t-292.5 156q-134 0 -221.5 -71t-130.5 -205.5t-43 -327.5z" />
    <glyph glyph-name="ohorn" unicode="&#x1a1;" horiz-adv-x="1095" 
d="M968 550q0 -181 -52 -308.5t-149.5 -194.5t-235.5 -67q-130 0 -227 67t-150 194.5t-53 308.5q0 276 114 421.5t321 145.5q97 0 176 -37t135 -108q51 18 78 58t38 99.5t11 133.5h157l15 -23q-12 -102 -40.5 -175.5t-77 -122t-119.5 -75.5q29 -64 44 -143.5t15 -173.5z
M265 550q0 -142 29 -239t89 -146t152 -49q94 0 153 49t87.5 146t28.5 239q0 141 -28.5 236.5t-87.5 144.5t-154 49q-141 0 -205 -108.5t-64 -321.5z" />
    <glyph glyph-name="Uhorn" unicode="&#x1af;" horiz-adv-x="1376" 
d="M1115 1462v-202q62 11 95.5 50.5t46 102t12.5 143.5h158l15 -22q-10 -84 -32.5 -151t-61 -117t-96 -80.5t-137.5 -42.5v-637q0 -164 -52 -282t-156 -181t-264 -63q-235 0 -358 139t-123 388v955h165v-960q0 -184 81 -280t237 -96q105 0 172.5 44t100 128.5t32.5 204.5
v959h165z" />
    <glyph glyph-name="uhorn" unicode="&#x1b0;" horiz-adv-x="1198" 
d="M1242 1264l13 -25q-9 -82 -30.5 -149.5t-59.5 -117t-94.5 -81t-135.5 -41.5v-850h-130l-20 155h-11q-28 -55 -72 -94.5t-100.5 -60t-122.5 -20.5q-114 0 -187.5 45.5t-109 134t-35.5 218.5v718h161v-698q0 -142 48 -211t147 -69q146 0 208.5 98t62.5 304v576h161v-128
q61 12 92.5 51.5t43.5 102t12 142.5h159z" />
    <glyph glyph-name="uni01EA" unicode="&#x1ea;" horiz-adv-x="1355" 
d="M1242 733q0 -163 -34 -300.5t-103 -239t-175 -157.5t-250 -56q-148 0 -255.5 57t-176 159t-101.5 240t-33 299q0 237 63 404.5t189 256t315 88.5q191 0 315 -96t185 -265.5t61 -389.5zM286 733q0 -192 43.5 -328t130.5 -207.5t219 -71.5q133 0 219 71t128.5 206.5
t42.5 329.5q0 292 -95.5 448t-292.5 156q-134 0 -221.5 -71t-130.5 -205.5t-43 -327.5zM655 -242q0 -49 24.5 -74t69.5 -25q28 0 47.5 4t33.5 8v-107q-22 -7 -48.5 -12t-60.5 -5q-100 0 -149.5 49t-49.5 139q0 55 24.5 108t65 100.5t88.5 83.5l91 -27q-70 -67 -103 -123.5
t-33 -118.5z" />
    <glyph glyph-name="uni01EB" unicode="&#x1eb;" horiz-adv-x="1067" 
d="M968 550q0 -132 -28.5 -237.5t-84 -179.5t-137 -113.5t-187.5 -39.5q-100 0 -179.5 39.5t-135.5 113t-85.5 179.5t-29.5 238q0 181 50 307.5t147 193t238 66.5q134 0 230.5 -65.5t149 -192t52.5 -309.5zM265 550q0 -137 28.5 -234t88.5 -148t153 -51t152.5 50.5t88 147
t28.5 235.5q0 137 -28.5 233t-88 146.5t-153.5 50.5q-140 0 -204.5 -111t-64.5 -319zM516 -242q0 -49 24.5 -74t69.5 -25q28 0 47.5 4t33.5 8v-107q-22 -7 -48.5 -12t-60.5 -5q-100 0 -149.5 49t-49.5 139q0 55 24.5 108t65 100.5t88.5 83.5l91 -27q-70 -67 -103 -123.5
t-33 -118.5z" />
    <glyph glyph-name="uni01EC" unicode="&#x1ec;" horiz-adv-x="1355" 
d="M1242 733q0 -163 -34 -300.5t-103 -239t-175 -157.5t-250 -56q-148 0 -255.5 57t-176 159t-101.5 240t-33 299q0 237 63 404.5t189 256t315 88.5q191 0 315 -96t185 -265.5t61 -389.5zM286 733q0 -192 43.5 -328t130.5 -207.5t219 -71.5q133 0 219 71t128.5 206.5
t42.5 329.5q0 292 -95.5 448t-292.5 156q-134 0 -221.5 -71t-130.5 -205.5t-43 -327.5zM950 1743v-126h-544v126h544zM669 -242q0 -49 24.5 -74t69.5 -25q28 0 47.5 4t33.5 8v-107q-22 -7 -48.5 -12t-60.5 -5q-100 0 -149.5 49t-49.5 139q0 55 24.5 108t65 100.5t88.5 83.5
l91 -27q-70 -67 -103 -123.5t-33 -118.5z" />
    <glyph glyph-name="uni01ED" unicode="&#x1ed;" horiz-adv-x="1067" 
d="M968 550q0 -132 -28.5 -237.5t-84 -179.5t-137 -113.5t-187.5 -39.5q-100 0 -179.5 39.5t-135.5 113t-85.5 179.5t-29.5 238q0 181 50 307.5t147 193t238 66.5q134 0 230.5 -65.5t149 -192t52.5 -309.5zM265 550q0 -137 28.5 -234t88.5 -148t153 -51t152.5 50.5t88 147
t28.5 235.5q0 137 -28.5 233t-88 146.5t-153.5 50.5q-140 0 -204.5 -111t-64.5 -319zM806 1377v-126h-544v126h544zM515 -242q0 -49 24.5 -74t69.5 -25q28 0 47.5 4t33.5 8v-107q-22 -7 -48.5 -12t-60.5 -5q-100 0 -149.5 49t-49.5 139q0 55 24.5 108t65 100.5t88.5 83.5
l91 -27q-70 -67 -103 -123.5t-33 -118.5z" />
    <glyph glyph-name="uni01F0" unicode="&#x1f0;" horiz-adv-x="471" 
d="M58 -492q-39 0 -71.5 6.5t-54.5 15.5v136q24 -9 49.5 -14t53.5 -5q58 0 89 40t31 134v1276h160v-1272q0 -103 -28.5 -173.5t-85.5 -107t-143 -36.5zM156 1241q-24 46 -62 100.5t-79.5 108t-77.5 96.5v22h100q46 -37 98 -90t99 -108q53 59 99.5 105.5t99.5 92.5h102v-22
q-35 -41 -77.5 -94.5t-81.5 -108.5t-63 -102h-157z" />
    <glyph glyph-name="Aringacute" unicode="&#x1fa;" horiz-adv-x="1102" 
d="M-1 0l438 1260q-48 21 -77 65t-29 108q0 96 60 152.5t156 56.5q95 0 157.5 -55.5t62.5 -151.5q0 -64 -29 -108.5t-77 -65.5l441 -1261h-174l-137 397h-486l-133 -397h-173zM350 546h400l-148 451q-9 32 -19 66t-18.5 67.5t-15.5 61.5q-5 -22 -11 -44.5t-12.5 -45.5
t-12.5 -44.5t-11 -39.5zM548 1317q52 0 84 31t32 85q0 52 -31.5 83t-84.5 31q-51 0 -83.5 -31t-32.5 -83q0 -53 30 -84.5t86 -31.5zM453 1694v19q43 52 77 95.5t59.5 82t43.5 72.5h195v-15q-17 -25 -48 -58.5t-68.5 -68.5t-76 -68t-72.5 -59h-110z" />
    <glyph glyph-name="aringacute" unicode="&#x1fb;" horiz-adv-x="989" 
d="M507 1116q174 0 254 -92.5t80 -280.5v-743h-119l-28 159h-6q-36 -58 -79 -98t-98.5 -60.5t-133.5 -20.5q-92 0 -158 40t-101 112.5t-35 169.5q0 163 112 252t331 97l157 8v71q0 137 -48.5 196t-143.5 59q-66 0 -130.5 -20.5t-128.5 -54.5l-50 121q68 39 151 62t174 23z
M683 544l-134 -7q-161 -7 -231 -66t-70 -168q0 -99 47 -146t126 -47q119 0 190.5 84.5t71.5 243.5v106zM507 1543q-50 0 -83 -31.5t-33 -82.5q0 -52 30 -83.5t86 -31.5q51 0 83 31t32 83t-31.5 83.5t-83.5 31.5zM507 1637q63 0 112 -25.5t78 -71.5t29 -110q0 -97 -61 -154
t-158 -57t-156.5 56t-59.5 154q0 95 59.5 151.5t156.5 56.5zM803 1956v-14q-24 -33 -76.5 -79.5t-110 -91t-98.5 -72.5h-114v18q38 44 71.5 85t61 80t48.5 74h218z" />
    <glyph glyph-name="AEacute" unicode="&#x1fc;" horiz-adv-x="1515" 
d="M1411 0h-674v467h-387l-178 -467h-175l563 1462h851v-147h-509v-478h476v-145h-476v-544h509v-148zM402 616h336v697h-74zM1094 1935v-19q-20 -31 -53.5 -72t-74 -85t-81.5 -83.5t-74 -68.5h-105v24q36 46 72 99t68 106t56 99h192z" />
    <glyph glyph-name="aeacute" unicode="&#x1fd;" horiz-adv-x="1542" 
d="M1070 1116q123 0 207 -63.5t126.5 -173.5t42.5 -251v-107h-616q4 -205 76 -305t209 -100q79 0 148 18.5t139 55.5v-140q-69 -36 -139.5 -53t-156.5 -17q-85 0 -156 27.5t-124.5 80t-87.5 127.5q-38 -76 -87.5 -128.5t-115 -79.5t-152.5 -27q-94 0 -161.5 40t-103 112.5
t-35.5 169.5q0 109 49 185t145 117.5t237 46.5l155 8v76q0 132 -50 191t-142 59q-63 0 -128 -20t-129 -55l-51 121q64 37 147 61t173 24q110 0 180 -42.5t103 -134.5q47 85 122.5 131t175.5 46zM668 544l-129 -7q-155 -7 -223 -65t-68 -169q0 -98 45 -145t124 -47
q75 0 131.5 37.5t88 109.5t31.5 175v111zM1069 984q-103 0 -165 -84.5t-71 -251.5h453q1 98 -22.5 174t-71.5 119t-123 43zM1063 1569v-19q-20 -31 -53.5 -72t-74 -85t-81.5 -83.5t-74 -68.5h-105v24q36 46 72 99t68 106t56 99h192z" />
    <glyph glyph-name="Oslashacute" unicode="&#x1fe;" horiz-adv-x="1358" 
d="M1245 733q0 -174 -36 -313t-106.5 -237t-175.5 -150.5t-245 -52.5q-98 0 -178.5 26t-143.5 76l-96 -163l-107 60l111 191q-77 103 -114 245t-37 320q0 237 63 404.5t189 256t315 88.5q93 0 173 -26.5t144 -77.5l93 156l107 -64l-108 -183q75 -97 113.5 -237t38.5 -319z
M1073 733q0 121 -19 221t-57 173l-556 -909q45 -45 105.5 -69t134.5 -24q134 0 221 71t129 207t42 330zM288 733q0 -126 19.5 -226.5t57.5 -174.5l556 909q-45 49 -104 73t-133 24q-134 0 -222 -71t-131 -206t-43 -328zM965 1935v-19q-20 -31 -53.5 -72t-74 -85t-81.5 -83.5
t-74 -68.5h-105v24q36 46 72 99t68 106t56 99h192z" />
    <glyph glyph-name="oslashacute" unicode="&#x1ff;" horiz-adv-x="1071" 
d="M970 550q0 -181 -52 -308.5t-149.5 -194.5t-235.5 -67q-67 0 -124.5 17.5t-104.5 52.5l-89 -152l-101 60l103 175q-56 76 -85 180t-29 237q0 276 114 421.5t322 145.5q67 0 125.5 -19t106.5 -57l82 138l103 -60l-96 -162q53 -74 81.5 -176t28.5 -231zM266 550
q0 -83 10 -150.5t32 -117.5l392 636q-31 31 -72 47.5t-91 16.5q-142 0 -206.5 -111.5t-64.5 -320.5zM809 550q0 79 -10.5 143.5t-29.5 113.5l-391 -635q30 -29 70.5 -43.5t87.5 -14.5q94 0 154.5 51t89.5 148.5t29 236.5zM819 1569v-19q-20 -31 -53.5 -72t-74 -85
t-81.5 -83.5t-74 -68.5h-105v24q36 46 72 99t68 106t56 99h192z" />
    <glyph glyph-name="uni0218" unicode="&#x218;" horiz-adv-x="982" 
d="M894 394q0 -127 -56 -220t-157 -143.5t-237 -50.5q-70 0 -133.5 7.5t-118.5 22t-100 35.5v164q72 -34 165.5 -57.5t186.5 -23.5q92 0 155 32t96 89t33 131t-27.5 124.5t-91 92t-171.5 86.5q-79 34 -140.5 72.5t-104 86.5t-64.5 112.5t-22 150.5q-1 116 52.5 201
t148.5 131.5t218 45.5q100 0 187.5 -21t156.5 -54l-53 -146q-70 33 -144 52t-148 19q-80 0 -136 -28t-86 -78.5t-30 -118.5q0 -77 27.5 -127.5t88.5 -89.5t162 -83q112 -49 188.5 -104t115.5 -129t39 -181zM570 -125v-18q-12 -45 -35 -100.5t-52.5 -110.5t-61.5 -99h-89v24
q14 35 29.5 90.5t29 113.5t18.5 100h161z" />
    <glyph glyph-name="uni0219" unicode="&#x219;" horiz-adv-x="832" 
d="M753 295q0 -102 -44 -172.5t-127 -106.5t-200 -36q-95 0 -168.5 18t-127.5 47v157q56 -35 135 -60t161 -25q109 0 162 45t53 124q0 46 -21.5 80.5t-70 66.5t-132.5 69q-86 41 -150.5 83t-100 100t-35.5 145q0 134 98 210.5t258 76.5q84 0 158 -18.5t139 -52.5l-57 -128
q-55 29 -117 47.5t-127 18.5q-94 0 -146 -39.5t-52 -107.5q0 -48 22.5 -81t73.5 -63t135 -69q85 -41 148.5 -83.5t98 -100t34.5 -145.5zM512 -125v-18q-12 -45 -35 -100.5t-52.5 -110.5t-61.5 -99h-89v24q14 35 29.5 90.5t29 113.5t18.5 100h161z" />
    <glyph glyph-name="uni021A" unicode="&#x21a;" horiz-adv-x="949" 
d="M556 0h-165v1315h-372v147h909v-147h-372v-1315zM582 -125v-18q-12 -45 -35 -100.5t-52.5 -110.5t-61.5 -99h-89v24q14 35 29.5 90.5t29 113.5t18.5 100h161z" />
    <glyph glyph-name="uni021B" unicode="&#x21b;" horiz-adv-x="625" 
d="M461 116q33 0 67 6.5t59 16.5v-128q-30 -13 -74 -22t-90 -9q-79 0 -137.5 31.5t-90.5 99.5t-32 181v676h-129v82l133 53l54 246h103v-252h253v-129h-253v-665q0 -94 34 -140.5t103 -46.5zM483 -125v-18q-12 -45 -35 -100.5t-52.5 -110.5t-61.5 -99h-89v24
q14 35 29.5 90.5t29 113.5t18.5 100h161z" />
    <glyph glyph-name="uni0237" unicode="&#x237;" horiz-adv-x="471" 
d="M58 -492q-39 0 -71.5 6.5t-54.5 15.5v136q24 -9 49.5 -14t53.5 -5q58 0 89 40t31 134v1276h160v-1272q0 -103 -28.5 -173.5t-85.5 -107t-143 -36.5z" />
    <glyph glyph-name="uni0259" unicode="&#x259;" horiz-adv-x="999" 
d="M445 1116q148 0 249 -68.5t153 -194.5t52 -297q0 -181 -49.5 -310t-142.5 -197.5t-223 -68.5q-126 0 -212.5 64t-131 175t-44.5 253v104h641q-4 200 -80.5 302t-223.5 102q-81 0 -150 -18.5t-143 -56.5v142q70 35 142.5 52t162.5 17zM735 449h-479q1 -95 25 -171.5
t74.5 -121.5t129.5 -45q110 0 174.5 86.5t75.5 251.5z" />
    <glyph glyph-name="uni02BC" unicode="&#x2bc;" horiz-adv-x="361" 
d="M306 1462l15 -22q-19 -78 -44.5 -159.5t-56 -162t-63.5 -155.5h-120q16 59 31 124.5t28.5 131.5t23.5 128t17 115h169z" />
    <glyph glyph-name="circumflex" unicode="&#x2c6;" horiz-adv-x="763" 
d="M459 1568q24 -45 62.5 -101t81.5 -110t78 -95v-21h-102q-48 38 -98.5 89.5t-100.5 106.5q-50 -54 -101 -106.5t-97 -89.5h-100v21q37 44 79 98.5t79.5 109t60.5 98.5h158z" />
    <glyph glyph-name="caron" unicode="&#x2c7;" horiz-adv-x="762" 
d="M301 1241q-24 46 -62 100.5t-79.5 108t-77.5 96.5v22h100q46 -37 98 -90t99 -108q53 59 99.5 105.5t99.5 92.5h102v-22q-35 -41 -77.5 -94.5t-81.5 -108.5t-63 -102h-157z" />
    <glyph glyph-name="macron" unicode="&#x2c9;" horiz-adv-x="708" 
d="M626 1377v-126h-544v126h544z" />
    <glyph glyph-name="breve" unicode="&#x2d8;" horiz-adv-x="720" 
d="M638 1512q-4 -82 -39 -142.5t-96.5 -93.5t-146.5 -33q-128 0 -197.5 70t-76.5 199h103q5 -53 26.5 -84t59 -45t89.5 -14q48 0 85.5 14t60.5 45.5t29 83.5h103z" />
    <glyph glyph-name="dotaccent" unicode="&#x2d9;" horiz-adv-x="355" 
d="M179 1508q43 0 68.5 -28t25.5 -83q0 -53 -26 -81.5t-68 -28.5q-43 0 -70 28.5t-27 81.5q0 56 26 83.5t71 27.5z" />
    <glyph glyph-name="ring" unicode="&#x2da;" horiz-adv-x="598" 
d="M298 1246q-97 0 -156.5 56t-59.5 153q0 96 59.5 152t156.5 56q94 0 156 -55.5t62 -150.5q0 -97 -60.5 -154t-157.5 -57zM299 1341q51 0 83.5 31t32.5 82q0 53 -32 84.5t-84 31.5q-50 0 -83 -31.5t-33 -83.5t29.5 -83t86.5 -31z" />
    <glyph glyph-name="ogonek" unicode="&#x2db;" horiz-adv-x="472" 
d="M215 -242q0 -49 24.5 -74t69.5 -25q28 0 47.5 4t33.5 8v-107q-22 -7 -48.5 -12t-60.5 -5q-100 0 -149.5 49t-49.5 139q0 55 24.5 108t65 100.5t88.5 83.5l91 -27q-70 -67 -103 -123.5t-33 -118.5z" />
    <glyph glyph-name="tilde" unicode="&#x2dc;" horiz-adv-x="834" 
d="M82 1243q6 54 20 99.5t37.5 79t58 52t78.5 18.5q42 0 80 -18.5t73 -42t67.5 -41.5t63.5 -18q40 0 61.5 31t33.5 91h98q-10 -118 -60.5 -183.5t-132.5 -65.5q-40 0 -78.5 18t-74 42t-68 42t-62.5 18q-39 0 -62.5 -30.5t-35.5 -91.5h-97z" />
    <glyph glyph-name="hungarumlaut" unicode="&#x2dd;" horiz-adv-x="832" 
d="M750 1569v-19q-16 -30 -46.5 -71.5t-67.5 -85.5t-75 -84t-69 -68h-88v23q31 42 64.5 98.5t63.5 112.5t47 94h171zM428 1569v-19q-17 -31 -46.5 -71.5t-66 -84t-74.5 -83t-73 -70.5h-86v23q31 44 64 100t63 110.5t48 94.5h171z" />
    <glyph glyph-name="uni02F3" unicode="&#x2f3;" horiz-adv-x="703" 
d="M350 -544q-97 0 -156.5 56t-59.5 154q0 95 59 152t157 57q94 0 156.5 -56.5t62.5 -151.5q0 -97 -61 -154t-158 -57zM350 -449q51 0 83.5 31.5t32.5 83.5t-32 83t-84 31q-51 0 -83.5 -31t-32.5 -83t29.5 -83.5t86.5 -31.5z" />
    <glyph glyph-name="gravecomb" unicode="&#x300;" 
d="M-710 1569q24 -47 58 -103.5t71 -109.5t69 -91v-24h-106q-34 28 -74.5 67.5t-81 83.5t-74 85t-53.5 73v19h191z" />
    <glyph glyph-name="acutecomb" unicode="&#x301;" 
d="M-223 1569v-19q-20 -31 -53.5 -72t-74 -85t-81.5 -83.5t-74 -68.5h-105v24q36 46 72 99t68 106t56 99h192z" />
    <glyph glyph-name="uni0302" unicode="&#x302;" 
d="M78 1568q24 -45 62.5 -101t81.5 -110t78 -95v-21h-102q-48 38 -98.5 89.5t-100.5 106.5q-50 -54 -101 -106.5t-97 -89.5h-100v21q37 44 79 98.5t79.5 109t60.5 98.5h158z" />
    <glyph glyph-name="tildecomb" unicode="&#x303;" 
d="M-916 1243q6 54 20 99.5t37.5 79t58 52t78.5 18.5q42 0 80 -18.5t73 -42t67.5 -41.5t63.5 -18q40 0 61.5 31t33.5 91h98q-10 -118 -60.5 -183.5t-132.5 -65.5q-40 0 -78.5 18t-74 42t-68 42t-62.5 18q-39 0 -62.5 -30.5t-35.5 -91.5h-97z" />
    <glyph glyph-name="uni0304" unicode="&#x304;" 
d="M272 1377v-126h-544v126h544z" />
    <glyph glyph-name="uni0306" unicode="&#x306;" 
d="M279 1512q-4 -82 -39 -142.5t-96.5 -93.5t-146.5 -33q-128 0 -197.5 70t-76.5 199h103q5 -53 26.5 -84t59 -45t89.5 -14q48 0 85.5 14t60.5 45.5t29 83.5h103z" />
    <glyph glyph-name="uni0307" unicode="&#x307;" 
d="M3 1508q43 0 68.5 -28t25.5 -83q0 -53 -26 -81.5t-68 -28.5q-43 0 -70 28.5t-27 81.5q0 56 26 83.5t71 27.5z" />
    <glyph glyph-name="uni0308" unicode="&#x308;" 
d="M-265 1381q0 50 25 73.5t62 23.5t62 -24t25 -73q0 -50 -25 -75t-62 -25t-62 25t-25 75zM91 1381q0 50 25.5 73.5t61.5 23.5q37 0 62.5 -24t25.5 -73q0 -50 -25.5 -75t-62.5 -25t-62 25t-25 75z" />
    <glyph glyph-name="hookabovecomb" unicode="&#x309;" 
d="M-397 1500q0 -75 -43.5 -119.5t-118.5 -62.5l-10 -108h-96l-12 169q70 8 111 35t41 76q0 47 -34 67.5t-93 20.5q-25 0 -49.5 -3t-45.5 -7v100q24 7 53 11t64 4q113 0 173 -46.5t60 -136.5z" />
    <glyph glyph-name="uni030A" unicode="&#x30a;" 
d="M1 1246q-97 0 -156.5 56t-59.5 153q0 96 59.5 152t156.5 56q94 0 156 -55.5t62 -150.5q0 -97 -60.5 -154t-157.5 -57zM2 1341q51 0 83.5 31t32.5 82q0 53 -32 84.5t-84 31.5q-50 0 -83 -31.5t-33 -83.5t29.5 -83t86.5 -31z" />
    <glyph glyph-name="uni030B" unicode="&#x30b;" 
d="M444 1569v-19q-16 -30 -46.5 -71.5t-67.5 -85.5t-75 -84t-69 -68h-88v23q31 42 64.5 98.5t63.5 112.5t47 94h171zM122 1569v-19q-17 -31 -46.5 -71.5t-66 -84t-74.5 -83t-73 -70.5h-86v23q31 44 64 100t63 110.5t48 94.5h171z" />
    <glyph glyph-name="uni030C" unicode="&#x30c;" 
d="M-80 1241q-24 46 -62 100.5t-79.5 108t-77.5 96.5v22h100q46 -37 98 -90t99 -108q53 59 99.5 105.5t99.5 92.5h102v-22q-35 -41 -77.5 -94.5t-81.5 -108.5t-63 -102h-157z" />
    <glyph glyph-name="uni030F" unicode="&#x30f;" 
d="M-519 1569q19 -42 49.5 -98.5t63.5 -111.5t60 -94v-24h-84q-32 27 -70.5 67t-76 84.5t-67.5 86t-46 71.5v19h171zM-841 1569q23 -50 51.5 -105t59.5 -106.5t60 -92.5v-24h-87q-32 28 -69.5 67.5t-74 84t-67 86t-47.5 71.5v19h174z" />
    <glyph glyph-name="uni0312" unicode="&#x312;" 
d="M-125 963l-12 22q19 79 44.5 161t56 163t63.5 153h119q-21 -81 -40.5 -169t-34.5 -173t-25 -157h-171z" />
    <glyph glyph-name="dotbelowcomb" unicode="&#x323;" 
d="M-598 -354q-43 0 -70 28t-27 82q0 56 26.5 84t70.5 28t69.5 -28.5t25.5 -82.5q0 -55 -26 -83t-69 -28z" />
    <glyph glyph-name="uni0326" unicode="&#x326;" 
d="M115 -125v-18q-12 -45 -35 -100.5t-52.5 -110.5t-61.5 -99h-89v24q14 35 29.5 90.5t29 113.5t18.5 100h161z" />
    <glyph glyph-name="uni0327" unicode="&#x327;" 
d="M187 -284q0 -99 -69 -153.5t-198 -54.5q-33 0 -61.5 3.5t-47.5 8.5v104q20 -5 46.5 -8t53.5 -3q71 0 107.5 25.5t36.5 75.5q0 55 -48 81.5t-127 35.5l80 169h103l-50 -108q52 -11 91.5 -33.5t61 -58t21.5 -84.5z" />
    <glyph glyph-name="uni0328" unicode="&#x328;" 
d="M-30 -242q0 -49 24.5 -74t69.5 -25q28 0 47.5 4t33.5 8v-107q-22 -7 -48.5 -12t-60.5 -5q-100 0 -149.5 49t-49.5 139q0 55 24.5 108t65 100.5t88.5 83.5l91 -27q-70 -67 -103 -123.5t-33 -118.5z" />
    <glyph glyph-name="tonos" unicode="&#x384;" horiz-adv-x="1135" 
d="M496 1241v26q12 31 26 77.5t27 99t23.5 100.5t15.5 80h165v-22q-15 -48 -41 -112t-57.5 -129.5t-61.5 -119.5h-97z" />
    <glyph glyph-name="dieresistonos" unicode="&#x385;" horiz-adv-x="1120" 
d="M729 1664v-20q-15 -40 -39.5 -91t-54.5 -103.5t-59 -96.5h-79v23q14 42 28 93.5t25.5 102.5t17.5 92h161zM358 1456q36 0 60 -24.5t24 -74.5q0 -49 -24 -74t-60 -25q-37 0 -61.5 25t-24.5 74q0 50 24.5 74.5t61.5 24.5zM770 1457q35 0 60.5 -24.5t25.5 -75.5
q0 -48 -25.5 -73.5t-60.5 -25.5q-37 0 -61 25.5t-24 74.5q0 50 24 74.5t61 24.5z" />
    <glyph glyph-name="Alphatonos" unicode="&#x386;" horiz-adv-x="1108" 
d="M934 0l-145 467h-466l-145 -467h-171l463 1465h173l464 -1465h-173zM749 616l-142 479q-6 27 -16 65.5l-20 77t-17 68.5q-6 -37 -14.5 -74t-17.5 -71.5t-17 -64.5l-141 -480h385zM15 1164v26q12 31 26 77.5t27 99t23.5 100.5t15.5 80h165v-22q-15 -48 -41 -112
t-57.5 -129.5t-61.5 -119.5h-97z" />
    <glyph glyph-name="anoteleia" unicode="&#x387;" horiz-adv-x="496" 
d="M136 987q0 65 30.5 96t80.5 31t81.5 -29.5t31.5 -97.5q0 -67 -32 -97.5t-81 -30.5t-80 31.5t-31 96.5z" />
    <glyph glyph-name="Epsilontonos" unicode="&#x388;" horiz-adv-x="1140" 
d="M1032 0h-694v1462h694v-146h-530v-479h499v-145h-499v-544h530v-148zM-3 1154v26q12 31 26 77.5t27 99t23.5 100.5t15.5 80h165v-22q-15 -48 -41 -112t-57.5 -129.5t-61.5 -119.5h-97z" />
    <glyph glyph-name="Etatonos" unicode="&#x389;" horiz-adv-x="1459" 
d="M1283 0h-164v691h-616v-691h-164v1462h164v-624h616v624h164v-1462zM-3 1154v26q12 31 26 77.5t27 99t23.5 100.5t15.5 80h165v-22q-15 -48 -41 -112t-57.5 -129.5t-61.5 -119.5h-97z" />
    <glyph glyph-name="Iotatonos" unicode="&#x38a;" horiz-adv-x="669" 
d="M330 0v1462h164v-1462h-164zM-3 1154v26q12 31 26 77.5t27 99t23.5 100.5t15.5 80h165v-22q-15 -48 -41 -112t-57.5 -129.5t-61.5 -119.5h-97z" />
    <glyph glyph-name="Omicrontonos" unicode="&#x38c;" horiz-adv-x="1434" 
d="M1320 733q0 -163 -34 -300.5t-103 -239t-175 -157.5t-250 -56q-148 0 -255.5 57t-176 159t-101.5 240t-33 299q0 237 63 404.5t189 256t315 88.5q191 0 315 -96t185 -265.5t61 -389.5zM364 733q0 -192 43.5 -328t130.5 -207.5t219 -71.5q133 0 219 71t128.5 206.5
t42.5 329.5q0 292 -95.5 448t-292.5 156q-134 0 -221.5 -71t-130.5 -205.5t-43 -327.5zM-3 1154v26q12 31 26 77.5t27 99t23.5 100.5t15.5 80h165v-22q-15 -48 -41 -112t-57.5 -129.5t-61.5 -119.5h-97z" />
    <glyph glyph-name="Upsilontonos" unicode="&#x38e;" horiz-adv-x="1252" 
d="M770 745l307 717h175l-401 -894v-568h-164v562l-401 900h176zM-3 1154v26q12 31 26 77.5t27 99t23.5 100.5t15.5 80h165v-22q-15 -48 -41 -112t-57.5 -129.5t-61.5 -119.5h-97z" />
    <glyph glyph-name="Omegatonos" unicode="&#x38f;" horiz-adv-x="1438" 
d="M757 1337q-131 0 -218.5 -60.5t-131 -177.5t-43.5 -287q0 -147 29.5 -270.5t92.5 -225.5t162 -185v-131h-507v148h322q-79 67 -140.5 163.5t-96.5 224t-35 285.5q0 213 66.5 361t193 225t305.5 77q181 0 306.5 -77.5t190.5 -225t65 -358.5q0 -161 -34.5 -289t-95.5 -224
t-140 -162h322v-148h-509v131q104 84 167 186t91.5 225.5t28.5 270.5q0 167 -43 284t-129.5 178.5t-218.5 61.5zM-9 1155v26q12 31 26 77.5t27 99t23.5 100.5t15.5 80h165v-22q-15 -48 -41 -112t-57.5 -129.5t-61.5 -119.5h-97z" />
    <glyph glyph-name="iotadieresistonos" unicode="&#x390;" horiz-adv-x="599" 
d="M310 1097v-807q0 -90 29.5 -131.5t93.5 -41.5q35 0 73.5 7.5t58.5 16.5v-131q-28 -13 -72.5 -21.5t-89.5 -8.5q-79 0 -135.5 29t-86.5 96t-30 181v811h159zM411 1664v-20q-15 -40 -39.5 -91t-54.5 -103.5t-59 -96.5h-79v23q14 42 28 93.5t25.5 102.5t17.5 92h161z
M40 1456q36 0 60 -24.5t24 -74.5q0 -49 -24 -74t-60 -25q-37 0 -61.5 25t-24.5 74q0 50 24.5 74.5t61.5 24.5zM452 1457q35 0 60.5 -24.5t25.5 -75.5q0 -48 -25.5 -73.5t-60.5 -25.5q-37 0 -61 25.5t-24 74.5q0 50 24 74.5t61 24.5z" />
    <glyph glyph-name="Alpha" unicode="&#x391;" horiz-adv-x="1101" 
d="M927 0l-145 467h-466l-145 -467h-171l463 1465h173l464 -1465h-173zM742 616l-142 479q-6 27 -16 65.5l-20 77t-17 68.5q-6 -37 -14.5 -74t-17.5 -71.5t-17 -64.5l-141 -480h385z" />
    <glyph glyph-name="Beta" unicode="&#x392;" horiz-adv-x="1145" 
d="M176 1462h366q233 0 351 -84.5t118 -270.5q0 -90 -28.5 -159t-82.5 -113t-134 -60v-9q89 -17 152.5 -59.5t97.5 -113.5t34 -176q0 -130 -53 -223.5t-151 -143.5t-236 -50h-434v1462zM340 834h219q155 0 219 64.5t64 191.5q0 118 -72.5 175t-225.5 57h-204v-488zM340 694
v-552h247q152 0 221 74t69 211q0 87 -33 146.5t-100.5 90t-173.5 30.5h-230z" />
    <glyph glyph-name="Gamma" unicode="&#x393;" horiz-adv-x="905" 
d="M873 1462v-148h-533v-1314h-164v1462h697z" />
    <glyph glyph-name="uni0394" unicode="&#x394;" horiz-adv-x="1040" 
d="M610 1462l400 -1356v-106h-980v112l398 1350h182zM828 148l-235 833q-15 53 -29.5 109t-26.5 108t-20 93q-10 -46 -21.5 -98.5t-25 -105.5t-27.5 -104l-233 -835h618z" />
    <glyph glyph-name="Epsilon" unicode="&#x395;" horiz-adv-x="978" 
d="M870 0h-694v1462h694v-146h-530v-479h499v-145h-499v-544h530v-148z" />
    <glyph glyph-name="Zeta" unicode="&#x396;" horiz-adv-x="952" 
d="M892 0h-826v126l620 1188h-602v148h791v-127l-621 -1186h638v-149z" />
    <glyph glyph-name="Eta" unicode="&#x397;" horiz-adv-x="1296" 
d="M1120 0h-164v691h-616v-691h-164v1462h164v-624h616v624h164v-1462z" />
    <glyph glyph-name="Theta" unicode="&#x398;" horiz-adv-x="1355" 
d="M924 815v-143h-494v143h494zM1242 733q0 -163 -34 -300.5t-103 -239t-175 -157.5t-250 -56q-148 0 -255.5 57t-176 159t-101.5 240t-33 299q0 237 63 404.5t189 256t315 88.5q191 0 315 -96t185 -265.5t61 -389.5zM286 733q0 -192 43.5 -328t130.5 -207.5t219 -71.5
q133 0 219 71t128.5 206.5t42.5 329.5q0 292 -95.5 448t-292.5 156q-134 0 -221.5 -71t-130.5 -205.5t-43 -327.5z" />
    <glyph glyph-name="Iota" unicode="&#x399;" horiz-adv-x="515" 
d="M176 0v1462h164v-1462h-164z" />
    <glyph glyph-name="Kappa" unicode="&#x39a;" horiz-adv-x="1077" 
d="M1081 0h-189l-421 699l-131 -135v-564h-164v1462h164v-735q35 47 79 105.5t95 129.5l361 500h186l-474 -640z" />
    <glyph glyph-name="Lambda" unicode="&#x39b;" horiz-adv-x="1063" 
d="M618 1462l444 -1462h-172l-290 993q-15 54 -28.5 104.5t-24.5 96t-19 84.5q-7 -43 -18 -89.5t-24 -95t-28 -98.5l-284 -995h-174l441 1462h177z" />
    <glyph glyph-name="Mu" unicode="&#x39c;" horiz-adv-x="1649" 
d="M749 0l-423 1268h-8q4 -54 6.5 -110t4 -110.5t1.5 -102.5v-945h-154v1462h238l406 -1216h7l410 1216h239v-1462h-162v949q0 46 1.5 98.5t4 108.5t5.5 111h-8l-426 -1267h-142z" />
    <glyph glyph-name="Nu" unicode="&#x39d;" horiz-adv-x="1346" 
d="M1173 0h-195l-653 1219h-8q3 -51 6.5 -107t5 -114t1.5 -117v-881h-154v1462h193l653 -1208h6q-2 47 -5 105.5t-4.5 118.5t-1.5 111v873h156v-1462z" />
    <glyph glyph-name="Xi" unicode="&#x39e;" horiz-adv-x="968" 
d="M77 0v148h814v-148h-814zM172 692v147h623v-147h-623zM110 1316v146h749v-146h-749z" />
    <glyph glyph-name="Omicron" unicode="&#x39f;" horiz-adv-x="1355" 
d="M1242 733q0 -163 -34 -300.5t-103 -239t-175 -157.5t-250 -56q-148 0 -255.5 57t-176 159t-101.5 240t-33 299q0 237 63 404.5t189 256t315 88.5q191 0 315 -96t185 -265.5t61 -389.5zM286 733q0 -192 43.5 -328t130.5 -207.5t219 -71.5q133 0 219 71t128.5 206.5
t42.5 329.5q0 292 -95.5 448t-292.5 156q-134 0 -221.5 -71t-130.5 -205.5t-43 -327.5z" />
    <glyph glyph-name="Pi" unicode="&#x3a0;" horiz-adv-x="1283" 
d="M176 0v1462h932v-1462h-164v1315h-604v-1315h-164z" />
    <glyph glyph-name="Rho" unicode="&#x3a1;" horiz-adv-x="1064" 
d="M498 1462q249 0 365.5 -107t116.5 -320q0 -103 -28.5 -187.5t-89 -145.5t-155.5 -94t-228 -33h-139v-575h-164v1462h322zM487 1320h-147v-601h122q119 0 196 31t114.5 99.5t37.5 180.5q0 151 -78.5 220.5t-244.5 69.5z" />
    <glyph glyph-name="Sigma" unicode="&#x3a3;" horiz-adv-x="988" 
d="M67 0v136l414 627l-401 565v134h813v-147h-436q-29 0 -64.5 0.5t-68.5 1.5t-56 2l396 -555l-416 -622q56 2 111.5 4t113.5 2h467v-148h-873z" />
    <glyph glyph-name="Tau" unicode="&#x3a4;" horiz-adv-x="949" 
d="M556 0h-165v1315h-372v147h909v-147h-372v-1315z" />
    <glyph glyph-name="Upsilon" unicode="&#x3a5;" horiz-adv-x="966" 
d="M484 745l307 717h175l-401 -894v-568h-164v562l-401 900h176z" />
    <glyph glyph-name="Phi" unicode="&#x3a6;" horiz-adv-x="1460" 
d="M810 1483v-180q193 -2 313.5 -72.5t177 -191.5t56.5 -277q0 -114 -31 -214.5t-97 -176.5t-170 -120t-249 -46v-225h-162v225q-145 1 -249 45.5t-170 121t-97.5 176.5t-31.5 213q0 114 32.5 212t99.5 171.5t170.5 115.5t245.5 43v180h162zM648 1162q-132 -2 -216.5 -50
t-124.5 -136.5t-40 -213.5q0 -132 43 -224.5t128 -141.5t210 -52v818zM810 1162v-818q129 3 213.5 53t126.5 143t42 223q0 128 -40 216t-124 134.5t-218 48.5z" />
    <glyph glyph-name="Chi" unicode="&#x3a7;" horiz-adv-x="994" 
d="M984 0h-182l-302 627l-316 -627h-173l398 763l-362 699h177l280 -570l282 570h174l-363 -703z" />
    <glyph glyph-name="Psi" unicode="&#x3a8;" horiz-adv-x="1456" 
d="M1334 1462v-475q0 -122 -27 -222t-88 -172t-162 -111.5t-250 -39.5v-442h-161v442q-148 0 -249 39t-161.5 110.5t-87 171t-26.5 219.5v480h164v-478q0 -125 34 -214t112.5 -135.5t213.5 -47.5v875h161v-875q130 1 209 42.5t115 128.5t36 224v480h167z" />
    <glyph glyph-name="uni03A9" unicode="&#x3a9;" horiz-adv-x="1366" 
d="M685 1337q-131 0 -218.5 -60.5t-131 -177.5t-43.5 -287q0 -147 29.5 -270.5t92.5 -225.5t162 -185v-131h-507v148h322q-79 67 -140.5 163.5t-96.5 224t-35 285.5q0 213 66.5 361t193 225t305.5 77q181 0 306.5 -77.5t190.5 -225t65 -358.5q0 -161 -34.5 -289t-95.5 -224
t-140 -162h322v-148h-509v131q104 84 167 186t91.5 225.5t28.5 270.5q0 167 -43 284t-129.5 178.5t-218.5 61.5z" />
    <glyph glyph-name="Iotadieresis" unicode="&#x3aa;" horiz-adv-x="515" 
d="M176 0v1462h164v-1462h-164zM-7 1736q0 50 25 73.5t62 23.5t62 -24t25 -73q0 -50 -25 -75t-62 -25t-62 25t-25 75zM349 1736q0 50 25.5 73.5t61.5 23.5q37 0 62.5 -24t25.5 -73q0 -50 -25.5 -75t-62.5 -25t-62 25t-25 75z" />
    <glyph glyph-name="Upsilondieresis" unicode="&#x3ab;" horiz-adv-x="966" 
d="M484 745l307 717h175l-401 -894v-568h-164v562l-401 900h176zM218 1733q0 50 25 73.5t62 23.5t62 -24t25 -73q0 -50 -25 -75t-62 -25t-62 25t-25 75zM574 1733q0 50 25.5 73.5t61.5 23.5q37 0 62.5 -24t25.5 -73q0 -50 -25.5 -75t-62.5 -25t-62 25t-25 75z" />
    <glyph glyph-name="alphatonos" unicode="&#x3ac;" horiz-adv-x="1110" 
d="M519 116q93 0 150.5 46.5t85 137.5t27.5 225v30q0 213 -60.5 318.5t-204.5 105.5q-129 0 -190.5 -112t-61.5 -324q0 -217 62 -322t192 -105zM486 -20q-179 0 -281.5 142.5t-102.5 422.5q0 281 105 426.5t293 145.5q104 0 175.5 -44.5t117.5 -131.5h11q7 39 22 82t35 74
h127q-14 -44 -24.5 -108.5t-16 -139.5t-5.5 -153v-443q0 -74 22 -106.5t59 -32.5q17 0 34 3t29 8v-123q-9 -6 -25.5 -10.5t-35.5 -8t-38 -3.5q-80 0 -126.5 40t-64.5 139h-12q-29 -52 -69.5 -92.5t-97 -63.5t-131.5 -23zM478 1241v26q12 31 26 77.5t27 99t23.5 100.5
t15.5 80h165v-22q-15 -48 -41 -112t-57.5 -129.5t-61.5 -119.5h-97z" />
    <glyph glyph-name="epsilontonos" unicode="&#x3ad;" horiz-adv-x="843" 
d="M613 640v-130h-105q-88 0 -146 -23t-86.5 -68.5t-28.5 -111.5t30.5 -108t84 -62.5t122.5 -20.5q86 0 159.5 22.5t132.5 55.5v-145q-57 -32 -130.5 -50.5t-177.5 -18.5q-195 0 -289 90t-94 229q0 115 61.5 182t158.5 93v9q-86 29 -132.5 92t-46.5 158q0 89 45 152.5
t125.5 97.5t184.5 34q89 0 160.5 -18t141.5 -55l-62 -126q-53 29 -110.5 46.5t-125.5 17.5q-101 0 -152.5 -42.5t-51.5 -118.5q0 -93 65.5 -137t183.5 -44h83zM404 1241v26q12 31 26 77.5t27 99t23.5 100.5t15.5 80h165v-22q-15 -48 -41 -112t-57.5 -129.5t-61.5 -119.5h-97
z" />
    <glyph glyph-name="etatonos" unicode="&#x3ae;" horiz-adv-x="1090" 
d="M612 1117q108 0 181.5 -41t110.5 -126t37 -219v-1222h-159v1201q0 135 -48 201.5t-150 66.5q-95 0 -154.5 -43.5t-87 -132.5t-27.5 -225v-577h-160v1097h128l22 -158h9q29 56 74 96t102 61t122 21zM491 1241v26q12 31 26 77.5t27 99t23.5 100.5t15.5 80h165v-22
q-15 -48 -41 -112t-57.5 -129.5t-61.5 -119.5h-97z" />
    <glyph glyph-name="iotatonos" unicode="&#x3af;" horiz-adv-x="600" 
d="M310 1097v-807q0 -90 29.5 -131.5t93.5 -41.5q35 0 73.5 7.5t58.5 16.5v-131q-28 -13 -72.5 -21.5t-89.5 -8.5q-79 0 -135.5 29t-86.5 96t-30 181v811h159zM167 1241v26q12 31 26 77.5t27 99t23.5 100.5t15.5 80h165v-22q-15 -48 -41 -112t-57.5 -129.5t-61.5 -119.5h-97
z" />
    <glyph glyph-name="upsilondieresistonos" unicode="&#x3b0;" horiz-adv-x="1074" 
d="M539 -19q-148 1 -233.5 58t-122 168.5t-36.5 273.5v616h160v-619q0 -169 53 -265t184 -96q137 0 203 113t66 347q0 141 -15 264t-47 256h160q21 -95 35 -174.5t20.5 -162t6.5 -185.5q0 -300 -110.5 -447t-323.5 -147zM707 1664v-20q-15 -40 -39.5 -91t-54.5 -103.5
t-59 -96.5h-79v23q14 42 28 93.5t25.5 102.5t17.5 92h161zM336 1456q36 0 60 -24.5t24 -74.5q0 -49 -24 -74t-60 -25q-37 0 -61.5 25t-24.5 74q0 50 24.5 74.5t61.5 24.5zM748 1457q35 0 60.5 -24.5t25.5 -75.5q0 -48 -25.5 -73.5t-60.5 -25.5q-37 0 -61 25.5t-24 74.5
q0 50 24 74.5t61 24.5z" />
    <glyph glyph-name="alpha" unicode="&#x3b1;" horiz-adv-x="1110" 
d="M519 116q93 0 150.5 46.5t85 137.5t27.5 225v30q0 213 -60.5 318.5t-204.5 105.5q-129 0 -190.5 -112t-61.5 -324q0 -217 62 -322t192 -105zM486 -20q-179 0 -281.5 142.5t-102.5 422.5q0 281 105 426.5t293 145.5q104 0 175.5 -44.5t117.5 -131.5h11q7 39 22 82t35 74
h127q-14 -44 -24.5 -108.5t-16 -139.5t-5.5 -153v-443q0 -74 22 -106.5t59 -32.5q17 0 34 3t29 8v-123q-9 -6 -25.5 -10.5t-35.5 -8t-38 -3.5q-80 0 -126.5 40t-64.5 139h-12q-29 -52 -69.5 -92.5t-97 -63.5t-131.5 -23z" />
    <glyph glyph-name="beta" unicode="&#x3b2;" horiz-adv-x="1114" 
d="M570 1567q121 0 209.5 -45.5t136.5 -131.5t48 -206q0 -157 -66 -244.5t-194 -109.5v-8q161 -21 240.5 -121t79.5 -286q0 -138 -50 -235t-143.5 -148t-226.5 -51q-95 0 -162.5 19t-126.5 53v-544h-160v1615q0 148 51.5 246t145 147.5t218.5 49.5zM567 1430
q-73 0 -130 -32.5t-89.5 -101.5t-32.5 -180v-917q56 -37 123 -59t144 -22q146 0 214 80t68 231q0 106 -35.5 176.5t-102 105.5t-163.5 35h-76v139h62q131 0 192 73t61 211q0 129 -63 195t-172 66z" />
    <glyph glyph-name="gamma" unicode="&#x3b3;" horiz-adv-x="893" 
d="M882 1097l-332 -1047q-26 -86 -46 -183t-31.5 -189.5t-11.5 -168.5h-170q0 61 11.5 149t30.5 179t40 164l-364 1096h167l181 -550q19 -62 38.5 -127t34.5 -125.5t21 -108.5h8q7 47 21 107t31 125t34 124l171 555h166z" />
    <glyph glyph-name="delta" unicode="&#x3b4;" horiz-adv-x="1069" 
d="M583 1560q109 0 194.5 -28t152.5 -64l-65 -131q-67 41 -137 63.5t-148 22.5q-86 0 -131.5 -40.5t-45.5 -103.5q0 -51 26.5 -95.5t80.5 -89.5t135 -101q104 -73 176.5 -150t110 -168.5t37.5 -209.5q0 -149 -52 -257.5t-150 -168t-235 -59.5q-135 0 -231.5 57t-148.5 160.5
t-52 240.5q0 123 46.5 221.5t130.5 168.5t196 108q-70 52 -121.5 103.5t-80 110t-28.5 129.5q0 137 97 209t243 72zM582 858q-86 -28 -158 -82.5t-115.5 -138t-43.5 -198.5q0 -90 31 -163.5t91 -116.5t146 -43q88 0 149 41t92.5 119t31.5 190q0 127 -57 220.5t-167 171.5z
" />
    <glyph glyph-name="epsilon" unicode="&#x3b5;" horiz-adv-x="843" 
d="M613 640v-130h-105q-88 0 -146 -23t-86.5 -68.5t-28.5 -111.5t30.5 -108t84 -62.5t122.5 -20.5q86 0 159.5 22.5t132.5 55.5v-145q-57 -32 -130.5 -50.5t-177.5 -18.5q-195 0 -289 90t-94 229q0 115 61.5 182t158.5 93v9q-86 29 -132.5 92t-46.5 158q0 89 45 152.5
t125.5 97.5t184.5 34q89 0 160.5 -18t141.5 -55l-62 -126q-53 29 -110.5 46.5t-125.5 17.5q-101 0 -152.5 -42.5t-51.5 -118.5q0 -93 65.5 -137t183.5 -44h83z" />
    <glyph glyph-name="zeta" unicode="&#x3b6;" horiz-adv-x="842" 
d="M791 -105q0 -77 -36.5 -156t-85.5 -142h-161q33 44 61.5 92t45 93t16.5 79q0 35 -17.5 62.5t-62.5 50.5t-129 46q-109 31 -180 84t-105.5 139.5t-34.5 217.5q0 140 37 262.5t105.5 237.5t163.5 229.5t209 239.5q-17 -2 -54 -4t-84 -3.5t-98 -1.5h-230v135h644v-118
q-150 -146 -251.5 -274t-162.5 -244.5t-88 -226.5t-27 -220q0 -99 27.5 -159t87.5 -97t157 -68q78 -22 135 -54.5t87.5 -80.5t30.5 -119z" />
    <glyph glyph-name="eta" unicode="&#x3b7;" horiz-adv-x="1090" 
d="M612 1117q108 0 181.5 -41t110.5 -126t37 -219v-1222h-159v1201q0 135 -48 201.5t-150 66.5q-95 0 -154.5 -43.5t-87 -132.5t-27.5 -225v-577h-160v1097h128l22 -158h9q29 56 74 96t102 61t122 21z" />
    <glyph glyph-name="theta" unicode="&#x3b8;" horiz-adv-x="1073" 
d="M974 781q0 -261 -46 -439.5t-143 -270t-250 -91.5q-220 0 -327 204.5t-107 594.5q0 259 47 436t143.5 268t245.5 91q221 0 329 -202t108 -591zM535 114q136 0 203 153.5t74 461.5h-549q5 -305 69.5 -460t202.5 -155zM536 1440q-134 0 -199 -145t-73 -431h547
q-9 284 -74.5 430t-200.5 146z" />
    <glyph glyph-name="iota" unicode="&#x3b9;" horiz-adv-x="600" 
d="M310 1097v-807q0 -90 29.5 -131.5t93.5 -41.5q35 0 73.5 7.5t58.5 16.5v-131q-28 -13 -72.5 -21.5t-89.5 -8.5q-79 0 -135.5 29t-86.5 96t-30 181v811h159z" />
    <glyph glyph-name="kappa" unicode="&#x3ba;" horiz-adv-x="938" 
d="M900 1097l-340 -453l366 -644h-181l-296 529l-129 -134v-395h-165v1097h165v-303q0 -71 -3 -138.5t-8 -116.5h6q17 28 35.5 55t34.5 52l331 451h184z" />
    <glyph glyph-name="lambda" unicode="&#x3bb;" horiz-adv-x="953" 
d="M2 0l387 1082l-48 179q-25 83 -58.5 128t-103.5 45q-28 0 -50 -4t-39 -9v133q15 5 32.5 8.5t37 5.5t40.5 2q83 0 138 -31.5t93 -98.5t70 -173l295 -1021q14 -46 28 -74t33 -41t44 -13q16 0 32 3t27 7v-130q-13 -5 -28.5 -9t-32.5 -6.5t-36 -2.5q-55 0 -93.5 22
t-65.5 68.5t-48 119.5l-124 427q-10 33 -20 68t-19 69t-16.5 65t-12.5 57h-7q-11 -49 -27.5 -102.5t-36.5 -106.5l-226 -667h-165z" />
    <glyph glyph-name="uni03BC" unicode="&#x3bc;" horiz-adv-x="1097" 
d="M942 1097v-1097h-129l-21 156h-10q-26 -54 -65.5 -93.5t-90.5 -61t-115 -21.5q-69 0 -117.5 26t-80.5 75h-7q3 -31 5 -66t3 -73.5t1 -78.5v-354h-160v1588h160v-707q0 -135 49 -203.5t149 -68.5q101 0 159.5 46t84 135.5t25.5 220.5v577h160z" />
    <glyph glyph-name="nu" unicode="&#x3bd;" horiz-adv-x="955" 
d="M12 1097h165l187 -658q13 -46 28 -98.5t28 -101t19 -83.5h8q101 128 162 272.5t89 310t28 358.5h159q0 -216 -37.5 -403.5t-122.5 -357.5t-227 -336h-160z" />
    <glyph glyph-name="xi" unicode="&#x3be;" horiz-adv-x="837" 
d="M101 420q0 102 33 183t93.5 135.5t143.5 75.5v9q-69 15 -117 51t-73 95t-25 145q0 87 35 150t94.5 104.5t131.5 61.5q-27 -3 -59 -5t-66.5 -3t-69.5 -1h-83v135h615v-129h-52q-77 0 -147.5 -19.5t-124.5 -58.5t-85.5 -96.5t-31.5 -132.5q0 -120 66 -177.5t217 -57.5h124
v-132h-132q-103 0 -174.5 -37.5t-109 -108t-37.5 -170.5q0 -92 30 -146.5t90.5 -86t150.5 -56.5q89 -25 144 -59.5t80.5 -82t25.5 -111.5q0 -77 -36.5 -155.5t-80.5 -142.5h-159q34 46 61.5 94t43 92.5t15.5 78.5q0 36 -17 63.5t-61.5 51t-127.5 43.5q-110 29 -182 80
t-107.5 130.5t-35.5 189.5z" />
    <glyph glyph-name="omicron" unicode="&#x3bf;" horiz-adv-x="1067" 
d="M968 550q0 -132 -28.5 -237.5t-84 -179.5t-137 -113.5t-187.5 -39.5q-100 0 -179.5 39.5t-135.5 113t-85.5 179.5t-29.5 238q0 181 50 307.5t147 193t238 66.5q134 0 230.5 -65.5t149 -192t52.5 -309.5zM265 550q0 -137 28.5 -234t88.5 -148t153 -51t152.5 50.5t88 147
t28.5 235.5q0 137 -28.5 233t-88 146.5t-153.5 50.5q-140 0 -204.5 -111t-64.5 -319z" />
    <glyph glyph-name="pi" unicode="&#x3c0;" horiz-adv-x="1151" 
d="M1001 120q23 0 43.5 4.5t36.5 11.5v-130q-17 -9 -50 -16t-74 -7q-103 0 -154.5 66t-51.5 199v713h-383v-961h-159v961h-190v70l125 66h955v-136h-188v-705q0 -74 23 -105t67 -31z" />
    <glyph glyph-name="rho" unicode="&#x3c1;" horiz-adv-x="1080" 
d="M981 552q0 -182 -47.5 -310t-139.5 -195t-227 -67q-78 0 -144.5 24t-115.5 68h-9q6 -55 8 -124t2 -143v-296h-161v1057q0 181 48.5 303.5t142.5 185t230 62.5q128 0 220.5 -63.5t142.5 -189t50 -312.5zM562 980q-130 0 -192.5 -101.5t-62.5 -305.5v-362q48 -47 110.5 -71
t132.5 -24q139 0 203 109.5t64 326.5q0 216 -60 322t-195 106z" />
    <glyph glyph-name="uni03C2" unicode="&#x3c2;" horiz-adv-x="838" 
d="M548 1117q70 0 134 -14.5t114 -38.5l-49 -134q-47 20 -96.5 33t-100.5 13q-147 0 -215.5 -112t-68.5 -332q0 -111 21 -183t79.5 -117.5t170.5 -81.5q86 -27 141.5 -61t83 -81t27.5 -114q0 -77 -37 -156.5t-81 -140.5h-157q33 45 60 93t43 92.5t16 79.5t-16.5 62t-60.5 51
t-128 48q-78 25 -138.5 62t-102.5 95t-63.5 143.5t-21.5 205.5q0 199 53.5 329t153.5 194.5t239 64.5z" />
    <glyph glyph-name="sigma" unicode="&#x3c3;" horiz-adv-x="1091" 
d="M965 503q0 -160 -50.5 -277.5t-147 -181.5t-236.5 -64q-134 0 -230.5 63t-147.5 184t-51 295q0 198 60 325t177 188.5t285 61.5h423v-136h-226q68 -86 106 -200t38 -258zM266 525q0 -129 28.5 -220.5t88.5 -140t151 -48.5q138 0 203.5 104.5t65.5 287.5q0 86 -15 164.5
t-44 150.5t-72 138h-60q-178 0 -262 -103.5t-84 -332.5z" />
    <glyph glyph-name="tau" unicode="&#x3c4;" horiz-adv-x="796" 
d="M750 1097v-137h-337v-632q0 -114 41 -164t116 -50q37 0 75 6t68 15v-126q-26 -13 -75 -22t-97 -9q-89 0 -154 32.5t-100 106t-35 196.5v647h-241v71l122 66h617z" />
    <glyph glyph-name="upsilon" unicode="&#x3c5;" horiz-adv-x="1074" 
d="M539 -19q-148 1 -233.5 58t-122 168.5t-36.5 273.5v616h160v-619q0 -169 53 -265t184 -96q137 0 203 113t66 347q0 141 -15 264t-47 256h160q21 -95 35 -174.5t20.5 -162t6.5 -185.5q0 -300 -110.5 -447t-323.5 -147z" />
    <glyph glyph-name="phi" unicode="&#x3c6;" horiz-adv-x="1318" 
d="M306 1108l122 -84q-77 -98 -121 -215t-44 -259q0 -139 38.5 -231.5t108.5 -141.5t164 -60v633q0 183 73.5 275t212.5 92q117 0 196.5 -70t120.5 -190.5t41 -272.5q0 -181 -60.5 -311.5t-170 -204.5t-257.5 -86v-473h-156v473q-146 10 -252 75t-163 189t-57 308
q0 164 54.5 301.5t149.5 252.5zM860 982q-63 0 -97 -55t-34 -177v-633q97 9 170 65t114.5 157t41.5 243q0 126 -25 215.5t-69 137.5t-101 47z" />
    <glyph glyph-name="chi" unicode="&#x3c7;" horiz-adv-x="947" 
d="M148 1108q60 0 101 -26t71 -79t55 -135l112 -347l251 576h167l-354 -763l161 -507q22 -67 41.5 -107t45.5 -58t65 -18q22 0 40.5 3t34.5 6v-129q-21 -6 -46.5 -11t-60.5 -5q-71 0 -119.5 28t-81.5 86t-61 146l-123 390l-283 -649h-170l387 839l-146 462q-26 81 -54 122.5
t-74 41.5q-19 0 -36 -3t-29 -8v130q19 6 45.5 10.5t60.5 4.5z" />
    <glyph glyph-name="psi" unicode="&#x3c8;" horiz-adv-x="1330" 
d="M748 1555v-1434q101 9 170.5 61t105 152t35.5 251q0 134 -16.5 256t-48.5 256h158q34 -138 50 -259.5t16 -251.5q0 -199 -58 -330t-163 -198t-249 -75v-474h-156v474q-139 5 -239.5 64t-154.5 179.5t-54 306.5v564h159v-562q0 -140 35.5 -229.5t100.5 -134t153 -51.5
v1435h156z" />
    <glyph glyph-name="omega" unicode="&#x3c9;" horiz-adv-x="1353" 
d="M1138 1097q37 -94 61.5 -185t36 -185t11.5 -198q0 -167 -37 -290.5t-109.5 -191t-178.5 -67.5q-95 0 -156 48.5t-87 138.5h-7q-25 -90 -86.5 -138.5t-157.5 -48.5q-103 0 -175 66t-109.5 189t-37.5 294q0 105 11.5 198t36 183.5t61.5 186.5h161q-55 -138 -82.5 -274
t-27.5 -294q0 -203 46 -306t131 -103q54 0 89 35t51.5 100.5t16.5 157.5v294h153v-294q0 -97 17 -161.5t52 -97.5t86 -34q58 0 98 46t60.5 137t20.5 225q0 156 -27 293t-84 276h162z" />
    <glyph glyph-name="iotadieresis" unicode="&#x3ca;" horiz-adv-x="601" 
d="M311 1097v-807q0 -90 29.5 -131.5t93.5 -41.5q35 0 73.5 7.5t58.5 16.5v-131q-28 -13 -72.5 -21.5t-89.5 -8.5q-79 0 -135.5 29t-86.5 96t-30 181v811h159zM-23 1381q0 50 25 73.5t62 23.5t62 -24t25 -73q0 -50 -25 -75t-62 -25t-62 25t-25 75zM333 1381q0 50 25.5 73.5
t61.5 23.5q37 0 62.5 -24t25.5 -73q0 -50 -25.5 -75t-62.5 -25t-62 25t-25 75z" />
    <glyph glyph-name="upsilondieresis" unicode="&#x3cb;" horiz-adv-x="1074" 
d="M539 -19q-148 1 -233.5 58t-122 168.5t-36.5 273.5v616h160v-619q0 -169 53 -265t184 -96q137 0 203 113t66 347q0 141 -15 264t-47 256h160q21 -95 35 -174.5t20.5 -162t6.5 -185.5q0 -300 -110.5 -447t-323.5 -147zM273 1381q0 50 25 73.5t62 23.5t62 -24t25 -73
q0 -50 -25 -75t-62 -25t-62 25t-25 75zM629 1381q0 50 25.5 73.5t61.5 23.5q37 0 62.5 -24t25.5 -73q0 -50 -25.5 -75t-62.5 -25t-62 25t-25 75z" />
    <glyph glyph-name="omicrontonos" unicode="&#x3cc;" horiz-adv-x="1067" 
d="M968 550q0 -132 -28.5 -237.5t-84 -179.5t-137 -113.5t-187.5 -39.5q-100 0 -179.5 39.5t-135.5 113t-85.5 179.5t-29.5 238q0 181 50 307.5t147 193t238 66.5q134 0 230.5 -65.5t149 -192t52.5 -309.5zM265 550q0 -137 28.5 -234t88.5 -148t153 -51t152.5 50.5t88 147
t28.5 235.5q0 137 -28.5 233t-88 146.5t-153.5 50.5q-140 0 -204.5 -111t-64.5 -319zM456 1241v26q12 31 26 77.5t27 99t23.5 100.5t15.5 80h165v-22q-15 -48 -41 -112t-57.5 -129.5t-61.5 -119.5h-97z" />
    <glyph glyph-name="upsilontonos" unicode="&#x3cd;" horiz-adv-x="1074" 
d="M539 -19q-148 1 -233.5 58t-122 168.5t-36.5 273.5v616h160v-619q0 -169 53 -265t184 -96q137 0 203 113t66 347q0 141 -15 264t-47 256h160q21 -95 35 -174.5t20.5 -162t6.5 -185.5q0 -300 -110.5 -447t-323.5 -147zM464 1241v26q12 31 26 77.5t27 99t23.5 100.5
t15.5 80h165v-22q-15 -48 -41 -112t-57.5 -129.5t-61.5 -119.5h-97z" />
    <glyph glyph-name="omegatonos" unicode="&#x3ce;" horiz-adv-x="1353" 
d="M1138 1097q37 -94 61.5 -185t36 -185t11.5 -198q0 -167 -37 -290.5t-109.5 -191t-178.5 -67.5q-95 0 -156 48.5t-87 138.5h-7q-25 -90 -86.5 -138.5t-157.5 -48.5q-103 0 -175 66t-109.5 189t-37.5 294q0 105 11.5 198t36 183.5t61.5 186.5h161q-55 -138 -82.5 -274
t-27.5 -294q0 -203 46 -306t131 -103q54 0 89 35t51.5 100.5t16.5 157.5v294h153v-294q0 -97 17 -161.5t52 -97.5t86 -34q58 0 98 46t60.5 137t20.5 225q0 156 -27 293t-84 276h162zM600 1241v26q12 31 26 77.5t27 99t23.5 100.5t15.5 80h165v-22q-15 -48 -41 -112
t-57.5 -129.5t-61.5 -119.5h-97z" />
    <glyph glyph-name="uni03D1" unicode="&#x3d1;" horiz-adv-x="1144" 
d="M534 1574q96 0 171.5 -39t131 -116t91.5 -190t53 -260h137v-138h-131q2 -21 3 -45.5t1 -51.5q-1 -174 -30 -313t-88 -237.5t-149 -151t-213 -52.5q-91 0 -155.5 25.5t-105 72.5t-59.5 111t-19 140q0 51 6 107.5t11.5 108.5t5.5 85q0 51 -17 70.5t-51 19.5q-19 0 -40.5 -6
t-39.5 -15l-34 121q30 14 72.5 25t89.5 11q92 0 134.5 -53t42.5 -145q0 -46 -5.5 -102.5t-11.5 -113.5t-6 -106q0 -99 44.5 -161t140.5 -62q104 0 173.5 68.5t104.5 206.5t36 347q0 24 -1 49.5t-2 46.5q-205 3 -340 56.5t-201 150t-66 226.5q0 88 34 158.5t104 111t178 40.5
zM533 1440q-79 0 -118 -48t-39 -135t47 -151.5t145 -100t250 -36.5q-10 100 -33.5 185.5t-59 150t-83.5 100t-109 35.5z" />
    <glyph glyph-name="uni03D2" unicode="&#x3d2;" horiz-adv-x="973" 
d="M481 741q28 83 55 161.5t52.5 148.5t48.5 127t42 98q26 60 52.5 104.5t64 69.5t94.5 25q25 0 45.5 -4t36.5 -12v-134q-11 3 -23.5 5t-25.5 2q-30 0 -57 -29t-63 -108q-19 -44 -48 -112t-62 -153.5t-67 -180.5t-65 -192v-557h-166v563l-395 899h178z" />
    <glyph glyph-name="uni03D6" unicode="&#x3d6;" horiz-adv-x="1426" 
d="M1378 1097v-136h-205q30 -82 51 -162t32 -159.5t11 -162.5q0 -161 -37 -271.5t-108 -168t-176 -57.5q-93 0 -151.5 44.5t-84.5 133.5h-8q-27 -88 -85 -133t-151 -45q-155 0 -238.5 127t-83.5 370q0 84 12.5 164.5t35.5 160t55 159.5h-227v69l122 67h1236zM1017 961h-615
q-29 -78 -51 -154.5t-34.5 -155t-12.5 -165.5q0 -194 45.5 -280.5t128.5 -86.5q80 0 115.5 79.5t35.5 229.5v204h155v-204q0 -106 16.5 -174t50 -101.5t83.5 -33.5q83 0 128 87.5t45 278.5q0 85 -10.5 164t-30.5 156t-49 156z" />
    <glyph glyph-name="uni0400" unicode="&#x400;" horiz-adv-x="978" 
d="M870 0h-694v1462h694v-146h-530v-479h499v-145h-499v-544h530v-148zM447 1921q24 -47 58 -103.5t71 -109.5t69 -91v-24h-106q-34 28 -74.5 67.5t-81 83.5t-74 85t-53.5 73v19h191z" />
    <glyph glyph-name="uni0401" unicode="&#x401;" horiz-adv-x="978" 
d="M870 0h-694v1462h694v-146h-530v-479h499v-145h-499v-544h530v-148zM263 1733q0 50 25 73.5t62 23.5t62 -24t25 -73q0 -50 -25 -75t-62 -25t-62 25t-25 75zM619 1733q0 50 25.5 73.5t61.5 23.5q37 0 62.5 -24t25.5 -73q0 -50 -25.5 -75t-62.5 -25t-62 25t-25 75z" />
    <glyph glyph-name="uni0402" unicode="&#x402;" horiz-adv-x="1259" 
d="M815 -20q-38 0 -72 6t-58 16v145q26 -10 54 -15t61 -5q45 0 82 20t59.5 67.5t22.5 130.5v179q0 115 -54 169.5t-179 54.5h-256v-748h-165v1315h-291v147h821v-147h-365v-419h270q187 0 284.5 -91.5t97.5 -270.5v-181q0 -185 -84.5 -279t-227.5 -94z" />
    <glyph glyph-name="uni0403" unicode="&#x403;" horiz-adv-x="905" 
d="M873 1462v-148h-533v-1314h-164v1462h697zM832 1921v-19q-20 -31 -53.5 -72t-74 -85t-81.5 -83.5t-74 -68.5h-105v24q36 46 72 99t68 106t56 99h192z" />
    <glyph glyph-name="uni0404" unicode="&#x404;" horiz-adv-x="1112" 
d="M711 1337q-97 0 -171.5 -37t-127 -104.5t-83 -159.5t-39.5 -202h583v-146h-587q4 -123 31.5 -225.5t80 -178t131 -116.5t184.5 -41q88 0 160 18t137 43v-147q-65 -30 -144.5 -45.5t-172.5 -15.5q-191 0 -320 93t-194.5 262.5t-65.5 398.5q0 160 38 297t113.5 239
t187.5 158.5t260 56.5q101 0 187 -21.5t158 -62.5l-62 -141q-64 36 -133.5 56.5t-150.5 20.5z" />
    <glyph glyph-name="uni0405" unicode="&#x405;" horiz-adv-x="982" 
d="M894 394q0 -127 -56 -220t-157 -143.5t-237 -50.5q-70 0 -133.5 7.5t-118.5 22t-100 35.5v164q72 -34 165.5 -57.5t186.5 -23.5q92 0 155 32t96 89t33 131t-27.5 124.5t-91 92t-171.5 86.5q-79 34 -140.5 72.5t-104 86.5t-64.5 112.5t-22 150.5q-1 116 52.5 201
t148.5 131.5t218 45.5q100 0 187.5 -21t156.5 -54l-53 -146q-70 33 -144 52t-148 19q-80 0 -136 -28t-86 -78.5t-30 -118.5q0 -77 27.5 -127.5t88.5 -89.5t162 -83q112 -49 188.5 -104t115.5 -129t39 -181z" />
    <glyph glyph-name="uni0406" unicode="&#x406;" horiz-adv-x="515" 
d="M176 0v1462h164v-1462h-164z" />
    <glyph glyph-name="uni0407" unicode="&#x407;" horiz-adv-x="515" 
d="M176 0v1462h164v-1462h-164zM-7 1736q0 50 25 73.5t62 23.5t62 -24t25 -73q0 -50 -25 -75t-62 -25t-62 25t-25 75zM349 1736q0 50 25.5 73.5t61.5 23.5q37 0 62.5 -24t25.5 -73q0 -50 -25.5 -75t-62.5 -25t-62 25t-25 75z" />
    <glyph glyph-name="uni0408" unicode="&#x408;" horiz-adv-x="500" 
d="M11 -388q-43 0 -78.5 6t-63.5 18v144q28 -9 61 -15t70 -6q52 0 89.5 24t58.5 78t21 146v1455h165v-1455q0 -138 -38.5 -225t-110.5 -128.5t-174 -41.5z" />
    <glyph glyph-name="uni0409" unicode="&#x409;" horiz-adv-x="1648" 
d="M109 -19q-32 0 -61 6t-51 16v142q18 -9 41.5 -15t48.5 -6q51 0 81 36t47.5 95.5t30.5 128.5q13 62 27.5 161t31 234.5t35 306.5t39.5 376h590v-619h116q172 0 279.5 -49t157.5 -141.5t50 -223.5q0 -199 -117.5 -314t-352.5 -115h-295v1312h-286q-15 -150 -28 -279
t-25.5 -236.5t-24.5 -194.5t-22.5 -155t-21.5 -118q-24 -112 -57.5 -189.5t-88 -118t-144.5 -40.5zM969 144h120q159 0 236.5 71.5t77.5 212.5q0 96 -35.5 155.5t-108.5 87.5t-185 28h-105v-555z" />
    <glyph glyph-name="uni040A" unicode="&#x40a;" horiz-adv-x="1689" 
d="M176 0v1462h164v-622h509v622h164v-622h113q174 0 281.5 -48.5t157 -140.5t49.5 -222q0 -201 -118 -315t-350 -114h-297v695h-509v-695h-164zM1012 144h120q157 0 235 71t78 213q0 96 -35.5 155t-108 86t-184.5 27h-105v-552z" />
    <glyph glyph-name="uni040B" unicode="&#x40b;" horiz-adv-x="1268" 
d="M866 1462v-148h-391v-419h276q185 0 281 -91t96 -270v-534h-165v524q0 115 -52 169t-174 54h-262v-747h-166v1314h-290v148h847z" />
    <glyph glyph-name="uni040C" unicode="&#x40c;" horiz-adv-x="1069" 
d="M1071 0h-192l-539 748v-748h-164v1462h164v-703l522 703h184l-524 -705zM885 1921v-19q-20 -31 -53.5 -72t-74 -85t-81.5 -83.5t-74 -68.5h-105v24q36 46 72 99t68 106t56 99h192z" />
    <glyph glyph-name="uni040D" unicode="&#x40d;" horiz-adv-x="1357" 
d="M177 1462h157v-872q0 -38 -1 -81.5t-2.5 -88.5t-3.5 -88t-5 -81h8l661 1211h192v-1462h-157v878q0 43 1.5 89.5t3.5 92.5t4.5 88t5.5 74h-9l-664 -1222h-191v1462zM610 1921q24 -47 58 -103.5t71 -109.5t69 -91v-24h-106q-34 28 -74.5 67.5t-81 83.5t-74 85t-53.5 73v19
h191z" />
    <glyph glyph-name="uni040E" unicode="&#x40e;" horiz-adv-x="1026" 
d="M1026 1462l-384 -1054q-54 -152 -109 -246.5t-128 -138t-182 -43.5q-45 0 -84 7t-72 19v157q33 -16 68.5 -24t74.5 -8q60 0 102 25t76 83.5t69 160.5l-445 1062h176l306 -738q8 -19 16 -42t16 -49.5t16 -56.5h8q6 25 12.5 49.5t13.5 48.5t14 44l263 744h173zM853 1898
q-8 -101 -46.5 -168.5t-109.5 -102t-178 -34.5q-110 0 -180.5 33t-106 100.5t-41.5 171.5h143q10 -110 52.5 -154t133.5 -44q87 0 133 46t56 152h144z" />
    <glyph glyph-name="uni040F" unicode="&#x40f;" horiz-adv-x="1283" 
d="M1108 0h-386v-386h-165v386h-381v1462h164v-1313h604v1313h164v-1462z" />
    <glyph glyph-name="uni0410" unicode="&#x410;" horiz-adv-x="1101" 
d="M927 0l-145 467h-466l-145 -467h-171l463 1465h173l464 -1465h-173zM742 616l-142 479q-6 27 -16 65.5l-20 77t-17 68.5q-6 -37 -14.5 -74t-17.5 -71.5t-17 -64.5l-141 -480h385z" />
    <glyph glyph-name="uni0411" unicode="&#x411;" horiz-adv-x="1083" 
d="M176 0v1462h740v-147h-576v-472h174q175 0 280.5 -48.5t153 -141t47.5 -224.5q0 -203 -114 -316t-350 -113h-355zM340 144h180q160 0 233.5 71t73.5 213q0 96 -33.5 156t-104.5 87.5t-185 27.5h-164v-555z" />
    <glyph glyph-name="uni0412" unicode="&#x412;" horiz-adv-x="1145" 
d="M176 1462h366q233 0 351 -84.5t118 -270.5q0 -90 -28.5 -159t-82.5 -113t-134 -60v-9q89 -17 152.5 -59.5t97.5 -113.5t34 -176q0 -130 -53 -223.5t-151 -143.5t-236 -50h-434v1462zM340 834h219q155 0 219 64.5t64 191.5q0 118 -72.5 175t-225.5 57h-204v-488zM340 694
v-552h247q152 0 221 74t69 211q0 87 -33 146.5t-100.5 90t-173.5 30.5h-230z" />
    <glyph glyph-name="uni0413" unicode="&#x413;" horiz-adv-x="905" 
d="M873 1462v-148h-533v-1314h-164v1462h697z" />
    <glyph glyph-name="uni0414" unicode="&#x414;" horiz-adv-x="1216" 
d="M1019 1462v-1313h154v-535h-159v386h-844v-386h-159v535h100q66 146 119 305t92 326.5t62 339t29 342.5h606zM855 1315h-292q-8 -143 -31 -296.5t-60 -306.5t-84.5 -296.5t-102.5 -266.5h570v1166z" />
    <glyph glyph-name="uni0415" unicode="&#x415;" horiz-adv-x="978" 
d="M870 0h-694v1462h694v-146h-530v-479h499v-145h-499v-544h530v-148z" />
    <glyph glyph-name="uni0416" unicode="&#x416;" horiz-adv-x="1486" 
d="M492 755l-478 707h181l468 -706v706h160v-706l469 706h179l-478 -707l493 -755h-186l-477 745v-745h-160v745l-478 -745h-185z" />
    <glyph glyph-name="uni0417" unicode="&#x417;" horiz-adv-x="1034" 
d="M891 1123q0 -145 -79 -235.5t-217 -119.5v-7q159 -22 241.5 -113.5t82.5 -242.5q0 -129 -55 -224.5t-165.5 -148t-274.5 -52.5q-99 0 -190 17t-167 53v159q49 -27 108.5 -46.5t121.5 -30t118 -10.5q166 0 249.5 72.5t83.5 213.5q0 145 -96 212t-280 67h-159v144h155
q118 0 196.5 32t118 93.5t39.5 150.5q0 114 -69 173.5t-185 59.5q-101 0 -173.5 -30.5t-134.5 -79.5l-80 116q51 42 111.5 73t133 47.5t156.5 16.5q132 0 223 -45t139 -126t48 -189z" />
    <glyph glyph-name="uni0418" unicode="&#x418;" horiz-adv-x="1357" 
d="M177 1462h157v-872q0 -38 -1 -81.5t-2.5 -88.5t-3.5 -88t-5 -81h8l661 1211h192v-1462h-157v878q0 43 1.5 89.5t3.5 92.5t4.5 88t5.5 74h-9l-664 -1222h-191v1462z" />
    <glyph glyph-name="uni0419" unicode="&#x419;" horiz-adv-x="1357" 
d="M177 1462h157v-872q0 -38 -1 -81.5t-2.5 -88.5t-3.5 -88t-5 -81h8l661 1211h192v-1462h-157v878q0 43 1.5 89.5t3.5 92.5t4.5 88t5.5 74h-9l-664 -1222h-191v1462zM1021 1898q-8 -101 -46.5 -168.5t-109.5 -102t-178 -34.5q-110 0 -180.5 33t-106 100.5t-41.5 171.5h143
q10 -110 52.5 -154t133.5 -44q87 0 133 46t56 152h144z" />
    <glyph glyph-name="uni041A" unicode="&#x41a;" horiz-adv-x="1069" 
d="M1071 0h-192l-539 748v-748h-164v1462h164v-703l522 703h184l-524 -705z" />
    <glyph glyph-name="uni041B" unicode="&#x41b;" horiz-adv-x="1224" 
d="M1051 0h-166v1312h-366q-11 -115 -25 -242t-28.5 -251.5t-29 -233t-28.5 -186.5q-23 -140 -56.5 -232.5t-90 -139t-151.5 -46.5q-33 0 -62 6t-51 16v142q19 -9 42 -15t48 -6q53 0 84.5 39t51 112.5t34.5 175.5q11 71 25 179t30 243t33 285t33 304h673v-1462z" />
    <glyph glyph-name="uni041C" unicode="&#x41c;" horiz-adv-x="1649" 
d="M749 0l-423 1268h-8q4 -54 6.5 -110t4 -110.5t1.5 -102.5v-945h-154v1462h238l406 -1216h7l410 1216h239v-1462h-162v949q0 46 1.5 98.5t4 108.5t5.5 111h-8l-426 -1267h-142z" />
    <glyph glyph-name="uni041D" unicode="&#x41d;" horiz-adv-x="1296" 
d="M1120 0h-164v691h-616v-691h-164v1462h164v-624h616v624h164v-1462z" />
    <glyph glyph-name="uni041E" unicode="&#x41e;" horiz-adv-x="1355" 
d="M1242 733q0 -163 -34 -300.5t-103 -239t-175 -157.5t-250 -56q-148 0 -255.5 57t-176 159t-101.5 240t-33 299q0 237 63 404.5t189 256t315 88.5q191 0 315 -96t185 -265.5t61 -389.5zM286 733q0 -192 43.5 -328t130.5 -207.5t219 -71.5q133 0 219 71t128.5 206.5
t42.5 329.5q0 292 -95.5 448t-292.5 156q-134 0 -221.5 -71t-130.5 -205.5t-43 -327.5z" />
    <glyph glyph-name="uni041F" unicode="&#x41f;" horiz-adv-x="1283" 
d="M176 0v1462h932v-1462h-164v1315h-604v-1315h-164z" />
    <glyph glyph-name="uni0420" unicode="&#x420;" horiz-adv-x="1064" 
d="M498 1462q249 0 365.5 -107t116.5 -320q0 -103 -28.5 -187.5t-89 -145.5t-155.5 -94t-228 -33h-139v-575h-164v1462h322zM487 1320h-147v-601h122q119 0 196 31t114.5 99.5t37.5 180.5q0 151 -78.5 220.5t-244.5 69.5z" />
    <glyph glyph-name="uni0421" unicode="&#x421;" horiz-adv-x="1098" 
d="M711 1337q-104 0 -183.5 -45.5t-133 -127.5t-81 -192t-27.5 -240q0 -186 49.5 -322t145 -209.5t232.5 -73.5q80 0 151 16t135 40v-146q-64 -29 -137.5 -43t-169.5 -14q-186 0 -315 91.5t-196 260t-67 401.5q0 161 38 297.5t113 238.5t186.5 158.5t257.5 56.5
q92 0 176.5 -20t156.5 -58l-62 -140q-58 31 -125.5 51t-143.5 20z" />
    <glyph glyph-name="uni0422" unicode="&#x422;" horiz-adv-x="949" 
d="M556 0h-165v1315h-372v147h909v-147h-372v-1315z" />
    <glyph glyph-name="uni0423" unicode="&#x423;" horiz-adv-x="1026" 
d="M1026 1462l-384 -1054q-54 -152 -109 -246.5t-128 -138t-182 -43.5q-45 0 -84 7t-72 19v157q33 -16 68.5 -24t74.5 -8q60 0 102 25t76 83.5t69 160.5l-445 1062h176l306 -738q8 -19 16 -42t16 -49.5t16 -56.5h8q6 25 12.5 49.5t13.5 48.5t14 44l263 744h173z" />
    <glyph glyph-name="uni0424" unicode="&#x424;" horiz-adv-x="1460" 
d="M810 1483v-180q193 -2 313.5 -72.5t177 -191.5t56.5 -277q0 -114 -31 -214.5t-97 -176.5t-170 -120t-249 -46v-225h-162v225q-145 1 -249 45.5t-170 121t-97.5 176.5t-31.5 213q0 114 32.5 212t99.5 171.5t170.5 115.5t245.5 43v180h162zM648 1162q-132 -2 -216.5 -50
t-124.5 -136.5t-40 -213.5q0 -132 43 -224.5t128 -141.5t210 -52v818zM810 1162v-818q129 3 213.5 53t126.5 143t42 223q0 128 -40 216t-124 134.5t-218 48.5z" />
    <glyph glyph-name="uni0425" unicode="&#x425;" horiz-adv-x="994" 
d="M984 0h-182l-302 627l-316 -627h-173l398 763l-362 699h177l280 -570l282 570h174l-363 -703z" />
    <glyph glyph-name="uni0426" unicode="&#x426;" horiz-adv-x="1310" 
d="M1263 148v-534h-158v386h-929v1462h164v-1313h608v1313h163v-1314h152z" />
    <glyph glyph-name="uni0427" unicode="&#x427;" horiz-adv-x="1230" 
d="M1056 0h-165v605q-101 -44 -192.5 -68.5t-192.5 -24.5q-176 0 -268 95t-92 276v579h164v-554q0 -125 54 -186.5t172 -61.5q97 0 177.5 21t177.5 62v719h165v-1462z" />
    <glyph glyph-name="uni0428" unicode="&#x428;" horiz-adv-x="1810" 
d="M1634 0h-1458v1462h164v-1313h482v1313h165v-1313h482v1313h165v-1462z" />
    <glyph glyph-name="uni0429" unicode="&#x429;" horiz-adv-x="1828" 
d="M1774 148v-534h-158v386h-1440v1462h164v-1313h476v1313h165v-1313h476v1313h164v-1314h153z" />
    <glyph glyph-name="uni042A" unicode="&#x42a;" horiz-adv-x="1243" 
d="M333 0v1315h-312v147h476v-619h181q168 0 273 -49t154 -142t49 -223q0 -199 -115 -314t-345 -115h-361zM498 144h185q153 0 228 71t75 213q0 96 -35 156t-105 87.5t-177 27.5h-171v-555z" />
    <glyph glyph-name="uni042B" unicode="&#x42b;" horiz-adv-x="1549" 
d="M176 0v1462h164v-619h178q168 0 272.5 -49t153 -142t48.5 -223q0 -200 -115 -314.5t-345 -114.5h-356zM340 143h182q152 0 227 71.5t75 213.5q0 96 -34.5 155.5t-104 87t-176.5 27.5h-169v-555zM1207 0v1462h164v-1462h-164z" />
    <glyph glyph-name="uni042C" unicode="&#x42c;" horiz-adv-x="1108" 
d="M176 0v1462h164v-619h200q168 0 274 -49t155.5 -142t49.5 -223q0 -200 -118 -314.5t-347 -114.5h-378zM340 144h204q152 0 229.5 71t77.5 213q0 96 -36 156t-107 87.5t-178 27.5h-190v-555z" />
    <glyph glyph-name="uni042D" unicode="&#x42d;" horiz-adv-x="1103" 
d="M394 1337q-79 0 -147.5 -20t-126.5 -50l-64 138q74 39 161 59t183 20q144 1 253.5 -52t184 -151t112.5 -234.5t37 -303.5q0 -225 -65 -397t-197 -269t-333 -97q-98 0 -174.5 14t-140.5 42v147q67 -23 140.5 -39.5t155.5 -16.5q110 0 191.5 41t136 116t83 178t31.5 227
h-583v147h580q-7 107 -37 198t-83 159t-127.5 106t-170.5 38z" />
    <glyph glyph-name="uni042E" unicode="&#x42e;" horiz-adv-x="1810" 
d="M1695 733q0 -162 -31.5 -299.5t-97 -239.5t-166 -158t-237.5 -56q-170 0 -287.5 84.5t-180 243.5t-69.5 382h-286v-690h-164v1462h164v-624h289q12 205 75 349.5t177.5 220.5t279.5 76q175 0 294 -90t179.5 -258.5t60.5 -402.5zM796 735q0 -193 40 -329t120 -208t202 -72
q126 0 206.5 71.5t119.5 207t39 328.5q0 195 -39 329.5t-119 204.5t-203 70q-124 0 -205 -70.5t-121 -205.5t-40 -326z" />
    <glyph glyph-name="uni042F" unicode="&#x42f;" horiz-adv-x="1114" 
d="M547 614l-321 -614h-187l351 647q-79 26 -138.5 77.5t-93 132t-33.5 189.5q0 206 120 311t357 105h338v-1462h-164v613zM775 1321h-164q-106 0 -176 -29t-105 -91t-35 -160q0 -144 75 -216t230 -72h175v568z" />
    <glyph glyph-name="uni0430" unicode="&#x430;" horiz-adv-x="990" 
d="M507 1116q174 0 254 -92.5t80 -280.5v-743h-119l-28 159h-6q-36 -58 -79 -98t-98.5 -60.5t-133.5 -20.5q-92 0 -158 40t-101 112.5t-35 169.5q0 163 112 252t331 97l157 8v71q0 137 -48.5 196t-143.5 59q-66 0 -130.5 -20.5t-128.5 -54.5l-50 121q68 39 151 62t174 23z
M683 544l-134 -7q-161 -7 -231 -66t-70 -168q0 -99 47 -146t126 -47q119 0 190.5 84.5t71.5 243.5v106z" />
    <glyph glyph-name="uni0431" unicode="&#x431;" horiz-adv-x="1065" 
d="M107 679q0 207 34.5 364.5t114 263.5t213.5 155q96 36 212.5 62.5t248.5 42.5l23 -143q-55 -6 -115.5 -15.5t-120 -20.5t-111.5 -25t-90 -29q-80 -33 -131.5 -96.5t-78 -161t-32.5 -233.5h11q27 47 71.5 87t103.5 64.5t129 24.5q123 0 206.5 -60t126.5 -171.5t43 -267.5
q0 -174 -52 -295t-149.5 -183t-233.5 -62q-102 0 -181 44t-133 131.5t-81.5 218.5t-27.5 305zM539 116q83 0 141 41.5t89 128.5t31 221q0 181 -58.5 279t-183.5 98q-70 0 -128 -34.5t-99 -84.5t-60 -97q0 -120 13.5 -221t44.5 -175.5t82 -115t128 -40.5z" />
    <glyph glyph-name="uni0432" unicode="&#x432;" horiz-adv-x="1014" 
d="M895 825q0 -100 -49.5 -160t-138.5 -81v-8q97 -15 159 -78t62 -176q0 -98 -41.5 -170.5t-126 -112t-215.5 -39.5h-390v1097h380q111 0 191.5 -28.5t124.5 -88.5t44 -155zM764 328q0 97 -59.5 139.5t-172.5 42.5h-217v-380h216q116 0 174.5 46.5t58.5 151.5zM733 809
q0 77 -49.5 117t-157.5 40h-211v-326h205q108 0 160.5 41t52.5 128z" />
    <glyph glyph-name="uni0433" unicode="&#x433;" horiz-adv-x="763" 
d="M732 1097v-138h-417v-959h-160v1097h577z" />
    <glyph glyph-name="uni0434" unicode="&#x434;" horiz-adv-x="1032" 
d="M857 1097v-959h134v-517h-155v379h-655v-379h-154v517h86q76 134 125 291t74.5 327.5t28.5 340.5h516zM700 964h-217q-7 -138 -31.5 -285t-68 -286.5t-105.5 -254.5h422v826z" />
    <glyph glyph-name="uni0435" unicode="&#x435;" horiz-adv-x="999" 
d="M517 1116q126 0 212 -63.5t130.5 -174t44.5 -252.5v-106h-640q2 -199 79.5 -301t223.5 -102q82 0 150.5 18.5t141.5 56.5v-142q-70 -36 -141.5 -53t-162.5 -17q-147 0 -248.5 69t-153 195.5t-51.5 297.5q0 180 49 309t142 197t224 68zM516 985q-110 0 -174 -85.5
t-76 -251.5h479q-1 95 -25.5 171.5t-74.5 121t-129 44.5z" />
    <glyph glyph-name="uni0436" unicode="&#x436;" horiz-adv-x="1313" 
d="M1275 1097l-379 -526l412 -571h-183l-392 563v-563h-153v563l-392 -563h-182l412 571l-379 526h175l366 -526v526h153v-526l368 526h174z" />
    <glyph glyph-name="uni0437" unicode="&#x437;" horiz-adv-x="849" 
d="M383 1117q106 0 182.5 -33.5t118 -96.5t41.5 -153q0 -94 -48.5 -157.5t-129.5 -88.5v-8q63 -17 111 -52.5t75 -90.5t27 -132q0 -94 -44 -167.5t-130.5 -115.5t-215.5 -42q-64 0 -120.5 8.5t-104 24.5t-85.5 39v149q59 -36 136 -61t166 -25q71 0 124.5 21.5t83.5 65.5
t30 113q0 62 -28.5 105.5t-85 66.5t-142.5 23h-106v130h91q110 0 175 44.5t65 136.5q0 81 -52 121.5t-147 40.5q-65 0 -120.5 -15.5t-116.5 -46.5l-60 125q73 36 150 53.5t160 17.5z" />
    <glyph glyph-name="uni0438" unicode="&#x438;" horiz-adv-x="1128" 
d="M309 1097v-663q0 -25 -0.5 -55.5t-2.5 -62.5t-3.5 -63.5t-3.5 -58.5l483 903h190v-1097h-152v646q0 37 1 83.5t3 92.5t3 81l-483 -903h-189v1097h154z" />
    <glyph glyph-name="uni0439" unicode="&#x439;" horiz-adv-x="1128" 
d="M309 1097v-663q0 -25 -0.5 -55.5t-2.5 -62.5t-3.5 -63.5t-3.5 -58.5l483 903h190v-1097h-152v646q0 37 1 83.5t3 92.5t3 81l-483 -903h-189v1097h154zM907 1545q-8 -101 -46.5 -168.5t-109.5 -102t-178 -34.5q-110 0 -180.5 33t-106 100.5t-41.5 171.5h143
q10 -110 52.5 -154t133.5 -44q87 0 133 46t56 152h144z" />
    <glyph glyph-name="uni043A" unicode="&#x43a;" horiz-adv-x="923" 
d="M701 1097h176l-395 -523l426 -574h-184l-409 563v-563h-160v1097h160v-525z" />
    <glyph glyph-name="uni043B" unicode="&#x43b;" horiz-adv-x="1017" 
d="M862 0h-161v958h-272q-16 -253 -40 -436.5t-62.5 -302t-96.5 -175t-141 -56.5q-24 0 -45 3t-38 10v129q11 -4 24 -6t27 -2q40 0 71.5 38t56.5 115t44 193.5t33 273.5t24 355h576v-1097z" />
    <glyph glyph-name="uni043C" unicode="&#x43c;" horiz-adv-x="1323" 
d="M1172 1097v-1097h-149v660q0 46 3 105.5t8 130.5h-7l-297 -896h-139l-290 896h-8q4 -65 6.5 -126.5t2.5 -110.5v-659h-148v1097h221l287 -888l290 888h220z" />
    <glyph glyph-name="uni043D" unicode="&#x43d;" horiz-adv-x="1114" 
d="M315 1097v-460h484v460h160v-1097h-160v500h-484v-500h-160v1097h160z" />
    <glyph glyph-name="uni043E" unicode="&#x43e;" horiz-adv-x="1067" 
d="M968 550q0 -132 -28.5 -237.5t-84 -179.5t-137 -113.5t-187.5 -39.5q-100 0 -179.5 39.5t-135.5 113t-85.5 179.5t-29.5 238q0 181 50 307.5t147 193t238 66.5q134 0 230.5 -65.5t149 -192t52.5 -309.5zM265 550q0 -137 28.5 -234t88.5 -148t153 -51t152.5 50.5t88 147
t28.5 235.5q0 137 -28.5 233t-88 146.5t-153.5 50.5q-140 0 -204.5 -111t-64.5 -319z" />
    <glyph glyph-name="uni043F" unicode="&#x43f;" horiz-adv-x="1101" 
d="M946 1097v-1097h-161v959h-470v-959h-160v1097h791z" />
    <glyph glyph-name="uni0440" unicode="&#x440;" horiz-adv-x="1095" 
d="M611 1117q181 0 283 -141t102 -425q0 -185 -46.5 -312t-132 -193t-204.5 -66q-72 0 -129 22.5t-99 61.5t-70 89h-9q2 -40 5.5 -86t3.5 -83v-474h-160v1587h131l20 -161h9q30 55 71 96t97 63t128 22zM580 981q-92 0 -150 -44t-86 -132t-29 -221v-43q0 -140 27 -234.5
t86 -142t154 -47.5q83 0 138.5 50.5t83.5 147.5t28 236q0 206 -60.5 318t-191.5 112z" />
    <glyph glyph-name="uni0441" unicode="&#x441;" horiz-adv-x="842" 
d="M533 -20q-135 0 -231.5 62t-148 187t-51.5 313q0 190 53.5 317.5t153 192.5t235.5 65q72 0 135 -14.5t109 -39.5l-50 -133q-43 20 -94 33t-97 13q-93 0 -155.5 -49t-94 -145t-31.5 -238q0 -137 30.5 -231.5t91.5 -143.5t153 -49q65 0 123 15.5t109 39.5v-139
q-48 -27 -109.5 -41.5t-130.5 -14.5z" />
    <glyph glyph-name="uni0442" unicode="&#x442;" horiz-adv-x="789" 
d="M758 960h-285v-960h-158v960h-284v137h727v-137z" />
    <glyph glyph-name="uni0443" unicode="&#x443;" horiz-adv-x="886" 
d="M7 1097h169l198 -639q15 -49 28.5 -94.5t24 -89t17.5 -85.5h7q11 54 30 124.5t42 145.5l190 638h169l-402 -1265q-33 -106 -78 -178.5t-107 -109t-149 -36.5q-36 0 -66 5t-56 12v135q20 -6 46 -10t53 -4q50 0 86 21.5t63 66.5t49 115l50 154z" />
    <glyph glyph-name="uni0444" unicode="&#x444;" horiz-adv-x="1288" 
d="M722 1556v-444q150 -13 253.5 -87t158 -196t54.5 -280q0 -157 -53 -279.5t-156.5 -196.5t-256.5 -88v-477h-156v477q-143 11 -247.5 81.5t-161 192.5t-56.5 291q0 161 53 283t156.5 194.5t257.5 84.5v444h154zM568 977q-101 -9 -168 -62.5t-101 -145.5t-34 -219
q0 -120 32.5 -213.5t99.5 -150t171 -67.5v858zM722 976v-857q105 11 172 69.5t99 151.5t32 209q0 190 -77.5 300.5t-225.5 126.5z" />
    <glyph glyph-name="uni0445" unicode="&#x445;" horiz-adv-x="912" 
d="M363 564l-311 533h177l229 -414l229 414h176l-312 -537l327 -560h-176l-246 440l-247 -440h-174z" />
    <glyph glyph-name="uni0446" unicode="&#x446;" horiz-adv-x="1120" 
d="M1081 -379h-157v379h-769v1097h160v-959h472v959h159v-960h135v-516z" />
    <glyph glyph-name="uni0447" unicode="&#x447;" horiz-adv-x="1079" 
d="M292 1097v-414q0 -95 45 -139.5t129 -44.5q85 0 158 32t142 85v481h159v-1097h-159v483q-75 -57 -154.5 -88.5t-178.5 -31.5q-147 0 -223.5 82.5t-76.5 236.5v415h159z" />
    <glyph glyph-name="uni0448" unicode="&#x448;" horiz-adv-x="1557" 
d="M1401 1097v-1097h-1246v1097h160v-959h383v959h159v-959h385v959h159z" />
    <glyph glyph-name="uni0449" unicode="&#x449;" horiz-adv-x="1576" 
d="M1401 1097v-960h136v-515h-159v378h-1223v1097h160v-959h383v959h159v-959h385v959h159z" />
    <glyph glyph-name="uni044A" unicode="&#x44a;" horiz-adv-x="1178" 
d="M479 1097v-455h216q132 0 220 -35.5t131.5 -105t43.5 -172.5q0 -104 -43 -177.5t-130 -112.5t-220 -39h-378v958h-290v139h450zM693 510h-214v-380h215q114 0 175.5 46.5t61.5 144.5q0 99 -59 144t-179 45z" />
    <glyph glyph-name="uni044B" unicode="&#x44b;" horiz-adv-x="1387" 
d="M155 0v1097h160v-455h208q129 0 213.5 -35.5t127 -105t42.5 -172.5q0 -104 -42 -177.5t-127.5 -112.5t-215.5 -39h-366zM315 130h196q112 0 174 46.5t62 144.5q0 100 -59 145t-174 45h-199v-381zM1073 0v1097h159v-1097h-159z" />
    <glyph glyph-name="uni044C" unicode="&#x44c;" horiz-adv-x="1020" 
d="M315 642h226q129 0 215 -35.5t129.5 -105t43.5 -172.5q0 -104 -43 -177.5t-129.5 -112.5t-217.5 -39h-384v1097h160v-455zM768 321q0 100 -60 145t-175 45h-218v-381h218q110 0 172.5 46.5t62.5 144.5z" />
    <glyph glyph-name="uni044D" unicode="&#x44d;" horiz-adv-x="875" 
d="M309 -20q-75 0 -136.5 15t-110.5 41v139q55 -25 114.5 -41t127.5 -16q94 0 160 41.5t103 126.5t43 214h-424v131h422q-12 176 -82 262t-203 86q-49 0 -106 -14.5t-98 -33.5l-48 130q54 26 120 41t134 15q140 0 240.5 -61.5t155.5 -186.5t55 -317q0 -189 -56 -316.5
t-160.5 -191.5t-250.5 -64z" />
    <glyph glyph-name="uni044E" unicode="&#x44e;" horiz-adv-x="1477" 
d="M1376 550q0 -182 -49 -309.5t-141.5 -194t-223.5 -66.5q-124 0 -212.5 59t-138 175t-57.5 286h-239v-500h-160v1097h160v-460h240q12 155 63 262t139 162.5t209 55.5q128 0 220 -66.5t141 -193t49 -307.5zM715 550q0 -141 26.5 -238t81.5 -146.5t141 -49.5t141 49t81 146
t26 239q0 140 -26 236t-80.5 145t-141.5 49t-142 -49t-81 -144.5t-26 -236.5z" />
    <glyph glyph-name="uni044F" unicode="&#x44f;" horiz-adv-x="989" 
d="M216 0h-181l294 469q-71 16 -125.5 54.5t-85.5 101.5t-31 151q0 155 99 238t268 83h380v-1097h-159v449h-192zM246 775q0 -97 61 -145.5t178 -48.5h190v385h-203q-116 0 -171 -51.5t-55 -139.5z" />
    <glyph glyph-name="uni0450" unicode="&#x450;" horiz-adv-x="999" 
d="M517 1116q126 0 212 -63.5t130.5 -174t44.5 -252.5v-106h-640q2 -199 79.5 -301t223.5 -102q82 0 150.5 18.5t141.5 56.5v-142q-70 -36 -141.5 -53t-162.5 -17q-147 0 -248.5 69t-153 195.5t-51.5 297.5q0 180 49 309t142 197t224 68zM516 985q-110 0 -174 -85.5
t-76 -251.5h479q-1 95 -25.5 171.5t-74.5 121t-129 44.5zM428 1569q24 -47 58 -103.5t71 -109.5t69 -91v-24h-106q-34 28 -74.5 67.5t-81 83.5t-74 85t-53.5 73v19h191z" />
    <glyph glyph-name="uni0451" unicode="&#x451;" horiz-adv-x="999" 
d="M517 1116q126 0 212 -63.5t130.5 -174t44.5 -252.5v-106h-640q2 -199 79.5 -301t223.5 -102q82 0 150.5 18.5t141.5 56.5v-142q-70 -36 -141.5 -53t-162.5 -17q-147 0 -248.5 69t-153 195.5t-51.5 297.5q0 180 49 309t142 197t224 68zM516 985q-110 0 -174 -85.5
t-76 -251.5h479q-1 95 -25.5 171.5t-74.5 121t-129 44.5zM242 1381q0 50 25 73.5t62 23.5t62 -24t25 -73q0 -50 -25 -75t-62 -25t-62 25t-25 75zM598 1381q0 50 25.5 73.5t61.5 23.5q37 0 62.5 -24t25.5 -73q0 -50 -25.5 -75t-62.5 -25t-62 25t-25 75z" />
    <glyph glyph-name="uni0452" unicode="&#x452;" horiz-adv-x="1091" 
d="M697 -492q-35 0 -65 6.5t-52 15.5v137q24 -9 46.5 -14t46.5 -5q51 0 80.5 40t29.5 132v866q0 139 -48.5 203t-150.5 64q-94 0 -153.5 -43.5t-87 -132.5t-27.5 -226v-551h-160v1246h-138v123h138v187h160v-187h321v-123h-321v-181q0 -38 -2.5 -75.5t-6.5 -73.5h10
q27 55 71 94.5t101 61t122 21.5q112 0 185.5 -42t110 -127.5t36.5 -216.5v-883q0 -102 -28 -172.5t-82.5 -107t-135.5 -36.5z" />
    <glyph glyph-name="uni0453" unicode="&#x453;" horiz-adv-x="763" 
d="M732 1097v-138h-417v-959h-160v1097h577zM749 1569v-19q-20 -31 -53.5 -72t-74 -85t-81.5 -83.5t-74 -68.5h-105v24q36 46 72 99t68 106t56 99h192z" />
    <glyph glyph-name="uni0454" unicode="&#x454;" horiz-adv-x="875" 
d="M550 -20q-140 0 -240.5 62.5t-154 187.5t-53.5 313q0 192 55 319.5t157.5 191t242.5 63.5q70 0 135.5 -14t118.5 -40l-48 -131q-44 20 -99 33.5t-105 13.5q-90 0 -152 -38.5t-96.5 -116t-43.5 -193.5h423v-131h-424q5 -126 38 -211.5t96 -128t156 -42.5q69 0 129 16
t114 41v-139q-48 -26 -113.5 -41t-135.5 -15z" />
    <glyph glyph-name="uni0455" unicode="&#x455;" horiz-adv-x="832" 
d="M753 295q0 -102 -44 -172.5t-127 -106.5t-200 -36q-95 0 -168.5 18t-127.5 47v157q56 -35 135 -60t161 -25q109 0 162 45t53 124q0 46 -21.5 80.5t-70 66.5t-132.5 69q-86 41 -150.5 83t-100 100t-35.5 145q0 134 98 210.5t258 76.5q84 0 158 -18.5t139 -52.5l-57 -128
q-55 29 -117 47.5t-127 18.5q-94 0 -146 -39.5t-52 -107.5q0 -48 22.5 -81t73.5 -63t135 -69q85 -41 148.5 -83.5t98 -100t34.5 -145.5z" />
    <glyph glyph-name="uni0456" unicode="&#x456;" horiz-adv-x="471" 
d="M315 1097v-1097h-159v1097h159zM238 1508q44 0 69.5 -28t25.5 -83q0 -53 -26.5 -81.5t-68.5 -28.5q-43 0 -70 28.5t-27 81.5q0 56 26.5 83.5t70.5 27.5z" />
    <glyph glyph-name="uni0457" unicode="&#x457;" horiz-adv-x="470" 
d="M315 0h-160v1097h160v-1097zM-30 1382q0 50 25 73.5t62 23.5t62 -24t25 -73q0 -50 -25 -75t-62 -25t-62 25t-25 75zM326 1382q0 50 25.5 73.5t61.5 23.5q37 0 62.5 -24t25.5 -73q0 -50 -25.5 -75t-62.5 -25t-62 25t-25 75z" />
    <glyph glyph-name="uni0458" unicode="&#x458;" horiz-adv-x="471" 
d="M58 -492q-40 0 -71 6.5t-55 15.5v136q24 -9 49.5 -14t53.5 -5q58 0 89 40t31 136v1274h160v-1272q0 -104 -28.5 -174.5t-85.5 -106t-143 -36.5zM141 1397q0 56 26.5 83.5t70.5 27.5q43 0 69 -28t26 -83q0 -53 -26.5 -81.5t-68.5 -28.5q-43 0 -70 28.5t-27 81.5z" />
    <glyph glyph-name="uni0459" unicode="&#x459;" horiz-adv-x="1481" 
d="M816 1097v-455h191q129 0 214.5 -35.5t128 -105t42.5 -172.5q0 -104 -43 -177.5t-129.5 -112.5t-219.5 -39h-343v957h-229q-15 -253 -39 -436.5t-62 -301.5t-95.5 -174.5t-141.5 -56.5q-25 0 -46 3t-38 10v128q10 -3 23 -5.5t27 -2.5q40 0 71.5 37t56.5 113t44.5 192.5
t33.5 274.5t24 359h530zM992 510h-176v-380h176q113 0 175.5 46.5t62.5 144.5q0 99 -59.5 144t-178.5 45z" />
    <glyph glyph-name="uni045A" unicode="&#x45a;" horiz-adv-x="1571" 
d="M905 1097v-456h189q131 0 216.5 -35.5t128 -104.5t42.5 -172q0 -104 -42.5 -177.5t-128.5 -112.5t-219 -39h-347v502h-427v-502h-162v1097h162v-458h429v458h159zM1082 510h-179v-380h179q113 0 175.5 46.5t62.5 144.5q0 99 -59.5 144t-178.5 45z" />
    <glyph glyph-name="uni045B" unicode="&#x45b;" horiz-adv-x="1091" 
d="M316 1556v-187h339v-124h-339v-180q0 -39 -2.5 -76.5t-7.5 -72.5h11q27 55 70.5 94.5t101 61t122.5 21.5q111 0 184.5 -42.5t110 -128t36.5 -216.5v-706h-159v685q0 139 -48.5 203.5t-151.5 64.5q-95 0 -154.5 -43.5t-86.5 -132.5t-27 -226v-551h-159v1245h-138v124h138
v187h160z" />
    <glyph glyph-name="uni045C" unicode="&#x45c;" horiz-adv-x="923" 
d="M701 1097h176l-395 -523l426 -574h-184l-409 563v-563h-160v1097h160v-525zM787 1569v-19q-20 -31 -53.5 -72t-74 -85t-81.5 -83.5t-74 -68.5h-105v24q36 46 72 99t68 106t56 99h192z" />
    <glyph glyph-name="uni045D" unicode="&#x45d;" horiz-adv-x="1128" 
d="M309 1097v-663q0 -25 -0.5 -55.5t-2.5 -62.5t-3.5 -63.5t-3.5 -58.5l483 903h190v-1097h-152v646q0 37 1 83.5t3 92.5t3 81l-483 -903h-189v1097h154zM480 1569q24 -47 58 -103.5t71 -109.5t69 -91v-24h-106q-34 28 -74.5 67.5t-81 83.5t-74 85t-53.5 73v19h191z" />
    <glyph glyph-name="uni045E" unicode="&#x45e;" horiz-adv-x="886" 
d="M7 1097h169l198 -639q15 -49 28.5 -94.5t24 -89t17.5 -85.5h7q11 54 30 124.5t42 145.5l190 638h169l-402 -1265q-33 -106 -78 -178.5t-107 -109t-149 -36.5q-36 0 -66 5t-56 12v135q20 -6 46 -10t53 -4q50 0 86 21.5t63 66.5t49 115l50 154zM779 1545
q-8 -101 -46.5 -168.5t-109.5 -102t-178 -34.5q-110 0 -180.5 33t-106 100.5t-41.5 171.5h143q10 -110 52.5 -154t133.5 -44q87 0 133 46t56 152h144z" />
    <glyph glyph-name="uni045F" unicode="&#x45f;" horiz-adv-x="1103" 
d="M475 0h-320v1097h160v-959h472v959h160v-1097h-316v-378h-156v378z" />
    <glyph glyph-name="uni0460" unicode="&#x460;" horiz-adv-x="1637" 
d="M418 -5q-78 164 -143 343t-114 366.5t-79.5 378.5t-39.5 379h170q8 -167 33 -336t63 -332t84.5 -312t95.5 -276h7q13 56 34 128.5t46 144.5l169 510q-12 78 -21.5 158.5t-15.5 160t-7 154.5h168q4 -163 27.5 -331t62.5 -331.5t89 -315.5t107 -284h6q81 182 139 385.5
t91 425t41 451.5h169q-11 -254 -55 -507.5t-124 -496t-200 -463.5h-133q-43 84 -84 176.5t-77.5 189t-67 191.5t-52.5 183l-239 -740h-150z" />
    <glyph glyph-name="uni0461" unicode="&#x461;" horiz-adv-x="1449" 
d="M1390 1098q-7 -194 -47.5 -383t-111 -368.5t-169.5 -346.5h-147q-37 74 -74 160.5t-69 176t-54 170.5l-219 -507h-144q-62 117 -115.5 248t-93.5 272t-64.5 287t-30.5 291h156q8 -171 40.5 -342.5t81 -324t102.5 -269.5h6q13 37 29.5 76t34 78t32.5 75l132 292
q-22 105 -33.5 209.5t-15.5 205.5h155q5 -157 34 -323t76.5 -324.5t104.5 -292.5h7q66 120 118.5 271t85 321.5t38.5 347.5h155z" />
    <glyph glyph-name="uni0462" unicode="&#x462;" horiz-adv-x="1170" 
d="M267 0v1128h-253v134h253v247h165v-247h341v-134h-341v-288h163q174 0 280.5 -48.5t156 -141t49.5 -222.5q0 -198 -115 -313t-353 -115h-346zM432 143h169q159 0 235 71t76 212q0 96 -34.5 155t-106.5 86.5t-185 27.5h-154v-552z" />
    <glyph glyph-name="uni0463" unicode="&#x463;" horiz-adv-x="1078" 
d="M374 1323v-226h271v-129h-271v-327h219q197 0 296 -79.5t99 -232.5q0 -104 -43.5 -177.5t-131 -112.5t-220.5 -39h-378v968h-199v129h199v226h159zM586 510h-212v-380h211q114 0 178 46.5t64 144.5q0 99 -61 144t-180 45z" />
    <glyph glyph-name="uni0464" unicode="&#x464;" horiz-adv-x="1608" 
d="M1197 -20q-189 0 -313.5 91.5t-188 251.5t-70.5 365h-285v-688h-164v1462h164v-627h290q11 142 53.5 260.5t116 205.5t178 135t240.5 48q94 0 179 -22.5t156 -63.5l-61 -140q-62 35 -129.5 57t-146.5 22q-95 0 -168.5 -37t-125.5 -104.5t-82.5 -159t-40.5 -201.5h571
v-146h-575q4 -122 31.5 -224.5t79.5 -178.5t130 -117.5t182 -41.5q80 0 151 17t138 45v-148q-65 -30 -139.5 -45.5t-170.5 -15.5z" />
    <glyph glyph-name="uni0465" unicode="&#x465;" horiz-adv-x="1324" 
d="M1003 -20q-135 0 -231.5 57.5t-150.5 173t-62 288.5h-244v-499h-160v1097h160v-465h246q13 160 70.5 268t153.5 162.5t224 54.5q70 0 134.5 -14.5t115.5 -39.5l-48 -131q-43 20 -96 33.5t-103 13.5q-90 0 -151.5 -38.5t-95.5 -115.5t-43 -193h418v-133h-419
q5 -126 38.5 -211t96 -127.5t153.5 -42.5q69 0 127 16t111 41v-139q-46 -26 -109 -41t-135 -15z" />
    <glyph glyph-name="uni0466" unicode="&#x466;" horiz-adv-x="1207" 
d="M690 1462l515 -1462h-174l-232 678h-121v-678h-153v678h-124l-231 -678h-172l514 1462h178zM600 1306q-5 -22 -11.5 -48.5t-15 -54.5t-18 -55.5t-18.5 -51.5l-87 -275h301l-92 284q-8 23 -16 47.5t-15.5 49.5t-14.5 51t-13 53z" />
    <glyph glyph-name="uni0467" unicode="&#x467;" horiz-adv-x="1012" 
d="M601 1097l401 -1097h-161l-172 485h-92v-485h-145v485h-94l-169 -485h-162l402 1097h192zM509 977h-8q-6 -24 -13 -47.5t-15 -47.5t-18 -50l-70 -215h238l-69 212q-10 30 -18.5 56.5t-15 50t-11.5 41.5z" />
    <glyph glyph-name="uni0468" unicode="&#x468;" horiz-adv-x="1670" 
d="M1162 1462l515 -1462h-177l-231 681h-119v-681h-152v681h-123l-231 -681h-174l240 688h-370v-688h-164v1462h164v-626h424l219 626h179zM1070 1306q-5 -26 -11.5 -51t-13.5 -50t-16 -51t-19 -53l-87 -277h295l-89 283q-9 25 -17 49.5t-15.5 49t-14 49.5t-12.5 51z" />
    <glyph glyph-name="uni0469" unicode="&#x469;" horiz-adv-x="1409" 
d="M1000 1097l401 -1097h-161l-173 488h-91v-488h-144v488h-93l-172 -488h-161l183 498h-276v-498h-158v1097h158v-462h328l169 462h190zM907 977h-7q-7 -26 -16 -58t-19.5 -66t-24.5 -69l-56 -163h237l-58 170q-10 30 -21.5 65.5t-20.5 68t-14 52.5z" />
    <glyph glyph-name="uni046A" unicode="&#x46a;" horiz-adv-x="1300" 
d="M1158 1462v-115l-356 -513q111 -8 178 -53.5t108 -126t71 -195.5l124 -459h-172l-117 451q-25 96 -53.5 151t-77 78.5t-133.5 24.5v-705h-162v705q-86 -1 -133 -25t-74.5 -79t-52.5 -150l-117 -451h-175l124 459q23 87 49.5 154t65.5 113.5t96.5 74t141.5 33.5l-352 513
v115h1017zM960 1318h-620l309 -465z" />
    <glyph glyph-name="uni046B" unicode="&#x46b;" horiz-adv-x="1162" 
d="M1021 1097v-95l-290 -368q97 -10 152.5 -48.5t88.5 -102t61 -148.5l114 -335h-163l-108 338q-23 69 -48 108.5t-65 55.5t-109 16v-518h-148v517q-70 0 -110 -16.5t-63.5 -55.5t-46.5 -106l-111 -339h-162l113 335q28 85 61 148.5t89 102t152 48.5l-292 368v95h885z
M829 968h-499l249 -323z" />
    <glyph glyph-name="uni046C" unicode="&#x46c;" horiz-adv-x="1781" 
d="M1645 1462v-115l-355 -521q114 -8 181 -55t106.5 -128t69.5 -191l124 -452h-168l-119 444q-26 97 -55.5 151.5t-78 77t-132.5 23.5v-696h-162v696q-82 -1 -130.5 -23t-77 -76.5t-55.5 -152.5l-116 -444h-172l124 447q25 87 52.5 147.5t63.5 97.5h-405v-692h-164v1462h164
v-622h632l-343 507l-1 115h1017zM1446 1318h-619l310 -472z" />
    <glyph glyph-name="uni046D" unicode="&#x46d;" horiz-adv-x="1571" 
d="M1434 1097v-95l-291 -376q96 -10 152 -47t89 -99.5t61 -147.5l114 -332h-162l-110 335q-22 68 -47 106t-64.5 54t-109.5 16v-511h-146v510q-70 0 -110 -16.5t-63.5 -54.5t-46.5 -104l-113 -335h-160l113 335q19 55 40 98.5t45 69.5h-312v-503h-158v1097h158v-458h521
l-286 363v95h886zM1241 968h-499l250 -324z" />
    <glyph glyph-name="uni046E" unicode="&#x46e;" horiz-adv-x="1030" 
d="M728 1745q26 0 46 -4t36 -9v-109q-10 5 -25 8t-30 3q-43 0 -87 -46.5t-83 -113.5q147 -26 226 -119.5t79 -231.5q0 -145 -81 -236t-220 -120v-7q160 -22 244.5 -111.5t84.5 -239.5q0 -97 -30 -173.5t-90 -129.5t-148.5 -82t-205.5 -33q-84 -3 -132 -18.5t-67.5 -42.5
t-19.5 -65q0 -55 37.5 -86.5t125.5 -31.5q59 0 106 3.5t90 7t91 3.5q59 0 99.5 -8t66.5 -21v-151q-21 14 -63 25t-108 11q-48 0 -91 -3t-90 -6.5t-110 -3.5q-115 0 -186 33.5t-103.5 92.5t-32.5 136q0 85 39 143t120 89.5t207 35.5q167 7 246 74t79 206q0 144 -98 208.5
t-280 64.5h-158v144h156q117 0 195.5 32t118 93.5t39.5 150.5q0 114 -69 173.5t-186 59.5q-94 0 -168.5 -30.5t-137.5 -79.5l-81 116q62 49 133 82t157 46q-25 36 -58.5 81t-68 89t-62.5 73v23h114q42 -35 90.5 -88t96.5 -113q34 53 71.5 99.5t81 76.5t94.5 30z" />
    <glyph glyph-name="uni046F" unicode="&#x46f;" horiz-adv-x="850" 
d="M637 1355q24 0 45 -3.5t36 -9.5v-107q-11 5 -25.5 7.5t-28.5 2.5q-39 0 -81 -37.5t-82 -105.5q106 -25 165.5 -94.5t59.5 -173.5q0 -94 -49 -156t-132 -90v-8q66 -18 114.5 -53.5t75.5 -88t27 -126.5q0 -94 -42 -164t-128 -110t-218 -46q-77 -3 -119.5 -17t-59 -38
t-16.5 -59q0 -50 32.5 -74.5t109.5 -24.5q50 0 95.5 3t87.5 5.5t80 2.5q49 0 81 -7.5t52 -21.5v-139q-20 15 -56 23t-75 8q-36 0 -82 -2.5t-96.5 -5.5t-100.5 -3q-98 0 -159.5 30.5t-89.5 83.5t-28 121q0 73 33 127t102.5 85.5t178.5 35.5q83 5 140.5 26t87 63t29.5 108
q0 62 -29 104t-85.5 63t-138.5 21h-112v130h93q110 0 175.5 44.5t65.5 135.5q0 82 -52.5 122.5t-150.5 40.5q-64 0 -121.5 -15t-116.5 -46l-59 125q47 23 93 38.5t98 22.5q-23 38 -51.5 77t-58.5 76t-58 68v23h113q42 -37 88 -87.5t95 -110.5q34 53 72 99t81.5 74t94.5 28z
" />
    <glyph glyph-name="uni0470" unicode="&#x470;" horiz-adv-x="1456" 
d="M1334 1462v-475q0 -122 -27 -222t-88 -172t-162 -111.5t-250 -39.5v-442h-161v442q-148 0 -249 39t-161.5 110.5t-87 171t-26.5 219.5v480h164v-478q0 -125 34 -214t112.5 -135.5t213.5 -47.5v875h161v-875q130 1 209 42.5t115 128.5t36 224v480h167z" />
    <glyph glyph-name="uni0471" unicode="&#x471;" horiz-adv-x="1330" 
d="M748 1555v-1434q101 9 170.5 61t105 152t35.5 251q0 134 -16.5 256t-48.5 256h158q34 -138 50 -259.5t16 -251.5q0 -199 -58 -330t-163 -198t-249 -75v-474h-156v474q-139 5 -239.5 64t-154.5 179.5t-54 306.5v564h159v-562q0 -140 35.5 -229.5t100.5 -134t153 -51.5
v1435h156z" />
    <glyph glyph-name="uni0472" unicode="&#x472;" horiz-adv-x="1363" 
d="M1248 733q0 -163 -34 -300.5t-104 -239t-176.5 -157.5t-252.5 -56q-148 0 -255.5 57t-176.5 159t-102 240t-33 299q0 237 63.5 404.5t190 256t316.5 88.5q191 0 316 -96t186.5 -265.5t61.5 -389.5zM682 126q127 0 212.5 64t130.5 186.5t50 298.5h-787q5 -173 50 -296
t131 -188t213 -65zM684 1338q-125 0 -210 -60.5t-131.5 -176.5t-54.5 -283h785q-13 251 -108.5 385.5t-280.5 134.5z" />
    <glyph glyph-name="uni0473" unicode="&#x473;" horiz-adv-x="1075" 
d="M975 550q0 -181 -52.5 -308.5t-151 -194.5t-236.5 -67q-131 0 -229 67t-151.5 194.5t-53.5 308.5q0 276 115.5 421.5t323.5 145.5q139 0 236.5 -71.5t148 -199t50.5 -296.5zM538 116q88 0 147 43.5t90 129t35 211.5h-546q4 -123 35 -209t90 -130.5t149 -44.5zM537 980
q-130 0 -195.5 -89t-76.5 -261h545q-7 111 -38.5 189t-89.5 119.5t-145 41.5z" />
    <glyph glyph-name="uni0474" unicode="&#x474;" horiz-adv-x="1128" 
d="M1095 1334q-42 0 -70 -27.5t-49.5 -83t-46.5 -139.5l-300 -1084h-189l-440 1462h172l282 -955q19 -62 33 -118t25.5 -107.5t21.5 -103.5q6 36 14 74.5t17.5 78.5t19.5 81t21 81l166 614q38 138 74 218t87 115t133 36q31 0 59 -6t49 -14v-138q-20 7 -39.5 11.5t-39.5 4.5z
" />
    <glyph glyph-name="uni0475" unicode="&#x475;" horiz-adv-x="927" 
d="M875 1111q26 0 47 -4t38 -10v-129q-14 6 -31 9t-33 3q-31 -1 -52 -19t-38 -58.5t-37 -109.5l-229 -793h-194l-342 1097h165l209 -698q21 -72 37.5 -135.5t24.5 -114.5h7q8 49 22.5 117t34.5 139l117 409q33 115 64.5 179.5t76 91t113.5 26.5z" />
    <glyph glyph-name="uni0476" unicode="&#x476;" horiz-adv-x="1128" 
d="M1095 1334q-42 0 -70 -27.5t-49.5 -83t-46.5 -139.5l-300 -1084h-189l-440 1462h172l282 -955q19 -62 33 -118t25.5 -107.5t21.5 -103.5q6 36 14 74.5t17.5 78.5t19.5 81t21 81l166 614q38 138 74 218t87 115t133 36q31 0 59 -6t49 -14v-138q-20 7 -39.5 11.5t-39.5 4.5z
M625 1922q19 -42 49.5 -98.5t63.5 -111.5t60 -94v-24h-84q-32 27 -70.5 67t-76 84.5t-67.5 86t-46 71.5v19h171zM303 1922q23 -50 51.5 -105t59.5 -106.5t60 -92.5v-24h-87q-32 28 -69.5 67.5t-74 84t-67 86t-47.5 71.5v19h174z" />
    <glyph glyph-name="uni0477" unicode="&#x477;" horiz-adv-x="927" 
d="M875 1111q26 0 47 -4t38 -10v-129q-14 6 -31 9t-33 3q-31 -1 -52 -19t-38 -58.5t-37 -109.5l-229 -793h-194l-342 1097h165l209 -698q21 -72 37.5 -135.5t24.5 -114.5h7q8 49 22.5 117t34.5 139l117 409q33 115 64.5 179.5t76 91t113.5 26.5zM535 1569q19 -42 49.5 -98.5
t63.5 -111.5t60 -94v-24h-84q-32 27 -70.5 67t-76 84.5t-67.5 86t-46 71.5v19h171zM213 1569q23 -50 51.5 -105t59.5 -106.5t60 -92.5v-24h-87q-32 28 -69.5 67.5t-74 84t-67 86t-47.5 71.5v19h174z" />
    <glyph glyph-name="uni0478" unicode="&#x478;" horiz-adv-x="2167" 
d="M1187 733q0 -163 -32.5 -300.5t-98 -239t-166.5 -157.5t-239 -56q-141 0 -243 57t-167 159t-96 240t-31 299q0 237 59.5 404.5t179.5 256t300 88.5q182 0 300 -96t176 -265.5t58 -389.5zM285 733q0 -192 40.5 -328t121.5 -207.5t204 -71.5q124 0 204 71t119 206.5
t39 329.5q0 195 -38.5 329.5t-118.5 204.5t-203 70q-125 0 -206.5 -71t-121.5 -205.5t-40 -327.5zM1286 1097h167l201 -641q16 -48 29 -93.5t23 -88.5t18 -85h7q10 54 29.5 124t42.5 144l189 640h166l-399 -1265q-34 -106 -79 -178.5t-107.5 -109t-148.5 -36.5
q-36 0 -66.5 5t-56.5 12v135q22 -6 47 -10t52 -4q51 0 87 21.5t63.5 66.5t49.5 115l49 154z" />
    <glyph glyph-name="uni0479" unicode="&#x479;" horiz-adv-x="1932" 
d="M968 550q0 -132 -28.5 -237.5t-84 -179.5t-137 -113.5t-187.5 -39.5q-100 0 -179.5 39.5t-135.5 113t-85.5 179.5t-29.5 238q0 181 50 307.5t147 193t238 66.5q134 0 230.5 -65.5t149 -192t52.5 -309.5zM265 550q0 -137 28.5 -234t88.5 -148t153 -51t152.5 50.5t88 147
t28.5 235.5q0 137 -28.5 233t-88 146.5t-153.5 50.5q-140 0 -204.5 -111t-64.5 -319zM1054 1097h169l198 -639q15 -49 28.5 -94.5t24 -89t17.5 -85.5h7q11 54 30 124.5t42 145.5l190 638h169l-402 -1265q-33 -106 -78 -178.5t-107 -109t-149 -36.5q-36 0 -66 5t-56 12v135
q20 -6 46 -10t53 -4q50 0 86 21.5t63 66.5t49 115l50 154z" />
    </font>
</defs>
</svg>
