<?xml version="1.0" standalone="no"?>
<!DOCTYPE svg PUBLIC "-//W3C//DTD SVG 1.1//EN" "http://www.w3.org/Graphics/SVG/1.1/DTD/svg11.dtd" >
<svg xmlns="http://www.w3.org/2000/svg" xmlns:xlink="http://www.w3.org/1999/xlink" version="1.1">
<metadata>
Created by FontForge 20170731 at Wed Feb 10 17:54:38 2021
 By Aleksey,,,
Copyright 2020 The Open Sans Project Authors (https://github.com/googlefonts/opensans)
</metadata>
<defs>
<font id="OpenSansSemiCondensed-SemiBold" horiz-adv-x="0" >
  <font-face 
    font-family="Open Sans SemiCondensed SemiBold"
    font-weight="600"
    font-stretch="semi-condensed"
    units-per-em="2048"
    panose-1="0 0 0 0 0 0 0 0 0 0"
    ascent="1638"
    descent="-410"
    x-height="1108"
    cap-height="1462"
    bbox="-1146 -583 2284 2168"
    underline-thickness="50"
    underline-position="-175"
    unicode-range="U+000D-FFFD"
  />
<missing-glyph horiz-adv-x="1229" 
 />
    <glyph glyph-name="f_f" unicode="ff" horiz-adv-x="1300" 
d="M628 931h-222v-931h-223v931h-157v113l157 67v66q0 137 35 223t106 126.5t179 40.5q64 0 116.5 -11t99.5 -29l-54 -170q-32 10 -65 17.5t-70 7.5q-66 0 -95 -48t-29 -154v-72h222v-177zM1278 931h-222v-931h-223v931h-157v113l157 67v66q0 137 35 223t106 126.5t179 40.5
q64 0 116.5 -11t99.5 -29l-54 -170q-32 10 -65 17.5t-70 7.5q-66 0 -95 -48t-29 -154v-72h222v-177z" />
    <glyph glyph-name="fi" unicode="fi" horiz-adv-x="1166" 
d="M628 931h-222v-931h-223v931h-157v113l157 67v66q0 137 35 223t106 126.5t179 40.5q64 0 116.5 -11t99.5 -29l-54 -170q-32 10 -65 17.5t-70 7.5q-66 0 -95 -48t-29 -154v-72h222v-177zM1020 1108v-1108h-223v1108h223zM910 1533q57 0 91 -31.5t34 -99.5q0 -66 -34.5 -98
t-90.5 -32q-57 0 -92 32t-35 98q0 69 34.5 100t92.5 31z" />
    <glyph glyph-name="fl" unicode="fl" horiz-adv-x="1164" 
d="M628 931h-222v-931h-223v931h-157v113l157 67v66q0 137 35 223t106 126.5t179 40.5q64 0 116.5 -11t99.5 -29l-54 -170q-32 10 -65 17.5t-70 7.5q-66 0 -95 -48t-29 -154v-72h222v-177zM1019 0h-223v1556h223v-1556z" />
    <glyph glyph-name="f_f_i" unicode="ffi" horiz-adv-x="1816" 
d="M628 931h-222v-931h-223v931h-157v113l157 67v66q0 137 35 223t106 126.5t179 40.5q64 0 116.5 -11t99.5 -29l-54 -170q-32 10 -65 17.5t-70 7.5q-66 0 -95 -48t-29 -154v-72h222v-177zM1278 931h-222v-931h-223v931h-157v113l157 67v66q0 137 35 223t106 126.5t179 40.5
q64 0 116.5 -11t99.5 -29l-54 -170q-32 10 -65 17.5t-70 7.5q-66 0 -95 -48t-29 -154v-72h222v-177zM1669 1108v-1108h-223v1108h223zM1559 1533q57 0 91 -31.5t34 -99.5q0 -66 -34.5 -98t-90.5 -32q-57 0 -92 32t-35 98q0 69 34.5 100t92.5 31z" />
    <glyph glyph-name="f_f_l" unicode="ffl" horiz-adv-x="1814" 
d="M628 931h-222v-931h-223v931h-157v113l157 67v66q0 137 35 223t106 126.5t179 40.5q64 0 116.5 -11t99.5 -29l-54 -170q-32 10 -65 17.5t-70 7.5q-66 0 -95 -48t-29 -154v-72h222v-177zM1278 931h-222v-931h-223v931h-157v113l157 67v66q0 137 35 223t106 126.5t179 40.5
q64 0 116.5 -11t99.5 -29l-54 -170q-32 10 -65 17.5t-70 7.5q-66 0 -95 -48t-29 -154v-72h222v-177zM1668 0h-223v1556h223v-1556z" />
    <glyph glyph-name=".notdef" horiz-adv-x="1229" 
 />
    <glyph glyph-name=".null" 
 />
    <glyph glyph-name="nonmarkingreturn" horiz-adv-x="682" 
 />
    <glyph glyph-name="NULL" 
 />
    <glyph glyph-name="NULL" 
 />
    <glyph glyph-name="CR" unicode="&#xd;" horiz-adv-x="453" 
 />
    <glyph glyph-name="space" unicode=" " horiz-adv-x="453" 
 />
    <glyph glyph-name="exclam" unicode="!" horiz-adv-x="531" 
d="M353 443h-173l-45 1019h261zM126 125q0 77 38 112.5t102 35.5q61 0 99.5 -35t38.5 -113q0 -76 -39.5 -112.5t-98.5 -36.5q-63 0 -101.5 37t-38.5 112z" />
    <glyph glyph-name="quotedbl" unicode="&#x22;" horiz-adv-x="862" 
d="M353 1462l-37 -528h-158l-37 528h232zM742 1462l-37 -528h-158l-38 528h233z" />
    <glyph glyph-name="numbersign" unicode="#" horiz-adv-x="1157" 
d="M878 884l-47 -296h226v-163h-252l-68 -425h-169l69 425h-216l-66 -425h-165l65 425h-211v163h237l48 296h-224v164h249l66 414h168l-66 -414h217l67 414h164l-66 -414h212v-164h-238zM448 588h216l48 296h-217z" />
    <glyph glyph-name="dollar" unicode="$" horiz-adv-x="1044" 
d="M461 -119v208q-106 3 -199 23t-163 52v205q70 -38 168.5 -67.5t193.5 -32.5v394q-128 47 -208.5 99t-118.5 121t-38 166q0 101 46 174.5t128.5 117t190.5 53.5v161h121v-158q94 -4 177.5 -24.5t159.5 -57.5l-63 -175q-65 30 -134.5 48t-139.5 24v-386q115 -42 198 -89
t127.5 -114t44.5 -169q0 -144 -95.5 -240t-274.5 -118v-215h-121zM582 278q84 15 125.5 57.5t41.5 105.5q0 42 -17.5 72.5t-54 55t-95.5 46.5v-337zM461 874v335q-52 -7 -88 -28t-54 -53.5t-18 -75.5q0 -45 16 -76t51.5 -55t92.5 -47z" />
    <glyph glyph-name="percent" unicode="%" horiz-adv-x="1614" 
d="M368 1483q143 0 219.5 -119.5t76.5 -337.5q0 -219 -74 -340t-222 -121q-140 0 -215.5 122t-75.5 339q0 219 72.5 338t218.5 119zM369 1325q-57 0 -83 -74.5t-26 -225.5t26.5 -226.5t83.5 -75.5t84.5 74.5t27.5 227.5q0 151 -28 225.5t-85 74.5zM1232 1462l-674 -1462
h-179l674 1462h179zM1242 899q142 0 218.5 -120t76.5 -337q0 -220 -74 -340t-221 -120q-141 0 -216 122t-75 338q0 221 72.5 339t218.5 118zM1242 741q-57 0 -83 -74.5t-26 -225.5q0 -152 26 -227t84 -75t84.5 76.5t26.5 225.5q0 147 -27.5 223.5t-84.5 76.5z" />
    <glyph glyph-name="ampersand" unicode="&#x26;" horiz-adv-x="1292" 
d="M545 1483q103 0 177 -37.5t115 -108.5t41 -171q0 -128 -67 -222.5t-178 -171.5l267 -319q36 59 59.5 132.5t38.5 156.5h231q-22 -116 -67.5 -237t-116.5 -219l247 -286h-281l-114 139q-54 -49 -114.5 -84.5t-131.5 -55t-158 -19.5q-133 0 -226.5 50t-142 141t-48.5 213
q0 96 30.5 170.5t89 135t145.5 114.5q-46 60 -77.5 115.5t-48 114.5t-16.5 128q0 99 43 171t121 111t182 39zM460 664q-50 -37 -84 -76t-51 -85t-17 -105q0 -101 57 -161.5t151 -60.5q80 0 141 31t111 85zM542 1309q-56 0 -94 -38t-38 -115q0 -62 27.5 -125t76.5 -122
q80 53 117.5 115t37.5 137q0 72 -36 110t-91 38z" />
    <glyph glyph-name="quotesingle" unicode="'" horiz-adv-x="473" 
d="M353 1462l-37 -528h-158l-37 528h232z" />
    <glyph glyph-name="parenleft" unicode="(" horiz-adv-x="632" 
d="M89 566q0 174 33.5 335.5t99 306t160.5 264.5h197q-138 -195 -208 -425.5t-70 -478.5q0 -161 32 -317t93.5 -301t150.5 -274h-195q-96 119 -161.5 259.5t-98.5 300t-33 330.5z" />
    <glyph glyph-name="parenright" unicode=")" horiz-adv-x="632" 
d="M543 567q0 -171 -33 -330.5t-98.5 -301t-162.5 -259.5h-195q90 130 152 275t93.5 301t31.5 317q0 166 -31.5 324t-93 304t-153.5 275h196q97 -120 162 -264.5t98.5 -306.5t33.5 -334z" />
    <glyph glyph-name="asterisk" unicode="*" horiz-adv-x="989" 
d="M601 1558l-37 -330l319 97l36 -202l-306 -30l209 -268l-181 -107l-149 294l-143 -294l-183 107l206 268l-304 29l38 203l316 -97l-35 330h214z" />
    <glyph glyph-name="plus" unicode="+" horiz-adv-x="1046" 
d="M611 810h353v-176h-353v-400h-177v400h-354v176h354v404h177v-404z" />
    <glyph glyph-name="comma" unicode="," horiz-adv-x="522" 
d="M389 245l13 -23q-18 -82 -43 -167.5t-54.5 -167.5t-62.5 -156h-170q20 81 39 172.5t33.5 180t22.5 161.5h222z" />
    <glyph glyph-name="hyphen" unicode="-" horiz-adv-x="626" 
d="M64 450v202h498v-202h-498z" />
    <glyph glyph-name="period" unicode="." horiz-adv-x="524" 
d="M123 125q0 77 38.5 112.5t101.5 35.5q61 0 100 -35t39 -113q0 -76 -39.5 -112.5t-99.5 -36.5q-61 0 -100.5 37t-39.5 112z" />
    <glyph glyph-name="slash" unicode="/" horiz-adv-x="794" 
d="M775 1467l-545 -1472h-207l547 1472h205z" />
    <glyph glyph-name="zero" unicode="0" horiz-adv-x="1044" 
d="M958 732q0 -175 -23.5 -313.5t-75 -236.5t-135.5 -150t-203 -52q-146 0 -242.5 81t-145 247.5t-48.5 423.5q0 244 44.5 411.5t141 254t250.5 86.5q148 0 245 -87t144.5 -254.5t47.5 -410.5zM312 732q0 -187 20 -310.5t66 -185t123 -61.5q76 0 122 61.5t66.5 185
t20.5 310.5q0 184 -20.5 307.5t-66 186.5t-122.5 63t-123 -62.5t-66 -186t-20 -308.5z" />
    <glyph glyph-name="one" unicode="1" horiz-adv-x="1044" 
d="M722 0h-226v935q0 46 1 92t2.5 90.5t4.5 87.5q-18 -21 -43 -46.5t-57 -55.5l-148 -131l-123 139l396 351h193v-1462z" />
    <glyph glyph-name="two" unicode="2" horiz-adv-x="1044" 
d="M948 0h-870v168l332 396q99 118 158.5 202t86.5 157t27 157q0 98 -52.5 152.5t-144.5 54.5q-78 0 -144 -32t-139 -99l-118 150q58 56 120 95.5t134.5 60.5t162.5 21q126 0 218 -48.5t141.5 -135.5t49.5 -202q0 -113 -36 -209t-107 -193t-175 -212l-236 -274v-10h592v-199
z" />
    <glyph glyph-name="three" unicode="3" horiz-adv-x="1044" 
d="M911 1124q0 -92 -34 -163t-96.5 -119t-147.5 -73v-7q154 -25 233.5 -114.5t79.5 -234.5q0 -128 -56 -225.5t-167.5 -152.5t-278.5 -55q-105 0 -193 16.5t-172 55.5v209q81 -44 170.5 -67.5t172.5 -23.5q151 0 218.5 68t67.5 185q0 80 -36 132.5t-110 78.5t-189 26h-102
v187h104q107 0 175.5 30.5t101.5 85.5t33 129q0 95 -54 147t-158 52q-59 0 -109 -14t-94 -38.5t-87 -55.5l-103 159q84 67 184.5 104t231.5 37q196 0 305.5 -96t109.5 -263z" />
    <glyph glyph-name="four" unicode="4" horiz-adv-x="1044" 
d="M1012 315h-174v-315h-223v315h-578v177l576 976h225v-965h174v-188zM615 503v414q0 32 1 70.5t2.5 77t3 70.5t2.5 52h-8q-17 -43 -37 -84.5t-42 -80.5l-300 -519h378z" />
    <glyph glyph-name="five" unicode="5" horiz-adv-x="1044" 
d="M530 915q125 0 218.5 -53t145 -151.5t51.5 -234.5q0 -153 -57.5 -264t-169.5 -171.5t-276 -60.5q-100 0 -185 18t-149 54v210q68 -40 155.5 -65t169.5 -25q90 0 153 35t95.5 100t32.5 155q0 127 -69.5 195t-210.5 68q-52 0 -109 -9.5t-103 -23.5l-90 63l49 707h675v-200
h-481l-28 -368q39 9 84 15t99 6z" />
    <glyph glyph-name="six" unicode="6" horiz-adv-x="1044" 
d="M89 622q0 142 17.5 271t58.5 236.5t111 186.5t173 122.5t245 43.5q45 0 94 -4.5t86 -14.5v-191q-37 10 -80 15.5t-87 5.5q-143 0 -229.5 -63.5t-127 -182t-46.5 -283.5h10q26 51 65 89.5t93.5 60t125.5 21.5q115 0 196.5 -56.5t125 -159.5t43.5 -243q0 -149 -50 -261
t-144.5 -173.5t-228.5 -61.5q-101 0 -184 41t-143 122t-92 201t-32 278zM536 172q93 0 148.5 74t55.5 227q0 132 -50 204t-150 72q-68 0 -118 -34t-77 -87.5t-27 -113.5q0 -59 13 -119t39.5 -110.5t68 -81.5t97.5 -31z" />
    <glyph glyph-name="seven" unicode="7" horiz-adv-x="1044" 
d="M222 0l505 1262h-656v200h892v-157l-500 -1305h-241z" />
    <glyph glyph-name="eight" unicode="8" horiz-adv-x="1044" 
d="M522 1483q120 0 210.5 -41t141.5 -118.5t51 -188.5q0 -85 -30 -151.5t-85.5 -119t-131.5 -94.5q83 -48 148 -104.5t102 -127t37 -161.5q0 -121 -54.5 -210t-153.5 -138t-232 -49q-143 0 -243 47t-152.5 134t-52.5 208q0 93 33 165.5t93 129t140 101.5q-68 46 -119 101
t-78.5 121.5t-27.5 147.5q0 110 52.5 187.5t144 119t207.5 41.5zM295 374q0 -94 57 -154.5t168 -60.5q112 0 170 60t58 159q0 55 -25.5 101.5t-72.5 87t-112 78.5l-33 19q-70 -37 -116.5 -79.5t-70 -94t-23.5 -116.5zM521 1303q-82 0 -133.5 -48.5t-51.5 -135.5
q0 -58 23.5 -102t65.5 -79t98 -66q57 32 98.5 67t64 79t22.5 102q0 87 -51.5 135t-135.5 48z" />
    <glyph glyph-name="nine" unicode="9" horiz-adv-x="1044" 
d="M953 845q0 -144 -18 -274t-60 -238t-112 -187t-173 -122.5t-244 -43.5q-43 0 -95 5t-88 14v193q37 -12 81 -18t90 -6q148 0 234.5 69t125.5 188.5t44 271.5h-10q-26 -50 -64.5 -88.5t-93 -60.5t-128.5 -22q-115 0 -196.5 56.5t-124 160t-42.5 242.5q0 150 50.5 261.5
t145.5 173.5t230 62q101 0 183.5 -41t141.5 -121.5t91 -199.5t32 -275zM507 1289q-93 0 -148.5 -74t-55.5 -226q0 -132 49 -204.5t150 -72.5q71 0 120.5 36t75.5 91t26 113q0 52 -11.5 110t-37 109.5t-67 84.5t-101.5 33z" />
    <glyph glyph-name="colon" unicode=":" horiz-adv-x="528" 
d="M125 125q0 77 38 112.5t101 35.5q61 0 99.5 -35t38.5 -113q0 -76 -39 -112.5t-99 -36.5q-62 0 -100.5 37t-38.5 112zM125 976q0 77 38 113t101 36q62 0 100 -36t38 -113q0 -76 -39 -112.5t-99 -36.5q-62 0 -100.5 37t-38.5 112z" />
    <glyph glyph-name="semicolon" unicode=";" horiz-adv-x="528" 
d="M384 245l14 -23q-18 -82 -43 -167.5t-55 -167.5t-62 -156h-171q21 83 39.5 173.5t33.5 178.5t23 162h221zM124 976q0 77 38 113t101 36t101 -36t38 -113q0 -76 -39 -112.5t-100 -36.5q-62 0 -100.5 37t-38.5 112z" />
    <glyph glyph-name="less" unicode="&#x3c;" horiz-adv-x="1046" 
d="M965 242l-888 423v118l888 448v-195l-644 -308l644 -293v-193z" />
    <glyph glyph-name="equal" unicode="=" horiz-adv-x="1046" 
d="M83 845v175h878v-175h-878zM83 423v175h878v-175h-878z" />
    <glyph glyph-name="greater" unicode="&#x3e;" horiz-adv-x="1046" 
d="M80 435l644 292l-644 309v195l887 -448v-118l-887 -423v193z" />
    <glyph glyph-name="question" unicode="?" horiz-adv-x="814" 
d="M244 443v65q0 72 14 126.5t46.5 103t88.5 100.5q58 55 93 97.5t51 85t16 96.5q0 85 -47.5 129t-134.5 44q-74 0 -140 -23.5t-134 -63.5l-79 171q83 52 174 80.5t194 28.5q184 0 283.5 -94.5t99.5 -257.5q0 -89 -24 -153t-70.5 -120t-114.5 -120q-54 -51 -82 -88
t-38 -74.5t-10 -87.5v-45h-186zM203 125q0 77 38 112.5t102 35.5q60 0 99 -35t39 -113q0 -76 -39.5 -112.5t-98.5 -36.5q-62 0 -101 37t-39 112z" />
    <glyph glyph-name="at" unicode="@" horiz-adv-x="1619" 
d="M1521 737q0 -107 -21 -200t-61.5 -163t-99.5 -109t-137 -39q-83 0 -133.5 45t-65.5 119h-12q-34 -77 -92 -120.5t-141 -43.5q-143 0 -220.5 103t-77.5 281q0 142 48 247.5t136.5 163.5t211.5 58q74 0 150 -14t128 -34l-18 -417q-1 -30 -2 -56t-1 -41q0 -82 26 -114
t66 -32q47 0 80 44t50 126.5t17 198.5q0 178 -61.5 308.5t-173 202t-259.5 70.5q-147 0 -257 -57t-183.5 -157t-110.5 -231t-37 -280q0 -188 59 -328t175.5 -216t290.5 -76q101 0 204.5 24.5t187.5 61.5v-155q-82 -38 -179.5 -59t-211.5 -21q-221 0 -376.5 90t-237.5 260.5
t-82 409.5q0 196 53.5 358t153 279.5t239 181.5t311.5 63q199 0 348.5 -92.5t232.5 -257t83 -382.5zM639 607q0 -121 37.5 -178.5t104.5 -57.5q78 0 115 78.5t45 233.5l13 240q-20 7 -45 10t-54 3q-74 0 -122 -43t-71 -117t-23 -169z" />
    <glyph glyph-name="A" unicode="A" horiz-adv-x="1173" 
d="M928 0l-118 409h-448l-118 -409h-244l449 1465h272l451 -1465h-244zM760 609l-117 421q-7 34 -18 78l-22 88t-18 78q-6 -37 -16 -81t-20.5 -86.5t-19.5 -74.5l-116 -423h347z" />
    <glyph glyph-name="B" unicode="B" horiz-adv-x="1186" 
d="M167 1462h393q246 0 370.5 -85t124.5 -275q0 -87 -26.5 -155t-77.5 -112t-124 -59v-10q82 -17 141 -59t90.5 -112t31.5 -174q0 -131 -55.5 -225.5t-159 -145t-247.5 -50.5h-461v1462zM397 855h180q133 0 188 55.5t55 163.5q0 100 -62 148.5t-194 48.5h-167v-416zM397 668
v-474h205q132 0 191 63.5t59 181.5q0 73 -28 124t-85.5 78t-150.5 27h-191z" />
    <glyph glyph-name="C" unicode="C" horiz-adv-x="1123" 
d="M715 1285q-90 0 -159 -41t-115.5 -115.5t-70 -176t-23.5 -223.5q0 -172 42.5 -295.5t125 -189t205.5 -65.5q79 0 152 18.5t146 48.5v-201q-72 -33 -150.5 -49t-175.5 -16q-191 0 -321 91t-196 259.5t-66 400.5q0 163 39 300t115 239t188 158t258 56q95 0 185 -22.5
t170 -65.5l-76 -191q-63 35 -131 57.5t-142 22.5z" />
    <glyph glyph-name="D" unicode="D" horiz-adv-x="1299" 
d="M1190 749q0 -246 -77 -412.5t-225 -251.5t-361 -85h-360v1462h391q199 0 340 -81t216.5 -240t75.5 -392zM951 741q0 178 -45 294.5t-134 173.5t-219 57h-156v-1068h130q216 0 320 136t104 407z" />
    <glyph glyph-name="E" unicode="E" horiz-adv-x="994" 
d="M889 0h-722v1462h722v-196h-492v-406h460v-196h-460v-465h492v-199z" />
    <glyph glyph-name="F" unicode="F" horiz-adv-x="950" 
d="M395 0h-228v1462h720v-196h-492v-464h461v-197h-461v-605z" />
    <glyph glyph-name="G" unicode="G" horiz-adv-x="1315" 
d="M702 794h480v-736q-106 -38 -218.5 -58t-241.5 -20q-202 0 -338.5 92t-205.5 261t-69 400q0 227 77 395t226 261.5t365 93.5q108 0 207.5 -24t182.5 -66l-77 -191q-70 38 -149 60.5t-164 22.5q-137 0 -233 -66.5t-146.5 -191t-50.5 -298.5q0 -163 41.5 -287t129 -194
t226.5 -70q66 0 117 8t95 21v390h-254v197z" />
    <glyph glyph-name="H" unicode="H" horiz-adv-x="1336" 
d="M1169 0h-229v663h-543v-663h-230v1462h230v-600h543v600h229v-1462z" />
    <glyph glyph-name="I" unicode="I" horiz-adv-x="563" 
d="M167 0v1462h230v-1462h-230z" />
    <glyph glyph-name="J" unicode="J" horiz-adv-x="555" 
d="M23 -410q-46 0 -85.5 6t-69.5 17v197q28 -9 60.5 -15t69.5 -6q52 0 89 23t57 78t20 152v1420h229v-1418q0 -164 -44.5 -263.5t-127.5 -145t-198 -45.5z" />
    <glyph glyph-name="K" unicode="K" horiz-adv-x="1140" 
d="M1146 0h-261l-368 652l-120 -111v-541h-230v1462h230v-703q27 44 62.5 96t76.5 113l343 494h255l-454 -644z" />
    <glyph glyph-name="L" unicode="L" horiz-adv-x="953" 
d="M167 0v1462h230v-1263h509v-199h-739z" />
    <glyph glyph-name="M" unicode="M" horiz-adv-x="1702" 
d="M744 0l-372 1191h-8q4 -54 7 -117.5t5.5 -126.5t2.5 -116v-831h-212v1462h321l357 -1138h7l364 1138h321v-1462h-220v836q0 52 1.5 113t4.5 123.5t6 116.5h-8l-380 -1189h-197z" />
    <glyph glyph-name="N" unicode="N" horiz-adv-x="1408" 
d="M1242 0h-278l-593 1141h-8q4 -60 7.5 -121.5t5.5 -121t3 -116.5v-782h-212v1462h276l592 -1127h7q-3 58 -6 118.5t-5 120t-2 112.5v776h213v-1462z" />
    <glyph glyph-name="O" unicode="O" horiz-adv-x="1389" 
d="M1280 733q0 -167 -35.5 -305.5t-107 -238.5t-182 -154.5t-259.5 -54.5q-152 0 -263 55t-182.5 155.5t-106.5 239t-35 305.5q0 237 64.5 404.5t195.5 256.5t328 89q199 0 328 -94.5t192 -263.5t63 -394zM349 733q0 -176 37.5 -300t114.5 -188.5t194 -64.5q119 0 195 64
t113 187.5t37 301.5q0 268 -83.5 410t-259.5 142q-119 0 -196 -64.5t-114.5 -187.5t-37.5 -300z" />
    <glyph glyph-name="P" unicode="P" horiz-adv-x="1105" 
d="M537 1462q251 0 369 -113t118 -328q0 -103 -28.5 -189.5t-89 -150.5t-156.5 -99t-232 -35h-121v-547h-230v1462h370zM522 1268h-125v-526h98q98 0 164 27.5t99 88t33 158.5q0 130 -65.5 191t-203.5 61z" />
    <glyph glyph-name="Q" unicode="Q" horiz-adv-x="1389" 
d="M1280 733q0 -177 -37 -317t-111 -237t-184 -147l289 -380h-287l-227 330q-8 0 -17.5 -0.5t-18.5 -0.5q-149 0 -258.5 55.5t-180 157t-105 239.5t-34.5 302q0 237 64.5 404.5t195.5 256.5t328 89q193 0 322.5 -89t195 -256.5t65.5 -406.5zM349 733q0 -176 37.5 -300
t114.5 -188.5t194 -64.5q119 0 195 64t113 187.5t37 301.5q0 268 -83.5 410t-259.5 142q-119 0 -196 -64.5t-114.5 -187.5t-37.5 -300z" />
    <glyph glyph-name="R" unicode="R" horiz-adv-x="1149" 
d="M519 1462q173 0 285.5 -46t167.5 -139t55 -235q0 -101 -31.5 -177t-88 -129t-132.5 -87l358 -649h-257l-303 590h-176v-590h-230v1462h352zM511 1267h-114v-489h127q136 0 202 64t66 190q0 125 -68.5 180t-212.5 55z" />
    <glyph glyph-name="S" unicode="S" horiz-adv-x="997" 
d="M918 406q0 -129 -57 -225t-162 -148.5t-249 -52.5q-69 0 -133 8t-122 24.5t-109 41.5v226q82 -42 178.5 -69.5t188.5 -27.5q78 0 130 26.5t78 72.5t26 105q0 63 -26.5 107.5t-85 82.5t-153.5 83q-68 32 -126.5 70t-102.5 86.5t-68.5 114.5t-24.5 156q-1 122 53.5 211
t153 137.5t230.5 47.5q101 0 192 -23t174 -63l-71 -196q-78 38 -150.5 58.5t-144.5 20.5q-67 0 -113 -23.5t-70.5 -65t-24.5 -96.5q0 -65 25.5 -108t82.5 -79.5t151 -81.5q107 -51 180.5 -107.5t111.5 -131.5t38 -181z" />
    <glyph glyph-name="T" unicode="T" horiz-adv-x="991" 
d="M610 0h-230v1263h-353v199h935v-199h-352v-1263z" />
    <glyph glyph-name="U" unicode="U" horiz-adv-x="1313" 
d="M1158 1462v-969q0 -161 -56.5 -275.5t-168.5 -176t-280 -61.5q-242 0 -370 133.5t-128 379.5v969h230v-956q0 -171 69.5 -248.5t203.5 -77.5q93 0 152.5 35.5t89 108t29.5 183.5v955h229z" />
    <glyph glyph-name="V" unicode="V" horiz-adv-x="1122" 
d="M1122 1462l-435 -1462h-254l-433 1462h238l255 -917q12 -42 25 -97.5t24.5 -111t17.5 -100.5q7 45 18.5 100.5t25 111t25.5 99.5l256 915h237z" />
    <glyph glyph-name="W" unicode="W" horiz-adv-x="1729" 
d="M1718 1462l-337 -1462h-259l-204 851q-7 30 -15 69t-16 81.5t-14.5 84.5t-10.5 79q-3 -29 -9 -68t-13.5 -82t-16 -85.5t-16.5 -78.5l-201 -851h-257l-339 1462h229l185 -845q10 -45 19.5 -93.5t18 -97.5t15 -94t11.5 -82q5 43 12.5 91t16.5 96.5t18 93.5t18 82l203 849
h214l202 -850q10 -38 19 -83t17.5 -93t16 -95.5t13.5 -90.5q7 56 17 119.5t22 128t24 120.5l186 844h231z" />
    <glyph glyph-name="X" unicode="X" horiz-adv-x="1081" 
d="M1075 0h-255l-281 574l-290 -574h-243l401 756l-369 706h247l259 -532l258 532h244l-370 -712z" />
    <glyph glyph-name="Y" unicode="Y" horiz-adv-x="1045" 
d="M523 804l279 658h243l-408 -895v-567h-229v560l-408 902h245z" />
    <glyph glyph-name="Z" unicode="Z" horiz-adv-x="992" 
d="M939 0h-882v164l603 1100h-587v198h849v-163l-604 -1100h621v-199z" />
    <glyph glyph-name="bracketleft" unicode="[" horiz-adv-x="653" 
d="M600 -329h-458v1801h458v-171h-254v-1458h254v-172z" />
    <glyph glyph-name="backslash" unicode="\" horiz-adv-x="794" 
d="M228 1467l546 -1472h-207l-545 1472h206z" />
    <glyph glyph-name="bracketright" unicode="]" horiz-adv-x="653" 
d="M53 -157h254v1458h-254v171h459v-1801h-459v172z" />
    <glyph glyph-name="asciicircum" unicode="^" horiz-adv-x="1066" 
d="M44 581l418 885h119l442 -885h-196l-303 626l-285 -626h-195z" />
    <glyph glyph-name="underscore" unicode="_" horiz-adv-x="899" 
d="M903 -318h-907v146h907v-146z" />
    <glyph glyph-name="grave" unicode="`" horiz-adv-x="621" 
d="M339 1569q24 -46 59.5 -102.5t73.5 -110t67 -90.5v-25h-151q-33 27 -76.5 66.5t-88 84.5t-82 86.5t-59.5 70.5v20h257z" />
    <glyph glyph-name="a" unicode="a" horiz-adv-x="1042" 
d="M534 1129q184 0 275.5 -96t91.5 -290v-743h-162l-39 155h-7q-38 -58 -81.5 -97t-100 -58.5t-135.5 -19.5q-94 0 -161 42t-102 118t-35 177q0 170 111.5 258t328.5 96l161 7v59q0 114 -42.5 165t-127.5 51q-65 0 -131 -21t-135 -57l-68 162q75 43 167 67.5t192 24.5z
M679 532l-115 -6q-139 -6 -198.5 -58.5t-59.5 -147.5q0 -86 40 -126t108 -40q100 0 162.5 72t62.5 204v102z" />
    <glyph glyph-name="b" unicode="b" horiz-adv-x="1128" 
d="M369 1556v-399q0 -49 -2.5 -102t-6.5 -97h10q43 78 114 123.5t174 45.5q175 0 277 -146t102 -425q0 -185 -46.5 -314t-132 -195.5t-203.5 -66.5q-103 0 -170.5 41t-114.5 113h-14l-37 -134h-173v1556h223zM596 940q-86 0 -135.5 -42.5t-70.5 -123t-21 -196.5v-36
q0 -188 52 -282t176 -94q104 0 158 98.5t54 293.5q0 191 -53 286.5t-160 95.5z" />
    <glyph glyph-name="c" unicode="c" horiz-adv-x="889" 
d="M543 -20q-143 0 -244 62t-154 188t-53 318q0 189 55.5 318t159.5 196t250 67q85 0 154.5 -18t122.5 -47l-66 -179q-51 25 -103 39.5t-102 14.5q-80 0 -134 -44.5t-81.5 -130.5t-27.5 -215q0 -125 27.5 -209.5t81 -127.5t132.5 -43q71 0 133 19.5t119 52.5v-191
q-56 -36 -122.5 -53t-147.5 -17z" />
    <glyph glyph-name="d" unicode="d" horiz-adv-x="1128" 
d="M473 -20q-178 0 -279.5 147t-101.5 425q0 280 102.5 428.5t277.5 148.5q68 0 122.5 -21t96 -58.5t71.5 -88.5h9q-3 44 -7.5 94t-4.5 91v410h223v-1556h-176l-35 143h-12q-30 -49 -70 -86t-93 -57t-123 -20zM535 164q121 0 175 87.5t55 263.5v50q0 187 -52 281t-180 94
q-107 0 -160.5 -101t-53.5 -288q0 -191 54 -289t162 -98z" />
    <glyph glyph-name="e" unicode="e" horiz-adv-x="1036" 
d="M533 1128q134 0 227 -62.5t141.5 -174.5t48.5 -262v-128h-634q3 -168 73 -255t202 -87q85 0 157.5 19.5t150.5 61.5v-186q-72 -38 -149.5 -56t-177.5 -18q-154 0 -261.5 67.5t-163 194.5t-55.5 305q0 186 53 316t151.5 197.5t236.5 67.5zM535 956q-94 0 -150.5 -72
t-64.5 -220h417q0 85 -22.5 150.5t-67 103.5t-112.5 38z" />
    <glyph glyph-name="f" unicode="f" horiz-adv-x="650" 
d="M628 931h-222v-931h-223v931h-157v113l157 67v66q0 137 35 223t106 126.5t179 40.5q64 0 116.5 -11t99.5 -29l-54 -170q-32 10 -65 17.5t-70 7.5q-66 0 -95 -48t-29 -154v-72h222v-177z" />
    <glyph glyph-name="g" unicode="g" horiz-adv-x="999" 
d="M430 -492q-198 0 -306 81t-108 228q0 103 59.5 174t163.5 97q-44 20 -75 62t-31 95q0 61 31.5 105t90.5 86q-75 38 -120 123t-45 194q0 118 45.5 202t132.5 128.5t211 44.5q31 0 61.5 -3t55.5 -8t40 -11h341v-130l-164 -29q25 -40 38 -89t13 -104q0 -173 -103 -271.5
t-289 -98.5q-49 1 -86 9q-29 -21 -47 -47.5t-18 -62.5q0 -27 16 -45t47.5 -27t77.5 -9h182q155 0 237.5 -75t82.5 -224q0 -189 -137 -292t-397 -103zM443 -329q103 0 172.5 23.5t105 69t35.5 109.5q0 54 -22 83t-66.5 40t-111.5 11h-156q-52 0 -92.5 -19.5t-63 -58
t-22.5 -96.5q0 -79 58.5 -120.5t162.5 -41.5zM478 536q82 0 123.5 56t41.5 161q0 113 -42.5 168.5t-123.5 55.5q-80 0 -122.5 -57.5t-42.5 -167.5q0 -103 41.5 -159.5t124.5 -56.5z" />
    <glyph glyph-name="h" unicode="h" horiz-adv-x="1138" 
d="M369 1556v-395q0 -57 -4 -110.5t-10 -92.5h14q28 56 71 93.5t98 57t119 19.5q110 0 186 -43.5t115 -131t39 -221.5v-732h-222v684q0 130 -42 192t-130 62q-86 0 -137.5 -42.5t-74 -128t-22.5 -214.5v-553h-223v1556h223z" />
    <glyph glyph-name="i" unicode="i" horiz-adv-x="517" 
d="M370 1108v-1108h-223v1108h223zM260 1533q57 0 91 -31.5t34 -99.5q0 -66 -34.5 -98t-90.5 -32q-57 0 -92 32t-35 98q0 69 34.5 100t92.5 31z" />
    <glyph glyph-name="j" unicode="j" horiz-adv-x="517" 
d="M68 -492q-42 0 -80.5 6.5t-68.5 16.5v185q27 -9 53 -13.5t55 -4.5q56 0 88 38t32 130v1242h223v-1256q0 -109 -33 -186t-100 -117t-169 -41zM133 1402q0 69 34.5 100t92.5 31q57 0 91 -31.5t34 -99.5q0 -66 -34.5 -98t-90.5 -32q-57 0 -92 32t-35 98z" />
    <glyph glyph-name="k" unicode="k" horiz-adv-x="1029" 
d="M369 1556v-739q0 -58 -3 -119t-9 -118h7q22 37 49.5 77.5t53.5 73.5l286 377h248l-360 -458l383 -650h-252l-282 497l-121 -119v-378h-223v1556h223z" />
    <glyph glyph-name="l" unicode="l" horiz-adv-x="515" 
d="M369 0h-223v1556h223v-1556z" />
    <glyph glyph-name="m" unicode="m" horiz-adv-x="1704" 
d="M1242 1129q161 0 241.5 -96.5t80.5 -301.5v-731h-222v684q0 130 -40.5 192.5t-121.5 62.5q-115 0 -164.5 -89t-49.5 -261v-589h-222v685q0 88 -18 144t-53.5 83t-90.5 27q-81 0 -127.5 -45t-66 -130.5t-19.5 -206.5v-557h-223v1108h175l28 -149h13q28 56 71 93.5t98 57
t118 19.5q110 0 180.5 -46t101.5 -128h17q45 88 120.5 131t173.5 43z" />
    <glyph glyph-name="n" unicode="n" horiz-adv-x="1138" 
d="M659 1129q162 0 250 -97t88 -299v-733h-222v684q0 127 -41.5 191t-131.5 64q-129 0 -181 -94t-52 -291v-554h-223v1108h175l28 -151h13q30 56 75 94t101.5 58t120.5 20z" />
    <glyph glyph-name="o" unicode="o" horiz-adv-x="1100" 
d="M1009 556q0 -130 -29.5 -236t-87.5 -182t-144 -117t-200 -41q-107 0 -191.5 40.5t-143.5 116.5t-90 182t-31 237q0 179 52.5 307.5t155.5 197t253 68.5q138 0 240.5 -66.5t159 -194t56.5 -312.5zM319 555q0 -125 24.5 -212t76 -132t131.5 -45q81 0 131.5 44.5t74.5 131.5
t24 214q0 126 -24 212t-74.5 130t-132.5 44q-121 0 -176 -98t-55 -289z" />
    <glyph glyph-name="p" unicode="p" horiz-adv-x="1128" 
d="M656 1129q178 0 279 -145.5t101 -428.5q0 -185 -46.5 -313t-131.5 -195t-201 -67q-69 0 -123 21t-95 58t-69 85h-12q5 -46 8 -91.5t3 -81.5v-462h-223v1599h181l31 -154h11q31 56 71.5 95t94 59.5t121.5 20.5zM595 943q-79 0 -128.5 -39t-73 -117.5t-24.5 -198.5v-44
q0 -125 23 -208.5t73 -125.5t132 -42q71 0 118 44.5t70.5 131t23.5 212.5q0 189 -51.5 288t-162.5 99z" />
    <glyph glyph-name="q" unicode="q" horiz-adv-x="1128" 
d="M759 -491v460q0 36 2.5 84t7.5 101h-11q-44 -81 -114.5 -127.5t-175.5 -46.5q-173 0 -274.5 145.5t-101.5 424.5q0 188 47 317t133 195.5t204 66.5q103 0 171.5 -44.5t114.5 -125.5h10l23 149h187v-1599h-223zM536 166q80 0 130 38t74 115t25 191v50q0 192 -53 286
t-180 94q-108 0 -160.5 -101.5t-52.5 -291.5q0 -192 53.5 -286.5t163.5 -94.5z" />
    <glyph glyph-name="r" unicode="r" horiz-adv-x="773" 
d="M640 1128q25 0 53 -3t53 -10l-23 -220q-20 7 -46 10t-51 3q-54 0 -101 -22.5t-82 -66t-54.5 -105t-18.5 -139.5v-575h-223v1108h173l31 -192h11q28 58 68.5 106.5t93 77t116.5 28.5z" />
    <glyph glyph-name="s" unicode="s" horiz-adv-x="862" 
d="M789 313q0 -108 -46 -182.5t-134 -112.5t-214 -38q-97 0 -173 16.5t-141 48.5v205q64 -36 147.5 -62t162.5 -26q91 0 134.5 35.5t43.5 98.5q0 37 -17.5 66t-63.5 59t-133 69q-87 41 -148.5 85.5t-93.5 104.5t-32 148q0 142 102 221.5t273 79.5q88 0 167 -20.5t154 -59.5
l-70 -170q-60 31 -123 51.5t-128 20.5q-76 0 -117 -30t-41 -83q0 -39 18.5 -66t65.5 -54.5t131 -67.5t146 -83.5t96 -103.5t34 -150z" />
    <glyph glyph-name="t" unicode="t" horiz-adv-x="697" 
d="M510 167q36 0 73 7.5t70 20.5v-174q-39 -18 -92 -29.5t-112 -11.5q-89 0 -153 33.5t-98.5 107.5t-34.5 196v614h-128v109l141 70l64 242h146v-244h255v-177h-255v-606q0 -79 31.5 -118.5t92.5 -39.5z" />
    <glyph glyph-name="u" unicode="u" horiz-adv-x="1138" 
d="M992 1108v-1108h-176l-28 149h-13q-29 -55 -74 -93t-101 -57t-121 -19q-111 0 -186.5 45.5t-114 135t-38.5 222.5v725h223v-675q0 -133 41.5 -198.5t128.5 -65.5q89 0 140.5 42.5t73.5 126t22 205.5v565h223z" />
    <glyph glyph-name="v" unicode="v" horiz-adv-x="960" 
d="M359 0l-355 1108h233l183 -640q18 -60 32.5 -126.5t21.5 -124.5h8q6 47 20.5 110.5t32.5 127.5l188 653h233l-357 -1108h-240z" />
    <glyph glyph-name="w" unicode="w" horiz-adv-x="1490" 
d="M942 1l-128 568q-8 35 -17.5 78.5t-18.5 89.5t-17 87t-13 70h-7q-5 -30 -13 -72t-17 -88t-18.5 -89.5t-17.5 -76.5l-135 -567h-248l-273 1108h224l121 -526q12 -55 23.5 -117.5t20.5 -122.5t15 -109h7q4 32 10 72.5t13.5 85t16 88t17.5 80.5l136 549h248l132 -551
q10 -44 21 -100.5t20.5 -115t14.5 -108.5h8q3 37 11 88.5t18.5 110t23.5 112.5l131 564h220l-276 -1108h-253z" />
    <glyph glyph-name="x" unicode="x" horiz-adv-x="975" 
d="M348 568l-308 540h247l201 -380l202 380h246l-309 -543l324 -565h-247l-218 406l-218 -406h-244z" />
    <glyph glyph-name="y" unicode="y" horiz-adv-x="962" 
d="M5 1108h238l184 -612q13 -41 23 -81t18 -79t13 -76h7q9 50 23.5 110t33.5 126l178 612h235l-403 -1255q-36 -116 -88.5 -193t-123 -114.5t-163.5 -37.5q-39 0 -71.5 5t-60.5 12v187q21 -6 47 -10t53 -4q51 0 87 21.5t62.5 66t47.5 113.5l33 108z" />
    <glyph glyph-name="z" unicode="z" horiz-adv-x="827" 
d="M771 0h-714v141l450 787h-422v180h671v-153l-440 -776h455v-179z" />
    <glyph glyph-name="braceleft" unicode="{" horiz-adv-x="765" 
d="M692 -329q-145 1 -234.5 33.5t-131 101.5t-41.5 180v304q0 66 -24.5 108.5t-75 62.5t-129.5 20v177q77 0 127.5 18.5t76 60.5t25.5 111v307q0 107 40.5 176t130 102t236.5 34v-175q-64 -1 -108.5 -17.5t-67.5 -53t-23 -99.5v-302q0 -107 -49.5 -167t-155.5 -78v-11
q108 -18 156.5 -78.5t48.5 -164.5v-304q0 -61 21.5 -98t66 -54t111.5 -18v-176z" />
    <glyph glyph-name="bar" unicode="|" horiz-adv-x="981" 
d="M398 1561h184v-2041h-184v2041z" />
    <glyph glyph-name="braceright" unicode="}" horiz-adv-x="765" 
d="M73 -329v176q67 2 111 18.5t66 53.5t22 99v302q0 106 49.5 166t154.5 78v11q-106 18 -155 78t-49 166v303q0 64 -24 100.5t-68.5 52.5t-106.5 17v175q145 -1 234.5 -33t130.5 -100.5t41 -179.5v-306q0 -65 24 -107.5t75 -62.5t131 -20v-177q-78 0 -129 -19.5t-76 -61.5
t-25 -110v-304q0 -108 -40 -177.5t-129.5 -103t-236.5 -34.5z" />
    <glyph glyph-name="asciitilde" unicode="~" horiz-adv-x="1046" 
d="M494 637q-61 30 -109.5 43.5t-92.5 13.5q-52 0 -108.5 -33t-106.5 -88v191q47 52 104 79t127 27q60 0 115 -15t129 -48q63 -30 110.5 -43t90.5 -13q53 0 110.5 33.5t104.5 86.5v-190q-45 -51 -102.5 -78t-127.5 -27q-60 0 -114 14t-130 47z" />
    <glyph glyph-name="uni00A0" unicode="&#xa0;" horiz-adv-x="453" 
 />
    <glyph glyph-name="exclamdown" unicode="&#xa1;" horiz-adv-x="531" 
d="M177 651h174l44 -1027h-262zM406 970q0 -78 -39 -113t-101 -35t-100 35.5t-38 112.5q0 75 38 112t100 37q60 0 100 -36.5t40 -112.5z" />
    <glyph glyph-name="cent" unicode="&#xa2;" horiz-adv-x="1045" 
d="M656 1483v-162q70 -4 130.5 -21t108.5 -42l-65 -180q-52 25 -105 39.5t-100 14.5q-83 0 -137.5 -42.5t-81 -129t-26.5 -217.5q0 -130 27 -214t80.5 -125t133.5 -41q70 0 131 18.5t122 48.5v-189q-47 -27 -101 -43.5t-118 -21.5v-196h-139v200q-118 16 -199 83t-123 187
t-42 291q0 176 43 297.5t124 190t197 85.5v169h140z" />
    <glyph glyph-name="sterling" unicode="&#xa3;" horiz-adv-x="1043" 
d="M625 1483q92 0 172.5 -22.5t148.5 -60.5l-72 -177q-59 31 -118 48.5t-117 17.5q-80 0 -123 -50t-43 -164v-250h325v-169h-325v-191q0 -70 -18 -120.5t-49 -85.5t-71 -59h640v-200h-892v188q52 23 89 56.5t57 87t20 131.5v193h-166v169h166v255q0 135 46 224t130.5 134
t199.5 45z" />
    <glyph glyph-name="currency" unicode="&#xa4;" horiz-adv-x="1148" 
d="M175 723q0 60 17.5 115t50.5 104l-134 134l111 110l132 -133q48 34 104 51t117 17q60 0 114.5 -17t104.5 -51l133 133l112 -108l-133 -135q32 -47 49.5 -103t17.5 -117t-16.5 -117t-50.5 -105l131 -132l-110 -108l-133 131q-48 -32 -104 -49t-115 -17q-63 0 -119 17
t-103 50l-131 -131l-109 110l132 131q-33 49 -50.5 104t-17.5 116zM330 723q0 -67 32.5 -123t87.5 -88.5t123 -32.5q70 0 125.5 33t88.5 88.5t33 122.5q0 68 -33.5 123.5t-89.5 89t-124 33.5q-67 0 -122.5 -33t-88 -88.5t-32.5 -124.5z" />
    <glyph glyph-name="yen" unicode="&#xa5;" horiz-adv-x="1044" 
d="M521 814l248 648h235l-330 -759h216v-148h-260v-158h260v-148h-260v-249h-220v249h-259v148h259v158h-259v148h211l-326 759h235z" />
    <glyph glyph-name="brokenbar" unicode="&#xa6;" horiz-adv-x="981" 
d="M398 1554h184v-800h-184v800zM398 320h184v-801h-184v801z" />
    <glyph glyph-name="section" unicode="&#xa7;" horiz-adv-x="909" 
d="M106 813q0 86 42.5 147t107.5 96q-67 44 -103 101.5t-36 132.5q0 126 99 199t261 73q91 0 164.5 -19.5t145.5 -53.5l-63 -154q-62 32 -122 52t-127 20q-84 0 -124.5 -30t-40.5 -84q0 -38 21.5 -67t66.5 -54.5t115 -56.5q92 -41 157 -85.5t99 -101t34 -134.5
q0 -92 -36.5 -155t-95.5 -102q64 -43 95.5 -98t31.5 -128q0 -140 -105 -221.5t-285 -81.5q-96 0 -172 19t-136 54v174q41 -25 94 -46t108 -33.5t105 -12.5q104 0 150.5 39t46.5 97q0 41 -18 69t-64 55.5t-131 67.5q-95 44 -158.5 87.5t-95 99t-31.5 135.5zM284 836
q0 -43 22 -76.5t66.5 -63t112.5 -60.5l52 -26q36 25 61.5 63t25.5 91q0 47 -20 82t-70 68t-142 71q-47 -17 -77.5 -56t-30.5 -93z" />
    <glyph glyph-name="dieresis" unicode="&#xa8;" horiz-adv-x="1124" 
d="M266 1390q0 60 31 88.5t78 28.5t78.5 -29t31.5 -88q0 -57 -31.5 -87t-78.5 -30t-78 29.5t-31 87.5zM637 1390q0 60 31.5 88.5t78.5 28.5t79 -29t32 -88q0 -57 -32 -87t-79 -30q-48 0 -79 30t-31 87z" />
    <glyph glyph-name="copyright" unicode="&#xa9;" horiz-adv-x="1700" 
d="M848 -20q-167 0 -305.5 57t-238.5 159t-154 238.5t-54 296.5q0 163 57.5 301t160 239t240 156.5t297.5 55.5q161 0 298.5 -56.5t239.5 -158.5t158.5 -239t56.5 -299q0 -163 -56 -300.5t-158.5 -238t-240.5 -156t-301 -55.5zM882 270q-202 0 -308.5 123t-106.5 337
q0 139 49.5 242.5t143.5 161t227 57.5q68 0 135.5 -16t129.5 -47l-61 -129q-51 26 -101 39t-96 13q-123 0 -190.5 -83.5t-67.5 -237.5q0 -160 62.5 -240t194.5 -80q51 0 109 13.5t112 37.5v-139q-52 -24 -108 -38t-124 -14zM851 98q134 0 247.5 47t198 132t131 200.5
t46.5 252.5q0 136 -46.5 251.5t-131 202t-198.5 134.5t-248 48q-138 0 -252.5 -48t-198 -134t-129.5 -202t-46 -252q0 -139 47 -254.5t131.5 -200t199 -131t249.5 -46.5z" />
    <glyph glyph-name="ordfeminine" unicode="&#xaa;" horiz-adv-x="699" 
d="M358 1479q124 0 185 -63.5t61 -185.5v-449h-111l-26 102q-37 -53 -89.5 -83.5t-124.5 -30.5q-61 0 -106 25.5t-69.5 73t-24.5 112.5q0 75 35.5 121t103 69t163.5 29l92 5v36q0 58 -29 85t-85 27q-46 0 -92 -14.5t-94 -39.5l-50 115q58 29 122.5 47.5t138.5 18.5z
M447 1103l-79 -6q-88 -5 -121.5 -34t-33.5 -80q0 -45 23.5 -67.5t63.5 -22.5q72 0 109.5 46t37.5 120v44z" />
    <glyph glyph-name="guillemotleft" unicode="&#xab;" horiz-adv-x="1068" 
d="M72 566l329 425l159 -85l-249 -353l249 -352l-159 -87l-329 424v28zM507 566l330 425l158 -85l-248 -353l248 -352l-158 -87l-330 424v28z" />
    <glyph glyph-name="logicalnot" unicode="&#xac;" horiz-adv-x="1046" 
d="M956 810v-560h-177v384h-699v176h876z" />
    <glyph glyph-name="uni00AD" unicode="&#xad;" horiz-adv-x="626" 
d="M64 450v202h498v-202h-498z" />
    <glyph glyph-name="registered" unicode="&#xae;" horiz-adv-x="1700" 
d="M564 293v888h263q163 0 245 -66.5t82 -198.5q0 -93 -43 -150.5t-112 -87.5l218 -385h-183l-181 345h-125v-345h-164zM728 765h91q79 0 123 37.5t44 107.5q0 72 -39.5 104t-127.5 32h-91v-281zM848 -20q-167 0 -305.5 57t-238.5 159t-154 238.5t-54 296.5q0 163 57.5 301
t160 239t240 156.5t297.5 55.5q161 0 298.5 -56.5t239.5 -158.5t158.5 -239t56.5 -299q0 -163 -56 -300.5t-158.5 -238t-240.5 -156t-301 -55.5zM851 98q134 0 247.5 47t198 132t131 200.5t46.5 252.5q0 136 -46.5 251.5t-131 202t-198.5 134.5t-248 48q-138 0 -252.5 -48
t-198 -134t-129.5 -202t-46 -252q0 -139 47 -254.5t131.5 -200t199 -131t249.5 -46.5z" />
    <glyph glyph-name="overscore" unicode="&#xaf;" horiz-adv-x="974" 
d="M981 1556h-987v163h987v-163z" />
    <glyph glyph-name="degree" unicode="&#xb0;" horiz-adv-x="810" 
d="M404 868q-92 0 -163 38.5t-112 108t-41 160.5q0 92 41 161t112.5 108t162.5 39q93 0 164.5 -39t112 -108t40.5 -161t-41 -161t-112.5 -107.5t-163.5 -38.5zM405 1009q76 0 120.5 45t44.5 121q0 77 -44.5 122t-120.5 45q-78 0 -121.5 -46t-43.5 -121q0 -76 45 -121
t120 -45z" />
    <glyph glyph-name="plusminus" unicode="&#xb1;" horiz-adv-x="1046" 
d="M80 0v175h884v-175h-884zM611 857h353v-175h-353v-401h-177v401h-354v175h354v405h177v-405z" />
    <glyph glyph-name="uni00B2" unicode="&#xb2;" horiz-adv-x="703" 
d="M622 851h-568v138l207 223q62 67 99 114t53 86t16 83q0 49 -30 77.5t-82 28.5q-46 0 -88.5 -21.5t-87.5 -64.5l-88 114q52 53 123 86t159 33q126 0 198.5 -64.5t72.5 -175.5q0 -69 -25 -127t-78 -120.5t-137 -148.5l-106 -111h362v-150z" />
    <glyph glyph-name="uni00B3" unicode="&#xb3;" horiz-adv-x="703" 
d="M330 1747q125 0 198.5 -60.5t73.5 -163.5q0 -77 -39 -129.5t-110 -78.5v-8q85 -22 129.5 -77t44.5 -137q0 -119 -85 -188t-242 -69q-69 0 -129.5 14t-116.5 44v157q58 -35 119 -54t126 -19q82 0 120.5 34t38.5 92q0 63 -43.5 97t-135.5 34h-96v132h87q89 0 127.5 36
t38.5 94q0 51 -31 80t-89 29q-49 0 -92.5 -19t-92.5 -56l-79 112q59 48 126.5 76t151.5 28z" />
    <glyph glyph-name="acute" unicode="&#xb4;" horiz-adv-x="620" 
d="M539 1569v-20q-23 -29 -60 -69.5t-80.5 -84.5t-87 -84.5t-78.5 -69.5h-151v25q35 47 71.5 99t69.5 105t58 99h258z" />
    <glyph glyph-name="uni00B5" unicode="&#xb5;" horiz-adv-x="1143" 
d="M997 1108v-1108h-175l-29 151h-11q-25 -54 -60 -92t-79.5 -58.5t-100.5 -20.5q-60 0 -103.5 24.5t-72.5 70.5h-6q2 -28 4 -66t3 -78.5t1 -80.5v-341h-222v1599h222v-681q0 -128 42 -193t130 -65q89 0 140 45t72.5 131t21.5 208v555h223z" />
    <glyph glyph-name="paragraph" unicode="&#xb6;" horiz-adv-x="1171" 
d="M996 -260h-134v1676h-162v-1676h-134v828q-24 -9 -53 -13.5t-61 -4.5q-108 0 -184 51.5t-115.5 161.5t-39.5 284q0 181 43.5 293t127 164t202.5 52h510v-1816z" />
    <glyph glyph-name="periodcentered" unicode="&#xb7;" horiz-adv-x="524" 
d="M123 718q0 77 38.5 112.5t101.5 35.5q61 0 100 -35t39 -113q0 -76 -39.5 -112.5t-99.5 -36.5q-61 0 -100.5 37t-39.5 112z" />
    <glyph glyph-name="cedilla" unicode="&#xb8;" horiz-adv-x="408" 
d="M398 -271q0 -105 -68 -163t-207 -58q-39 0 -71.5 4.5t-56.5 11.5v133q24 -7 54 -11t57 -4q54 0 84 21t30 63q0 48 -43 74t-122 35l77 165h133l-40 -90q51 -11 90 -34.5t61 -60.5t22 -86z" />
    <glyph glyph-name="uni00B9" unicode="&#xb9;" horiz-adv-x="703" 
d="M502 1728v-877h-174v497q0 32 1 67t2.5 69t4.5 62q-16 -17 -34.5 -33.5t-35.5 -28.5l-103 -78l-84 110l275 212h148z" />
    <glyph glyph-name="ordmasculine" unicode="&#xba;" horiz-adv-x="719" 
d="M660 1125q0 -168 -80 -262t-221 -94q-137 0 -218.5 94t-81.5 262q0 169 81 261.5t222 92.5q90 0 156.5 -41t104 -120t37.5 -193zM220 1125q0 -113 33.5 -169t106.5 -56q74 0 107 56t33 169q0 112 -33 167.5t-107 55.5q-71 0 -105.5 -55t-34.5 -168z" />
    <glyph glyph-name="guillemotright" unicode="&#xbb;" horiz-adv-x="1068" 
d="M996 538l-330 -424l-158 87l248 352l-248 353l158 85l330 -425v-28zM562 538l-330 -424l-158 87l248 352l-248 353l158 85l330 -425v-28z" />
    <glyph glyph-name="onequarter" unicode="&#xbc;" horiz-adv-x="1573" 
d="M316 0l789 1462h184l-791 -1462h-182zM306 586v497q0 32 1 67t2.5 69t4.5 63q-16 -17 -35 -34t-36 -30l-102 -76l-84 108l275 212h148v-876h-174zM1259 0v177h-362v123l357 582h178v-568h116v-137h-116v-177h-173zM1048 314h211v210q0 44 1 88.5t4 82.5
q-11 -27 -30.5 -65t-36.5 -67z" />
    <glyph glyph-name="onehalf" unicode="&#xbd;" horiz-adv-x="1634" 
d="M288 0l790 1462h183l-791 -1462h-182zM301 586v497v50t1.5 52t3 50.5t2.5 46.5q-16 -17 -34.5 -34t-35.5 -30l-102 -76l-85 108l275 212h149v-876h-174zM985 0v138l206 220q64 68 101 114.5t53 85.5t16 84q0 50 -30.5 79t-82.5 29q-47 0 -89.5 -21.5t-87.5 -64.5l-87 114
q52 53 123 86t158 33q127 0 199 -64.5t72 -174.5q0 -70 -24 -126.5t-70 -112t-112 -122.5l-140 -146h363v-151h-568z" />
    <glyph glyph-name="threequarters" unicode="&#xbe;" horiz-adv-x="1610" 
d="M365 0l790 1462h183l-790 -1462h-183zM306 570q-68 0 -128.5 14.5t-116.5 44.5v156q57 -34 118.5 -53.5t125.5 -19.5q82 0 120.5 34t38.5 93q0 63 -43.5 97t-135.5 34h-96v132h87q89 0 127.5 36t38.5 94q0 51 -31 80t-89 29q-49 0 -92.5 -19t-91.5 -57l-80 112
q59 50 127 77.5t151 27.5q124 0 197.5 -60.5t73.5 -164.5q0 -76 -38.5 -128.5t-109.5 -78.5v-9q85 -21 129.5 -76t44.5 -138q0 -118 -85.5 -187.5t-241.5 -69.5zM1295 0v177h-361v123l357 582h178v-568h116v-137h-116v-177h-174zM1085 314h210v210q0 44 1.5 88.5t4.5 82.5
q-11 -27 -30.5 -65t-37.5 -67z" />
    <glyph glyph-name="questiondown" unicode="&#xbf;" horiz-adv-x="814" 
d="M571 652v-65q0 -71 -14 -126t-46.5 -103.5t-88.5 -101.5q-58 -54 -93 -96.5t-51 -85t-16 -97.5q0 -84 48 -128t134 -44q74 0 140 23.5t134 62.5l79 -171q-82 -51 -173 -80t-195 -29q-184 0 -283.5 95t-99.5 258q0 88 24 152.5t70.5 120.5t114.5 119q54 51 82 88.5
t38 74.5t10 87v46h186zM612 970q0 -77 -38 -112.5t-102 -35.5q-60 0 -99 34.5t-39 112.5q0 77 39.5 113t98.5 36q63 0 101.5 -36.5t38.5 -111.5z" />
    <glyph glyph-name="Agrave" unicode="&#xc0;" horiz-adv-x="1173" 
d="M928 0l-118 409h-448l-118 -409h-244l449 1465h272l451 -1465h-244zM760 609l-117 421q-7 34 -18 78l-22 88t-18 78q-6 -37 -16 -81t-20.5 -86.5t-19.5 -74.5l-116 -423h347zM519 1914q24 -46 59.5 -102.5t73.5 -110t67 -90.5v-25h-151q-33 27 -76.5 66.5t-88 84.5
t-82 86.5t-59.5 70.5v20h257z" />
    <glyph glyph-name="Aacute" unicode="&#xc1;" horiz-adv-x="1173" 
d="M928 0l-118 409h-448l-118 -409h-244l449 1465h272l451 -1465h-244zM760 609l-117 421q-7 34 -18 78l-22 88t-18 78q-6 -37 -16 -81t-20.5 -86.5t-19.5 -74.5l-116 -423h347zM908 1914v-20q-23 -29 -60 -69.5t-80.5 -84.5t-87 -84.5t-78.5 -69.5h-151v25q35 47 71.5 99
t69.5 105t58 99h258z" />
    <glyph glyph-name="Acircumflex" unicode="&#xc2;" horiz-adv-x="1173" 
d="M928 0l-118 409h-448l-118 -409h-244l449 1465h272l451 -1465h-244zM760 609l-117 421q-7 34 -18 78l-22 88t-18 78q-6 -37 -16 -81t-20.5 -86.5t-19.5 -74.5l-116 -423h347zM700 1914q25 -46 63.5 -100.5t81 -108t78.5 -95.5v-24h-141q-47 35 -97.5 82t-99.5 102
q-50 -54 -100.5 -102.5t-94.5 -81.5h-141v24q36 42 78.5 96t81.5 109t62 99h229z" />
    <glyph glyph-name="Atilde" unicode="&#xc3;" horiz-adv-x="1173" 
d="M928 0l-118 409h-448l-118 -409h-244l449 1465h272l451 -1465h-244zM760 609l-117 421q-7 34 -18 78l-22 88t-18 78q-6 -37 -16 -81t-20.5 -86.5t-19.5 -74.5l-116 -423h347zM230 1586q5 59 19.5 109.5t40.5 88.5t63.5 59t85.5 21q42 0 80 -17t74 -39t70 -39t66 -17
q35 0 56.5 29t31.5 85h123q-9 -135 -66.5 -206.5t-142.5 -71.5q-40 0 -79 17t-75.5 39t-70 39.5t-63.5 17.5q-33 0 -56.5 -28.5t-34.5 -86.5h-122z" />
    <glyph glyph-name="Adieresis" unicode="&#xc4;" horiz-adv-x="1173" 
d="M928 0l-118 409h-448l-118 -409h-244l449 1465h272l451 -1465h-244zM760 609l-117 421q-7 34 -18 78l-22 88t-18 78q-6 -37 -16 -81t-20.5 -86.5t-19.5 -74.5l-116 -423h347zM290 1735q0 60 31 88.5t78 28.5t78.5 -29t31.5 -88q0 -57 -31.5 -87t-78.5 -30t-78 29.5
t-31 87.5zM661 1735q0 60 31.5 88.5t78.5 28.5t79 -29t32 -88q0 -57 -32 -87t-79 -30q-48 0 -79 30t-31 87z" />
    <glyph glyph-name="Aring" unicode="&#xc5;" horiz-adv-x="1173" 
d="M928 0l-118 409h-448l-118 -409h-244l449 1465h272l451 -1465h-244zM760 609l-117 421q-7 34 -18 78l-22 88t-18 78q-6 -37 -16 -81t-20.5 -86.5t-19.5 -74.5l-116 -423h347zM584 1351q-103 0 -166 60.5t-63 161.5q0 102 63 162.5t166 60.5q100 0 166.5 -60.5
t66.5 -159.5q0 -103 -65 -164t-168 -61zM586 1470q45 0 75 28t30 76q0 47 -29.5 75.5t-75.5 28.5t-76 -28.5t-30 -75.5q0 -48 27 -76t79 -28z" />
    <glyph glyph-name="AE" unicode="&#xc6;" horiz-adv-x="1599" 
d="M1495 0h-718v409h-387l-151 -409h-242l557 1462h941v-197h-489v-405h457v-196h-457v-465h489v-199zM461 609h317v652h-80z" />
    <glyph glyph-name="Ccedilla" unicode="&#xc7;" horiz-adv-x="1123" 
d="M715 1285q-90 0 -159 -41t-115.5 -115.5t-70 -176t-23.5 -223.5q0 -172 42.5 -295.5t125 -189t205.5 -65.5q79 0 152 18.5t146 48.5v-201q-72 -33 -150.5 -49t-175.5 -16q-191 0 -321 91t-196 259.5t-66 400.5q0 163 39 300t115 239t188 158t258 56q95 0 185 -22.5
t170 -65.5l-76 -191q-63 35 -131 57.5t-142 22.5zM863 -271q0 -105 -68 -163t-207 -58q-39 0 -71.5 4.5t-56.5 11.5v133q24 -7 54 -11t57 -4q54 0 84 21t30 63q0 48 -43 74t-122 35l77 165h133l-40 -90q51 -11 90 -34.5t61 -60.5t22 -86z" />
    <glyph glyph-name="Egrave" unicode="&#xc8;" horiz-adv-x="994" 
d="M889 0h-722v1462h722v-196h-492v-406h460v-196h-460v-465h492v-199zM476 1914q24 -46 59.5 -102.5t73.5 -110t67 -90.5v-25h-151q-33 27 -76.5 66.5t-88 84.5t-82 86.5t-59.5 70.5v20h257z" />
    <glyph glyph-name="Eacute" unicode="&#xc9;" horiz-adv-x="994" 
d="M889 0h-722v1462h722v-196h-492v-406h460v-196h-460v-465h492v-199zM858 1914v-20q-23 -29 -60 -69.5t-80.5 -84.5t-87 -84.5t-78.5 -69.5h-151v25q35 47 71.5 99t69.5 105t58 99h258z" />
    <glyph glyph-name="Ecircumflex" unicode="&#xca;" horiz-adv-x="994" 
d="M889 0h-722v1462h722v-196h-492v-406h460v-196h-460v-465h492v-199zM649 1914q25 -46 63.5 -100.5t81 -108t78.5 -95.5v-24h-141q-47 35 -97.5 82t-99.5 102q-50 -54 -100.5 -102.5t-94.5 -81.5h-141v24q36 42 78.5 96t81.5 109t62 99h229z" />
    <glyph glyph-name="Edieresis" unicode="&#xcb;" horiz-adv-x="994" 
d="M889 0h-722v1462h722v-196h-492v-406h460v-196h-460v-465h492v-199zM237 1735q0 60 31 88.5t78 28.5t78.5 -29t31.5 -88q0 -57 -31.5 -87t-78.5 -30t-78 29.5t-31 87.5zM608 1735q0 60 31.5 88.5t78.5 28.5t79 -29t32 -88q0 -57 -32 -87t-79 -30q-48 0 -79 30t-31 87z
" />
    <glyph glyph-name="Igrave" unicode="&#xcc;" horiz-adv-x="563" 
d="M167 0v1462h230v-1462h-230zM204 1919q24 -46 59.5 -102.5t73.5 -110t67 -90.5v-25h-151q-33 27 -76.5 66.5t-88 84.5t-82 86.5t-59.5 70.5v20h257z" />
    <glyph glyph-name="Iacute" unicode="&#xcd;" horiz-adv-x="563" 
d="M167 0v1462h230v-1462h-230zM615 1919v-20q-23 -29 -60 -69.5t-80.5 -84.5t-87 -84.5t-78.5 -69.5h-151v25q35 47 71.5 99t69.5 105t58 99h258z" />
    <glyph glyph-name="Icircumflex" unicode="&#xce;" horiz-adv-x="563" 
d="M167 0v1462h230v-1462h-230zM396 1918q25 -46 63.5 -100.5t81 -108t78.5 -95.5v-24h-141q-47 35 -97.5 82t-99.5 102q-50 -54 -100.5 -102.5t-94.5 -81.5h-141v24q36 42 78.5 96t81.5 109t62 99h229z" />
    <glyph glyph-name="Idieresis" unicode="&#xcf;" horiz-adv-x="563" 
d="M167 0v1462h230v-1462h-230zM-15 1739q0 60 31 88.5t78 28.5t78.5 -29t31.5 -88q0 -57 -31.5 -87t-78.5 -30t-78 29.5t-31 87.5zM356 1739q0 60 31.5 88.5t78.5 28.5t79 -29t32 -88q0 -57 -32 -87t-79 -30q-48 0 -79 30t-31 87z" />
    <glyph glyph-name="Eth" unicode="&#xd0;" horiz-adv-x="1299" 
d="M557 1462q199 0 340.5 -81t217 -240t75.5 -392q0 -246 -77 -412.5t-225 -251.5t-361 -85h-357v645h-128v186h128v631h387zM552 1266h-152v-435h244v-186h-244v-447h127q215 0 319.5 136t104.5 407q0 178 -45.5 294.5t-134.5 173.5t-219 57z" />
    <glyph glyph-name="Ntilde" unicode="&#xd1;" horiz-adv-x="1408" 
d="M1242 0h-278l-593 1141h-8q4 -60 7.5 -121.5t5.5 -121t3 -116.5v-782h-212v1462h276l592 -1127h7q-3 58 -6 118.5t-5 120t-2 112.5v776h213v-1462zM352 1586q5 59 19.5 109.5t40.5 88.5t63.5 59t85.5 21q42 0 80 -17t74 -39t70 -39t66 -17q35 0 56.5 29t31.5 85h123
q-9 -135 -66.5 -206.5t-142.5 -71.5q-40 0 -79 17t-75.5 39t-70 39.5t-63.5 17.5q-33 0 -56.5 -28.5t-34.5 -86.5h-122z" />
    <glyph glyph-name="Ograve" unicode="&#xd2;" horiz-adv-x="1389" 
d="M1280 733q0 -167 -35.5 -305.5t-107 -238.5t-182 -154.5t-259.5 -54.5q-152 0 -263 55t-182.5 155.5t-106.5 239t-35 305.5q0 237 64.5 404.5t195.5 256.5t328 89q199 0 328 -94.5t192 -263.5t63 -394zM349 733q0 -176 37.5 -300t114.5 -188.5t194 -64.5q119 0 195 64
t113 187.5t37 301.5q0 268 -83.5 410t-259.5 142q-119 0 -196 -64.5t-114.5 -187.5t-37.5 -300zM631 1914q24 -46 59.5 -102.5t73.5 -110t67 -90.5v-25h-151q-33 27 -76.5 66.5t-88 84.5t-82 86.5t-59.5 70.5v20h257z" />
    <glyph glyph-name="Oacute" unicode="&#xd3;" horiz-adv-x="1389" 
d="M1280 733q0 -167 -35.5 -305.5t-107 -238.5t-182 -154.5t-259.5 -54.5q-152 0 -263 55t-182.5 155.5t-106.5 239t-35 305.5q0 237 64.5 404.5t195.5 256.5t328 89q199 0 328 -94.5t192 -263.5t63 -394zM349 733q0 -176 37.5 -300t114.5 -188.5t194 -64.5q119 0 195 64
t113 187.5t37 301.5q0 268 -83.5 410t-259.5 142q-119 0 -196 -64.5t-114.5 -187.5t-37.5 -300zM1022 1914v-20q-23 -29 -60 -69.5t-80.5 -84.5t-87 -84.5t-78.5 -69.5h-151v25q35 47 71.5 99t69.5 105t58 99h258z" />
    <glyph glyph-name="Ocircumflex" unicode="&#xd4;" horiz-adv-x="1389" 
d="M1280 733q0 -167 -35.5 -305.5t-107 -238.5t-182 -154.5t-259.5 -54.5q-152 0 -263 55t-182.5 155.5t-106.5 239t-35 305.5q0 237 64.5 404.5t195.5 256.5t328 89q199 0 328 -94.5t192 -263.5t63 -394zM349 733q0 -176 37.5 -300t114.5 -188.5t194 -64.5q119 0 195 64
t113 187.5t37 301.5q0 268 -83.5 410t-259.5 142q-119 0 -196 -64.5t-114.5 -187.5t-37.5 -300zM811 1914q25 -46 63.5 -100.5t81 -108t78.5 -95.5v-24h-141q-47 35 -97.5 82t-99.5 102q-50 -54 -100.5 -102.5t-94.5 -81.5h-141v24q36 42 78.5 96t81.5 109t62 99h229z" />
    <glyph glyph-name="Otilde" unicode="&#xd5;" horiz-adv-x="1389" 
d="M1280 733q0 -167 -35.5 -305.5t-107 -238.5t-182 -154.5t-259.5 -54.5q-152 0 -263 55t-182.5 155.5t-106.5 239t-35 305.5q0 237 64.5 404.5t195.5 256.5t328 89q199 0 328 -94.5t192 -263.5t63 -394zM349 733q0 -176 37.5 -300t114.5 -188.5t194 -64.5q119 0 195 64
t113 187.5t37 301.5q0 268 -83.5 410t-259.5 142q-119 0 -196 -64.5t-114.5 -187.5t-37.5 -300zM341 1586q5 59 19.5 109.5t40.5 88.5t63.5 59t85.5 21q42 0 80 -17t74 -39t70 -39t66 -17q35 0 56.5 29t31.5 85h123q-9 -135 -66.5 -206.5t-142.5 -71.5q-40 0 -79 17
t-75.5 39t-70 39.5t-63.5 17.5q-33 0 -56.5 -28.5t-34.5 -86.5h-122z" />
    <glyph glyph-name="Odieresis" unicode="&#xd6;" horiz-adv-x="1389" 
d="M1280 733q0 -167 -35.5 -305.5t-107 -238.5t-182 -154.5t-259.5 -54.5q-152 0 -263 55t-182.5 155.5t-106.5 239t-35 305.5q0 237 64.5 404.5t195.5 256.5t328 89q199 0 328 -94.5t192 -263.5t63 -394zM349 733q0 -176 37.5 -300t114.5 -188.5t194 -64.5q119 0 195 64
t113 187.5t37 301.5q0 268 -83.5 410t-259.5 142q-119 0 -196 -64.5t-114.5 -187.5t-37.5 -300zM401 1735q0 60 31 88.5t78 28.5t78.5 -29t31.5 -88q0 -57 -31.5 -87t-78.5 -30t-78 29.5t-31 87.5zM772 1735q0 60 31.5 88.5t78.5 28.5t79 -29t32 -88q0 -57 -32 -87t-79 -30
q-48 0 -79 30t-31 87z" />
    <glyph glyph-name="multiply" unicode="&#xd7;" horiz-adv-x="1046" 
d="M822 1146l123 -121l-301 -302l297 -300l-120 -121l-301 298l-298 -298l-121 122l297 299l-297 298l121 124l299 -298z" />
    <glyph glyph-name="Oslash" unicode="&#xd8;" horiz-adv-x="1390" 
d="M1282 733q0 -175 -37 -314.5t-110 -237t-182.5 -149.5t-255.5 -52q-92 0 -168.5 21t-138.5 63l-88 -153l-130 73l102 177q-85 105 -124.5 249t-39.5 325q0 237 65 404.5t196 256.5t327 89q91 0 168.5 -23t140.5 -66l84 143l129 -74l-99 -168q80 -97 120.5 -239.5
t40.5 -324.5zM1044 733q0 101 -14 186t-42 149l-491 -819q38 -35 88 -53.5t111 -18.5q120 0 197 64.5t114 189t37 302.5zM348 733q0 -107 15 -194t44 -153l494 822q-39 40 -89.5 59.5t-112.5 19.5q-120 0 -197.5 -64.5t-115.5 -188t-38 -301.5z" />
    <glyph glyph-name="Ugrave" unicode="&#xd9;" horiz-adv-x="1313" 
d="M1158 1462v-969q0 -161 -56.5 -275.5t-168.5 -176t-280 -61.5q-242 0 -370 133.5t-128 379.5v969h230v-956q0 -171 69.5 -248.5t203.5 -77.5q93 0 152.5 35.5t89 108t29.5 183.5v955h229zM598 1914q24 -46 59.5 -102.5t73.5 -110t67 -90.5v-25h-151q-33 27 -76.5 66.5
t-88 84.5t-82 86.5t-59.5 70.5v20h257z" />
    <glyph glyph-name="Uacute" unicode="&#xda;" horiz-adv-x="1313" 
d="M1158 1462v-969q0 -161 -56.5 -275.5t-168.5 -176t-280 -61.5q-242 0 -370 133.5t-128 379.5v969h230v-956q0 -171 69.5 -248.5t203.5 -77.5q93 0 152.5 35.5t89 108t29.5 183.5v955h229zM986 1914v-20q-23 -29 -60 -69.5t-80.5 -84.5t-87 -84.5t-78.5 -69.5h-151v25
q35 47 71.5 99t69.5 105t58 99h258z" />
    <glyph glyph-name="Ucircumflex" unicode="&#xdb;" horiz-adv-x="1313" 
d="M1158 1462v-969q0 -161 -56.5 -275.5t-168.5 -176t-280 -61.5q-242 0 -370 133.5t-128 379.5v969h230v-956q0 -171 69.5 -248.5t203.5 -77.5q93 0 152.5 35.5t89 108t29.5 183.5v955h229zM772 1914q25 -46 63.5 -100.5t81 -108t78.5 -95.5v-24h-141q-47 35 -97.5 82
t-99.5 102q-50 -54 -100.5 -102.5t-94.5 -81.5h-141v24q36 42 78.5 96t81.5 109t62 99h229z" />
    <glyph glyph-name="Udieresis" unicode="&#xdc;" horiz-adv-x="1313" 
d="M1158 1462v-969q0 -161 -56.5 -275.5t-168.5 -176t-280 -61.5q-242 0 -370 133.5t-128 379.5v969h230v-956q0 -171 69.5 -248.5t203.5 -77.5q93 0 152.5 35.5t89 108t29.5 183.5v955h229zM362 1735q0 60 31 88.5t78 28.5t78.5 -29t31.5 -88q0 -57 -31.5 -87t-78.5 -30
t-78 29.5t-31 87.5zM733 1735q0 60 31.5 88.5t78.5 28.5t79 -29t32 -88q0 -57 -32 -87t-79 -30q-48 0 -79 30t-31 87z" />
    <glyph glyph-name="Yacute" unicode="&#xdd;" horiz-adv-x="1045" 
d="M523 804l279 658h243l-408 -895v-567h-229v560l-408 902h245zM844 1914v-20q-23 -29 -60 -69.5t-80.5 -84.5t-87 -84.5t-78.5 -69.5h-151v25q35 47 71.5 99t69.5 105t58 99h258z" />
    <glyph glyph-name="Thorn" unicode="&#xde;" horiz-adv-x="1094" 
d="M1019 780q0 -101 -27 -187.5t-85.5 -151t-153 -100t-229.5 -35.5h-127v-306h-230v1462h230v-242h144q247 0 362.5 -114t115.5 -326zM397 500h99q101 0 165 28t95.5 89t31.5 158q0 129 -64.5 189.5t-204.5 60.5h-122v-525z" />
    <glyph glyph-name="germandbls" unicode="&#xdf;" horiz-adv-x="1187" 
d="M1001 1250q0 -70 -24.5 -121.5t-60 -90.5t-71 -71t-59.5 -63t-24 -66q0 -29 14.5 -54.5t48.5 -55t90 -72.5q66 -52 110.5 -100.5t67 -104.5t22.5 -132q0 -110 -43 -185.5t-125 -114.5t-199 -39q-76 0 -140.5 14.5t-117.5 45.5v199q32 -21 71.5 -39t82.5 -28.5t85 -10.5
q81 0 121 39t40 107q0 42 -14.5 74.5t-49.5 67t-97 79.5q-72 54 -113.5 100.5t-58.5 92.5t-17 97q0 61 24 104t59 77t70 66.5t59 71.5t24 92q0 73 -52 113t-141 40q-64 0 -112.5 -25t-75 -76.5t-26.5 -132.5v-1148h-223v1159q0 135 55.5 225.5t154 136.5t228.5 46
q124 0 218 -37t146.5 -107.5t52.5 -172.5z" />
    <glyph glyph-name="agrave" unicode="&#xe0;" horiz-adv-x="1042" 
d="M534 1129q184 0 275.5 -96t91.5 -290v-743h-162l-39 155h-7q-38 -58 -81.5 -97t-100 -58.5t-135.5 -19.5q-94 0 -161 42t-102 118t-35 177q0 170 111.5 258t328.5 96l161 7v59q0 114 -42.5 165t-127.5 51q-65 0 -131 -21t-135 -57l-68 162q75 43 167 67.5t192 24.5z
M679 532l-115 -6q-139 -6 -198.5 -58.5t-59.5 -147.5q0 -86 40 -126t108 -40q100 0 162.5 72t62.5 204v102zM483 1569q24 -46 59.5 -102.5t73.5 -110t67 -90.5v-25h-151q-33 27 -76.5 66.5t-88 84.5t-82 86.5t-59.5 70.5v20h257z" />
    <glyph glyph-name="aacute" unicode="&#xe1;" horiz-adv-x="1042" 
d="M534 1129q184 0 275.5 -96t91.5 -290v-743h-162l-39 155h-7q-38 -58 -81.5 -97t-100 -58.5t-135.5 -19.5q-94 0 -161 42t-102 118t-35 177q0 170 111.5 258t328.5 96l161 7v59q0 114 -42.5 165t-127.5 51q-65 0 -131 -21t-135 -57l-68 162q75 43 167 67.5t192 24.5z
M679 532l-115 -6q-139 -6 -198.5 -58.5t-59.5 -147.5q0 -86 40 -126t108 -40q100 0 162.5 72t62.5 204v102zM839 1569v-20q-23 -29 -60 -69.5t-80.5 -84.5t-87 -84.5t-78.5 -69.5h-151v25q35 47 71.5 99t69.5 105t58 99h258z" />
    <glyph glyph-name="acircumflex" unicode="&#xe2;" horiz-adv-x="1042" 
d="M534 1129q184 0 275.5 -96t91.5 -290v-743h-162l-39 155h-7q-38 -58 -81.5 -97t-100 -58.5t-135.5 -19.5q-94 0 -161 42t-102 118t-35 177q0 170 111.5 258t328.5 96l161 7v59q0 114 -42.5 165t-127.5 51q-65 0 -131 -21t-135 -57l-68 162q75 43 167 67.5t192 24.5z
M679 532l-115 -6q-139 -6 -198.5 -58.5t-59.5 -147.5q0 -86 40 -126t108 -40q100 0 162.5 72t62.5 204v102zM643 1569q25 -46 63.5 -100.5t81 -108t78.5 -95.5v-24h-141q-47 35 -97.5 82t-99.5 102q-50 -54 -100.5 -102.5t-94.5 -81.5h-141v24q36 42 78.5 96t81.5 109t62 99
h229z" />
    <glyph glyph-name="atilde" unicode="&#xe3;" horiz-adv-x="1042" 
d="M534 1129q184 0 275.5 -96t91.5 -290v-743h-162l-39 155h-7q-38 -58 -81.5 -97t-100 -58.5t-135.5 -19.5q-94 0 -161 42t-102 118t-35 177q0 170 111.5 258t328.5 96l161 7v59q0 114 -42.5 165t-127.5 51q-65 0 -131 -21t-135 -57l-68 162q75 43 167 67.5t192 24.5z
M679 532l-115 -6q-139 -6 -198.5 -58.5t-59.5 -147.5q0 -86 40 -126t108 -40q100 0 162.5 72t62.5 204v102zM171 1241q5 59 19.5 109.5t40.5 88.5t63.5 59t85.5 21q42 0 80 -17t74 -39t70 -39t66 -17q35 0 56.5 29t31.5 85h123q-9 -135 -66.5 -206.5t-142.5 -71.5
q-40 0 -79 17t-75.5 39t-70 39.5t-63.5 17.5q-33 0 -56.5 -28.5t-34.5 -86.5h-122z" />
    <glyph glyph-name="adieresis" unicode="&#xe4;" horiz-adv-x="1042" 
d="M534 1129q184 0 275.5 -96t91.5 -290v-743h-162l-39 155h-7q-38 -58 -81.5 -97t-100 -58.5t-135.5 -19.5q-94 0 -161 42t-102 118t-35 177q0 170 111.5 258t328.5 96l161 7v59q0 114 -42.5 165t-127.5 51q-65 0 -131 -21t-135 -57l-68 162q75 43 167 67.5t192 24.5z
M679 532l-115 -6q-139 -6 -198.5 -58.5t-59.5 -147.5q0 -86 40 -126t108 -40q100 0 162.5 72t62.5 204v102zM231 1390q0 60 31 88.5t78 28.5t78.5 -29t31.5 -88q0 -57 -31.5 -87t-78.5 -30t-78 29.5t-31 87.5zM602 1390q0 60 31.5 88.5t78.5 28.5t79 -29t32 -88
q0 -57 -32 -87t-79 -30q-48 0 -79 30t-31 87z" />
    <glyph glyph-name="aring" unicode="&#xe5;" horiz-adv-x="1042" 
d="M534 1129q184 0 275.5 -96t91.5 -290v-743h-162l-39 155h-7q-38 -58 -81.5 -97t-100 -58.5t-135.5 -19.5q-94 0 -161 42t-102 118t-35 177q0 170 111.5 258t328.5 96l161 7v59q0 114 -42.5 165t-127.5 51q-65 0 -131 -21t-135 -57l-68 162q75 43 167 67.5t192 24.5z
M679 532l-115 -6q-139 -6 -198.5 -58.5t-59.5 -147.5q0 -86 40 -126t108 -40q100 0 162.5 72t62.5 204v102zM528 1243q-103 0 -166 60.5t-63 161.5q0 102 63 162.5t166 60.5q100 0 166.5 -60.5t66.5 -159.5q0 -103 -65 -164t-168 -61zM530 1362q45 0 75 28t30 76
q0 47 -29.5 75.5t-75.5 28.5t-76 -28.5t-30 -75.5q0 -48 27 -76t79 -28z" />
    <glyph glyph-name="ae" unicode="&#xe6;" horiz-adv-x="1596" 
d="M1106 1128q129 0 219 -62.5t137.5 -174t46.5 -261.5v-128h-621q3 -171 70 -257.5t194 -86.5q83 0 157 20t150 61v-185q-72 -38 -148 -56t-175 -18q-83 0 -155.5 24.5t-129.5 73t-94 120.5q-45 -73 -96.5 -121.5t-117.5 -72.5t-155 -24q-96 0 -165.5 42t-107 118
t-37.5 177q0 114 48.5 190.5t144.5 117.5t236 46l160 7v70q0 106 -43.5 155.5t-124.5 49.5q-63 0 -128.5 -20t-133.5 -57l-69 161q72 41 162 66.5t186 25.5q105 0 176 -37t112 -114q51 73 126 111.5t176 38.5zM667 531l-112 -5q-133 -6 -191 -57.5t-58 -148.5
q0 -85 38.5 -125.5t105.5 -40.5q64 0 113 32.5t76.5 93.5t27.5 148v103zM1103 955q-92 0 -148.5 -71.5t-63.5 -219.5h405q0 86 -21.5 151.5t-64 102.5t-107.5 37z" />
    <glyph glyph-name="ccedilla" unicode="&#xe7;" horiz-adv-x="889" 
d="M543 -20q-143 0 -244 62t-154 188t-53 318q0 189 55.5 318t159.5 196t250 67q85 0 154.5 -18t122.5 -47l-66 -179q-51 25 -103 39.5t-102 14.5q-80 0 -134 -44.5t-81.5 -130.5t-27.5 -215q0 -125 27.5 -209.5t81 -127.5t132.5 -43q71 0 133 19.5t119 52.5v-191
q-56 -36 -122.5 -53t-147.5 -17zM731 -271q0 -105 -68 -163t-207 -58q-39 0 -71.5 4.5t-56.5 11.5v133q24 -7 54 -11t57 -4q54 0 84 21t30 63q0 48 -43 74t-122 35l77 165h133l-40 -90q51 -11 90 -34.5t61 -60.5t22 -86z" />
    <glyph glyph-name="egrave" unicode="&#xe8;" horiz-adv-x="1036" 
d="M533 1128q134 0 227 -62.5t141.5 -174.5t48.5 -262v-128h-634q3 -168 73 -255t202 -87q85 0 157.5 19.5t150.5 61.5v-186q-72 -38 -149.5 -56t-177.5 -18q-154 0 -261.5 67.5t-163 194.5t-55.5 305q0 186 53 316t151.5 197.5t236.5 67.5zM535 956q-94 0 -150.5 -72
t-64.5 -220h417q0 85 -22.5 150.5t-67 103.5t-112.5 38zM480 1569q24 -46 59.5 -102.5t73.5 -110t67 -90.5v-25h-151q-33 27 -76.5 66.5t-88 84.5t-82 86.5t-59.5 70.5v20h257z" />
    <glyph glyph-name="eacute" unicode="&#xe9;" horiz-adv-x="1036" 
d="M533 1128q134 0 227 -62.5t141.5 -174.5t48.5 -262v-128h-634q3 -168 73 -255t202 -87q85 0 157.5 19.5t150.5 61.5v-186q-72 -38 -149.5 -56t-177.5 -18q-154 0 -261.5 67.5t-163 194.5t-55.5 305q0 186 53 316t151.5 197.5t236.5 67.5zM535 956q-94 0 -150.5 -72
t-64.5 -220h417q0 85 -22.5 150.5t-67 103.5t-112.5 38zM845 1569v-20q-23 -29 -60 -69.5t-80.5 -84.5t-87 -84.5t-78.5 -69.5h-151v25q35 47 71.5 99t69.5 105t58 99h258z" />
    <glyph glyph-name="ecircumflex" unicode="&#xea;" horiz-adv-x="1036" 
d="M533 1128q134 0 227 -62.5t141.5 -174.5t48.5 -262v-128h-634q3 -168 73 -255t202 -87q85 0 157.5 19.5t150.5 61.5v-186q-72 -38 -149.5 -56t-177.5 -18q-154 0 -261.5 67.5t-163 194.5t-55.5 305q0 186 53 316t151.5 197.5t236.5 67.5zM535 956q-94 0 -150.5 -72
t-64.5 -220h417q0 85 -22.5 150.5t-67 103.5t-112.5 38zM640 1569q25 -46 63.5 -100.5t81 -108t78.5 -95.5v-24h-141q-47 35 -97.5 82t-99.5 102q-50 -54 -100.5 -102.5t-94.5 -81.5h-141v24q36 42 78.5 96t81.5 109t62 99h229z" />
    <glyph glyph-name="edieresis" unicode="&#xeb;" horiz-adv-x="1036" 
d="M533 1128q134 0 227 -62.5t141.5 -174.5t48.5 -262v-128h-634q3 -168 73 -255t202 -87q85 0 157.5 19.5t150.5 61.5v-186q-72 -38 -149.5 -56t-177.5 -18q-154 0 -261.5 67.5t-163 194.5t-55.5 305q0 186 53 316t151.5 197.5t236.5 67.5zM535 956q-94 0 -150.5 -72
t-64.5 -220h417q0 85 -22.5 150.5t-67 103.5t-112.5 38zM228 1390q0 60 31 88.5t78 28.5t78.5 -29t31.5 -88q0 -57 -31.5 -87t-78.5 -30t-78 29.5t-31 87.5zM599 1390q0 60 31.5 88.5t78.5 28.5t79 -29t32 -88q0 -57 -32 -87t-79 -30q-48 0 -79 30t-31 87z" />
    <glyph glyph-name="igrave" unicode="&#xec;" horiz-adv-x="516" 
d="M369 0h-222v1108h222v-1108zM213 1569q24 -46 59.5 -102.5t73.5 -110t67 -90.5v-25h-151q-33 27 -76.5 66.5t-88 84.5t-82 86.5t-59.5 70.5v20h257z" />
    <glyph glyph-name="iacute" unicode="&#xed;" horiz-adv-x="516" 
d="M369 0h-222v1108h222v-1108zM579 1569v-20q-23 -29 -60 -69.5t-80.5 -84.5t-87 -84.5t-78.5 -69.5h-151v25q35 47 71.5 99t69.5 105t58 99h258z" />
    <glyph glyph-name="icircumflex" unicode="&#xee;" horiz-adv-x="516" 
d="M369 0h-222v1108h222v-1108zM373 1569q25 -46 63.5 -100.5t81 -108t78.5 -95.5v-24h-141q-47 35 -97.5 82t-99.5 102q-50 -54 -100.5 -102.5t-94.5 -81.5h-141v24q36 42 78.5 96t81.5 109t62 99h229z" />
    <glyph glyph-name="idieresis" unicode="&#xef;" horiz-adv-x="516" 
d="M369 0h-222v1108h222v-1108zM-39 1390q0 60 31 88.5t78 28.5t78.5 -29t31.5 -88q0 -57 -31.5 -87t-78.5 -30t-78 29.5t-31 87.5zM332 1390q0 60 31.5 88.5t78.5 28.5t79 -29t32 -88q0 -57 -32 -87t-79 -30q-48 0 -79 30t-31 87z" />
    <glyph glyph-name="eth" unicode="&#xf0;" horiz-adv-x="1100" 
d="M402 1565q53 -26 105 -58t101 -70l194 125l84 -118l-166 -105q92 -94 156.5 -210.5t98.5 -258.5t34 -315q0 -186 -54.5 -314t-157.5 -194.5t-249 -66.5q-139 0 -241.5 63t-158.5 176.5t-56 263.5q0 158 53.5 269.5t148 170.5t218.5 59q54 0 98.5 -10.5t79 -30.5t58.5 -51
l7 3q-25 97 -74 181.5t-118 156.5l-197 -124l-83 118l172 109q-34 27 -69.5 52t-73.5 47zM553 801q-80 0 -132.5 -36.5t-77.5 -108t-25 -178.5q0 -93 24.5 -165t76.5 -112.5t133 -40.5q122 0 176.5 88t54.5 261q0 61 -14 114t-42 93t-71.5 62.5t-102.5 22.5z" />
    <glyph glyph-name="ntilde" unicode="&#xf1;" horiz-adv-x="1138" 
d="M659 1129q162 0 250 -97t88 -299v-733h-222v684q0 127 -41.5 191t-131.5 64q-129 0 -181 -94t-52 -291v-554h-223v1108h175l28 -151h13q30 56 75 94t101.5 58t120.5 20zM222 1242q5 59 19.5 109.5t40.5 88.5t63.5 59t85.5 21q42 0 80 -17t74 -39t70 -39t66 -17
q35 0 56.5 29t31.5 85h123q-9 -135 -66.5 -206.5t-142.5 -71.5q-40 0 -79 17t-75.5 39t-70 39.5t-63.5 17.5q-33 0 -56.5 -28.5t-34.5 -86.5h-122z" />
    <glyph glyph-name="ograve" unicode="&#xf2;" horiz-adv-x="1100" 
d="M1009 556q0 -130 -29.5 -236t-87.5 -182t-144 -117t-200 -41q-107 0 -191.5 40.5t-143.5 116.5t-90 182t-31 237q0 179 52.5 307.5t155.5 197t253 68.5q138 0 240.5 -66.5t159 -194t56.5 -312.5zM319 555q0 -125 24.5 -212t76 -132t131.5 -45q81 0 131.5 44.5t74.5 131.5
t24 214q0 126 -24 212t-74.5 130t-132.5 44q-121 0 -176 -98t-55 -289zM506 1569q24 -46 59.5 -102.5t73.5 -110t67 -90.5v-25h-151q-33 27 -76.5 66.5t-88 84.5t-82 86.5t-59.5 70.5v20h257z" />
    <glyph glyph-name="oacute" unicode="&#xf3;" horiz-adv-x="1100" 
d="M1009 556q0 -130 -29.5 -236t-87.5 -182t-144 -117t-200 -41q-107 0 -191.5 40.5t-143.5 116.5t-90 182t-31 237q0 179 52.5 307.5t155.5 197t253 68.5q138 0 240.5 -66.5t159 -194t56.5 -312.5zM319 555q0 -125 24.5 -212t76 -132t131.5 -45q81 0 131.5 44.5t74.5 131.5
t24 214q0 126 -24 212t-74.5 130t-132.5 44q-121 0 -176 -98t-55 -289zM871 1569v-20q-23 -29 -60 -69.5t-80.5 -84.5t-87 -84.5t-78.5 -69.5h-151v25q35 47 71.5 99t69.5 105t58 99h258z" />
    <glyph glyph-name="ocircumflex" unicode="&#xf4;" horiz-adv-x="1100" 
d="M1009 556q0 -130 -29.5 -236t-87.5 -182t-144 -117t-200 -41q-107 0 -191.5 40.5t-143.5 116.5t-90 182t-31 237q0 179 52.5 307.5t155.5 197t253 68.5q138 0 240.5 -66.5t159 -194t56.5 -312.5zM319 555q0 -125 24.5 -212t76 -132t131.5 -45q81 0 131.5 44.5t74.5 131.5
t24 214q0 126 -24 212t-74.5 130t-132.5 44q-121 0 -176 -98t-55 -289zM666 1569q25 -46 63.5 -100.5t81 -108t78.5 -95.5v-24h-141q-47 35 -97.5 82t-99.5 102q-50 -54 -100.5 -102.5t-94.5 -81.5h-141v24q36 42 78.5 96t81.5 109t62 99h229z" />
    <glyph glyph-name="otilde" unicode="&#xf5;" horiz-adv-x="1100" 
d="M1009 556q0 -130 -29.5 -236t-87.5 -182t-144 -117t-200 -41q-107 0 -191.5 40.5t-143.5 116.5t-90 182t-31 237q0 179 52.5 307.5t155.5 197t253 68.5q138 0 240.5 -66.5t159 -194t56.5 -312.5zM319 555q0 -125 24.5 -212t76 -132t131.5 -45q81 0 131.5 44.5t74.5 131.5
t24 214q0 126 -24 212t-74.5 130t-132.5 44q-121 0 -176 -98t-55 -289zM194 1241q5 59 19.5 109.5t40.5 88.5t63.5 59t85.5 21q42 0 80 -17t74 -39t70 -39t66 -17q35 0 56.5 29t31.5 85h123q-9 -135 -66.5 -206.5t-142.5 -71.5q-40 0 -79 17t-75.5 39t-70 39.5t-63.5 17.5
q-33 0 -56.5 -28.5t-34.5 -86.5h-122z" />
    <glyph glyph-name="odieresis" unicode="&#xf6;" horiz-adv-x="1100" 
d="M1009 556q0 -130 -29.5 -236t-87.5 -182t-144 -117t-200 -41q-107 0 -191.5 40.5t-143.5 116.5t-90 182t-31 237q0 179 52.5 307.5t155.5 197t253 68.5q138 0 240.5 -66.5t159 -194t56.5 -312.5zM319 555q0 -125 24.5 -212t76 -132t131.5 -45q81 0 131.5 44.5t74.5 131.5
t24 214q0 126 -24 212t-74.5 130t-132.5 44q-121 0 -176 -98t-55 -289zM254 1390q0 60 31 88.5t78 28.5t78.5 -29t31.5 -88q0 -57 -31.5 -87t-78.5 -30t-78 29.5t-31 87.5zM625 1390q0 60 31.5 88.5t78.5 28.5t79 -29t32 -88q0 -57 -32 -87t-79 -30q-48 0 -79 30t-31 87z
" />
    <glyph glyph-name="divide" unicode="&#xf7;" horiz-adv-x="1046" 
d="M80 635v175h884v-175h-884zM523 221q-54 0 -88 34t-34 104q0 71 33.5 103.5t88.5 32.5q53 0 86 -32.5t33 -103.5q0 -70 -34 -104t-85 -34zM523 949q-54 0 -88 34t-34 102q0 72 33.5 104.5t88.5 32.5q53 0 86 -32.5t33 -104.5q0 -69 -34 -102.5t-85 -33.5z" />
    <glyph glyph-name="oslash" unicode="&#xf8;" horiz-adv-x="1102" 
d="M1010 556q0 -183 -55 -312t-158 -196.5t-248 -67.5q-62 0 -116.5 14.5t-101.5 42.5l-79 -138l-123 72l91 157q-63 80 -95 186t-32 242q0 277 121.5 425t339.5 148q64 0 120 -16t104 -48l70 120l123 -72l-81 -142q58 -74 89 -178.5t31 -236.5zM317 555q0 -67 7 -122
t22 -96l338 561q-26 24 -59 36t-73 12q-124 0 -179.5 -99t-55.5 -292zM788 556q0 61 -7 112.5t-19 91.5l-335 -557q24 -21 56 -31.5t68 -10.5q83 0 135 45.5t77 133.5t25 216z" />
    <glyph glyph-name="ugrave" unicode="&#xf9;" horiz-adv-x="1138" 
d="M992 1108v-1108h-176l-28 149h-13q-29 -55 -74 -93t-101 -57t-121 -19q-111 0 -186.5 45.5t-114 135t-38.5 222.5v725h223v-675q0 -133 41.5 -198.5t128.5 -65.5q89 0 140.5 42.5t73.5 126t22 205.5v565h223zM526 1569q24 -46 59.5 -102.5t73.5 -110t67 -90.5v-25h-151
q-33 27 -76.5 66.5t-88 84.5t-82 86.5t-59.5 70.5v20h257z" />
    <glyph glyph-name="uacute" unicode="&#xfa;" horiz-adv-x="1138" 
d="M992 1108v-1108h-176l-28 149h-13q-29 -55 -74 -93t-101 -57t-121 -19q-111 0 -186.5 45.5t-114 135t-38.5 222.5v725h223v-675q0 -133 41.5 -198.5t128.5 -65.5q89 0 140.5 42.5t73.5 126t22 205.5v565h223zM891 1569v-20q-23 -29 -60 -69.5t-80.5 -84.5t-87 -84.5
t-78.5 -69.5h-151v25q35 47 71.5 99t69.5 105t58 99h258z" />
    <glyph glyph-name="ucircumflex" unicode="&#xfb;" horiz-adv-x="1138" 
d="M992 1108v-1108h-176l-28 149h-13q-29 -55 -74 -93t-101 -57t-121 -19q-111 0 -186.5 45.5t-114 135t-38.5 222.5v725h223v-675q0 -133 41.5 -198.5t128.5 -65.5q89 0 140.5 42.5t73.5 126t22 205.5v565h223zM685 1569q25 -46 63.5 -100.5t81 -108t78.5 -95.5v-24h-141
q-47 35 -97.5 82t-99.5 102q-50 -54 -100.5 -102.5t-94.5 -81.5h-141v24q36 42 78.5 96t81.5 109t62 99h229z" />
    <glyph glyph-name="udieresis" unicode="&#xfc;" horiz-adv-x="1138" 
d="M992 1108v-1108h-176l-28 149h-13q-29 -55 -74 -93t-101 -57t-121 -19q-111 0 -186.5 45.5t-114 135t-38.5 222.5v725h223v-675q0 -133 41.5 -198.5t128.5 -65.5q89 0 140.5 42.5t73.5 126t22 205.5v565h223zM273 1390q0 60 31 88.5t78 28.5t78.5 -29t31.5 -88
q0 -57 -31.5 -87t-78.5 -30t-78 29.5t-31 87.5zM644 1390q0 60 31.5 88.5t78.5 28.5t79 -29t32 -88q0 -57 -32 -87t-79 -30q-48 0 -79 30t-31 87z" />
    <glyph glyph-name="yacute" unicode="&#xfd;" horiz-adv-x="962" 
d="M5 1108h238l184 -612q13 -41 23 -81t18 -79t13 -76h7q9 50 23.5 110t33.5 126l178 612h235l-403 -1255q-36 -116 -88.5 -193t-123 -114.5t-163.5 -37.5q-39 0 -71.5 5t-60.5 12v187q21 -6 47 -10t53 -4q51 0 87 21.5t62.5 66t47.5 113.5l33 108zM802 1569v-20
q-23 -29 -60 -69.5t-80.5 -84.5t-87 -84.5t-78.5 -69.5h-151v25q35 47 71.5 99t69.5 105t58 99h258z" />
    <glyph glyph-name="thorn" unicode="&#xfe;" horiz-adv-x="1128" 
d="M1036 555q0 -185 -46 -313t-130.5 -195t-199.5 -67q-69 0 -124.5 20.5t-96.5 57t-70 84.5h-10q3 -27 5.5 -58t4 -59.5t1.5 -51.5v-464h-224v2047h223v-419q0 -44 -2.5 -93.5t-6.5 -88.5h9q31 56 71.5 94.5t94 59t121.5 20.5q177 0 278.5 -147t101.5 -427zM809 556
q0 196 -52 291t-161 95q-120 0 -173 -86.5t-54 -266.5v-45q0 -188 52.5 -282t175.5 -94q75 0 122 47t68.5 134.5t21.5 206.5z" />
    <glyph glyph-name="ydieresis" unicode="&#xff;" horiz-adv-x="962" 
d="M5 1108h238l184 -612q13 -41 23 -81t18 -79t13 -76h7q9 50 23.5 110t33.5 126l178 612h235l-403 -1255q-36 -116 -88.5 -193t-123 -114.5t-163.5 -37.5q-39 0 -71.5 5t-60.5 12v187q21 -6 47 -10t53 -4q51 0 87 21.5t62.5 66t47.5 113.5l33 108zM184 1390q0 60 31 88.5
t78 28.5t78.5 -29t31.5 -88q0 -57 -31.5 -87t-78.5 -30t-78 29.5t-31 87.5zM555 1390q0 60 31.5 88.5t78.5 28.5t79 -29t32 -88q0 -57 -32 -87t-79 -30q-48 0 -79 30t-31 87z" />
    <glyph glyph-name="Amacron" unicode="&#x100;" horiz-adv-x="1173" 
d="M928 0l-118 409h-448l-118 -409h-244l449 1465h272l451 -1465h-244zM760 609l-117 421q-7 34 -18 78l-22 88t-18 78q-6 -37 -16 -81t-20.5 -86.5t-19.5 -74.5l-116 -423h347zM877 1770v-164h-583v164h583z" />
    <glyph glyph-name="amacron" unicode="&#x101;" horiz-adv-x="1042" 
d="M534 1129q184 0 275.5 -96t91.5 -290v-743h-162l-39 155h-7q-38 -58 -81.5 -97t-100 -58.5t-135.5 -19.5q-94 0 -161 42t-102 118t-35 177q0 170 111.5 258t328.5 96l161 7v59q0 114 -42.5 165t-127.5 51q-65 0 -131 -21t-135 -57l-68 162q75 43 167 67.5t192 24.5z
M679 532l-115 -6q-139 -6 -198.5 -58.5t-59.5 -147.5q0 -86 40 -126t108 -40q100 0 162.5 72t62.5 204v102zM820 1416v-164h-583v164h583z" />
    <glyph glyph-name="Abreve" unicode="&#x102;" horiz-adv-x="1173" 
d="M928 0l-118 409h-448l-118 -409h-244l449 1465h272l451 -1465h-244zM760 609l-117 421q-7 34 -18 78l-22 88t-18 78q-6 -37 -16 -81t-20.5 -86.5t-19.5 -74.5l-116 -423h347zM900 1898q-4 -91 -44.5 -159t-109.5 -105.5t-162 -37.5q-140 0 -220.5 79t-86.5 223h134
q5 -52 27 -82.5t60 -43t89 -12.5q47 0 85 13t62.5 43.5t29.5 81.5h136z" />
    <glyph glyph-name="abreve" unicode="&#x103;" horiz-adv-x="1042" 
d="M534 1129q184 0 275.5 -96t91.5 -290v-743h-162l-39 155h-7q-38 -58 -81.5 -97t-100 -58.5t-135.5 -19.5q-94 0 -161 42t-102 118t-35 177q0 170 111.5 258t328.5 96l161 7v59q0 114 -42.5 165t-127.5 51q-65 0 -131 -21t-135 -57l-68 162q75 43 167 67.5t192 24.5z
M679 532l-115 -6q-139 -6 -198.5 -58.5t-59.5 -147.5q0 -86 40 -126t108 -40q100 0 162.5 72t62.5 204v102zM842 1544q-4 -91 -44.5 -159t-109.5 -105.5t-162 -37.5q-140 0 -220.5 79t-86.5 223h134q5 -52 27 -82.5t60 -43t89 -12.5q47 0 85 13t62.5 43.5t29.5 81.5h136z
" />
    <glyph glyph-name="Aogonek" unicode="&#x104;" horiz-adv-x="1173" 
d="M928 0l-118 409h-448l-118 -409h-244l449 1465h272l451 -1465h-244zM760 609l-117 421q-7 34 -18 78l-22 88t-18 78q-6 -37 -16 -81t-20.5 -86.5t-19.5 -74.5l-116 -423h347zM964 -230q0 -45 23.5 -69t64.5 -24q29 0 51 5t37 11v-142q-25 -8 -55.5 -14t-70.5 -6
q-109 0 -165 54.5t-56 150.5q0 54 24 107t67 101t98 86l114 -30q-69 -67 -100.5 -120t-31.5 -110z" />
    <glyph glyph-name="aogonek" unicode="&#x105;" horiz-adv-x="1042" 
d="M534 1129q184 0 275.5 -96t91.5 -290v-743h-162l-39 155h-7q-38 -58 -81.5 -97t-100 -58.5t-135.5 -19.5q-94 0 -161 42t-102 118t-35 177q0 170 111.5 258t328.5 96l161 7v59q0 114 -42.5 165t-127.5 51q-65 0 -131 -21t-135 -57l-68 162q75 43 167 67.5t192 24.5z
M679 532l-115 -6q-139 -6 -198.5 -58.5t-59.5 -147.5q0 -86 40 -126t108 -40q100 0 162.5 72t62.5 204v102zM753 -230q0 -45 23.5 -69t64.5 -24q29 0 51 5t37 11v-142q-25 -8 -55.5 -14t-70.5 -6q-109 0 -165 54.5t-56 150.5q0 54 24 107t67 101t98 86l114 -30
q-69 -67 -100.5 -120t-31.5 -110z" />
    <glyph glyph-name="Cacute" unicode="&#x106;" horiz-adv-x="1123" 
d="M715 1285q-90 0 -159 -41t-115.5 -115.5t-70 -176t-23.5 -223.5q0 -172 42.5 -295.5t125 -189t205.5 -65.5q79 0 152 18.5t146 48.5v-201q-72 -33 -150.5 -49t-175.5 -16q-191 0 -321 91t-196 259.5t-66 400.5q0 163 39 300t115 239t188 158t258 56q95 0 185 -22.5
t170 -65.5l-76 -191q-63 35 -131 57.5t-142 22.5zM997 1923v-20q-23 -29 -60 -69.5t-80.5 -84.5t-87 -84.5t-78.5 -69.5h-151v25q35 47 71.5 99t69.5 105t58 99h258z" />
    <glyph glyph-name="cacute" unicode="&#x107;" horiz-adv-x="889" 
d="M543 -20q-143 0 -244 62t-154 188t-53 318q0 189 55.5 318t159.5 196t250 67q85 0 154.5 -18t122.5 -47l-66 -179q-51 25 -103 39.5t-102 14.5q-80 0 -134 -44.5t-81.5 -130.5t-27.5 -215q0 -125 27.5 -209.5t81 -127.5t132.5 -43q71 0 133 19.5t119 52.5v-191
q-56 -36 -122.5 -53t-147.5 -17zM838 1569v-20q-23 -29 -60 -69.5t-80.5 -84.5t-87 -84.5t-78.5 -69.5h-151v25q35 47 71.5 99t69.5 105t58 99h258z" />
    <glyph glyph-name="Ccircumflex" unicode="&#x108;" horiz-adv-x="1123" 
d="M715 1285q-90 0 -159 -41t-115.5 -115.5t-70 -176t-23.5 -223.5q0 -172 42.5 -295.5t125 -189t205.5 -65.5q79 0 152 18.5t146 48.5v-201q-72 -33 -150.5 -49t-175.5 -16q-191 0 -321 91t-196 259.5t-66 400.5q0 163 39 300t115 239t188 158t258 56q95 0 185 -22.5
t170 -65.5l-76 -191q-63 35 -131 57.5t-142 22.5zM791 1923q25 -46 63.5 -100.5t81 -108t78.5 -95.5v-24h-141q-47 35 -97.5 82t-99.5 102q-50 -54 -100.5 -102.5t-94.5 -81.5h-141v24q36 42 78.5 96t81.5 109t62 99h229z" />
    <glyph glyph-name="ccircumflex" unicode="&#x109;" horiz-adv-x="889" 
d="M543 -20q-143 0 -244 62t-154 188t-53 318q0 189 55.5 318t159.5 196t250 67q85 0 154.5 -18t122.5 -47l-66 -179q-51 25 -103 39.5t-102 14.5q-80 0 -134 -44.5t-81.5 -130.5t-27.5 -215q0 -125 27.5 -209.5t81 -127.5t132.5 -43q71 0 133 19.5t119 52.5v-191
q-56 -36 -122.5 -53t-147.5 -17zM633 1569q25 -46 63.5 -100.5t81 -108t78.5 -95.5v-24h-141q-47 35 -97.5 82t-99.5 102q-50 -54 -100.5 -102.5t-94.5 -81.5h-141v24q36 42 78.5 96t81.5 109t62 99h229z" />
    <glyph glyph-name="Cdot" unicode="&#x10a;" horiz-adv-x="1123" 
d="M715 1285q-90 0 -159 -41t-115.5 -115.5t-70 -176t-23.5 -223.5q0 -172 42.5 -295.5t125 -189t205.5 -65.5q79 0 152 18.5t146 48.5v-201q-72 -33 -150.5 -49t-175.5 -16q-191 0 -321 91t-196 259.5t-66 400.5q0 163 39 300t115 239t188 158t258 56q95 0 185 -22.5
t170 -65.5l-76 -191q-63 35 -131 57.5t-142 22.5zM688 1886q58 0 91.5 -31.5t33.5 -99.5q0 -66 -34 -98t-91 -32q-56 0 -91 32t-35 98q0 69 34 100t92 31z" />
    <glyph glyph-name="cdot" unicode="&#x10b;" horiz-adv-x="889" 
d="M543 -20q-143 0 -244 62t-154 188t-53 318q0 189 55.5 318t159.5 196t250 67q85 0 154.5 -18t122.5 -47l-66 -179q-51 25 -103 39.5t-102 14.5q-80 0 -134 -44.5t-81.5 -130.5t-27.5 -215q0 -125 27.5 -209.5t81 -127.5t132.5 -43q71 0 133 19.5t119 52.5v-191
q-56 -36 -122.5 -53t-147.5 -17zM529 1533q58 0 91.5 -31.5t33.5 -99.5q0 -66 -34 -98t-91 -32q-56 0 -91 32t-35 98q0 69 34 100t92 31z" />
    <glyph glyph-name="Ccaron" unicode="&#x10c;" horiz-adv-x="1123" 
d="M715 1285q-90 0 -159 -41t-115.5 -115.5t-70 -176t-23.5 -223.5q0 -172 42.5 -295.5t125 -189t205.5 -65.5q79 0 152 18.5t146 48.5v-201q-72 -33 -150.5 -49t-175.5 -16q-191 0 -321 91t-196 259.5t-66 400.5q0 163 39 300t115 239t188 158t258 56q95 0 185 -22.5
t170 -65.5l-76 -191q-63 35 -131 57.5t-142 22.5zM562 1595q-24 45 -63 99.5t-81.5 108.5t-77.5 95v25h141q45 -35 96 -83t98 -102q52 57 100 101t97 84h142v-25q-34 -39 -77 -92.5t-82.5 -109t-63.5 -101.5h-229z" />
    <glyph glyph-name="ccaron" unicode="&#x10d;" horiz-adv-x="889" 
d="M543 -20q-143 0 -244 62t-154 188t-53 318q0 189 55.5 318t159.5 196t250 67q85 0 154.5 -18t122.5 -47l-66 -179q-51 25 -103 39.5t-102 14.5q-80 0 -134 -44.5t-81.5 -130.5t-27.5 -215q0 -125 27.5 -209.5t81 -127.5t132.5 -43q71 0 133 19.5t119 52.5v-191
q-56 -36 -122.5 -53t-147.5 -17zM404 1241q-24 45 -63 99.5t-81.5 108.5t-77.5 95v25h141q45 -35 96 -83t98 -102q52 57 100 101t97 84h142v-25q-34 -39 -77 -92.5t-82.5 -109t-63.5 -101.5h-229z" />
    <glyph glyph-name="Dcaron" unicode="&#x10e;" horiz-adv-x="1299" 
d="M1190 749q0 -246 -77 -412.5t-225 -251.5t-361 -85h-360v1462h391q199 0 340 -81t216.5 -240t75.5 -392zM951 741q0 178 -45 294.5t-134 173.5t-219 57h-156v-1068h130q216 0 320 136t104 407zM528 1595q-24 45 -63 99.5t-81.5 108.5t-77.5 95v25h141q45 -35 96 -83
t98 -102q52 57 100 101t97 84h142v-25q-34 -39 -77 -92.5t-82.5 -109t-63.5 -101.5h-229z" />
    <glyph glyph-name="dcaron" unicode="&#x10f;" horiz-adv-x="1128" 
d="M473 -20q-178 0 -279.5 147t-101.5 425q0 280 102.5 428.5t277.5 148.5q68 0 122.5 -21t96 -58.5t71.5 -88.5h9q-3 44 -7.5 94t-4.5 91v410h223v-1556h-176l-35 143h-12q-30 -49 -70 -86t-93 -57t-123 -20zM535 164q121 0 175 87.5t55 263.5v50q0 187 -52 281t-180 94
q-107 0 -160.5 -101t-53.5 -288q0 -191 54 -289t162 -98zM1330 1556v-20q-12 -44 -34.5 -99t-50 -109.5t-55.5 -98.5h-132v24q7 25 15.5 63.5t16.5 83t14 86t9 70.5h217z" />
    <glyph glyph-name="Dcroat" unicode="&#x110;" horiz-adv-x="1299" 
d="M557 1462q199 0 340.5 -81t217 -240t75.5 -392q0 -246 -77 -412.5t-225 -251.5t-361 -85h-357v645h-128v186h128v631h387zM552 1266h-152v-435h244v-186h-244v-447h127q215 0 319.5 136t104.5 407q0 178 -45.5 294.5t-134.5 173.5t-219 57z" />
    <glyph glyph-name="dcroat" unicode="&#x111;" horiz-adv-x="1137" 
d="M473 -20q-178 0 -279.5 144t-101.5 415q0 274 102.5 417.5t277.5 143.5q68 0 122.5 -20.5t96 -58t71.5 -88.5h9q-4 45 -8 97t-4 90v104h-295v159h295v173h223v-173h139v-159h-139v-1224h-176l-36 143h-12q-30 -49 -70 -86t-92.5 -57t-122.5 -20zM535 164q121 0 175 84.5
t55 258.5v43q0 180 -52 270.5t-180 90.5q-107 0 -160.5 -96.5t-53.5 -277.5q0 -183 54 -278t162 -95z" />
    <glyph glyph-name="Emacron" unicode="&#x112;" horiz-adv-x="994" 
d="M889 0h-722v1462h722v-196h-492v-406h460v-196h-460v-465h492v-199zM827 1770v-164h-583v164h583z" />
    <glyph glyph-name="emacron" unicode="&#x113;" horiz-adv-x="1036" 
d="M533 1128q134 0 227 -62.5t141.5 -174.5t48.5 -262v-128h-634q3 -168 73 -255t202 -87q85 0 157.5 19.5t150.5 61.5v-186q-72 -38 -149.5 -56t-177.5 -18q-154 0 -261.5 67.5t-163 194.5t-55.5 305q0 186 53 316t151.5 197.5t236.5 67.5zM535 956q-94 0 -150.5 -72
t-64.5 -220h417q0 85 -22.5 150.5t-67 103.5t-112.5 38zM816 1416v-164h-583v164h583z" />
    <glyph glyph-name="Ebreve" unicode="&#x114;" horiz-adv-x="994" 
d="M889 0h-722v1462h722v-196h-492v-406h460v-196h-460v-465h492v-199zM850 1898q-4 -91 -44.5 -159t-109.5 -105.5t-162 -37.5q-140 0 -220.5 79t-86.5 223h134q5 -52 27 -82.5t60 -43t89 -12.5q47 0 85 13t62.5 43.5t29.5 81.5h136z" />
    <glyph glyph-name="ebreve" unicode="&#x115;" horiz-adv-x="1036" 
d="M533 1128q134 0 227 -62.5t141.5 -174.5t48.5 -262v-128h-634q3 -168 73 -255t202 -87q85 0 157.5 19.5t150.5 61.5v-186q-72 -38 -149.5 -56t-177.5 -18q-154 0 -261.5 67.5t-163 194.5t-55.5 305q0 186 53 316t151.5 197.5t236.5 67.5zM535 956q-94 0 -150.5 -72
t-64.5 -220h417q0 85 -22.5 150.5t-67 103.5t-112.5 38zM839 1544q-4 -91 -44.5 -159t-109.5 -105.5t-162 -37.5q-140 0 -220.5 79t-86.5 223h134q5 -52 27 -82.5t60 -43t89 -12.5q47 0 85 13t62.5 43.5t29.5 81.5h136z" />
    <glyph glyph-name="Edotaccent" unicode="&#x116;" horiz-adv-x="994" 
d="M889 0h-722v1462h722v-196h-492v-406h460v-196h-460v-465h492v-199zM547 1887q58 0 91.5 -31.5t33.5 -99.5q0 -66 -34 -98t-91 -32q-56 0 -91 32t-35 98q0 69 34 100t92 31z" />
    <glyph glyph-name="edotaccent" unicode="&#x117;" horiz-adv-x="1036" 
d="M533 1128q134 0 227 -62.5t141.5 -174.5t48.5 -262v-128h-634q3 -168 73 -255t202 -87q85 0 157.5 19.5t150.5 61.5v-186q-72 -38 -149.5 -56t-177.5 -18q-154 0 -261.5 67.5t-163 194.5t-55.5 305q0 186 53 316t151.5 197.5t236.5 67.5zM535 956q-94 0 -150.5 -72
t-64.5 -220h417q0 85 -22.5 150.5t-67 103.5t-112.5 38zM536 1533q58 0 91.5 -31.5t33.5 -99.5q0 -66 -34 -98t-91 -32q-56 0 -91 32t-35 98q0 69 34 100t92 31z" />
    <glyph glyph-name="Eogonek" unicode="&#x118;" horiz-adv-x="994" 
d="M889 0h-722v1462h722v-196h-492v-406h460v-196h-460v-465h492v-199zM706 -230q0 -45 23.5 -69t64.5 -24q29 0 51 5t37 11v-142q-25 -8 -55.5 -14t-70.5 -6q-109 0 -165 54.5t-56 150.5q0 54 24 107t67 101t98 86l114 -30q-69 -67 -100.5 -120t-31.5 -110z" />
    <glyph glyph-name="eogonek" unicode="&#x119;" horiz-adv-x="1036" 
d="M712 -232q0 -44 23.5 -66t62.5 -22q26 0 52 5t41 10v-144q-28 -9 -61.5 -14.5t-70.5 -5.5q-108 0 -163 55.5t-55 150.5q0 55 24 106t65.5 95.5t92.5 80.5l176 35q-69 -62 -110 -112.5t-59 -93t-18 -80.5zM533 1128q134 0 227 -62.5t141.5 -174.5t48.5 -262v-128h-634
q3 -168 73 -255t202 -87q85 0 157.5 19.5t150.5 61.5v-186q-72 -38 -149.5 -56t-177.5 -18q-154 0 -261.5 67.5t-163 194.5t-55.5 305q0 186 53 316t151.5 197.5t236.5 67.5zM535 956q-94 0 -150.5 -72t-64.5 -220h417q0 85 -22.5 150.5t-67 103.5t-112.5 38z" />
    <glyph glyph-name="Ecaron" unicode="&#x11a;" horiz-adv-x="994" 
d="M889 0h-722v1462h722v-196h-492v-406h460v-196h-460v-465h492v-199zM421 1595q-24 45 -63 99.5t-81.5 108.5t-77.5 95v25h141q45 -35 96 -83t98 -102q52 57 100 101t97 84h142v-25q-34 -39 -77 -92.5t-82.5 -109t-63.5 -101.5h-229z" />
    <glyph glyph-name="ecaron" unicode="&#x11b;" horiz-adv-x="1036" 
d="M533 1128q134 0 227 -62.5t141.5 -174.5t48.5 -262v-128h-634q3 -168 73 -255t202 -87q85 0 157.5 19.5t150.5 61.5v-186q-72 -38 -149.5 -56t-177.5 -18q-154 0 -261.5 67.5t-163 194.5t-55.5 305q0 186 53 316t151.5 197.5t236.5 67.5zM535 956q-94 0 -150.5 -72
t-64.5 -220h417q0 85 -22.5 150.5t-67 103.5t-112.5 38zM410 1241q-24 45 -63 99.5t-81.5 108.5t-77.5 95v25h141q45 -35 96 -83t98 -102q52 57 100 101t97 84h142v-25q-34 -39 -77 -92.5t-82.5 -109t-63.5 -101.5h-229z" />
    <glyph glyph-name="Gcircumflex" unicode="&#x11c;" horiz-adv-x="1315" 
d="M702 794h480v-736q-106 -38 -218.5 -58t-241.5 -20q-202 0 -338.5 92t-205.5 261t-69 400q0 227 77 395t226 261.5t365 93.5q108 0 207.5 -24t182.5 -66l-77 -191q-70 38 -149 60.5t-164 22.5q-137 0 -233 -66.5t-146.5 -191t-50.5 -298.5q0 -163 41.5 -287t129 -194
t226.5 -70q66 0 117 8t95 21v390h-254v197zM848 1923q25 -46 63.5 -100.5t81 -108t78.5 -95.5v-24h-141q-47 35 -97.5 82t-99.5 102q-50 -54 -100.5 -102.5t-94.5 -81.5h-141v24q36 42 78.5 96t81.5 109t62 99h229z" />
    <glyph glyph-name="gcircumflex" unicode="&#x11d;" horiz-adv-x="999" 
d="M430 -492q-198 0 -306 81t-108 228q0 103 59.5 174t163.5 97q-44 20 -75 62t-31 95q0 61 31.5 105t90.5 86q-75 38 -120 123t-45 194q0 118 45.5 202t132.5 128.5t211 44.5q31 0 61.5 -3t55.5 -8t40 -11h341v-130l-164 -29q25 -40 38 -89t13 -104q0 -173 -103 -271.5
t-289 -98.5q-49 1 -86 9q-29 -21 -47 -47.5t-18 -62.5q0 -27 16 -45t47.5 -27t77.5 -9h182q155 0 237.5 -75t82.5 -224q0 -189 -137 -292t-397 -103zM443 -329q103 0 172.5 23.5t105 69t35.5 109.5q0 54 -22 83t-66.5 40t-111.5 11h-156q-52 0 -92.5 -19.5t-63 -58
t-22.5 -96.5q0 -79 58.5 -120.5t162.5 -41.5zM478 536q82 0 123.5 56t41.5 161q0 113 -42.5 168.5t-123.5 55.5q-80 0 -122.5 -57.5t-42.5 -167.5q0 -103 41.5 -159.5t124.5 -56.5zM596 1569q25 -46 63.5 -100.5t81 -108t78.5 -95.5v-24h-141q-47 35 -97.5 82t-99.5 102
q-50 -54 -100.5 -102.5t-94.5 -81.5h-141v24q36 42 78.5 96t81.5 109t62 99h229z" />
    <glyph glyph-name="Gbreve" unicode="&#x11e;" horiz-adv-x="1315" 
d="M702 794h480v-736q-106 -38 -218.5 -58t-241.5 -20q-202 0 -338.5 92t-205.5 261t-69 400q0 227 77 395t226 261.5t365 93.5q108 0 207.5 -24t182.5 -66l-77 -191q-70 38 -149 60.5t-164 22.5q-137 0 -233 -66.5t-146.5 -191t-50.5 -298.5q0 -163 41.5 -287t129 -194
t226.5 -70q66 0 117 8t95 21v390h-254v197zM1048 1898q-4 -91 -44.5 -159t-109.5 -105.5t-162 -37.5q-140 0 -220.5 79t-86.5 223h134q5 -52 27 -82.5t60 -43t89 -12.5q47 0 85 13t62.5 43.5t29.5 81.5h136z" />
    <glyph glyph-name="gbreve" unicode="&#x11f;" horiz-adv-x="999" 
d="M430 -492q-198 0 -306 81t-108 228q0 103 59.5 174t163.5 97q-44 20 -75 62t-31 95q0 61 31.5 105t90.5 86q-75 38 -120 123t-45 194q0 118 45.5 202t132.5 128.5t211 44.5q31 0 61.5 -3t55.5 -8t40 -11h341v-130l-164 -29q25 -40 38 -89t13 -104q0 -173 -103 -271.5
t-289 -98.5q-49 1 -86 9q-29 -21 -47 -47.5t-18 -62.5q0 -27 16 -45t47.5 -27t77.5 -9h182q155 0 237.5 -75t82.5 -224q0 -189 -137 -292t-397 -103zM443 -329q103 0 172.5 23.5t105 69t35.5 109.5q0 54 -22 83t-66.5 40t-111.5 11h-156q-52 0 -92.5 -19.5t-63 -58
t-22.5 -96.5q0 -79 58.5 -120.5t162.5 -41.5zM478 536q82 0 123.5 56t41.5 161q0 113 -42.5 168.5t-123.5 55.5q-80 0 -122.5 -57.5t-42.5 -167.5q0 -103 41.5 -159.5t124.5 -56.5zM793 1544q-4 -91 -44.5 -159t-109.5 -105.5t-162 -37.5q-140 0 -220.5 79t-86.5 223h134
q5 -52 27 -82.5t60 -43t89 -12.5q47 0 85 13t62.5 43.5t29.5 81.5h136z" />
    <glyph glyph-name="Gdot" unicode="&#x120;" horiz-adv-x="1315" 
d="M702 794h480v-736q-106 -38 -218.5 -58t-241.5 -20q-202 0 -338.5 92t-205.5 261t-69 400q0 227 77 395t226 261.5t365 93.5q108 0 207.5 -24t182.5 -66l-77 -191q-70 38 -149 60.5t-164 22.5q-137 0 -233 -66.5t-146.5 -191t-50.5 -298.5q0 -163 41.5 -287t129 -194
t226.5 -70q66 0 117 8t95 21v390h-254v197zM746 1887q58 0 91.5 -31.5t33.5 -99.5q0 -66 -34 -98t-91 -32q-56 0 -91 32t-35 98q0 69 34 100t92 31z" />
    <glyph glyph-name="gdot" unicode="&#x121;" horiz-adv-x="999" 
d="M430 -492q-198 0 -306 81t-108 228q0 103 59.5 174t163.5 97q-44 20 -75 62t-31 95q0 61 31.5 105t90.5 86q-75 38 -120 123t-45 194q0 118 45.5 202t132.5 128.5t211 44.5q31 0 61.5 -3t55.5 -8t40 -11h341v-130l-164 -29q25 -40 38 -89t13 -104q0 -173 -103 -271.5
t-289 -98.5q-49 1 -86 9q-29 -21 -47 -47.5t-18 -62.5q0 -27 16 -45t47.5 -27t77.5 -9h182q155 0 237.5 -75t82.5 -224q0 -189 -137 -292t-397 -103zM443 -329q103 0 172.5 23.5t105 69t35.5 109.5q0 54 -22 83t-66.5 40t-111.5 11h-156q-52 0 -92.5 -19.5t-63 -58
t-22.5 -96.5q0 -79 58.5 -120.5t162.5 -41.5zM478 536q82 0 123.5 56t41.5 161q0 113 -42.5 168.5t-123.5 55.5q-80 0 -122.5 -57.5t-42.5 -167.5q0 -103 41.5 -159.5t124.5 -56.5zM488 1533q58 0 91.5 -31.5t33.5 -99.5q0 -66 -34 -98t-91 -32q-56 0 -91 32t-35 98
q0 69 34 100t92 31z" />
    <glyph glyph-name="uni0122" unicode="&#x122;" horiz-adv-x="1315" 
d="M702 794h480v-736q-106 -38 -218.5 -58t-241.5 -20q-202 0 -338.5 92t-205.5 261t-69 400q0 227 77 395t226 261.5t365 93.5q108 0 207.5 -24t182.5 -66l-77 -191q-70 38 -149 60.5t-164 22.5q-137 0 -233 -66.5t-146.5 -191t-50.5 -298.5q0 -163 41.5 -287t129 -194
t226.5 -70q66 0 117 8t95 21v390h-254v197zM859 -125v-20q-15 -46 -38 -100t-51.5 -107.5t-60.5 -100.5h-132v25q12 37 25.5 92t25 112t15.5 99h216z" />
    <glyph glyph-name="uni0123" unicode="&#x123;" horiz-adv-x="999" 
d="M646 1569v-25q-13 -41 -28 -96t-26.5 -110.5t-15.5 -96.5h-216v21q14 45 37 98.5t52.5 108t63.5 100.5h133zM430 -492q-198 0 -306 81t-108 228q0 103 59.5 174t163.5 97q-44 20 -75 62t-31 95q0 61 31.5 105t90.5 86q-75 38 -120 123t-45 194q0 118 45.5 202
t132.5 128.5t211 44.5q31 0 61.5 -3t55.5 -8t40 -11h341v-130l-164 -29q25 -40 38 -89t13 -104q0 -173 -103 -271.5t-289 -98.5q-49 1 -86 9q-29 -21 -47 -47.5t-18 -62.5q0 -27 16 -45t47.5 -27t77.5 -9h182q155 0 237.5 -75t82.5 -224q0 -189 -137 -292t-397 -103z
M443 -329q103 0 172.5 23.5t105 69t35.5 109.5q0 54 -22 83t-66.5 40t-111.5 11h-156q-52 0 -92.5 -19.5t-63 -58t-22.5 -96.5q0 -79 58.5 -120.5t162.5 -41.5zM478 536q82 0 123.5 56t41.5 161q0 113 -42.5 168.5t-123.5 55.5q-80 0 -122.5 -57.5t-42.5 -167.5
q0 -103 41.5 -159.5t124.5 -56.5z" />
    <glyph glyph-name="Hcircumflex" unicode="&#x124;" horiz-adv-x="1336" 
d="M1169 0h-229v663h-543v-663h-230v1462h230v-600h543v600h229v-1462zM785 1923q25 -46 63.5 -100.5t81 -108t78.5 -95.5v-24h-141q-47 35 -97.5 82t-99.5 102q-50 -54 -100.5 -102.5t-94.5 -81.5h-141v24q36 42 78.5 96t81.5 109t62 99h229z" />
    <glyph glyph-name="hcircumflex" unicode="&#x125;" horiz-adv-x="1138" 
d="M369 1556v-395q0 -57 -4 -110.5t-10 -92.5h14q28 56 71 93.5t98 57t119 19.5q110 0 186 -43.5t115 -131t39 -221.5v-732h-222v684q0 130 -42 192t-130 62q-86 0 -137.5 -42.5t-74 -128t-22.5 -214.5v-553h-223v1556h223zM375 2018q25 -46 63.5 -100.5t81 -108t78.5 -95.5
v-24h-141q-47 35 -97.5 82t-99.5 102q-50 -54 -100.5 -102.5t-94.5 -81.5h-141v24q36 42 78.5 96t81.5 109t62 99h229z" />
    <glyph glyph-name="Hbar" unicode="&#x126;" horiz-adv-x="1336" 
d="M166 0v1078h-168v163h168v221h230v-221h544v221h229v-221h169v-163h-169v-1078h-229v662h-544v-662h-230zM397 863h543v215h-543v-215z" />
    <glyph glyph-name="hbar" unicode="&#x127;" horiz-adv-x="1138" 
d="M369 1556v-175h300v-159h-300v-113q0 -49 -3.5 -98t-9.5 -89h13q29 56 71.5 93.5t98 57t119.5 19.5q110 0 185.5 -43.5t114.5 -131t39 -220.5v-697h-222v648q0 130 -42 192t-130 62q-85 0 -136.5 -41t-74.5 -126t-23 -217v-518h-223v1222h-137v159h137v175h223z" />
    <glyph glyph-name="Itilde" unicode="&#x128;" horiz-adv-x="563" 
d="M167 0v1462h230v-1462h-230zM-72 1595q5 59 19.5 109.5t40.5 88.5t63.5 59t85.5 21q42 0 80 -17t74 -39t70 -39t66 -17q35 0 56.5 29t31.5 85h123q-9 -135 -66.5 -206.5t-142.5 -71.5q-40 0 -79 17t-75.5 39t-70 39.5t-63.5 17.5q-33 0 -56.5 -28.5t-34.5 -86.5h-122z
" />
    <glyph glyph-name="itilde" unicode="&#x129;" horiz-adv-x="516" 
d="M369 0h-222v1108h222v-1108zM-99 1241q5 59 19.5 109.5t40.5 88.5t63.5 59t85.5 21q42 0 80 -17t74 -39t70 -39t66 -17q35 0 56.5 29t31.5 85h123q-9 -135 -66.5 -206.5t-142.5 -71.5q-40 0 -79 17t-75.5 39t-70 39.5t-63.5 17.5q-33 0 -56.5 -28.5t-34.5 -86.5h-122z
" />
    <glyph glyph-name="Imacron" unicode="&#x12a;" horiz-adv-x="563" 
d="M167 0v1462h230v-1462h-230zM573 1770v-164h-583v164h583z" />
    <glyph glyph-name="imacron" unicode="&#x12b;" horiz-adv-x="516" 
d="M369 0h-222v1108h222v-1108zM550 1416v-164h-583v164h583z" />
    <glyph glyph-name="Ibreve" unicode="&#x12c;" horiz-adv-x="563" 
d="M167 0v1462h230v-1462h-230zM593 1898q-4 -91 -44.5 -159t-109.5 -105.5t-162 -37.5q-140 0 -220.5 79t-86.5 223h134q5 -52 27 -82.5t60 -43t89 -12.5q47 0 85 13t62.5 43.5t29.5 81.5h136z" />
    <glyph glyph-name="ibreve" unicode="&#x12d;" horiz-adv-x="516" 
d="M369 0h-222v1108h222v-1108zM572 1544q-4 -91 -44.5 -159t-109.5 -105.5t-162 -37.5q-140 0 -220.5 79t-86.5 223h134q5 -52 27 -82.5t60 -43t89 -12.5q47 0 85 13t62.5 43.5t29.5 81.5h136z" />
    <glyph glyph-name="Iogonek" unicode="&#x12e;" horiz-adv-x="563" 
d="M167 0v1462h230v-1462h-230zM263 -230q0 -45 23.5 -69t64.5 -24q29 0 51 5t37 11v-142q-25 -8 -55.5 -14t-70.5 -6q-109 0 -165 54.5t-56 150.5q0 54 24 107t67 101t98 86l114 -30q-69 -67 -100.5 -120t-31.5 -110z" />
    <glyph glyph-name="iogonek" unicode="&#x12f;" horiz-adv-x="517" 
d="M370 1108v-1108h-223v1108h223zM260 1533q57 0 91 -31.5t34 -99.5q0 -66 -34.5 -98t-90.5 -32q-57 0 -92 32t-35 98q0 69 34.5 100t92.5 31zM215 -230q0 -45 23.5 -69t64.5 -24q29 0 51 5t37 11v-142q-25 -8 -55.5 -14t-70.5 -6q-109 0 -165 54.5t-56 150.5q0 54 24 107
t67 101t98 86l114 -30q-69 -67 -100.5 -120t-31.5 -110z" />
    <glyph glyph-name="Idotaccent" unicode="&#x130;" horiz-adv-x="563" 
d="M167 0v1462h230v-1462h-230zM283 1886q58 0 91.5 -31.5t33.5 -99.5q0 -66 -34 -98t-91 -32q-56 0 -91 32t-35 98q0 69 34 100t92 31z" />
    <glyph glyph-name="dotlessi" unicode="&#x131;" horiz-adv-x="516" 
d="M369 0h-222v1108h222v-1108z" />
    <glyph glyph-name="IJ" unicode="&#x132;" horiz-adv-x="1118" 
d="M167 0v1462h230v-1462h-230zM586 -410q-46 0 -85.5 6t-69.5 17v197q28 -9 60.5 -15t69.5 -6q52 0 89 23t57 78t20 152v1420h229v-1418q0 -164 -44.5 -263.5t-127.5 -145t-198 -45.5z" />
    <glyph glyph-name="ij" unicode="&#x133;" horiz-adv-x="1032" 
d="M370 1108v-1108h-223v1108h223zM260 1533q57 0 91 -31.5t34 -99.5q0 -66 -34.5 -98t-90.5 -32q-57 0 -92 32t-35 98q0 69 34.5 100t92.5 31zM584 -492q-42 0 -80.5 6.5t-68.5 16.5v185q27 -9 53 -13.5t55 -4.5q56 0 88 38t32 130v1242h223v-1256q0 -109 -33 -186
t-100 -117t-169 -41zM649 1402q0 69 34.5 100t92.5 31q57 0 91 -31.5t34 -99.5q0 -66 -34.5 -98t-90.5 -32q-57 0 -92 32t-35 98z" />
    <glyph glyph-name="Jcircumflex" unicode="&#x134;" horiz-adv-x="555" 
d="M23 -410q-46 0 -85.5 6t-69.5 17v197q28 -9 60.5 -15t69.5 -6q52 0 89 23t57 78t20 152v1420h229v-1418q0 -164 -44.5 -263.5t-127.5 -145t-198 -45.5zM394 1923q25 -46 63.5 -100.5t81 -108t78.5 -95.5v-24h-141q-47 35 -97.5 82t-99.5 102q-50 -54 -100.5 -102.5
t-94.5 -81.5h-141v24q36 42 78.5 96t81.5 109t62 99h229z" />
    <glyph glyph-name="jcircumflex" unicode="&#x135;" horiz-adv-x="517" 
d="M68 -492q-41 0 -82 7t-67 16v185q27 -9 53 -13.5t55 -4.5q56 0 88 37.5t32 127.5v1245h223v-1256q0 -106 -32.5 -183.5t-99.5 -119t-170 -41.5zM374 1569q25 -46 63.5 -100.5t81 -108t78.5 -95.5v-24h-141q-47 35 -97.5 82t-99.5 102q-50 -54 -100.5 -102.5t-94.5 -81.5
h-141v24q36 42 78.5 96t81.5 109t62 99h229z" />
    <glyph glyph-name="uni0136" unicode="&#x136;" horiz-adv-x="1140" 
d="M1146 0h-261l-368 652l-120 -111v-541h-230v1462h230v-703q27 44 62.5 96t76.5 113l343 494h255l-454 -644zM750 -125v-20q-15 -46 -38 -100t-51.5 -107.5t-60.5 -100.5h-132v25q12 37 25.5 92t25 112t15.5 99h216z" />
    <glyph glyph-name="uni0137" unicode="&#x137;" horiz-adv-x="1029" 
d="M369 1556v-739q0 -58 -3 -119t-9 -118h7q22 37 49.5 77.5t53.5 73.5l286 377h248l-360 -458l383 -650h-252l-282 497l-121 -119v-378h-223v1556h223zM664 -125v-20q-15 -46 -38 -100t-51.5 -107.5t-60.5 -100.5h-132v25q12 37 25.5 92t25 112t15.5 99h216z" />
    <glyph glyph-name="kgreenlandic" unicode="&#x138;" horiz-adv-x="1029" 
d="M1000 1108l-352 -469l376 -639h-251l-275 487l-127 -116v-371h-225v1108h225v-285q0 -69 -2 -135t-7 -121h5q22 34 45 67.5t44 63.5l300 410h244z" />
    <glyph glyph-name="Lacute" unicode="&#x139;" horiz-adv-x="953" 
d="M167 0v1462h230v-1263h509v-199h-739zM603 1923v-20q-23 -29 -60 -69.5t-80.5 -84.5t-87 -84.5t-78.5 -69.5h-151v25q35 47 71.5 99t69.5 105t58 99h258z" />
    <glyph glyph-name="lacute" unicode="&#x13a;" horiz-adv-x="515" 
d="M369 0h-223v1556h223v-1556zM581 2017v-20q-23 -29 -60 -69.5t-80.5 -84.5t-87 -84.5t-78.5 -69.5h-151v25q35 47 71.5 99t69.5 105t58 99h258z" />
    <glyph glyph-name="uni013B" unicode="&#x13b;" horiz-adv-x="953" 
d="M167 0v1462h230v-1263h509v-199h-739zM671 -125v-20q-15 -46 -38 -100t-51.5 -107.5t-60.5 -100.5h-132v25q12 37 25.5 92t25 112t15.5 99h216z" />
    <glyph glyph-name="uni013C" unicode="&#x13c;" horiz-adv-x="515" 
d="M369 0h-223v1556h223v-1556zM392 -125v-20q-15 -46 -38 -100t-51.5 -107.5t-60.5 -100.5h-132v25q12 37 25.5 92t25 112t15.5 99h216z" />
    <glyph glyph-name="Lcaron" unicode="&#x13d;" horiz-adv-x="953" 
d="M167 0v1462h230v-1263h509v-199h-739zM949 1462v-20q-12 -44 -34.5 -99t-50 -109.5t-55.5 -98.5h-132v24q7 25 15.5 63.5t16.5 83t14 86t9 70.5h217z" />
    <glyph glyph-name="lcaron" unicode="&#x13e;" horiz-adv-x="515" 
d="M369 0h-223v1556h223v-1556zM713 1556v-20q-12 -44 -34.5 -99t-50 -109.5t-55.5 -98.5h-132v24q7 25 15.5 63.5t16.5 83t14 86t9 70.5h217z" />
    <glyph glyph-name="Ldot" unicode="&#x13f;" horiz-adv-x="953" 
d="M167 0v1462h230v-1263h509v-199h-739zM747 918q58 0 91.5 -31.5t33.5 -99.5q0 -66 -34 -98t-91 -32q-56 0 -91 32t-35 98q0 69 34 100t92 31z" />
    <glyph glyph-name="ldot" unicode="&#x140;" horiz-adv-x="628" 
d="M369 0h-223v1556h223v-1556zM573 924q58 0 91.5 -31.5t33.5 -99.5q0 -66 -34 -98t-91 -32q-56 0 -91 32t-35 98q0 69 34 100t92 31z" />
    <glyph glyph-name="Lslash" unicode="&#x141;" horiz-adv-x="966" 
d="M179 0v500l-88 -54l-97 144l185 123v749h229v-600l207 132l97 -147l-304 -196v-452h509v-199h-738z" />
    <glyph glyph-name="lslash" unicode="&#x142;" horiz-adv-x="545" 
d="M159 0v559l-95 -65l-96 145l191 133v784h222v-632l101 71l99 -144l-200 -141v-710h-222z" />
    <glyph glyph-name="Nacute" unicode="&#x143;" horiz-adv-x="1408" 
d="M1242 0h-278l-593 1141h-8q4 -60 7.5 -121.5t5.5 -121t3 -116.5v-782h-212v1462h276l592 -1127h7q-3 58 -6 118.5t-5 120t-2 112.5v776h213v-1462zM1024 1923v-20q-23 -29 -60 -69.5t-80.5 -84.5t-87 -84.5t-78.5 -69.5h-151v25q35 47 71.5 99t69.5 105t58 99h258z" />
    <glyph glyph-name="nacute" unicode="&#x144;" horiz-adv-x="1138" 
d="M659 1129q162 0 250 -97t88 -299v-733h-222v684q0 127 -41.5 191t-131.5 64q-129 0 -181 -94t-52 -291v-554h-223v1108h175l28 -151h13q30 56 75 94t101.5 58t120.5 20zM900 1569v-20q-23 -29 -60 -69.5t-80.5 -84.5t-87 -84.5t-78.5 -69.5h-151v25q35 47 71.5 99
t69.5 105t58 99h258z" />
    <glyph glyph-name="uni0145" unicode="&#x145;" horiz-adv-x="1408" 
d="M1242 0h-278l-593 1141h-8q4 -60 7.5 -121.5t5.5 -121t3 -116.5v-782h-212v1462h276l592 -1127h7q-3 58 -6 118.5t-5 120t-2 112.5v776h213v-1462zM838 -125v-20q-15 -46 -38 -100t-51.5 -107.5t-60.5 -100.5h-132v25q12 37 25.5 92t25 112t15.5 99h216z" />
    <glyph glyph-name="uni0146" unicode="&#x146;" horiz-adv-x="1138" 
d="M659 1129q162 0 250 -97t88 -299v-733h-222v684q0 127 -41.5 191t-131.5 64q-129 0 -181 -94t-52 -291v-554h-223v1108h175l28 -151h13q30 56 75 94t101.5 58t120.5 20zM704 -125v-20q-15 -46 -38 -100t-51.5 -107.5t-60.5 -100.5h-132v25q12 37 25.5 92t25 112t15.5 99
h216z" />
    <glyph glyph-name="Ncaron" unicode="&#x147;" horiz-adv-x="1408" 
d="M1242 0h-278l-593 1141h-8q4 -60 7.5 -121.5t5.5 -121t3 -116.5v-782h-212v1462h276l592 -1127h7q-3 58 -6 118.5t-5 120t-2 112.5v776h213v-1462zM591 1595q-24 45 -63 99.5t-81.5 108.5t-77.5 95v25h141q45 -35 96 -83t98 -102q52 57 100 101t97 84h142v-25
q-34 -39 -77 -92.5t-82.5 -109t-63.5 -101.5h-229z" />
    <glyph glyph-name="ncaron" unicode="&#x148;" horiz-adv-x="1138" 
d="M659 1129q162 0 250 -97t88 -299v-733h-222v684q0 127 -41.5 191t-131.5 64q-129 0 -181 -94t-52 -291v-554h-223v1108h175l28 -151h13q30 56 75 94t101.5 58t120.5 20zM465 1241q-24 45 -63 99.5t-81.5 108.5t-77.5 95v25h141q45 -35 96 -83t98 -102q52 57 100 101
t97 84h142v-25q-34 -39 -77 -92.5t-82.5 -109t-63.5 -101.5h-229z" />
    <glyph glyph-name="napostrophe" unicode="&#x149;" horiz-adv-x="1319" 
d="M840 1129q162 0 250 -97t88 -299v-733h-222v684q0 127 -41.5 191t-131.5 64q-129 0 -181 -94t-52 -291v-554h-223v1108h175l28 -151h13q30 56 75 94t101.5 58t120.5 20zM319 1462l14 -22q-18 -82 -43.5 -167t-55 -167t-62.5 -157h-169q15 59 29 126.5t27 136.5t23 133
t16 117h221z" />
    <glyph glyph-name="Eng" unicode="&#x14a;" horiz-adv-x="1408" 
d="M876 -410q-48 0 -88 6t-72 17v192q30 -8 64.5 -14t73.5 -6q56 0 95 21.5t60 70t22 128.5l-661 1148h-7q4 -55 7.5 -119.5t5.5 -127.5t2 -116v-790h-211v1462h276l592 -1029h6q-3 57 -6 119.5t-4.5 123.5t-1.5 112v674h214v-1445q0 -144 -43 -239t-125 -141.5t-199 -46.5z
" />
    <glyph glyph-name="eng" unicode="&#x14b;" horiz-adv-x="1138" 
d="M707 -492q-39 0 -75.5 6.5t-66.5 16.5v185q25 -9 49 -13.5t50 -4.5q51 0 81 38t30 130v825q0 123 -42.5 184.5t-130.5 61.5q-83 0 -134.5 -39.5t-75 -124t-23.5 -218.5v-555h-223v1108h175l29 -151h12q30 56 74.5 94t101.5 58t121 20q112 0 187 -45.5t113 -135.5t38 -224
v-871q0 -101 -30 -179t-94 -122t-166 -44z" />
    <glyph glyph-name="Omacron" unicode="&#x14c;" horiz-adv-x="1389" 
d="M1280 733q0 -167 -35.5 -305.5t-107 -238.5t-182 -154.5t-259.5 -54.5q-152 0 -263 55t-182.5 155.5t-106.5 239t-35 305.5q0 237 64.5 404.5t195.5 256.5t328 89q199 0 328 -94.5t192 -263.5t63 -394zM349 733q0 -176 37.5 -300t114.5 -188.5t194 -64.5q119 0 195 64
t113 187.5t37 301.5q0 268 -83.5 410t-259.5 142q-119 0 -196 -64.5t-114.5 -187.5t-37.5 -300zM987 1770v-164h-583v164h583z" />
    <glyph glyph-name="omacron" unicode="&#x14d;" horiz-adv-x="1100" 
d="M1009 556q0 -130 -29.5 -236t-87.5 -182t-144 -117t-200 -41q-107 0 -191.5 40.5t-143.5 116.5t-90 182t-31 237q0 179 52.5 307.5t155.5 197t253 68.5q138 0 240.5 -66.5t159 -194t56.5 -312.5zM319 555q0 -125 24.5 -212t76 -132t131.5 -45q81 0 131.5 44.5t74.5 131.5
t24 214q0 126 -24 212t-74.5 130t-132.5 44q-121 0 -176 -98t-55 -289zM842 1416v-164h-583v164h583z" />
    <glyph glyph-name="Obreve" unicode="&#x14e;" horiz-adv-x="1389" 
d="M1280 733q0 -167 -35.5 -305.5t-107 -238.5t-182 -154.5t-259.5 -54.5q-152 0 -263 55t-182.5 155.5t-106.5 239t-35 305.5q0 237 64.5 404.5t195.5 256.5t328 89q199 0 328 -94.5t192 -263.5t63 -394zM349 733q0 -176 37.5 -300t114.5 -188.5t194 -64.5q119 0 195 64
t113 187.5t37 301.5q0 268 -83.5 410t-259.5 142q-119 0 -196 -64.5t-114.5 -187.5t-37.5 -300zM1009 1898q-4 -91 -44.5 -159t-109.5 -105.5t-162 -37.5q-140 0 -220.5 79t-86.5 223h134q5 -52 27 -82.5t60 -43t89 -12.5q47 0 85 13t62.5 43.5t29.5 81.5h136z" />
    <glyph glyph-name="obreve" unicode="&#x14f;" horiz-adv-x="1100" 
d="M1009 556q0 -130 -29.5 -236t-87.5 -182t-144 -117t-200 -41q-107 0 -191.5 40.5t-143.5 116.5t-90 182t-31 237q0 179 52.5 307.5t155.5 197t253 68.5q138 0 240.5 -66.5t159 -194t56.5 -312.5zM319 555q0 -125 24.5 -212t76 -132t131.5 -45q81 0 131.5 44.5t74.5 131.5
t24 214q0 126 -24 212t-74.5 130t-132.5 44q-121 0 -176 -98t-55 -289zM865 1544q-4 -91 -44.5 -159t-109.5 -105.5t-162 -37.5q-140 0 -220.5 79t-86.5 223h134q5 -52 27 -82.5t60 -43t89 -12.5q47 0 85 13t62.5 43.5t29.5 81.5h136z" />
    <glyph glyph-name="Ohungarumlaut" unicode="&#x150;" horiz-adv-x="1389" 
d="M1280 733q0 -167 -35.5 -305.5t-107 -238.5t-182 -154.5t-259.5 -54.5q-152 0 -263 55t-182.5 155.5t-106.5 239t-35 305.5q0 237 64.5 404.5t195.5 256.5t328 89q199 0 328 -94.5t192 -263.5t63 -394zM349 733q0 -176 37.5 -300t114.5 -188.5t194 -64.5q119 0 195 64
t113 187.5t37 301.5q0 268 -83.5 410t-259.5 142q-119 0 -196 -64.5t-114.5 -187.5t-37.5 -300zM1176 1923v-20q-16 -29 -48.5 -70t-73 -85t-82 -84.5t-74.5 -68.5h-119v25q31 47 64.5 103t63 109t46.5 91h223zM832 1923v-20q-17 -30 -48.5 -70t-72 -83.5t-82.5 -83.5
t-79 -71h-115v25q31 48 64 103.5t62.5 108.5t47.5 91h223z" />
    <glyph glyph-name="ohungarumlaut" unicode="&#x151;" horiz-adv-x="1100" 
d="M1009 556q0 -130 -29.5 -236t-87.5 -182t-144 -117t-200 -41q-107 0 -191.5 40.5t-143.5 116.5t-90 182t-31 237q0 179 52.5 307.5t155.5 197t253 68.5q138 0 240.5 -66.5t159 -194t56.5 -312.5zM319 555q0 -125 24.5 -212t76 -132t131.5 -45q81 0 131.5 44.5t74.5 131.5
t24 214q0 126 -24 212t-74.5 130t-132.5 44q-121 0 -176 -98t-55 -289zM1032 1569v-20q-16 -29 -48.5 -70t-73 -85t-82 -84.5t-74.5 -68.5h-119v25q31 47 64.5 103t63 109t46.5 91h223zM688 1569v-20q-17 -30 -48.5 -70t-72 -83.5t-82.5 -83.5t-79 -71h-115v25
q31 48 64 103.5t62.5 108.5t47.5 91h223z" />
    <glyph glyph-name="OE" unicode="&#x152;" horiz-adv-x="1663" 
d="M692 1480q46 0 90.5 -4.5t81.5 -13.5h694v-196h-492v-406h460v-196h-460v-465h492v-199h-693q-37 -7 -81.5 -11.5t-90.5 -4.5q-199 0 -328.5 92.5t-192.5 261.5t-63 397t63.5 395.5t192.5 258.5t327 91zM701 1281q-95 0 -162 -38t-109.5 -109.5t-62 -172.5t-19.5 -228
q0 -170 36 -293t114 -189t203 -67q39 0 76 6t62 16v1051q-26 12 -62.5 18t-75.5 6z" />
    <glyph glyph-name="oe" unicode="&#x153;" horiz-adv-x="1719" 
d="M1216 1127q134 0 226.5 -62t141 -174t48.5 -262v-128h-636q3 -172 72.5 -257.5t201.5 -85.5q88 0 160 19.5t151 61.5v-185q-73 -38 -149.5 -56t-176.5 -18q-122 0 -213.5 48t-151.5 142q-54 -93 -141 -141.5t-202 -48.5q-140 0 -242.5 69t-158 198.5t-55.5 308.5
q0 181 53 309t155.5 195.5t250.5 67.5q110 0 195.5 -48t139.5 -141q37 62 85.5 103.5t110 63t135.5 21.5zM548 942q-120 0 -174.5 -97t-54.5 -290q0 -127 24.5 -214t75 -131.5t129.5 -44.5q80 0 130 44t73.5 130.5t23.5 214.5q0 129 -24 215t-74 129.5t-129 43.5zM1216 954
q-94 0 -151 -71t-65 -219h418q0 86 -22 151.5t-66.5 102t-113.5 36.5z" />
    <glyph glyph-name="Racute" unicode="&#x154;" horiz-adv-x="1149" 
d="M519 1462q173 0 285.5 -46t167.5 -139t55 -235q0 -101 -31.5 -177t-88 -129t-132.5 -87l358 -649h-257l-303 590h-176v-590h-230v1462h352zM511 1267h-114v-489h127q136 0 202 64t66 190q0 125 -68.5 180t-212.5 55zM906 1923v-20q-23 -29 -60 -69.5t-80.5 -84.5
t-87 -84.5t-78.5 -69.5h-151v25q35 47 71.5 99t69.5 105t58 99h258z" />
    <glyph glyph-name="racute" unicode="&#x155;" horiz-adv-x="773" 
d="M640 1128q25 0 53 -3t53 -10l-23 -220q-20 7 -46 10t-51 3q-54 0 -101 -22.5t-82 -66t-54.5 -105t-18.5 -139.5v-575h-223v1108h173l31 -192h11q28 58 68.5 106.5t93 77t116.5 28.5zM761 1569v-20q-23 -29 -60 -69.5t-80.5 -84.5t-87 -84.5t-78.5 -69.5h-151v25
q35 47 71.5 99t69.5 105t58 99h258z" />
    <glyph glyph-name="uni0156" unicode="&#x156;" horiz-adv-x="1149" 
d="M519 1462q173 0 285.5 -46t167.5 -139t55 -235q0 -101 -31.5 -177t-88 -129t-132.5 -87l358 -649h-257l-303 590h-176v-590h-230v1462h352zM511 1267h-114v-489h127q136 0 202 64t66 190q0 125 -68.5 180t-212.5 55zM743 -125v-20q-15 -46 -38 -100t-51.5 -107.5
t-60.5 -100.5h-132v25q12 37 25.5 92t25 112t15.5 99h216z" />
    <glyph glyph-name="uni0157" unicode="&#x157;" horiz-adv-x="773" 
d="M640 1128q25 0 53 -3t53 -10l-23 -220q-20 7 -46 10t-51 3q-54 0 -101 -22.5t-82 -66t-54.5 -105t-18.5 -139.5v-575h-223v1108h173l31 -192h11q28 58 68.5 106.5t93 77t116.5 28.5zM397 -125v-20q-15 -46 -38 -100t-51.5 -107.5t-60.5 -100.5h-132v25q12 37 25.5 92
t25 112t15.5 99h216z" />
    <glyph glyph-name="Rcaron" unicode="&#x158;" horiz-adv-x="1149" 
d="M519 1462q173 0 285.5 -46t167.5 -139t55 -235q0 -101 -31.5 -177t-88 -129t-132.5 -87l358 -649h-257l-303 590h-176v-590h-230v1462h352zM511 1267h-114v-489h127q136 0 202 64t66 190q0 125 -68.5 180t-212.5 55zM470 1595q-24 45 -63 99.5t-81.5 108.5t-77.5 95v25
h141q45 -35 96 -83t98 -102q52 57 100 101t97 84h142v-25q-34 -39 -77 -92.5t-82.5 -109t-63.5 -101.5h-229z" />
    <glyph glyph-name="rcaron" unicode="&#x159;" horiz-adv-x="773" 
d="M640 1128q25 0 53 -3t53 -10l-23 -220q-20 7 -46 10t-51 3q-54 0 -101 -22.5t-82 -66t-54.5 -105t-18.5 -139.5v-575h-223v1108h173l31 -192h11q28 58 68.5 106.5t93 77t116.5 28.5zM326 1241q-24 45 -63 99.5t-81.5 108.5t-77.5 95v25h141q45 -35 96 -83t98 -102
q52 57 100 101t97 84h142v-25q-34 -39 -77 -92.5t-82.5 -109t-63.5 -101.5h-229z" />
    <glyph glyph-name="Sacute" unicode="&#x15a;" horiz-adv-x="997" 
d="M918 406q0 -129 -57 -225t-162 -148.5t-249 -52.5q-69 0 -133 8t-122 24.5t-109 41.5v226q82 -42 178.5 -69.5t188.5 -27.5q78 0 130 26.5t78 72.5t26 105q0 63 -26.5 107.5t-85 82.5t-153.5 83q-68 32 -126.5 70t-102.5 86.5t-68.5 114.5t-24.5 156q-1 122 53.5 211
t153 137.5t230.5 47.5q101 0 192 -23t174 -63l-71 -196q-78 38 -150.5 58.5t-144.5 20.5q-67 0 -113 -23.5t-70.5 -65t-24.5 -96.5q0 -65 25.5 -108t82.5 -79.5t151 -81.5q107 -51 180.5 -107.5t111.5 -131.5t38 -181zM840 1923v-20q-23 -29 -60 -69.5t-80.5 -84.5
t-87 -84.5t-78.5 -69.5h-151v25q35 47 71.5 99t69.5 105t58 99h258z" />
    <glyph glyph-name="sacute" unicode="&#x15b;" horiz-adv-x="862" 
d="M789 313q0 -108 -46 -182.5t-134 -112.5t-214 -38q-97 0 -173 16.5t-141 48.5v205q64 -36 147.5 -62t162.5 -26q91 0 134.5 35.5t43.5 98.5q0 37 -17.5 66t-63.5 59t-133 69q-87 41 -148.5 85.5t-93.5 104.5t-32 148q0 142 102 221.5t273 79.5q88 0 167 -20.5t154 -59.5
l-70 -170q-60 31 -123 51.5t-128 20.5q-76 0 -117 -30t-41 -83q0 -39 18.5 -66t65.5 -54.5t131 -67.5t146 -83.5t96 -103.5t34 -150zM761 1569v-20q-23 -29 -60 -69.5t-80.5 -84.5t-87 -84.5t-78.5 -69.5h-151v25q35 47 71.5 99t69.5 105t58 99h258z" />
    <glyph glyph-name="Scircumflex" unicode="&#x15c;" horiz-adv-x="997" 
d="M918 406q0 -129 -57 -225t-162 -148.5t-249 -52.5q-69 0 -133 8t-122 24.5t-109 41.5v226q82 -42 178.5 -69.5t188.5 -27.5q78 0 130 26.5t78 72.5t26 105q0 63 -26.5 107.5t-85 82.5t-153.5 83q-68 32 -126.5 70t-102.5 86.5t-68.5 114.5t-24.5 156q-1 122 53.5 211
t153 137.5t230.5 47.5q101 0 192 -23t174 -63l-71 -196q-78 38 -150.5 58.5t-144.5 20.5q-67 0 -113 -23.5t-70.5 -65t-24.5 -96.5q0 -65 25.5 -108t82.5 -79.5t151 -81.5q107 -51 180.5 -107.5t111.5 -131.5t38 -181zM636 1923q25 -46 63.5 -100.5t81 -108t78.5 -95.5v-24
h-141q-47 35 -97.5 82t-99.5 102q-50 -54 -100.5 -102.5t-94.5 -81.5h-141v24q36 42 78.5 96t81.5 109t62 99h229z" />
    <glyph glyph-name="scircumflex" unicode="&#x15d;" horiz-adv-x="862" 
d="M789 313q0 -108 -46 -182.5t-134 -112.5t-214 -38q-97 0 -173 16.5t-141 48.5v205q64 -36 147.5 -62t162.5 -26q91 0 134.5 35.5t43.5 98.5q0 37 -17.5 66t-63.5 59t-133 69q-87 41 -148.5 85.5t-93.5 104.5t-32 148q0 142 102 221.5t273 79.5q88 0 167 -20.5t154 -59.5
l-70 -170q-60 31 -123 51.5t-128 20.5q-76 0 -117 -30t-41 -83q0 -39 18.5 -66t65.5 -54.5t131 -67.5t146 -83.5t96 -103.5t34 -150zM555 1569q25 -46 63.5 -100.5t81 -108t78.5 -95.5v-24h-141q-47 35 -97.5 82t-99.5 102q-50 -54 -100.5 -102.5t-94.5 -81.5h-141v24
q36 42 78.5 96t81.5 109t62 99h229z" />
    <glyph glyph-name="Scedilla" unicode="&#x15e;" horiz-adv-x="997" 
d="M918 406q0 -129 -57 -225t-162 -148.5t-249 -52.5q-69 0 -133 8t-122 24.5t-109 41.5v226q82 -42 178.5 -69.5t188.5 -27.5q78 0 130 26.5t78 72.5t26 105q0 63 -26.5 107.5t-85 82.5t-153.5 83q-68 32 -126.5 70t-102.5 86.5t-68.5 114.5t-24.5 156q-1 122 53.5 211
t153 137.5t230.5 47.5q101 0 192 -23t174 -63l-71 -196q-78 38 -150.5 58.5t-144.5 20.5q-67 0 -113 -23.5t-70.5 -65t-24.5 -96.5q0 -65 25.5 -108t82.5 -79.5t151 -81.5q107 -51 180.5 -107.5t111.5 -131.5t38 -181zM679 -271q0 -105 -68 -163t-207 -58q-39 0 -71.5 4.5
t-56.5 11.5v133q24 -7 54 -11t57 -4q54 0 84 21t30 63q0 48 -43 74t-122 35l77 165h133l-40 -90q51 -11 90 -34.5t61 -60.5t22 -86z" />
    <glyph glyph-name="scedilla" unicode="&#x15f;" horiz-adv-x="862" 
d="M789 313q0 -108 -46 -182.5t-134 -112.5t-214 -38q-97 0 -173 16.5t-141 48.5v205q64 -36 147.5 -62t162.5 -26q91 0 134.5 35.5t43.5 98.5q0 37 -17.5 66t-63.5 59t-133 69q-87 41 -148.5 85.5t-93.5 104.5t-32 148q0 142 102 221.5t273 79.5q88 0 167 -20.5t154 -59.5
l-70 -170q-60 31 -123 51.5t-128 20.5q-76 0 -117 -30t-41 -83q0 -39 18.5 -66t65.5 -54.5t131 -67.5t146 -83.5t96 -103.5t34 -150zM624 -271q0 -105 -68 -163t-207 -58q-39 0 -71.5 4.5t-56.5 11.5v133q24 -7 54 -11t57 -4q54 0 84 21t30 63q0 48 -43 74t-122 35l77 165
h133l-40 -90q51 -11 90 -34.5t61 -60.5t22 -86z" />
    <glyph glyph-name="Scaron" unicode="&#x160;" horiz-adv-x="997" 
d="M918 406q0 -129 -57 -225t-162 -148.5t-249 -52.5q-69 0 -133 8t-122 24.5t-109 41.5v226q82 -42 178.5 -69.5t188.5 -27.5q78 0 130 26.5t78 72.5t26 105q0 63 -26.5 107.5t-85 82.5t-153.5 83q-68 32 -126.5 70t-102.5 86.5t-68.5 114.5t-24.5 156q-1 122 53.5 211
t153 137.5t230.5 47.5q101 0 192 -23t174 -63l-71 -196q-78 38 -150.5 58.5t-144.5 20.5q-67 0 -113 -23.5t-70.5 -65t-24.5 -96.5q0 -65 25.5 -108t82.5 -79.5t151 -81.5q107 -51 180.5 -107.5t111.5 -131.5t38 -181zM407 1595q-24 45 -63 99.5t-81.5 108.5t-77.5 95v25
h141q45 -35 96 -83t98 -102q52 57 100 101t97 84h142v-25q-34 -39 -77 -92.5t-82.5 -109t-63.5 -101.5h-229z" />
    <glyph glyph-name="scaron" unicode="&#x161;" horiz-adv-x="862" 
d="M789 313q0 -108 -46 -182.5t-134 -112.5t-214 -38q-97 0 -173 16.5t-141 48.5v205q64 -36 147.5 -62t162.5 -26q91 0 134.5 35.5t43.5 98.5q0 37 -17.5 66t-63.5 59t-133 69q-87 41 -148.5 85.5t-93.5 104.5t-32 148q0 142 102 221.5t273 79.5q88 0 167 -20.5t154 -59.5
l-70 -170q-60 31 -123 51.5t-128 20.5q-76 0 -117 -30t-41 -83q0 -39 18.5 -66t65.5 -54.5t131 -67.5t146 -83.5t96 -103.5t34 -150zM326 1241q-24 45 -63 99.5t-81.5 108.5t-77.5 95v25h141q45 -35 96 -83t98 -102q52 57 100 101t97 84h142v-25q-34 -39 -77 -92.5
t-82.5 -109t-63.5 -101.5h-229z" />
    <glyph glyph-name="uni0162" unicode="&#x162;" horiz-adv-x="991" 
d="M610 0h-230v1263h-353v199h935v-199h-352v-1263zM697 -271q0 -105 -68 -163t-207 -58q-39 0 -71.5 4.5t-56.5 11.5v133q24 -7 54 -11t57 -4q54 0 84 21t30 63q0 48 -43 74t-122 35l77 165h133l-40 -90q51 -11 90 -34.5t61 -60.5t22 -86z" />
    <glyph glyph-name="uni0163" unicode="&#x163;" horiz-adv-x="697" 
d="M510 167q36 0 73 7.5t70 20.5v-174q-39 -18 -92 -29.5t-112 -11.5q-89 0 -153 33.5t-98.5 107.5t-34.5 196v614h-128v109l141 70l64 242h146v-244h255v-177h-255v-606q0 -79 31.5 -118.5t92.5 -39.5zM611 -271q0 -105 -68 -163t-207 -58q-39 0 -71.5 4.5t-56.5 11.5v133
q24 -7 54 -11t57 -4q54 0 84 21t30 63q0 48 -43 74t-122 35l77 165h133l-40 -90q51 -11 90 -34.5t61 -60.5t22 -86z" />
    <glyph glyph-name="Tcaron" unicode="&#x164;" horiz-adv-x="991" 
d="M610 0h-230v1263h-353v199h935v-199h-352v-1263zM382 1595q-24 45 -63 99.5t-81.5 108.5t-77.5 95v25h141q45 -35 96 -83t98 -102q52 57 100 101t97 84h142v-25q-34 -39 -77 -92.5t-82.5 -109t-63.5 -101.5h-229z" />
    <glyph glyph-name="tcaron" unicode="&#x165;" horiz-adv-x="697" 
d="M510 167q36 0 73 7.5t70 20.5v-174q-39 -18 -92 -29.5t-112 -11.5q-89 0 -153 33.5t-98.5 107.5t-34.5 196v614h-128v109l141 70l64 242h146v-244h255v-177h-255v-606q0 -79 31.5 -118.5t92.5 -39.5zM936 1556v-20q-12 -44 -34.5 -99t-50 -109.5t-55.5 -98.5h-132v24
q7 25 15.5 63.5t16.5 83t14 86t9 70.5h217z" />
    <glyph glyph-name="Tbar" unicode="&#x166;" horiz-adv-x="991" 
d="M380 0v639h-239v184h239v439h-353v200h935v-200h-353v-439h239v-184h-239v-639h-229z" />
    <glyph glyph-name="tbar" unicode="&#x167;" horiz-adv-x="697" 
d="M46 532v158h576v-158h-576zM510 167q36 0 73 7.5t70 20.5v-174q-39 -18 -92 -29.5t-112 -11.5q-89 0 -153 33.5t-98.5 107.5t-34.5 196v614h-128v109l141 70l64 242h146v-244h255v-177h-255v-606q0 -79 31.5 -118.5t92.5 -39.5z" />
    <glyph glyph-name="Utilde" unicode="&#x168;" horiz-adv-x="1313" 
d="M1158 1462v-969q0 -161 -56.5 -275.5t-168.5 -176t-280 -61.5q-242 0 -370 133.5t-128 379.5v969h230v-956q0 -171 69.5 -248.5t203.5 -77.5q93 0 152.5 35.5t89 108t29.5 183.5v955h229zM302 1595q5 59 19.5 109.5t40.5 88.5t63.5 59t85.5 21q42 0 80 -17t74 -39t70 -39
t66 -17q35 0 56.5 29t31.5 85h123q-9 -135 -66.5 -206.5t-142.5 -71.5q-40 0 -79 17t-75.5 39t-70 39.5t-63.5 17.5q-33 0 -56.5 -28.5t-34.5 -86.5h-122z" />
    <glyph glyph-name="utilde" unicode="&#x169;" horiz-adv-x="1138" 
d="M992 1108v-1108h-176l-28 149h-13q-29 -55 -74 -93t-101 -57t-121 -19q-111 0 -186.5 45.5t-114 135t-38.5 222.5v725h223v-675q0 -133 41.5 -198.5t128.5 -65.5q89 0 140.5 42.5t73.5 126t22 205.5v565h223zM214 1241q5 59 19.5 109.5t40.5 88.5t63.5 59t85.5 21
q42 0 80 -17t74 -39t70 -39t66 -17q35 0 56.5 29t31.5 85h123q-9 -135 -66.5 -206.5t-142.5 -71.5q-40 0 -79 17t-75.5 39t-70 39.5t-63.5 17.5q-33 0 -56.5 -28.5t-34.5 -86.5h-122z" />
    <glyph glyph-name="Umacron" unicode="&#x16a;" horiz-adv-x="1313" 
d="M1158 1462v-969q0 -161 -56.5 -275.5t-168.5 -176t-280 -61.5q-242 0 -370 133.5t-128 379.5v969h230v-956q0 -171 69.5 -248.5t203.5 -77.5q93 0 152.5 35.5t89 108t29.5 183.5v955h229zM949 1770v-164h-583v164h583z" />
    <glyph glyph-name="umacron" unicode="&#x16b;" horiz-adv-x="1138" 
d="M992 1108v-1108h-176l-28 149h-13q-29 -55 -74 -93t-101 -57t-121 -19q-111 0 -186.5 45.5t-114 135t-38.5 222.5v725h223v-675q0 -133 41.5 -198.5t128.5 -65.5q89 0 140.5 42.5t73.5 126t22 205.5v565h223zM862 1416v-164h-583v164h583z" />
    <glyph glyph-name="Ubreve" unicode="&#x16c;" horiz-adv-x="1313" 
d="M1158 1462v-969q0 -161 -56.5 -275.5t-168.5 -176t-280 -61.5q-242 0 -370 133.5t-128 379.5v969h230v-956q0 -171 69.5 -248.5t203.5 -77.5q93 0 152.5 35.5t89 108t29.5 183.5v955h229zM972 1898q-4 -91 -44.5 -159t-109.5 -105.5t-162 -37.5q-140 0 -220.5 79
t-86.5 223h134q5 -52 27 -82.5t60 -43t89 -12.5q47 0 85 13t62.5 43.5t29.5 81.5h136z" />
    <glyph glyph-name="ubreve" unicode="&#x16d;" horiz-adv-x="1138" 
d="M992 1108v-1108h-176l-28 149h-13q-29 -55 -74 -93t-101 -57t-121 -19q-111 0 -186.5 45.5t-114 135t-38.5 222.5v725h223v-675q0 -133 41.5 -198.5t128.5 -65.5q89 0 140.5 42.5t73.5 126t22 205.5v565h223zM884 1544q-4 -91 -44.5 -159t-109.5 -105.5t-162 -37.5
q-140 0 -220.5 79t-86.5 223h134q5 -52 27 -82.5t60 -43t89 -12.5q47 0 85 13t62.5 43.5t29.5 81.5h136z" />
    <glyph glyph-name="Uring" unicode="&#x16e;" horiz-adv-x="1313" 
d="M1158 1462v-969q0 -161 -56.5 -275.5t-168.5 -176t-280 -61.5q-242 0 -370 133.5t-128 379.5v969h230v-956q0 -171 69.5 -248.5t203.5 -77.5q93 0 152.5 35.5t89 108t29.5 183.5v955h229zM657 1597q-103 0 -166 60.5t-63 161.5q0 102 63 162.5t166 60.5
q100 0 166.5 -60.5t66.5 -159.5q0 -103 -65 -164t-168 -61zM659 1716q45 0 75 28t30 76q0 47 -29.5 75.5t-75.5 28.5t-76 -28.5t-30 -75.5q0 -48 27 -76t79 -28z" />
    <glyph glyph-name="uring" unicode="&#x16f;" horiz-adv-x="1138" 
d="M992 1108v-1108h-176l-28 149h-13q-29 -55 -74 -93t-101 -57t-121 -19q-111 0 -186.5 45.5t-114 135t-38.5 222.5v725h223v-675q0 -133 41.5 -198.5t128.5 -65.5q89 0 140.5 42.5t73.5 126t22 205.5v565h223zM570 1243q-103 0 -166 60.5t-63 161.5q0 102 63 162.5
t166 60.5q100 0 166.5 -60.5t66.5 -159.5q0 -103 -65 -164t-168 -61zM572 1362q45 0 75 28t30 76q0 47 -29.5 75.5t-75.5 28.5t-76 -28.5t-30 -75.5q0 -48 27 -76t79 -28z" />
    <glyph glyph-name="Uhungarumlaut" unicode="&#x170;" horiz-adv-x="1313" 
d="M1158 1462v-969q0 -161 -56.5 -275.5t-168.5 -176t-280 -61.5q-242 0 -370 133.5t-128 379.5v969h230v-956q0 -171 69.5 -248.5t203.5 -77.5q93 0 152.5 35.5t89 108t29.5 183.5v955h229zM1138 1923v-20q-16 -29 -48.5 -70t-73 -85t-82 -84.5t-74.5 -68.5h-119v25
q31 47 64.5 103t63 109t46.5 91h223zM794 1923v-20q-17 -30 -48.5 -70t-72 -83.5t-82.5 -83.5t-79 -71h-115v25q31 48 64 103.5t62.5 108.5t47.5 91h223z" />
    <glyph glyph-name="uhungarumlaut" unicode="&#x171;" horiz-adv-x="1138" 
d="M992 1108v-1108h-176l-28 149h-13q-29 -55 -74 -93t-101 -57t-121 -19q-111 0 -186.5 45.5t-114 135t-38.5 222.5v725h223v-675q0 -133 41.5 -198.5t128.5 -65.5q89 0 140.5 42.5t73.5 126t22 205.5v565h223zM1050 1569v-20q-16 -29 -48.5 -70t-73 -85t-82 -84.5
t-74.5 -68.5h-119v25q31 47 64.5 103t63 109t46.5 91h223zM706 1569v-20q-17 -30 -48.5 -70t-72 -83.5t-82.5 -83.5t-79 -71h-115v25q31 48 64 103.5t62.5 108.5t47.5 91h223z" />
    <glyph glyph-name="Uogonek" unicode="&#x172;" horiz-adv-x="1313" 
d="M812 -222q0 -51 24 -75t63 -24q27 0 52 5t40 10v-144q-28 -8 -61 -13.5t-71 -5.5q-108 0 -163 56t-55 158q0 58 25.5 113t67.5 102.5t92 83.5l181 53q-71 -71 -114 -127t-62 -102t-19 -90zM1158 1462v-969q0 -161 -56.5 -275.5t-168.5 -176t-280 -61.5q-242 0 -370 133.5
t-128 379.5v969h230v-956q0 -171 69.5 -248.5t203.5 -77.5q93 0 152.5 35.5t89 108t29.5 183.5v955h229z" />
    <glyph glyph-name="uogonek" unicode="&#x173;" horiz-adv-x="1138" 
d="M992 1108v-1108h-176l-28 149h-13q-29 -55 -74 -93t-101 -57t-121 -19q-111 0 -186.5 45.5t-114 135t-38.5 222.5v725h223v-675q0 -133 41.5 -198.5t128.5 -65.5q89 0 140.5 42.5t73.5 126t22 205.5v565h223zM821 -230q0 -45 23.5 -69t64.5 -24q29 0 51 5t37 11v-142
q-25 -8 -55.5 -14t-70.5 -6q-109 0 -165 54.5t-56 150.5q0 54 24 107t67 101t98 86l114 -30q-69 -67 -100.5 -120t-31.5 -110z" />
    <glyph glyph-name="Wcircumflex" unicode="&#x174;" horiz-adv-x="1729" 
d="M1718 1462l-337 -1462h-259l-204 851q-7 30 -15 69t-16 81.5t-14.5 84.5t-10.5 79q-3 -29 -9 -68t-13.5 -82t-16 -85.5t-16.5 -78.5l-201 -851h-257l-339 1462h229l185 -845q10 -45 19.5 -93.5t18 -97.5t15 -94t11.5 -82q5 43 12.5 91t16.5 96.5t18 93.5t18 82l203 849
h214l202 -850q10 -38 19 -83t17.5 -93t16 -95.5t13.5 -90.5q7 56 17 119.5t22 128t24 120.5l186 844h231zM980 1923q25 -46 63.5 -100.5t81 -108t78.5 -95.5v-24h-141q-47 35 -97.5 82t-99.5 102q-50 -54 -100.5 -102.5t-94.5 -81.5h-141v24q36 42 78.5 96t81.5 109t62 99
h229z" />
    <glyph glyph-name="wcircumflex" unicode="&#x175;" horiz-adv-x="1490" 
d="M942 1l-128 568q-8 35 -17.5 78.5t-18.5 89.5t-17 87t-13 70h-7q-5 -30 -13 -72t-17 -88t-18.5 -89.5t-17.5 -76.5l-135 -567h-248l-273 1108h224l121 -526q12 -55 23.5 -117.5t20.5 -122.5t15 -109h7q4 32 10 72.5t13.5 85t16 88t17.5 80.5l136 549h248l132 -551
q10 -44 21 -100.5t20.5 -115t14.5 -108.5h8q3 37 11 88.5t18.5 110t23.5 112.5l131 564h220l-276 -1108h-253zM860 1569q25 -46 63.5 -100.5t81 -108t78.5 -95.5v-24h-141q-47 35 -97.5 82t-99.5 102q-50 -54 -100.5 -102.5t-94.5 -81.5h-141v24q36 42 78.5 96t81.5 109
t62 99h229z" />
    <glyph glyph-name="Ycircumflex" unicode="&#x176;" horiz-adv-x="1045" 
d="M523 804l279 658h243l-408 -895v-567h-229v560l-408 902h245zM638 1923q25 -46 63.5 -100.5t81 -108t78.5 -95.5v-24h-141q-47 35 -97.5 82t-99.5 102q-50 -54 -100.5 -102.5t-94.5 -81.5h-141v24q36 42 78.5 96t81.5 109t62 99h229z" />
    <glyph glyph-name="ycircumflex" unicode="&#x177;" horiz-adv-x="962" 
d="M5 1108h238l184 -612q13 -41 23 -81t18 -79t13 -76h7q9 50 23.5 110t33.5 126l178 612h235l-403 -1255q-36 -116 -88.5 -193t-123 -114.5t-163.5 -37.5q-39 0 -71.5 5t-60.5 12v187q21 -6 47 -10t53 -4q51 0 87 21.5t62.5 66t47.5 113.5l33 108zM596 1569
q25 -46 63.5 -100.5t81 -108t78.5 -95.5v-24h-141q-47 35 -97.5 82t-99.5 102q-50 -54 -100.5 -102.5t-94.5 -81.5h-141v24q36 42 78.5 96t81.5 109t62 99h229z" />
    <glyph glyph-name="Ydieresis" unicode="&#x178;" horiz-adv-x="1045" 
d="M523 804l279 658h243l-408 -895v-567h-229v560l-408 902h245zM226 1744q0 60 31 88.5t78 28.5t78.5 -29t31.5 -88q0 -57 -31.5 -87t-78.5 -30t-78 29.5t-31 87.5zM597 1744q0 60 31.5 88.5t78.5 28.5t79 -29t32 -88q0 -57 -32 -87t-79 -30q-48 0 -79 30t-31 87z" />
    <glyph glyph-name="Zacute" unicode="&#x179;" horiz-adv-x="992" 
d="M939 0h-882v164l603 1100h-587v198h849v-163l-604 -1100h621v-199zM822 1923v-20q-23 -29 -60 -69.5t-80.5 -84.5t-87 -84.5t-78.5 -69.5h-151v25q35 47 71.5 99t69.5 105t58 99h258z" />
    <glyph glyph-name="zacute" unicode="&#x17a;" horiz-adv-x="827" 
d="M771 0h-714v141l450 787h-422v180h671v-153l-440 -776h455v-179zM741 1569v-20q-23 -29 -60 -69.5t-80.5 -84.5t-87 -84.5t-78.5 -69.5h-151v25q35 47 71.5 99t69.5 105t58 99h258z" />
    <glyph glyph-name="Zdotaccent" unicode="&#x17b;" horiz-adv-x="992" 
d="M939 0h-882v164l603 1100h-587v198h849v-163l-604 -1100h621v-199zM514 1887q58 0 91.5 -31.5t33.5 -99.5q0 -66 -34 -98t-91 -32q-56 0 -91 32t-35 98q0 69 34 100t92 31z" />
    <glyph glyph-name="zdotaccent" unicode="&#x17c;" horiz-adv-x="827" 
d="M771 0h-714v141l450 787h-422v180h671v-153l-440 -776h455v-179zM432 1533q58 0 91.5 -31.5t33.5 -99.5q0 -66 -34 -98t-91 -32q-56 0 -91 32t-35 98q0 69 34 100t92 31z" />
    <glyph glyph-name="Zcaron" unicode="&#x17d;" horiz-adv-x="992" 
d="M939 0h-882v164l603 1100h-587v198h849v-163l-604 -1100h621v-199zM388 1595q-24 45 -63 99.5t-81.5 108.5t-77.5 95v25h141q45 -35 96 -83t98 -102q52 57 100 101t97 84h142v-25q-34 -39 -77 -92.5t-82.5 -109t-63.5 -101.5h-229z" />
    <glyph glyph-name="zcaron" unicode="&#x17e;" horiz-adv-x="827" 
d="M771 0h-714v141l450 787h-422v180h671v-153l-440 -776h455v-179zM306 1241q-24 45 -63 99.5t-81.5 108.5t-77.5 95v25h141q45 -35 96 -83t98 -102q52 57 100 101t97 84h142v-25q-34 -39 -77 -92.5t-82.5 -109t-63.5 -101.5h-229z" />
    <glyph glyph-name="longs" unicode="&#x17f;" horiz-adv-x="618" 
d="M504 1382q-67 0 -96 -47.5t-30 -153.5v-1181h-224v1178q0 137 36 223t108 126t178 40q65 0 115 -11t97 -29l-52 -170q-30 10 -63 17.5t-69 7.5z" />
    <glyph glyph-name="florin" unicode="&#x192;" horiz-adv-x="1007" 
d="M696 1483q64 0 116.5 -12t101.5 -33l-54 -169q-31 12 -63 20.5t-68 8.5q-66 0 -94 -46t-28 -148v-112h220v-177h-219v-926q0 -124 -32 -209t-101 -128.5t-179 -43.5q-46 0 -86.5 6.5t-72.5 15.5v184q31 -9 60.5 -14t59.5 -5q64 0 95.5 43t31.5 147v930h-167v113l167 67
v109q0 138 35 221t105 120.5t172 37.5z" />
    <glyph glyph-name="Ohorn" unicode="&#x1a0;" horiz-adv-x="1414" 
d="M1280 733q0 -167 -35.5 -305.5t-107.5 -238.5t-182 -154.5t-259 -54.5q-152 0 -263 55t-182.5 155.5t-106.5 239t-35 305.5q0 237 65 404.5t195.5 256.5t327.5 89q147 0 257 -53t183 -153q40 25 62.5 65t31.5 93.5t9 118.5h217l14 -23q-21 -158 -81 -255.5t-175 -144.5
q33 -82 49 -182t16 -218zM349 733q0 -176 37.5 -300t114.5 -188.5t194 -64.5q119 0 195 64t112.5 187.5t36.5 301.5q0 268 -83 410t-259 142q-119 0 -196 -64.5t-114.5 -187.5t-37.5 -300z" />
    <glyph glyph-name="ohorn" unicode="&#x1a1;" horiz-adv-x="1171" 
d="M1009 556q0 -183 -55 -312t-158 -196.5t-248 -67.5q-137 0 -240 68t-159.5 197t-56.5 311q0 277 121.5 425t339.5 148q100 0 184 -37t143 -108q49 17 76.5 58t39 100.5t12.5 131.5h215l14 -23q-14 -111 -46.5 -191.5t-89 -132.5t-142.5 -79q25 -61 37.5 -134t12.5 -158z
M319 555q0 -128 25 -214.5t76.5 -131t130.5 -44.5q81 0 131.5 44t74.5 131.5t24 215.5t-24 213.5t-74.5 129t-132.5 43.5q-121 0 -176 -97t-55 -290z" />
    <glyph glyph-name="Uhorn" unicode="&#x1af;" horiz-adv-x="1479" 
d="M1158 1462v-199q58 11 90 51.5t44.5 103t12.5 138.5h216l14 -23q-12 -93 -38 -166.5t-69.5 -126.5t-110 -84.5t-159.5 -42.5v-596q0 -166 -55.5 -286.5t-166.5 -185.5t-279 -65q-244 0 -373 141t-129 396v945h230v-940q0 -174 70 -258t205 -84q93 0 152 38.5t88 115
t29 189.5v939h229z" />
    <glyph glyph-name="uhorn" unicode="&#x1b0;" horiz-adv-x="1294" 
d="M1351 1274l13 -23q-11 -94 -36.5 -167.5t-69 -126t-109 -85t-157.5 -42.5v-830h-176l-28 149h-13q-30 -55 -74.5 -93t-100.5 -57t-120 -19q-112 0 -187.5 45.5t-114 135t-38.5 222.5v725h223v-675q0 -133 41.5 -198.5t128.5 -65.5q129 0 182.5 93t53.5 291v555h223v-128
q55 13 86 53.5t44 102.5t13 138h216z" />
    <glyph glyph-name="uni01EA" unicode="&#x1ea;" horiz-adv-x="1389" 
d="M1280 733q0 -167 -35.5 -305.5t-107 -238.5t-182 -154.5t-259.5 -54.5q-152 0 -263 55t-182.5 155.5t-106.5 239t-35 305.5q0 237 64.5 404.5t195.5 256.5t328 89q199 0 328 -94.5t192 -263.5t63 -394zM349 733q0 -176 37.5 -300t114.5 -188.5t194 -64.5q119 0 195 64
t113 187.5t37 301.5q0 268 -83.5 410t-259.5 142q-119 0 -196 -64.5t-114.5 -187.5t-37.5 -300zM692 -230q0 -45 23.5 -69t64.5 -24q29 0 51 5t37 11v-142q-25 -8 -55.5 -14t-70.5 -6q-109 0 -165 54.5t-56 150.5q0 54 24 107t67 101t98 86l114 -30q-69 -67 -100.5 -120
t-31.5 -110z" />
    <glyph glyph-name="uni01EB" unicode="&#x1eb;" horiz-adv-x="1100" 
d="M1009 556q0 -130 -29.5 -236t-87.5 -182t-144 -117t-200 -41q-107 0 -191.5 40.5t-143.5 116.5t-90 182t-31 237q0 179 52.5 307.5t155.5 197t253 68.5q138 0 240.5 -66.5t159 -194t56.5 -312.5zM319 555q0 -125 24.5 -212t76 -132t131.5 -45q81 0 131.5 44.5t74.5 131.5
t24 214q0 126 -24 212t-74.5 130t-132.5 44q-121 0 -176 -98t-55 -289zM545 -230q0 -45 23.5 -69t64.5 -24q29 0 51 5t37 11v-142q-25 -8 -55.5 -14t-70.5 -6q-109 0 -165 54.5t-56 150.5q0 54 24 107t67 101t98 86l114 -30q-69 -67 -100.5 -120t-31.5 -110z" />
    <glyph glyph-name="uni01EC" unicode="&#x1ec;" horiz-adv-x="1389" 
d="M1280 733q0 -167 -35.5 -305.5t-107 -238.5t-182 -154.5t-259.5 -54.5q-152 0 -263 55t-182.5 155.5t-106.5 239t-35 305.5q0 237 64.5 404.5t195.5 256.5t328 89q199 0 328 -94.5t192 -263.5t63 -394zM349 733q0 -176 37.5 -300t114.5 -188.5t194 -64.5q119 0 195 64
t113 187.5t37 301.5q0 268 -83.5 410t-259.5 142q-119 0 -196 -64.5t-114.5 -187.5t-37.5 -300zM987 1771v-164h-583v164h583zM699 -230q0 -45 23.5 -69t64.5 -24q29 0 51 5t37 11v-142q-25 -8 -55.5 -14t-70.5 -6q-109 0 -165 54.5t-56 150.5q0 54 24 107t67 101t98 86
l114 -30q-69 -67 -100.5 -120t-31.5 -110z" />
    <glyph glyph-name="uni01ED" unicode="&#x1ed;" horiz-adv-x="1100" 
d="M1009 556q0 -130 -29.5 -236t-87.5 -182t-144 -117t-200 -41q-107 0 -191.5 40.5t-143.5 116.5t-90 182t-31 237q0 179 52.5 307.5t155.5 197t253 68.5q138 0 240.5 -66.5t159 -194t56.5 -312.5zM319 555q0 -125 24.5 -212t76 -132t131.5 -45q81 0 131.5 44.5t74.5 131.5
t24 214q0 126 -24 212t-74.5 130t-132.5 44q-121 0 -176 -98t-55 -289zM842 1416v-164h-583v164h583zM544 -230q0 -45 23.5 -69t64.5 -24q29 0 51 5t37 11v-142q-25 -8 -55.5 -14t-70.5 -6q-109 0 -165 54.5t-56 150.5q0 54 24 107t67 101t98 86l114 -30
q-69 -67 -100.5 -120t-31.5 -110z" />
    <glyph glyph-name="uni01F0" unicode="&#x1f0;" horiz-adv-x="517" 
d="M68 -492q-41 0 -82 7t-67 16v185q27 -9 53 -13.5t55 -4.5q56 0 88 37.5t32 127.5v1245h223v-1256q0 -106 -32.5 -183.5t-99.5 -119t-170 -41.5zM145 1241q-24 45 -63 99.5t-81.5 108.5t-77.5 95v25h141q45 -35 96 -83t98 -102q52 57 100 101t97 84h142v-25
q-34 -39 -77 -92.5t-82.5 -109t-63.5 -101.5h-229z" />
    <glyph glyph-name="Aringacute" unicode="&#x1fa;" horiz-adv-x="1173" 
d="M0 0l430 1293q-35 23 -55.5 61.5t-20.5 90.5q0 102 63.5 163t166.5 61q100 0 166.5 -60.5t66.5 -161.5q0 -53 -21 -91.5t-57 -62.5l435 -1293h-246l-112 362h-460l-111 -362h-245zM406 562h361l-119 390q-10 35 -22.5 79.5t-23.5 87.5t-17 71q-4 -22 -11.5 -51.5t-16 -61
t-16 -60.5t-12.5 -49zM585 1341q47 0 76 28t29 77q0 47 -29 75.5t-76 28.5t-77 -28.5t-30 -75.5t28 -76t79 -29zM471 1724v18q43 49 75 88t55.5 72t40.5 63h263v-14q-17 -22 -50 -52t-73 -62t-80 -61.5t-72 -51.5h-159z" />
    <glyph glyph-name="aringacute" unicode="&#x1fb;" horiz-adv-x="1041" 
d="M534 1129q184 0 275.5 -96t91.5 -290v-743h-162l-39 155h-7q-38 -58 -81.5 -97t-100 -58.5t-135.5 -19.5q-94 0 -161 42t-102 118t-35 177q0 170 111.5 258t328.5 96l161 7v59q0 114 -42.5 165t-127.5 51q-65 0 -131 -21t-135 -57l-68 162q75 43 167 67.5t192 24.5z
M679 532l-115 -6q-139 -6 -198.5 -58.5t-59.5 -147.5q0 -86 40 -126t108 -40q100 0 162.5 72t62.5 204v102zM532 1538q-46 0 -76 -28.5t-30 -75.5q0 -48 27 -76.5t79 -28.5q46 0 75.5 28.5t29.5 76.5q0 47 -29.5 75.5t-75.5 28.5zM531 1655q67 0 119.5 -27t83.5 -76t31 -117
q0 -101 -65.5 -162.5t-168.5 -61.5t-166 60.5t-63 162.5q0 101 63 161t166 60zM855 1961v-13q-24 -31 -77 -75t-111 -86.5t-97 -67.5h-162v18q40 46 71.5 84.5t56.5 73t44 66.5h275z" />
    <glyph glyph-name="AEacute" unicode="&#x1fc;" horiz-adv-x="1599" 
d="M1495 0h-718v409h-387l-151 -409h-242l557 1462h941v-197h-489v-405h457v-196h-457v-465h489v-199zM461 609h317v652h-80zM1176 1923v-20q-23 -29 -60 -69.5t-80.5 -84.5t-87 -84.5t-78.5 -69.5h-151v25q35 47 71.5 99t69.5 105t58 99h258z" />
    <glyph glyph-name="aeacute" unicode="&#x1fd;" horiz-adv-x="1596" 
d="M1106 1128q129 0 219 -62.5t137.5 -174t46.5 -261.5v-128h-621q3 -171 70 -257.5t194 -86.5q83 0 157 20t150 61v-185q-72 -38 -148 -56t-175 -18q-83 0 -155.5 24.5t-129.5 73t-94 120.5q-45 -73 -96.5 -121.5t-117.5 -72.5t-155 -24q-96 0 -165.5 42t-107 118
t-37.5 177q0 114 48.5 190.5t144.5 117.5t236 46l160 7v70q0 106 -43.5 155.5t-124.5 49.5q-63 0 -128.5 -20t-133.5 -57l-69 161q72 41 162 66.5t186 25.5q105 0 176 -37t112 -114q51 73 126 111.5t176 38.5zM667 531l-112 -5q-133 -6 -191 -57.5t-58 -148.5
q0 -85 38.5 -125.5t105.5 -40.5q64 0 113 32.5t76.5 93.5t27.5 148v103zM1103 955q-92 0 -148.5 -71.5t-63.5 -219.5h405q0 86 -21.5 151.5t-64 102.5t-107.5 37zM1133 1569v-20q-23 -29 -60 -69.5t-80.5 -84.5t-87 -84.5t-78.5 -69.5h-151v25q35 47 71.5 99t69.5 105t58 99
h258z" />
    <glyph glyph-name="Oslashacute" unicode="&#x1fe;" horiz-adv-x="1390" 
d="M1282 733q0 -175 -37 -314.5t-110 -237t-182.5 -149.5t-255.5 -52q-92 0 -168.5 21t-138.5 63l-88 -153l-130 73l102 177q-85 105 -124.5 249t-39.5 325q0 237 65 404.5t196 256.5t327 89q91 0 168.5 -23t140.5 -66l84 143l129 -74l-99 -168q80 -97 120.5 -239.5
t40.5 -324.5zM1044 733q0 101 -14 186t-42 149l-491 -819q38 -35 88 -53.5t111 -18.5q120 0 197 64.5t114 189t37 302.5zM348 733q0 -107 15 -194t44 -153l494 822q-39 40 -89.5 59.5t-112.5 19.5q-120 0 -197.5 -64.5t-115.5 -188t-38 -301.5zM1022 1923v-20
q-23 -29 -60 -69.5t-80.5 -84.5t-87 -84.5t-78.5 -69.5h-151v25q35 47 71.5 99t69.5 105t58 99h258z" />
    <glyph glyph-name="oslashacute" unicode="&#x1ff;" horiz-adv-x="1102" 
d="M1010 556q0 -183 -55 -312t-158 -196.5t-248 -67.5q-62 0 -116.5 14.5t-101.5 42.5l-79 -138l-123 72l91 157q-63 80 -95 186t-32 242q0 277 121.5 425t339.5 148q64 0 120 -16t104 -48l70 120l123 -72l-81 -142q58 -74 89 -178.5t31 -236.5zM317 555q0 -67 7 -122
t22 -96l338 561q-26 24 -59 36t-73 12q-124 0 -179.5 -99t-55.5 -292zM788 556q0 61 -7 112.5t-19 91.5l-335 -557q24 -21 56 -31.5t68 -10.5q83 0 135 45.5t77 133.5t25 216zM876 1569v-20q-23 -29 -60 -69.5t-80.5 -84.5t-87 -84.5t-78.5 -69.5h-151v25q35 47 71.5 99
t69.5 105t58 99h258z" />
    <glyph glyph-name="uni0218" unicode="&#x218;" horiz-adv-x="997" 
d="M918 406q0 -129 -57 -225t-162 -148.5t-249 -52.5q-69 0 -133 8t-122 24.5t-109 41.5v226q82 -42 178.5 -69.5t188.5 -27.5q78 0 130 26.5t78 72.5t26 105q0 63 -26.5 107.5t-85 82.5t-153.5 83q-68 32 -126.5 70t-102.5 86.5t-68.5 114.5t-24.5 156q-1 122 53.5 211
t153 137.5t230.5 47.5q101 0 192 -23t174 -63l-71 -196q-78 38 -150.5 58.5t-144.5 20.5q-67 0 -113 -23.5t-70.5 -65t-24.5 -96.5q0 -65 25.5 -108t82.5 -79.5t151 -81.5q107 -51 180.5 -107.5t111.5 -131.5t38 -181zM607 -125v-20q-15 -46 -38 -100t-51.5 -107.5
t-60.5 -100.5h-132v25q12 37 25.5 92t25 112t15.5 99h216z" />
    <glyph glyph-name="uni0219" unicode="&#x219;" horiz-adv-x="862" 
d="M789 313q0 -108 -46 -182.5t-134 -112.5t-214 -38q-97 0 -173 16.5t-141 48.5v205q64 -36 147.5 -62t162.5 -26q91 0 134.5 35.5t43.5 98.5q0 37 -17.5 66t-63.5 59t-133 69q-87 41 -148.5 85.5t-93.5 104.5t-32 148q0 142 102 221.5t273 79.5q88 0 167 -20.5t154 -59.5
l-70 -170q-60 31 -123 51.5t-128 20.5q-76 0 -117 -30t-41 -83q0 -39 18.5 -66t65.5 -54.5t131 -67.5t146 -83.5t96 -103.5t34 -150zM553 -125v-20q-15 -46 -38 -100t-51.5 -107.5t-60.5 -100.5h-132v25q12 37 25.5 92t25 112t15.5 99h216z" />
    <glyph glyph-name="uni021A" unicode="&#x21a;" horiz-adv-x="991" 
d="M610 0h-230v1263h-353v199h935v-199h-352v-1263zM629 -125v-20q-15 -46 -38 -100t-51.5 -107.5t-60.5 -100.5h-132v25q12 37 25.5 92t25 112t15.5 99h216z" />
    <glyph glyph-name="uni021B" unicode="&#x21b;" horiz-adv-x="697" 
d="M510 167q36 0 73 7.5t70 20.5v-174q-39 -18 -92 -29.5t-112 -11.5q-89 0 -153 33.5t-98.5 107.5t-34.5 196v614h-128v109l141 70l64 242h146v-244h255v-177h-255v-606q0 -79 31.5 -118.5t92.5 -39.5zM541 -125v-20q-15 -46 -38 -100t-51.5 -107.5t-60.5 -100.5h-132v25
q12 37 25.5 92t25 112t15.5 99h216z" />
    <glyph glyph-name="uni0237" unicode="&#x237;" horiz-adv-x="517" 
d="M68 -492q-41 0 -82 7t-67 16v185q27 -9 53 -13.5t55 -4.5q56 0 88 37.5t32 127.5v1245h223v-1256q0 -106 -32.5 -183.5t-99.5 -119t-170 -41.5z" />
    <glyph glyph-name="uni0259" unicode="&#x259;" horiz-adv-x="1036" 
d="M465 1128q155 0 262 -67.5t162.5 -194.5t55.5 -306q0 -186 -53 -315.5t-151.5 -197t-236.5 -67.5q-133 0 -226 62t-142 174.5t-49 261.5v128h634q-3 169 -72.5 255.5t-202.5 86.5q-84 0 -157 -19t-151 -61v185q73 38 150.5 56.5t176.5 18.5zM718 443h-417q0 -84 22 -150
t66.5 -103.5t113.5 -37.5q93 0 150 72t65 219z" />
    <glyph glyph-name="uni02BC" unicode="&#x2bc;" horiz-adv-x="414" 
d="M356 1462l14 -22q-18 -82 -43.5 -167t-55 -167t-62.5 -157h-169q15 59 29 126.5t27 136.5t23 133t16 117h221z" />
    <glyph glyph-name="circumflex" unicode="&#x2c6;" horiz-adv-x="838" 
d="M533 1569q25 -46 63.5 -100.5t81 -108t78.5 -95.5v-24h-141q-47 35 -97.5 82t-99.5 102q-50 -54 -100.5 -102.5t-94.5 -81.5h-141v24q36 42 78.5 96t81.5 109t62 99h229z" />
    <glyph glyph-name="caron" unicode="&#x2c7;" horiz-adv-x="838" 
d="M304 1241q-24 45 -63 99.5t-81.5 108.5t-77.5 95v25h141q45 -35 96 -83t98 -102q52 57 100 101t97 84h142v-25q-34 -39 -77 -92.5t-82.5 -109t-63.5 -101.5h-229z" />
    <glyph glyph-name="macron" unicode="&#x2c9;" horiz-adv-x="747" 
d="M665 1416v-164h-583v164h583z" />
    <glyph glyph-name="breve" unicode="&#x2d8;" horiz-adv-x="787" 
d="M705 1544q-4 -91 -44.5 -159t-109.5 -105.5t-162 -37.5q-140 0 -220.5 79t-86.5 223h134q5 -52 27 -82.5t60 -43t89 -12.5q47 0 85 13t62.5 43.5t29.5 81.5h136z" />
    <glyph glyph-name="dotaccent" unicode="&#x2d9;" horiz-adv-x="415" 
d="M208 1533q58 0 91.5 -31.5t33.5 -99.5q0 -66 -34 -98t-91 -32q-56 0 -91 32t-35 98q0 69 34 100t92 31z" />
    <glyph glyph-name="ring" unicode="&#x2da;" horiz-adv-x="626" 
d="M311 1243q-103 0 -166 60.5t-63 161.5q0 102 63 162.5t166 60.5q100 0 166.5 -60.5t66.5 -159.5q0 -103 -65 -164t-168 -61zM313 1362q45 0 75 28t30 76q0 47 -29.5 75.5t-75.5 28.5t-76 -28.5t-30 -75.5q0 -48 27 -76t79 -28z" />
    <glyph glyph-name="ogonek" unicode="&#x2db;" horiz-adv-x="511" 
d="M253 -230q0 -45 23.5 -69t64.5 -24q29 0 51 5t37 11v-142q-25 -8 -55.5 -14t-70.5 -6q-109 0 -165 54.5t-56 150.5q0 54 24 107t67 101t98 86l114 -30q-69 -67 -100.5 -120t-31.5 -110z" />
    <glyph glyph-name="tilde" unicode="&#x2dc;" horiz-adv-x="874" 
d="M82 1241q5 59 19.5 109.5t40.5 88.5t63.5 59t85.5 21q42 0 80 -17t74 -39t70 -39t66 -17q35 0 56.5 29t31.5 85h123q-9 -135 -66.5 -206.5t-142.5 -71.5q-40 0 -79 17t-75.5 39t-70 39.5t-63.5 17.5q-33 0 -56.5 -28.5t-34.5 -86.5h-122z" />
    <glyph glyph-name="hungarumlaut" unicode="&#x2dd;" horiz-adv-x="905" 
d="M823 1569v-20q-16 -29 -48.5 -70t-73 -85t-82 -84.5t-74.5 -68.5h-119v25q31 47 64.5 103t63 109t46.5 91h223zM479 1569v-20q-17 -30 -48.5 -70t-72 -83.5t-82.5 -83.5t-79 -71h-115v25q31 48 64 103.5t62.5 108.5t47.5 91h223z" />
    <glyph glyph-name="uni02F3" unicode="&#x2f3;" horiz-adv-x="724" 
d="M360 -566q-104 0 -166.5 60t-62.5 163q0 101 62.5 162t166.5 61q100 0 166.5 -61t66.5 -160q0 -102 -65.5 -163.5t-167.5 -61.5zM360 -448q46 0 75.5 28.5t29.5 76.5q0 47 -29.5 75.5t-75.5 28.5t-76 -28.5t-30 -75.5t27 -76t79 -29z" />
    <glyph glyph-name="gravecomb" unicode="&#x300;" 
d="M-671 1569q24 -46 59.5 -102.5t73.5 -110t67 -90.5v-25h-151q-33 27 -76.5 66.5t-88 84.5t-82 86.5t-59.5 70.5v20h257z" />
    <glyph glyph-name="acutecomb" unicode="&#x301;" 
d="M-163 1569v-20q-23 -29 -60 -69.5t-80.5 -84.5t-87 -84.5t-78.5 -69.5h-151v25q35 47 71.5 99t69.5 105t58 99h258z" />
    <glyph glyph-name="uni0302" unicode="&#x302;" 
d="M115 1569q25 -46 63.5 -100.5t81 -108t78.5 -95.5v-24h-141q-47 35 -97.5 82t-99.5 102q-50 -54 -100.5 -102.5t-94.5 -81.5h-141v24q36 42 78.5 96t81.5 109t62 99h229z" />
    <glyph glyph-name="tildecomb" unicode="&#x303;" 
d="M-944 1241q5 59 19.5 109.5t40.5 88.5t63.5 59t85.5 21q42 0 80 -17t74 -39t70 -39t66 -17q35 0 56.5 29t31.5 85h123q-9 -135 -66.5 -206.5t-142.5 -71.5q-40 0 -79 17t-75.5 39t-70 39.5t-63.5 17.5q-33 0 -56.5 -28.5t-34.5 -86.5h-122z" />
    <glyph glyph-name="uni0304" unicode="&#x304;" 
d="M292 1416v-164h-583v164h583z" />
    <glyph glyph-name="uni0306" unicode="&#x306;" 
d="M314 1544q-4 -91 -44.5 -159t-109.5 -105.5t-162 -37.5q-140 0 -220.5 79t-86.5 223h134q5 -52 27 -82.5t60 -43t89 -12.5q47 0 85 13t62.5 43.5t29.5 81.5h136z" />
    <glyph glyph-name="uni0307" unicode="&#x307;" 
d="M7 1533q58 0 91.5 -31.5t33.5 -99.5q0 -66 -34 -98t-91 -32q-56 0 -91 32t-35 98q0 69 34 100t92 31z" />
    <glyph glyph-name="uni0308" unicode="&#x308;" 
d="M-295 1390q0 60 31 88.5t78 28.5t78.5 -29t31.5 -88q0 -57 -31.5 -87t-78.5 -30t-78 29.5t-31 87.5zM76 1390q0 60 31.5 88.5t78.5 28.5t79 -29t32 -88q0 -57 -32 -87t-79 -30q-48 0 -79 30t-31 87z" />
    <glyph glyph-name="hookabovecomb" unicode="&#x309;" 
d="M-370 1494q0 -76 -41 -123.5t-118 -66.5l-11 -89h-124l-16 157q67 9 100.5 34.5t33.5 69.5q0 40 -27 59.5t-76 19.5q-28 0 -54.5 -4t-51.5 -12v133q28 10 64 15t77 5q119 0 181.5 -51t62.5 -147z" />
    <glyph glyph-name="uni030A" unicode="&#x30a;" 
d="M1 1243q-103 0 -166 60.5t-63 161.5q0 102 63 162.5t166 60.5q100 0 166.5 -60.5t66.5 -159.5q0 -103 -65 -164t-168 -61zM3 1362q45 0 75 28t30 76q0 47 -29.5 75.5t-75.5 28.5t-76 -28.5t-30 -75.5q0 -48 27 -76t79 -28z" />
    <glyph glyph-name="uni030B" unicode="&#x30b;" 
d="M489 1569v-20q-16 -29 -48.5 -70t-73 -85t-82 -84.5t-74.5 -68.5h-119v25q31 47 64.5 103t63 109t46.5 91h223zM145 1569v-20q-17 -30 -48.5 -70t-72 -83.5t-82.5 -83.5t-79 -71h-115v25q31 48 64 103.5t62.5 108.5t47.5 91h223z" />
    <glyph glyph-name="uni030C" unicode="&#x30c;" 
d="M-114 1241q-24 45 -63 99.5t-81.5 108.5t-77.5 95v25h141q45 -35 96 -83t98 -102q52 57 100 101t97 84h142v-25q-34 -39 -77 -92.5t-82.5 -109t-63.5 -101.5h-229z" />
    <glyph glyph-name="uni030F" unicode="&#x30f;" 
d="M-490 1569q18 -40 46 -93.5t60.5 -109t61.5 -100.5v-25h-115q-34 29 -75.5 69t-81.5 84.5t-71.5 85t-47.5 69.5v20h223zM-835 1569q21 -46 48.5 -98.5t58 -105.5t60.5 -99v-25h-118q-32 28 -72.5 68.5t-80.5 85t-72 85t-48 69.5v20h224z" />
    <glyph glyph-name="uni0312" unicode="&#x312;" 
d="M-142 949l-13 22q18 84 43.5 168.5t56 167t62.5 155.5h169q-21 -82 -39.5 -173t-33 -179.5t-23.5 -160.5h-222z" />
    <glyph glyph-name="dotbelowcomb" unicode="&#x323;" 
d="M-603 -393q-57 0 -91.5 31.5t-34.5 98.5q0 68 34 99.5t92 31.5t91.5 -31.5t33.5 -99.5q0 -67 -34 -98.5t-91 -31.5z" />
    <glyph glyph-name="uni0326" unicode="&#x326;" 
d="M137 -125v-20q-15 -46 -38 -100t-51.5 -107.5t-60.5 -100.5h-132v25q12 37 25.5 92t25 112t15.5 99h216z" />
    <glyph glyph-name="uni0327" unicode="&#x327;" 
d="M202 -271q0 -105 -68 -163t-207 -58q-39 0 -71.5 4.5t-56.5 11.5v133q24 -7 54 -11t57 -4q54 0 84 21t30 63q0 48 -43 74t-122 35l77 165h133l-40 -90q51 -11 90 -34.5t61 -60.5t22 -86z" />
    <glyph glyph-name="uni0328" unicode="&#x328;" 
d="M-12 -230q0 -45 23.5 -69t64.5 -24q29 0 51 5t37 11v-142q-25 -8 -55.5 -14t-70.5 -6q-109 0 -165 54.5t-56 150.5q0 54 24 107t67 101t98 86l114 -30q-69 -67 -100.5 -120t-31.5 -110z" />
    <glyph glyph-name="tonos" unicode="&#x384;" horiz-adv-x="1098" 
d="M458 1241v28q11 30 23.5 75t24.5 96t21.5 97t14.5 77h214v-23q-18 -50 -44.5 -110t-57 -122t-62.5 -118h-134z" />
    <glyph glyph-name="dieresistonos" unicode="&#x385;" horiz-adv-x="1093" 
d="M732 1680v-20q-15 -40 -39.5 -89.5t-54 -101.5t-61.5 -100h-105v25q12 45 24 96t22 101t14 89h200zM320 1492q46 0 75.5 -29.5t29.5 -88.5q0 -57 -29.5 -87t-75.5 -30t-75 30t-29 87q0 59 29 88.5t75 29.5zM784 1493q45 0 75.5 -29.5t30.5 -89.5q0 -56 -30.5 -86
t-75.5 -30q-47 0 -75.5 30t-28.5 87q0 60 28.5 89t75.5 29z" />
    <glyph glyph-name="Alphatonos" unicode="&#x386;" horiz-adv-x="1196" 
d="M951 0l-118 409h-448l-118 -409h-244l449 1465h272l451 -1465h-244zM783 609l-117 421q-7 34 -18 78l-22 88t-18 78q-6 -37 -16 -81t-20.5 -86.5t-19.5 -74.5l-116 -423h347zM10 1171v28q11 30 23.5 75t24.5 96t21.5 97t14.5 77h214v-23q-18 -50 -44.5 -110t-57 -122
t-62.5 -118h-134z" />
    <glyph glyph-name="anoteleia" unicode="&#x387;" horiz-adv-x="524" 
d="M123 976q0 77 38.5 112.5t101.5 35.5q61 0 100 -35t39 -113q0 -76 -39.5 -112.5t-99.5 -36.5q-61 0 -100.5 37t-39.5 112z" />
    <glyph glyph-name="Epsilontonos" unicode="&#x388;" horiz-adv-x="1190" 
d="M1085 0h-722v1462h722v-196h-492v-406h460v-196h-460v-465h492v-199zM-5 1160v28q11 30 23.5 75t24.5 96t21.5 97t14.5 77h214v-23q-18 -50 -44.5 -110t-57 -122t-62.5 -118h-134z" />
    <glyph glyph-name="Etatonos" unicode="&#x389;" horiz-adv-x="1534" 
d="M1367 0h-229v663h-543v-663h-230v1462h230v-600h543v600h229v-1462zM-6 1160v28q11 30 23.5 75t24.5 96t21.5 97t14.5 77h214v-23q-18 -50 -44.5 -110t-57 -122t-62.5 -118h-134z" />
    <glyph glyph-name="Iotatonos" unicode="&#x38a;" horiz-adv-x="761" 
d="M365 0v1462h230v-1462h-230zM-5 1160v28q11 30 23.5 75t24.5 96t21.5 97t14.5 77h214v-23q-18 -50 -44.5 -110t-57 -122t-62.5 -118h-134z" />
    <glyph glyph-name="Omicrontonos" unicode="&#x38c;" horiz-adv-x="1486" 
d="M1378 733q0 -167 -35.5 -305.5t-107 -238.5t-182 -154.5t-259.5 -54.5q-152 0 -263 55t-182.5 155.5t-106.5 239t-35 305.5q0 237 64.5 404.5t195.5 256.5t328 89q199 0 328 -94.5t192 -263.5t63 -394zM447 733q0 -176 37.5 -300t114.5 -188.5t194 -64.5q119 0 195 64
t113 187.5t37 301.5q0 268 -83.5 410t-259.5 142q-119 0 -196 -64.5t-114.5 -187.5t-37.5 -300zM-5 1160v28q11 30 23.5 75t24.5 96t21.5 97t14.5 77h214v-23q-18 -50 -44.5 -110t-57 -122t-62.5 -118h-134z" />
    <glyph glyph-name="Upsilontonos" unicode="&#x38e;" horiz-adv-x="1365" 
d="M843 804l279 658h243l-408 -895v-567h-229v560l-408 902h245zM-5 1160v28q11 30 23.5 75t24.5 96t21.5 97t14.5 77h214v-23q-18 -50 -44.5 -110t-57 -122t-62.5 -118h-134z" />
    <glyph glyph-name="Omegatonos" unicode="&#x38f;" horiz-adv-x="1498" 
d="M804 1285q-114 0 -192.5 -54t-118 -159.5t-39.5 -260.5q0 -136 25 -248.5t80.5 -202.5t144.5 -159v-201h-537v200h323q-81 62 -143 155t-96 215t-34 271q0 205 70 348.5t201.5 219.5t315.5 76q183 0 314 -76t200.5 -219.5t69.5 -348.5q0 -150 -34 -272t-95.5 -214.5
t-144.5 -154.5h325v-200h-540v201q93 69 148.5 159.5t80.5 203.5t25 248q0 153 -39.5 258.5t-117 160t-192.5 54.5zM-8 1160v28q11 30 23.5 75t24.5 96t21.5 97t14.5 77h214v-23q-18 -50 -44.5 -110t-57 -122t-62.5 -118h-134z" />
    <glyph glyph-name="iotadieresistonos" unicode="&#x390;" horiz-adv-x="663" 
d="M367 1108v-794q0 -76 28.5 -111t85.5 -35q39 0 78 8.5t68 20.5v-176q-37 -19 -88.5 -30t-109.5 -11q-88 0 -152 31t-98.5 103.5t-34.5 196.5v797h223zM457 1680v-20q-15 -40 -39.5 -89.5t-54 -101.5t-61.5 -100h-105v25q12 45 24 96t22 101t14 89h200zM45 1492
q46 0 75.5 -29.5t29.5 -88.5q0 -57 -29.5 -87t-75.5 -30t-75 30t-29 87q0 59 29 88.5t75 29.5zM509 1493q45 0 75.5 -29.5t30.5 -89.5q0 -56 -30.5 -86t-75.5 -30q-47 0 -75.5 30t-28.5 87q0 60 28.5 89t75.5 29z" />
    <glyph glyph-name="Alpha" unicode="&#x391;" horiz-adv-x="1173" 
d="M928 0l-118 409h-448l-118 -409h-244l449 1465h272l451 -1465h-244zM760 609l-117 421q-7 34 -18 78l-22 88t-18 78q-6 -37 -16 -81t-20.5 -86.5t-19.5 -74.5l-116 -423h347z" />
    <glyph glyph-name="Beta" unicode="&#x392;" horiz-adv-x="1186" 
d="M167 1462h393q246 0 370.5 -85t124.5 -275q0 -87 -26.5 -155t-77.5 -112t-124 -59v-10q82 -17 141 -59t90.5 -112t31.5 -174q0 -131 -55.5 -225.5t-159 -145t-247.5 -50.5h-461v1462zM397 855h180q133 0 188 55.5t55 163.5q0 100 -62 148.5t-194 48.5h-167v-416zM397 668
v-474h205q132 0 191 63.5t59 181.5q0 73 -28 124t-85.5 78t-150.5 27h-191z" />
    <glyph glyph-name="Gamma" unicode="&#x393;" horiz-adv-x="951" 
d="M918 1462v-199h-521v-1263h-230v1462h751z" />
    <glyph glyph-name="uni0394" unicode="&#x394;" horiz-adv-x="1125" 
d="M697 1464l393 -1325v-139h-1054v143l392 1321h269zM841 199l-222 802q-10 37 -22 83.5t-21.5 91.5t-14.5 76q-6 -35 -16 -80t-21 -90t-21 -81l-221 -802h559z" />
    <glyph glyph-name="Epsilon" unicode="&#x395;" horiz-adv-x="994" 
d="M889 0h-722v1462h722v-196h-492v-406h460v-196h-460v-465h492v-199z" />
    <glyph glyph-name="Zeta" unicode="&#x396;" horiz-adv-x="992" 
d="M939 0h-882v164l603 1100h-587v198h849v-163l-604 -1100h621v-199z" />
    <glyph glyph-name="Eta" unicode="&#x397;" horiz-adv-x="1336" 
d="M1169 0h-229v663h-543v-663h-230v1462h230v-600h543v600h229v-1462z" />
    <glyph glyph-name="Theta" unicode="&#x398;" horiz-adv-x="1389" 
d="M920 839v-191h-452v191h452zM1280 733q0 -167 -35.5 -305.5t-107 -238.5t-182 -154.5t-259.5 -54.5q-152 0 -263 55t-182.5 155.5t-106.5 239t-35 305.5q0 237 64.5 404.5t195.5 256.5t328 89q199 0 328 -94.5t192 -263.5t63 -394zM349 733q0 -176 37.5 -300
t114.5 -188.5t194 -64.5q119 0 195 64t113 187.5t37 301.5q0 268 -83.5 410t-259.5 142q-119 0 -196 -64.5t-114.5 -187.5t-37.5 -300z" />
    <glyph glyph-name="Iota" unicode="&#x399;" horiz-adv-x="563" 
d="M167 0v1462h230v-1462h-230z" />
    <glyph glyph-name="Kappa" unicode="&#x39a;" horiz-adv-x="1140" 
d="M1146 0h-261l-368 652l-120 -111v-541h-230v1462h230v-703q27 44 62.5 96t76.5 113l343 494h255l-454 -644z" />
    <glyph glyph-name="Lambda" unicode="&#x39b;" horiz-adv-x="1128" 
d="M690 1462l438 -1462h-239l-260 927q-13 52 -26 106.5t-24 104t-17 86.5q-7 -44 -17.5 -95.5t-23 -103.5t-24.5 -96l-258 -929h-239l436 1462h254z" />
    <glyph glyph-name="Mu" unicode="&#x39c;" horiz-adv-x="1702" 
d="M744 0l-372 1191h-8q4 -54 7 -117.5t5.5 -126.5t2.5 -116v-831h-212v1462h321l357 -1138h7l364 1138h321v-1462h-220v836q0 52 1.5 113t4.5 123.5t6 116.5h-8l-380 -1189h-197z" />
    <glyph glyph-name="Nu" unicode="&#x39d;" horiz-adv-x="1408" 
d="M1242 0h-278l-593 1141h-8q4 -60 7.5 -121.5t5.5 -121t3 -116.5v-782h-212v1462h276l592 -1127h7q-3 58 -6 118.5t-5 120t-2 112.5v776h213v-1462z" />
    <glyph glyph-name="Xi" unicode="&#x39e;" horiz-adv-x="999" 
d="M77 0v199h846v-199h-846zM176 666v197h647v-197h-647zM110 1266v196h780v-196h-780z" />
    <glyph glyph-name="Omicron" unicode="&#x39f;" horiz-adv-x="1389" 
d="M1280 733q0 -167 -35.5 -305.5t-107 -238.5t-182 -154.5t-259.5 -54.5q-152 0 -263 55t-182.5 155.5t-106.5 239t-35 305.5q0 237 64.5 404.5t195.5 256.5t328 89q199 0 328 -94.5t192 -263.5t63 -394zM349 733q0 -176 37.5 -300t114.5 -188.5t194 -64.5q119 0 195 64
t113 187.5t37 301.5q0 268 -83.5 410t-259.5 142q-119 0 -196 -64.5t-114.5 -187.5t-37.5 -300z" />
    <glyph glyph-name="Pi" unicode="&#x3a0;" horiz-adv-x="1314" 
d="M167 0v1462h981v-1462h-229v1263h-522v-1263h-230z" />
    <glyph glyph-name="Rho" unicode="&#x3a1;" horiz-adv-x="1105" 
d="M537 1462q251 0 369 -113t118 -328q0 -103 -28.5 -189.5t-89 -150.5t-156.5 -99t-232 -35h-121v-547h-230v1462h370zM522 1268h-125v-526h98q98 0 164 27.5t99 88t33 158.5q0 130 -65.5 191t-203.5 61z" />
    <glyph glyph-name="Sigma" unicode="&#x3a3;" horiz-adv-x="1028" 
d="M68 0v186l405 579l-391 515v182h841v-197h-393q-33 0 -67.5 0.5t-66.5 2.5t-58 4l385 -506l-408 -576q57 4 113.5 6.5t113.5 2.5h429v-199h-903z" />
    <glyph glyph-name="Tau" unicode="&#x3a4;" horiz-adv-x="991" 
d="M610 0h-230v1263h-353v199h935v-199h-352v-1263z" />
    <glyph glyph-name="Upsilon" unicode="&#x3a5;" horiz-adv-x="1045" 
d="M523 804l279 658h243l-408 -895v-567h-229v560l-408 902h245z" />
    <glyph glyph-name="Phi" unicode="&#x3a6;" horiz-adv-x="1531" 
d="M875 1483v-180q197 -2 321 -74.5t182.5 -194t58.5 -274.5q0 -111 -32 -211t-99.5 -176.5t-174 -121t-256.5 -46.5v-225h-219v225q-151 1 -258.5 46t-174.5 122t-98.5 176.5t-31.5 210.5q0 112 32 209.5t100 172t175 117.5t256 44v180h219zM656 1113q-119 -2 -194 -44.5
t-109.5 -120.5t-34.5 -186q0 -118 37 -199.5t112.5 -124t188.5 -45.5v720zM874 1113v-720q115 3 190 47t111.5 125.5t36.5 196.5q0 110 -34.5 187.5t-109.5 119.5t-194 44z" />
    <glyph glyph-name="Chi" unicode="&#x3a7;" horiz-adv-x="1081" 
d="M1075 0h-255l-281 574l-290 -574h-243l401 756l-369 706h247l259 -532l258 532h244l-370 -712z" />
    <glyph glyph-name="Psi" unicode="&#x3a8;" horiz-adv-x="1545" 
d="M1430 1462v-479q0 -131 -29 -233t-93 -172.5t-169 -107.5t-258 -37v-433h-217v433q-154 0 -259.5 36.5t-168.5 106.5t-91.5 170.5t-28.5 228.5v487h225v-487q0 -117 31 -194t102 -114.5t190 -37.5v833h217v-833q111 0 182.5 34t106 109.5t34.5 199.5v490h226z" />
    <glyph glyph-name="uni03A9" unicode="&#x3a9;" horiz-adv-x="1391" 
d="M697 1285q-114 0 -192.5 -54t-118 -159.5t-39.5 -260.5q0 -136 25 -248.5t80.5 -202.5t144.5 -159v-201h-537v200h323q-81 62 -143 155t-96 215t-34 271q0 205 70 348.5t201.5 219.5t315.5 76q183 0 314 -76t200.5 -219.5t69.5 -348.5q0 -150 -34 -272t-95.5 -214.5
t-144.5 -154.5h325v-200h-540v201q93 69 148.5 159.5t80.5 203.5t25 248q0 153 -39.5 258.5t-117 160t-192.5 54.5z" />
    <glyph glyph-name="Iotadieresis" unicode="&#x3aa;" horiz-adv-x="563" 
d="M167 0v1462h230v-1462h-230zM-15 1739q0 60 31 88.5t78 28.5t78.5 -29t31.5 -88q0 -57 -31.5 -87t-78.5 -30t-78 29.5t-31 87.5zM356 1739q0 60 31.5 88.5t78.5 28.5t79 -29t32 -88q0 -57 -32 -87t-79 -30q-48 0 -79 30t-31 87z" />
    <glyph glyph-name="Upsilondieresis" unicode="&#x3ab;" horiz-adv-x="1045" 
d="M523 804l279 658h243l-408 -895v-567h-229v560l-408 902h245zM227 1735q0 60 31 88.5t78 28.5t78.5 -29t31.5 -88q0 -57 -31.5 -87t-78.5 -30t-78 29.5t-31 87.5zM598 1735q0 60 31.5 88.5t78.5 28.5t79 -29t32 -88q0 -57 -32 -87t-79 -30q-48 0 -79 30t-31 87z" />
    <glyph glyph-name="alphatonos" unicode="&#x3ac;" horiz-adv-x="1155" 
d="M539 165q81 0 131 41t73.5 123t23.5 206v21q0 193 -52.5 288.5t-178.5 95.5q-111 0 -164 -101t-53 -291q0 -194 54 -288.5t166 -94.5zM477 -20q-177 0 -281 145.5t-104 424.5q0 282 107 430t295 148q105 0 174.5 -44t114.5 -130h12q9 41 24.5 82.5t36.5 71.5h184
q-15 -48 -27.5 -116t-20 -147t-7.5 -159v-386q0 -70 22 -101t58 -31q16 0 32.5 3.5t27.5 7.5v-176q-9 -5 -29 -10.5t-42.5 -9t-41.5 -3.5q-92 0 -146 39t-79 135h-16q-29 -52 -70 -91t-96.5 -61t-127.5 -22zM487 1241v28q11 30 23.5 75t24.5 96t21.5 97t14.5 77h214v-23
q-18 -50 -44.5 -110t-57 -122t-62.5 -118h-134z" />
    <glyph glyph-name="epsilontonos" unicode="&#x3ad;" horiz-adv-x="914" 
d="M671 662v-168h-117q-87 0 -143 -19.5t-82 -58t-26 -94.5q0 -52 26.5 -87.5t77 -53.5t122.5 -18q90 0 172 23.5t144 57.5v-192q-66 -35 -148.5 -53.5t-192.5 -18.5q-221 0 -323 90.5t-102 234.5q0 115 63.5 182t167.5 91v9q-89 27 -136.5 92t-47.5 160q0 94 50 158.5
t138 98t200 33.5q93 0 177 -20t161 -59l-77 -169q-58 30 -118.5 49t-131.5 19q-94 0 -141.5 -34t-47.5 -99q0 -81 60 -117.5t177 -36.5h98zM428 1241v28q11 30 23.5 75t24.5 96t21.5 97t14.5 77h214v-23q-18 -50 -44.5 -110t-57 -122t-62.5 -118h-134z" />
    <glyph glyph-name="etatonos" unicode="&#x3ae;" horiz-adv-x="1138" 
d="M659 1129q108 0 183.5 -43t115 -130.5t39.5 -222.5v-1224h-222v1175q0 127 -41 190.5t-130 63.5q-86 0 -137.5 -41t-74.5 -126t-23 -216v-555h-223v1108h175l28 -151h13q30 56 75 94t101.5 58t120.5 20zM500 1241v28q11 30 23.5 75t24.5 96t21.5 97t14.5 77h214v-23
q-18 -50 -44.5 -110t-57 -122t-62.5 -118h-134z" />
    <glyph glyph-name="iotatonos" unicode="&#x3af;" horiz-adv-x="663" 
d="M367 1108v-794q0 -76 28.5 -111t85.5 -35q39 0 78 8.5t68 20.5v-176q-37 -19 -88.5 -30t-109.5 -11q-88 0 -152 31t-98.5 103.5t-34.5 196.5v797h223zM179 1241v28q11 30 23.5 75t24.5 96t21.5 97t14.5 77h214v-23q-18 -50 -44.5 -110t-57 -122t-62.5 -118h-134z" />
    <glyph glyph-name="upsilondieresistonos" unicode="&#x3b0;" horiz-adv-x="1123" 
d="M560 -18q-158 0 -250.5 59.5t-132 173.5t-40.5 278v615h223v-626q0 -153 47 -233t160 -80q119 0 176 100t57 319q0 136 -16 259.5t-48 260.5h223q23 -97 37 -178.5t20.5 -163t6.5 -180.5q0 -306 -118 -455t-345 -149zM742 1680v-20q-15 -40 -39.5 -89.5t-54 -101.5
t-61.5 -100h-105v25q12 45 24 96t22 101t14 89h200zM330 1492q46 0 75.5 -29.5t29.5 -88.5q0 -57 -29.5 -87t-75.5 -30t-75 30t-29 87q0 59 29 88.5t75 29.5zM794 1493q45 0 75.5 -29.5t30.5 -89.5q0 -56 -30.5 -86t-75.5 -30q-47 0 -75.5 30t-28.5 87q0 60 28.5 89t75.5 29
z" />
    <glyph glyph-name="alpha" unicode="&#x3b1;" horiz-adv-x="1155" 
d="M539 165q81 0 131 41t73.5 123t23.5 206v21q0 193 -52.5 288.5t-178.5 95.5q-111 0 -164 -101t-53 -291q0 -194 54 -288.5t166 -94.5zM477 -20q-177 0 -281 145.5t-104 424.5q0 282 107 430t295 148q105 0 174.5 -44t114.5 -130h12q9 41 24.5 82.5t36.5 71.5h184
q-15 -48 -27.5 -116t-20 -147t-7.5 -159v-386q0 -70 22 -101t58 -31q16 0 32.5 3.5t27.5 7.5v-176q-9 -5 -29 -10.5t-42.5 -9t-41.5 -3.5q-92 0 -146 39t-79 135h-16q-29 -52 -70 -91t-96.5 -61t-127.5 -22z" />
    <glyph glyph-name="beta" unicode="&#x3b2;" horiz-adv-x="1157" 
d="M591 1567q128 0 222 -45.5t146 -132t52 -209.5q0 -154 -65.5 -241t-191.5 -109v-8q161 -21 242 -118t81 -281q0 -139 -51 -238t-146 -152t-227 -53q-91 0 -159.5 18t-124.5 50v-539h-223v1606q0 151 56 251.5t156 150.5t233 50zM585 1382q-63 0 -112 -28.5t-76.5 -90.5
t-27.5 -164v-858q47 -32 110 -52.5t125 -20.5q126 0 186 70.5t60 204.5q0 93 -31.5 154t-89.5 90.5t-139 29.5h-66v187h51q109 0 160.5 65t51.5 184q0 114 -54.5 171.5t-147.5 57.5z" />
    <glyph glyph-name="gamma" unicode="&#x3b3;" horiz-adv-x="966" 
d="M958 1108l-343 -1070q-27 -84 -46.5 -178t-30.5 -185.5t-11 -165.5h-237q0 59 11.5 147t31 181t40.5 166l-367 1105h234l156 -496q18 -60 36.5 -127.5t33 -130.5t20.5 -112h7q6 45 19 104.5t30.5 126.5t34.5 131l150 504h231z" />
    <glyph glyph-name="delta" unicode="&#x3b4;" horiz-adv-x="1099" 
d="M605 1564q114 0 205.5 -28t172.5 -71l-86 -173q-75 43 -147.5 67t-146.5 24q-78 0 -117 -34t-39 -86q0 -43 25 -81.5t77.5 -80.5t133.5 -95q108 -72 180.5 -149.5t109 -171t36.5 -211.5q0 -155 -56 -265.5t-159.5 -169.5t-248.5 -59q-141 0 -242.5 56t-156.5 159t-55 243
q0 126 45 222t126 162.5t188 102.5q-65 49 -115.5 100.5t-78.5 110.5t-28 129q0 145 104.5 222t272.5 77zM584 824q-69 -23 -129.5 -72.5t-98 -125.5t-37.5 -180q0 -80 26.5 -143.5t77.5 -100.5t124 -37q75 0 127 35.5t79.5 104t27.5 166.5q0 116 -50.5 201t-146.5 152z" />
    <glyph glyph-name="epsilon" unicode="&#x3b5;" horiz-adv-x="914" 
d="M671 662v-168h-117q-87 0 -143 -19.5t-82 -58t-26 -94.5q0 -52 26.5 -87.5t77 -53.5t122.5 -18q90 0 172 23.5t144 57.5v-192q-66 -35 -148.5 -53.5t-192.5 -18.5q-221 0 -323 90.5t-102 234.5q0 115 63.5 182t167.5 91v9q-89 27 -136.5 92t-47.5 160q0 94 50 158.5
t138 98t200 33.5q93 0 177 -20t161 -59l-77 -169q-58 30 -118.5 49t-131.5 19q-94 0 -141.5 -34t-47.5 -99q0 -81 60 -117.5t177 -36.5h98z" />
    <glyph glyph-name="zeta" unicode="&#x3b6;" horiz-adv-x="879" 
d="M841 -75q0 -80 -36.5 -163.5t-85.5 -153.5h-225q34 47 63 97.5t46.5 96.5t17.5 78q0 29 -14.5 52t-56 44t-122.5 43q-112 30 -186.5 83t-112 141t-37.5 221q0 132 36.5 250t103.5 229.5t159.5 221.5t204.5 225q-20 -4 -55 -7t-76 -5t-81 -2h-243v180h698v-150
q-151 -143 -251 -268.5t-159 -238.5t-83.5 -217t-24.5 -205q0 -90 26 -143t82.5 -85t147.5 -59q87 -23 145.5 -57.5t88.5 -85.5t30 -122z" />
    <glyph glyph-name="eta" unicode="&#x3b7;" horiz-adv-x="1138" 
d="M659 1129q108 0 183.5 -43t115 -130.5t39.5 -222.5v-1224h-222v1175q0 127 -41 190.5t-130 63.5q-86 0 -137.5 -41t-74.5 -126t-23 -216v-555h-223v1108h175l28 -151h13q30 56 75 94t101.5 58t120.5 20z" />
    <glyph glyph-name="theta" unicode="&#x3b8;" horiz-adv-x="1109" 
d="M1018 779q0 -260 -49 -438t-151.5 -269.5t-265.5 -91.5q-233 0 -346.5 204t-113.5 594q0 259 49 436t151 268t262 91q233 0 348.5 -202t115.5 -592zM552 156q118 0 175.5 135.5t62.5 408.5h-472q5 -270 60 -407t174 -137zM554 1397q-116 0 -171 -129.5t-63 -389.5h470
q-7 259 -63.5 389t-172.5 130z" />
    <glyph glyph-name="iota" unicode="&#x3b9;" horiz-adv-x="663" 
d="M367 1108v-794q0 -76 28.5 -111t85.5 -35q39 0 78 8.5t68 20.5v-176q-37 -19 -88.5 -30t-109.5 -11q-88 0 -152 31t-98.5 103.5t-34.5 196.5v797h223z" />
    <glyph glyph-name="kappa" unicode="&#x3ba;" horiz-adv-x="1029" 
d="M1000 1108l-352 -469l376 -639h-251l-275 487l-127 -116v-371h-225v1108h225v-285q0 -69 -2 -135t-7 -121h5q22 34 45 67.5t44 63.5l300 410h244z" />
    <glyph glyph-name="lambda" unicode="&#x3bb;" horiz-adv-x="1037" 
d="M5 0l394 1073l-41 146q-26 82 -61.5 122.5t-106.5 40.5q-26 0 -48.5 -3.5t-41.5 -9.5v185q17 5 38 8.5t44 5.5t45 2q97 0 161.5 -35t109 -108.5t79.5 -189.5l274 -921q18 -55 35.5 -86.5t38.5 -44.5t47 -13q17 0 34 3t30 8v-182q-14 -6 -34.5 -11t-43 -7.5t-44.5 -2.5
q-69 0 -116 25.5t-79.5 79t-56.5 137.5l-101 342q-9 29 -17.5 59.5t-16.5 60t-14.5 57t-10.5 51.5h-7q-10 -47 -24.5 -97t-31.5 -96l-203 -599h-231z" />
    <glyph glyph-name="uni03BC" unicode="&#x3bc;" horiz-adv-x="1143" 
d="M997 1108v-1108h-175l-29 151h-11q-25 -54 -60 -92t-79.5 -58.5t-100.5 -20.5q-60 0 -103.5 24.5t-72.5 70.5h-6q2 -28 4 -66t3 -78.5t1 -80.5v-341h-222v1599h222v-681q0 -128 42 -193t130 -65q89 0 140 45t72.5 131t21.5 208v555h223z" />
    <glyph glyph-name="nu" unicode="&#x3bd;" horiz-adv-x="1019" 
d="M11 1108h230l181 -647q11 -40 23 -84.5t22.5 -86.5t16.5 -73h8q85 121 136.5 256.5t75 292.5t23.5 342h223q0 -218 -37.5 -406.5t-123.5 -360.5t-232 -341h-211z" />
    <glyph glyph-name="xi" unicode="&#x3be;" horiz-adv-x="877" 
d="M92 425q0 97 31.5 174.5t90.5 132t142 80.5v9q-67 16 -114 50.5t-71 90t-24 134.5q0 77 31.5 135t88 97t131.5 59q-33 -3 -69 -5.5t-70.5 -4t-62.5 -1.5h-65v180h667v-173h-66q-75 0 -141 -17.5t-116.5 -52.5t-78.5 -86t-28 -119q0 -105 59 -155.5t200 -50.5h129v-175
h-134q-99 0 -166 -32t-101 -94t-34 -153q0 -84 27.5 -132.5t84.5 -76.5t143 -51q93 -24 151 -61t84.5 -87t26.5 -117q0 -80 -37 -162.5t-84 -152.5h-224q35 48 64 98.5t45.5 96.5t16.5 77t-14.5 55t-54.5 44t-115 38q-115 29 -191 81.5t-114 134t-38 192.5z" />
    <glyph glyph-name="omicron" unicode="&#x3bf;" horiz-adv-x="1100" 
d="M1009 556q0 -130 -29.5 -236t-87.5 -182t-144 -117t-200 -41q-107 0 -191.5 40.5t-143.5 116.5t-90 182t-31 237q0 179 52.5 307.5t155.5 197t253 68.5q138 0 240.5 -66.5t159 -194t56.5 -312.5zM319 555q0 -125 24.5 -212t76 -132t131.5 -45q81 0 131.5 44.5t74.5 131.5
t24 214q0 126 -24 212t-74.5 130t-132.5 44q-121 0 -176 -98t-55 -289z" />
    <glyph glyph-name="pi" unicode="&#x3c0;" horiz-adv-x="1242" 
d="M1077 168q26 0 51.5 6.5t46.5 17.5v-171q-27 -17 -71.5 -28t-93.5 -11q-118 0 -179.5 73.5t-61.5 224.5v645h-333v-925h-222v925h-195v99l139 84h1030v-183h-196v-636q0 -64 22.5 -92.5t62.5 -28.5z" />
    <glyph glyph-name="rho" unicode="&#x3c1;" horiz-adv-x="1111" 
d="M1020 555q0 -178 -46.5 -307t-139 -198.5t-228.5 -69.5q-75 0 -139 23t-112 62h-12q6 -58 9 -129.5t3 -138.5v-288h-224v1055q0 179 50 305.5t150 193t248 66.5q136 0 234.5 -65t152.5 -192.5t54 -316.5zM574 942q-112 0 -166 -87t-54 -270v-335q41 -42 96 -63.5
t115 -21.5q118 0 172.5 94.5t54.5 295.5q0 202 -51.5 294.5t-166.5 92.5z" />
    <glyph glyph-name="uni03C2" unicode="&#x3c2;" horiz-adv-x="879" 
d="M564 1129q75 0 147 -17.5t134 -47.5l-65 -179q-54 24 -106.5 39t-107.5 15q-127 0 -186.5 -103.5t-59.5 -308.5q0 -103 23 -165t79 -99t153 -67q92 -26 150.5 -63t86.5 -88t28 -119q0 -80 -37 -164.5t-85 -153.5h-222q34 48 62.5 99.5t45.5 98t17 78.5q0 30 -13.5 54
t-53.5 46t-118 43q-84 24 -148 61t-107.5 94.5t-66 140t-22.5 197.5q0 212 56.5 346t162.5 198.5t253 64.5z" />
    <glyph glyph-name="sigma" unicode="&#x3c3;" horiz-adv-x="1145" 
d="M1016 491q0 -153 -54 -268.5t-158 -179t-252 -63.5q-143 0 -246.5 64t-158.5 186t-55 298q0 201 64 329.5t188 190t302 61.5h455v-181h-235q69 -81 109.5 -189t40.5 -248zM320 530q0 -116 25.5 -197.5t77.5 -124.5t132 -43q120 0 177 93.5t57 258.5q0 80 -13.5 151
t-39.5 135.5t-65 124.5h-50q-156 0 -228.5 -93t-72.5 -305z" />
    <glyph glyph-name="tau" unicode="&#x3c4;" horiz-adv-x="865" 
d="M813 1108v-182h-331v-586q0 -90 35 -132.5t100 -42.5q39 0 77.5 7.5t73.5 19.5v-173q-34 -18 -89 -29.5t-114 -11.5q-95 0 -164 34t-106 111.5t-37 206.5v596h-240v98l138 84h657z" />
    <glyph glyph-name="upsilon" unicode="&#x3c5;" horiz-adv-x="1123" 
d="M560 -18q-158 0 -250.5 59.5t-132 173.5t-40.5 278v615h223v-626q0 -153 47 -233t160 -80q119 0 176 100t57 319q0 136 -16 259.5t-48 260.5h223q23 -97 37 -178.5t20.5 -163t6.5 -180.5q0 -306 -118 -455t-345 -149z" />
    <glyph glyph-name="phi" unicode="&#x3c6;" horiz-adv-x="1397" 
d="M301 1124l167 -108q-74 -100 -115 -215.5t-41 -250.5q0 -121 33.5 -201.5t94 -124.5t141.5 -57v571q0 193 86 291t242 98q126 0 214.5 -68.5t135 -189.5t46.5 -280q0 -181 -64.5 -311.5t-179.5 -204.5t-266 -88v-476h-214v476q-149 13 -259 78.5t-170 187.5t-60 303
q0 166 55.5 307t153.5 263zM910 947q-57 0 -86 -48t-29 -158v-574q86 8 151 60t101 143.5t36 217.5q0 110 -20.5 191t-59.5 125t-93 43z" />
    <glyph glyph-name="chi" unicode="&#x3c7;" horiz-adv-x="1012" 
d="M176 1122q75 0 124 -28t83 -86t62 -151l84 -268l233 519h228l-371 -766l156 -472q22 -67 42.5 -105t46 -53t63.5 -15q21 0 41 2.5t41 7.5v-179q-28 -9 -60.5 -14.5t-78.5 -5.5q-78 0 -132 29.5t-91.5 92.5t-68.5 162l-99 325l-264 -608h-237l410 855l-136 419
q-25 81 -55 116t-76 35q-18 0 -39.5 -3t-39.5 -10v181q26 8 60 14t74 6z" />
    <glyph glyph-name="psi" unicode="&#x3c8;" horiz-adv-x="1435" 
d="M830 1555v-1386q95 10 158 54.5t94 133t31 226.5q0 133 -18 260t-52 265h215q37 -145 54 -270.5t17 -256.5q0 -198 -61.5 -328t-174 -196t-263.5 -74v-474h-214v474q-149 5 -257 63t-166 178t-58 310v574h219v-572q0 -124 29 -203t87 -118.5t146 -46.5v1387h214z" />
    <glyph glyph-name="omega" unicode="&#x3c9;" horiz-adv-x="1467" 
d="M1258 1108q36 -97 59.5 -188.5t34.5 -185t11 -198.5q0 -169 -41.5 -294t-122.5 -193.5t-198 -68.5q-105 0 -170 51t-94 146h-8q-29 -95 -94 -146t-172 -51q-116 0 -196.5 68t-122 193t-41.5 295q0 107 11 199.5t34.5 183t60.5 189.5h221q-55 -135 -82.5 -273t-27.5 -294
q0 -181 41 -275.5t124 -94.5q52 0 83 31t45 92.5t14 152.5v289h212v-289q0 -94 14.5 -155t46 -91t81.5 -30q56 0 92.5 42.5t55 124.5t18.5 201q0 152 -27 292.5t-84 276.5h222z" />
    <glyph glyph-name="iotadieresis" unicode="&#x3ca;" horiz-adv-x="663" 
d="M367 1108v-794q0 -76 28.5 -111t85.5 -35q39 0 78 8.5t68 20.5v-176q-37 -19 -88.5 -30t-109.5 -11q-88 0 -152 31t-98.5 103.5t-34.5 196.5v797h223zM-24 1390q0 60 31 88.5t78 28.5t78.5 -29t31.5 -88q0 -57 -31.5 -87t-78.5 -30t-78 29.5t-31 87.5zM347 1390
q0 60 31.5 88.5t78.5 28.5t79 -29t32 -88q0 -57 -32 -87t-79 -30q-48 0 -79 30t-31 87z" />
    <glyph glyph-name="upsilondieresis" unicode="&#x3cb;" horiz-adv-x="1123" 
d="M560 -18q-158 0 -250.5 59.5t-132 173.5t-40.5 278v615h223v-626q0 -153 47 -233t160 -80q119 0 176 100t57 319q0 136 -16 259.5t-48 260.5h223q23 -97 37 -178.5t20.5 -163t6.5 -180.5q0 -306 -118 -455t-345 -149zM262 1390q0 60 31 88.5t78 28.5t78.5 -29t31.5 -88
q0 -57 -31.5 -87t-78.5 -30t-78 29.5t-31 87.5zM633 1390q0 60 31.5 88.5t78.5 28.5t79 -29t32 -88q0 -57 -32 -87t-79 -30q-48 0 -79 30t-31 87z" />
    <glyph glyph-name="omicrontonos" unicode="&#x3cc;" horiz-adv-x="1100" 
d="M1009 556q0 -130 -29.5 -236t-87.5 -182t-144 -117t-200 -41q-107 0 -191.5 40.5t-143.5 116.5t-90 182t-31 237q0 179 52.5 307.5t155.5 197t253 68.5q138 0 240.5 -66.5t159 -194t56.5 -312.5zM319 555q0 -125 24.5 -212t76 -132t131.5 -45q81 0 131.5 44.5t74.5 131.5
t24 214q0 126 -24 212t-74.5 130t-132.5 44q-121 0 -176 -98t-55 -289zM456 1241v28q11 30 23.5 75t24.5 96t21.5 97t14.5 77h214v-23q-18 -50 -44.5 -110t-57 -122t-62.5 -118h-134z" />
    <glyph glyph-name="upsilontonos" unicode="&#x3cd;" horiz-adv-x="1123" 
d="M560 -18q-158 0 -250.5 59.5t-132 173.5t-40.5 278v615h223v-626q0 -153 47 -233t160 -80q119 0 176 100t57 319q0 136 -16 259.5t-48 260.5h223q23 -97 37 -178.5t20.5 -163t6.5 -180.5q0 -306 -118 -455t-345 -149zM465 1241v28q11 30 23.5 75t24.5 96t21.5 97t14.5 77
h214v-23q-18 -50 -44.5 -110t-57 -122t-62.5 -118h-134z" />
    <glyph glyph-name="omegatonos" unicode="&#x3ce;" horiz-adv-x="1467" 
d="M1258 1108q36 -97 59.5 -188.5t34.5 -185t11 -198.5q0 -169 -41.5 -294t-122.5 -193.5t-198 -68.5q-105 0 -170 51t-94 146h-8q-29 -95 -94 -146t-172 -51q-116 0 -196.5 68t-122 193t-41.5 295q0 107 11 199.5t34.5 183t60.5 189.5h221q-55 -135 -82.5 -273t-27.5 -294
q0 -181 41 -275.5t124 -94.5q52 0 83 31t45 92.5t14 152.5v289h212v-289q0 -94 14.5 -155t46 -91t81.5 -30q56 0 92.5 42.5t55 124.5t18.5 201q0 152 -27 292.5t-84 276.5h222zM642 1241v28q11 30 23.5 75t24.5 96t21.5 97t14.5 77h214v-23q-18 -50 -44.5 -110t-57 -122
t-62.5 -118h-134z" />
    <glyph glyph-name="uni03D1" unicode="&#x3d1;" horiz-adv-x="1233" 
d="M588 1574q106 0 188 -40t141 -116.5t95.5 -187.5t52.5 -254h133v-182h-125q2 -17 2.5 -39t0.5 -42q-2 -166 -31.5 -301t-91 -231.5t-159 -148.5t-234.5 -52q-103 0 -175 25t-116 71t-64.5 108t-20.5 135q0 41 5 87t9 88t4 71q0 46 -15.5 63.5t-47.5 17.5q-17 0 -37.5 -6
t-37.5 -14l-44 160q36 18 87 32t112 14q94 0 145 -54t51 -151q0 -43 -4.5 -91t-9 -96.5t-4.5 -93.5q0 -83 40 -134.5t129 -51.5q93 0 155.5 59t94.5 182.5t33 316.5q0 17 -0.5 38t-1.5 37q-206 3 -342.5 59.5t-204.5 157t-68 231.5q0 94 38 169.5t117 119.5t201 44z
M588 1395q-67 0 -102 -40t-35 -116t41 -135t127.5 -93t221.5 -35q-9 93 -30 169.5t-53 132.5t-74.5 86.5t-95.5 30.5z" />
    <glyph glyph-name="uni03D2" unicode="&#x3d2;" horiz-adv-x="1054" 
d="M521 805q25 71 49.5 138.5t48.5 128.5t46.5 113.5t42.5 95.5q28 61 57.5 104.5t71 66.5t103.5 23q32 0 60.5 -5.5t51.5 -16.5v-181q-11 4 -25.5 6.5t-29.5 2.5q-31 0 -59 -28.5t-66 -107.5q-20 -41 -49 -104t-61.5 -141.5t-65 -165.5t-60.5 -176v-558h-230v560l-406 902
h248z" />
    <glyph glyph-name="uni03D6" unicode="&#x3d6;" horiz-adv-x="1596" 
d="M1553 1108v-182h-210q25 -73 41.5 -145t25.5 -145t9 -148q0 -162 -41.5 -275.5t-121.5 -173t-197 -59.5q-104 0 -167 48t-92 143h-9q-30 -94 -92.5 -142.5t-167.5 -48.5q-174 0 -267 132t-93 376q0 77 9.5 149.5t28 144.5t42.5 144h-222v97l137 85h1387zM1128 926h-663
q-24 -69 -41.5 -138.5t-26.5 -140t-9 -146.5q0 -173 40.5 -252t121.5 -79q77 0 108 71t31 216v176h213v-176q0 -100 14 -163.5t44.5 -93.5t79.5 -30q80 0 121 80t41 249q0 74 -8.5 145t-24.5 141t-41 141z" />
    <glyph glyph-name="uni0400" unicode="&#x400;" horiz-adv-x="994" 
d="M889 0h-722v1462h722v-196h-492v-406h460v-196h-460v-465h492v-199zM475 1914q24 -46 59.5 -102.5t73.5 -110t67 -90.5v-25h-151q-33 27 -76.5 66.5t-88 84.5t-82 86.5t-59.5 70.5v20h257z" />
    <glyph glyph-name="uni0401" unicode="&#x401;" horiz-adv-x="994" 
d="M889 0h-722v1462h722v-196h-492v-406h460v-196h-460v-465h492v-199zM236 1735q0 60 31 88.5t78 28.5t78.5 -29t31.5 -88q0 -57 -31.5 -87t-78.5 -30t-78 29.5t-31 87.5zM607 1735q0 60 31.5 88.5t78.5 28.5t79 -29t32 -88q0 -57 -32 -87t-79 -30q-48 0 -79 30t-31 87z
" />
    <glyph glyph-name="uni0402" unicode="&#x402;" horiz-adv-x="1338" 
d="M886 -19q-40 0 -78 6.5t-68 18.5v196q28 -12 57.5 -19t59.5 -7q39 0 69.5 16t48.5 55.5t18 111.5v168q0 98 -45 143t-148 45h-244v-715h-229v1263h-300v199h887v-199h-358v-349h263q197 0 300 -97t103 -279v-164q-1 -194 -88.5 -293.5t-247.5 -99.5z" />
    <glyph glyph-name="uni0403" unicode="&#x403;" horiz-adv-x="951" 
d="M918 1462v-199h-521v-1263h-230v1462h751zM889 1914v-20q-23 -29 -60 -69.5t-80.5 -84.5t-87 -84.5t-78.5 -69.5h-151v25q35 47 71.5 99t69.5 105t58 99h258z" />
    <glyph glyph-name="uni0404" unicode="&#x404;" horiz-adv-x="1158" 
d="M727 1285q-85 0 -151.5 -32t-113.5 -90t-74 -137t-36 -175h552v-197h-555q4 -106 30 -193.5t73.5 -150.5t117.5 -97t162 -34q88 0 165 20t155 50v-201q-75 -35 -159.5 -51.5t-184.5 -16.5q-198 0 -331.5 92t-200.5 260.5t-67 398.5q0 163 40 300.5t118.5 239t194 157.5
t266.5 56q106 0 198 -23.5t175 -67.5l-79 -192q-70 38 -140.5 61t-154.5 23z" />
    <glyph glyph-name="uni0405" unicode="&#x405;" horiz-adv-x="997" 
d="M918 406q0 -129 -57 -225t-162 -148.5t-249 -52.5q-69 0 -133 8t-122 24.5t-109 41.5v226q82 -42 178.5 -69.5t188.5 -27.5q78 0 130 26.5t78 72.5t26 105q0 63 -26.5 107.5t-85 82.5t-153.5 83q-68 32 -126.5 70t-102.5 86.5t-68.5 114.5t-24.5 156q-1 122 53.5 211
t153 137.5t230.5 47.5q101 0 192 -23t174 -63l-71 -196q-78 38 -150.5 58.5t-144.5 20.5q-67 0 -113 -23.5t-70.5 -65t-24.5 -96.5q0 -65 25.5 -108t82.5 -79.5t151 -81.5q107 -51 180.5 -107.5t111.5 -131.5t38 -181z" />
    <glyph glyph-name="uni0406" unicode="&#x406;" horiz-adv-x="563" 
d="M167 0v1462h230v-1462h-230z" />
    <glyph glyph-name="uni0407" unicode="&#x407;" horiz-adv-x="563" 
d="M167 0v1462h230v-1462h-230zM-15 1739q0 60 31 88.5t78 28.5t78.5 -29t31.5 -88q0 -57 -31.5 -87t-78.5 -30t-78 29.5t-31 87.5zM356 1739q0 60 31.5 88.5t78.5 28.5t79 -29t32 -88q0 -57 -32 -87t-79 -30q-48 0 -79 30t-31 87z" />
    <glyph glyph-name="uni0408" unicode="&#x408;" horiz-adv-x="555" 
d="M23 -410q-46 0 -85.5 6t-69.5 17v197q28 -9 60.5 -15t69.5 -6q52 0 89 23t57 78t20 152v1420h229v-1418q0 -164 -44.5 -263.5t-127.5 -145t-198 -45.5z" />
    <glyph glyph-name="uni0409" unicode="&#x409;" horiz-adv-x="1728" 
d="M131 -19q-37 0 -69 6t-57 15v194q20 -9 42.5 -14.5t47.5 -5.5q44 0 70.5 29.5t44.5 86t32 136.5q11 56 24.5 153.5t30.5 231t35 297.5t37 352h680v-588h97q174 0 286 -51t166 -147t54 -231q0 -210 -124.5 -327.5t-373.5 -117.5h-331v1258h-257q-12 -129 -24.5 -246
t-24.5 -220.5t-23.5 -191t-23 -157t-22.5 -118.5q-25 -112 -61.5 -188.5t-97.5 -116t-158 -39.5zM1049 195h94q136 0 205.5 61t69.5 186q0 86 -32 137.5t-96 75t-161 23.5h-80v-483z" />
    <glyph glyph-name="uni040A" unicode="&#x40a;" horiz-adv-x="1749" 
d="M167 0v1462h230v-596h447v596h227v-593h95q175 0 287 -50.5t166 -145.5t54 -228q0 -211 -125 -328t-373 -117h-331v669h-447v-669h-230zM1071 195h93q135 0 205.5 60.5t70.5 186.5q0 85 -32.5 135.5t-96.5 73t-160 22.5h-80v-478z" />
    <glyph glyph-name="uni040B" unicode="&#x40b;" horiz-adv-x="1345" 
d="M927 1462v-199h-371v-349h275q190 0 290.5 -97t100.5 -280v-537h-230v527q0 98 -42.5 143t-139.5 45h-254v-715h-229v1263h-300v199h900z" />
    <glyph glyph-name="uni040C" unicode="&#x40c;" horiz-adv-x="1139" 
d="M1144 0h-262l-485 748v-748h-230v1462h230v-702l476 702h250l-488 -703zM957 1914v-20q-23 -29 -60 -69.5t-80.5 -84.5t-87 -84.5t-78.5 -69.5h-151v25q35 47 71.5 99t69.5 105t58 99h258z" />
    <glyph glyph-name="uni040D" unicode="&#x40d;" horiz-adv-x="1423" 
d="M167 1462h216v-778q0 -40 -1 -86.5t-2.5 -94t-4 -92.5l-4.5 -81h7l606 1132h274v-1462h-216v783q0 43 1.5 92t3.5 98t5 93.5t6 77.5h-8l-609 -1144h-274v1462zM669 1914q24 -46 59.5 -102.5t73.5 -110t67 -90.5v-25h-151q-33 27 -76.5 66.5t-88 84.5t-82 86.5t-59.5 70.5
v20h257z" />
    <glyph glyph-name="uni040E" unicode="&#x40e;" horiz-adv-x="1099" 
d="M1099 1462l-386 -1044q-53 -148 -112 -245.5t-142.5 -145t-212.5 -47.5q-48 0 -93.5 7.5t-84.5 19.5v206q37 -16 77.5 -24.5t80.5 -8.5q59 0 98.5 23t68.5 73t55 132l-436 1054h243l257 -647q9 -25 19.5 -55.5t20.5 -63t18 -66.5h10q6 31 14.5 61.5t18 61t19.5 59.5
l227 650h240zM932 1914q-9 -105 -51 -178.5t-122 -111.5t-204 -38q-128 0 -207 36.5t-117 110t-45 181.5h192q8 -108 49 -151.5t130 -43.5q82 0 127 45.5t54 149.5h194z" />
    <glyph glyph-name="uni040F" unicode="&#x40f;" horiz-adv-x="1314" 
d="M1148 0h-380v-408h-225v408h-376v1462h230v-1262h522v1262h229v-1462z" />
    <glyph glyph-name="uni0410" unicode="&#x410;" horiz-adv-x="1173" 
d="M928 0l-118 409h-448l-118 -409h-244l449 1465h272l451 -1465h-244zM760 609l-117 421q-7 34 -18 78l-22 88t-18 78q-6 -37 -16 -81t-20.5 -86.5t-19.5 -74.5l-116 -423h347z" />
    <glyph glyph-name="uni0411" unicode="&#x411;" horiz-adv-x="1120" 
d="M167 0v1462h781v-198h-551v-390h129q178 0 291 -51t166.5 -147t53.5 -231q0 -212 -124 -328.5t-376 -116.5h-370zM397 195h128q140 0 210 60.5t70 186.5q0 86 -32 138t-97.5 75t-164.5 23h-114v-483z" />
    <glyph glyph-name="uni0412" unicode="&#x412;" horiz-adv-x="1186" 
d="M167 1462h393q246 0 370.5 -85t124.5 -275q0 -87 -26.5 -155t-77.5 -112t-124 -59v-10q82 -17 141 -59t90.5 -112t31.5 -174q0 -131 -55.5 -225.5t-159 -145t-247.5 -50.5h-461v1462zM397 855h180q133 0 188 55.5t55 163.5q0 100 -62 148.5t-194 48.5h-167v-416zM397 668
v-474h205q132 0 191 63.5t59 181.5q0 73 -28 124t-85.5 78t-150.5 27h-191z" />
    <glyph glyph-name="uni0413" unicode="&#x413;" horiz-adv-x="951" 
d="M918 1462v-199h-521v-1263h-230v1462h751z" />
    <glyph glyph-name="uni0414" unicode="&#x414;" horiz-adv-x="1306" 
d="M1104 1462v-1262h161v-608h-221v408h-812v-408h-221v608h100q61 136 111 283t88 305t63 326.5t36 347.5h695zM874 1265h-266q-9 -131 -31 -269.5t-55 -277t-75.5 -270t-92.5 -248.5h520v1065z" />
    <glyph glyph-name="uni0415" unicode="&#x415;" horiz-adv-x="994" 
d="M889 0h-722v1462h722v-196h-492v-406h460v-196h-460v-465h492v-199z" />
    <glyph glyph-name="uni0416" unicode="&#x416;" horiz-adv-x="1602" 
d="M461 758l-450 704h245l435 -705v705h220v-705l436 705h244l-451 -704l465 -758h-252l-442 745v-745h-220v745l-444 -745h-251z" />
    <glyph glyph-name="uni0417" unicode="&#x417;" horiz-adv-x="1096" 
d="M959 1122q0 -145 -82 -235.5t-224 -117.5v-7q166 -20 253.5 -111.5t87.5 -241.5q0 -127 -58 -224t-174.5 -151t-291.5 -54q-117 0 -216.5 17.5t-179.5 54.5v210q50 -27 113 -47.5t129 -31t124 -10.5q164 0 241.5 62.5t77.5 186.5q0 125 -96.5 183.5t-275.5 58.5h-144v192
h136q125 0 202 26t112.5 78t35.5 130q0 97 -62.5 148t-174.5 51q-97 0 -172.5 -30t-140.5 -80l-101 161q59 46 125.5 78t145.5 48.5t175 16.5q138 0 235 -45.5t148.5 -126.5t51.5 -189z" />
    <glyph glyph-name="uni0418" unicode="&#x418;" horiz-adv-x="1423" 
d="M167 1462h216v-778q0 -40 -1 -86.5t-2.5 -94t-4 -92.5l-4.5 -81h7l606 1132h274v-1462h-216v783q0 43 1.5 92t3.5 98t5 93.5t6 77.5h-8l-609 -1144h-274v1462z" />
    <glyph glyph-name="uni0419" unicode="&#x419;" horiz-adv-x="1423" 
d="M167 1462h216v-778q0 -40 -1 -86.5t-2.5 -94t-4 -92.5l-4.5 -81h7l606 1132h274v-1462h-216v783q0 43 1.5 92t3.5 98t5 93.5t6 77.5h-8l-609 -1144h-274v1462zM1099 1914q-9 -105 -51 -178.5t-122 -111.5t-204 -38q-128 0 -207 36.5t-117 110t-45 181.5h192
q8 -108 49 -151.5t130 -43.5q82 0 127 45.5t54 149.5h194z" />
    <glyph glyph-name="uni041A" unicode="&#x41a;" horiz-adv-x="1139" 
d="M1144 0h-262l-485 748v-748h-230v1462h230v-702l476 702h250l-488 -703z" />
    <glyph glyph-name="uni041B" unicode="&#x41b;" horiz-adv-x="1284" 
d="M1118 0h-229v1258h-324q-11 -111 -24.5 -235t-28 -246t-29 -227t-28.5 -178q-25 -130 -61.5 -217t-98.5 -130.5t-164 -43.5q-37 0 -69 6t-57 15v194q21 -9 43 -14.5t47 -5.5q45 0 72.5 32t46.5 97.5t35 168.5q10 62 23.5 166t30 236.5t33.5 282.5t33 303h749v-1462z" />
    <glyph glyph-name="uni041C" unicode="&#x41c;" horiz-adv-x="1702" 
d="M744 0l-372 1191h-8q4 -54 7 -117.5t5.5 -126.5t2.5 -116v-831h-212v1462h321l357 -1138h7l364 1138h321v-1462h-220v836q0 52 1.5 113t4.5 123.5t6 116.5h-8l-380 -1189h-197z" />
    <glyph glyph-name="uni041D" unicode="&#x41d;" horiz-adv-x="1336" 
d="M1169 0h-229v663h-543v-663h-230v1462h230v-600h543v600h229v-1462z" />
    <glyph glyph-name="uni041E" unicode="&#x41e;" horiz-adv-x="1389" 
d="M1280 733q0 -167 -35.5 -305.5t-107 -238.5t-182 -154.5t-259.5 -54.5q-152 0 -263 55t-182.5 155.5t-106.5 239t-35 305.5q0 237 64.5 404.5t195.5 256.5t328 89q199 0 328 -94.5t192 -263.5t63 -394zM349 733q0 -176 37.5 -300t114.5 -188.5t194 -64.5q119 0 195 64
t113 187.5t37 301.5q0 268 -83.5 410t-259.5 142q-119 0 -196 -64.5t-114.5 -187.5t-37.5 -300z" />
    <glyph glyph-name="uni041F" unicode="&#x41f;" horiz-adv-x="1314" 
d="M167 0v1462h981v-1462h-229v1263h-522v-1263h-230z" />
    <glyph glyph-name="uni0420" unicode="&#x420;" horiz-adv-x="1105" 
d="M537 1462q251 0 369 -113t118 -328q0 -103 -28.5 -189.5t-89 -150.5t-156.5 -99t-232 -35h-121v-547h-230v1462h370zM522 1268h-125v-526h98q98 0 164 27.5t99 88t33 158.5q0 130 -65.5 191t-203.5 61z" />
    <glyph glyph-name="uni0421" unicode="&#x421;" horiz-adv-x="1123" 
d="M715 1285q-90 0 -159 -41t-115.5 -115.5t-70 -176t-23.5 -223.5q0 -172 42.5 -295.5t125 -189t205.5 -65.5q79 0 152 18.5t146 48.5v-201q-72 -33 -150.5 -49t-175.5 -16q-191 0 -321 91t-196 259.5t-66 400.5q0 163 39 300t115 239t188 158t258 56q95 0 185 -22.5
t170 -65.5l-76 -191q-63 35 -131 57.5t-142 22.5z" />
    <glyph glyph-name="uni0422" unicode="&#x422;" horiz-adv-x="991" 
d="M610 0h-230v1263h-353v199h935v-199h-352v-1263z" />
    <glyph glyph-name="uni0423" unicode="&#x423;" horiz-adv-x="1099" 
d="M1099 1462l-386 -1044q-53 -148 -112 -245.5t-142.5 -145t-212.5 -47.5q-48 0 -93.5 7.5t-84.5 19.5v206q37 -16 77.5 -24.5t80.5 -8.5q59 0 98.5 23t68.5 73t55 132l-436 1054h243l257 -647q9 -25 19.5 -55.5t20.5 -63t18 -66.5h10q6 31 14.5 61.5t18 61t19.5 59.5
l227 650h240z" />
    <glyph glyph-name="uni0424" unicode="&#x424;" horiz-adv-x="1531" 
d="M875 1483v-180q197 -2 321 -74.5t182.5 -194t58.5 -274.5q0 -111 -32 -211t-99.5 -176.5t-174 -121t-256.5 -46.5v-225h-219v225q-151 1 -258.5 46t-174.5 122t-98.5 176.5t-31.5 210.5q0 112 32 209.5t100 172t175 117.5t256 44v180h219zM656 1113q-119 -2 -194 -44.5
t-109.5 -120.5t-34.5 -186q0 -118 37 -199.5t112.5 -124t188.5 -45.5v720zM874 1113v-720q115 3 190 47t111.5 125.5t36.5 196.5q0 110 -34.5 187.5t-109.5 119.5t-194 44z" />
    <glyph glyph-name="uni0425" unicode="&#x425;" horiz-adv-x="1081" 
d="M1075 0h-255l-281 574l-290 -574h-243l401 756l-369 706h247l259 -532l258 532h244l-370 -712z" />
    <glyph glyph-name="uni0426" unicode="&#x426;" horiz-adv-x="1370" 
d="M1327 196v-604h-221v408h-939v1462h230v-1262h528v1262h230v-1266h172z" />
    <glyph glyph-name="uni0427" unicode="&#x427;" horiz-adv-x="1267" 
d="M1101 0h-229v583q-104 -43 -196.5 -66t-187.5 -23q-174 0 -268 97.5t-94 279.5v591h229v-537q0 -118 46.5 -175t151.5 -57q81 0 155 19t164 57v693h229v-1462z" />
    <glyph glyph-name="uni0428" unicode="&#x428;" horiz-adv-x="1884" 
d="M1717 0h-1550v1462h230v-1262h429v1262h230v-1262h431v1262h230v-1462z" />
    <glyph glyph-name="uni0429" unicode="&#x429;" horiz-adv-x="1929" 
d="M1883 196v-604h-221v408h-1495v1462h230v-1262h426v1262h230v-1262h428v1262h229v-1266h173z" />
    <glyph glyph-name="uni042A" unicode="&#x42a;" horiz-adv-x="1289" 
d="M335 0v1263h-316v199h544v-588h134q175 0 287.5 -51.5t167 -147.5t54.5 -230q0 -209 -125 -327t-374 -118h-372zM564 195h131q137 0 207.5 60.5t70.5 186.5q0 86 -33 138t-98 75t-161 23h-117v-483z" />
    <glyph glyph-name="uni042B" unicode="&#x42b;" horiz-adv-x="1617" 
d="M167 0v1462h230v-588h125q174 0 286 -51.5t166 -147.5t54 -230q0 -210 -124.5 -327.5t-373.5 -117.5h-363zM397 195h124q135 0 205 60.5t70 186.5q0 86 -32 137.5t-95 75t-159 23.5h-113v-483zM1220 0v1462h229v-1462h-229z" />
    <glyph glyph-name="uni042C" unicode="&#x42c;" horiz-adv-x="1133" 
d="M167 0v1462h230v-588h142q175 0 288 -51.5t167.5 -147.5t54.5 -230q0 -210 -126 -327.5t-375 -117.5h-381zM397 195h140q136 0 208 60.5t72 186.5q0 86 -33.5 138t-98.5 75t-162 23h-126v-483z" />
    <glyph glyph-name="uni042D" unicode="&#x42d;" horiz-adv-x="1147" 
d="M429 1285q-81 0 -154 -22.5t-140 -56.5l-77 190q84 43 179 65.5t203 22.5q142 0 253 -51t187.5 -148t116.5 -235.5t40 -314.5q0 -226 -66.5 -396t-201.5 -264.5t-341 -94.5q-102 0 -185.5 16t-157.5 48v202q79 -29 158 -48t162 -19q95 0 166.5 33t120 96t75 150.5
t30.5 196.5h-553v197h550q-6 92 -32 170.5t-72 137.5t-111 92t-150 33z" />
    <glyph glyph-name="uni042E" unicode="&#x42e;" horiz-adv-x="1865" 
d="M1756 733q0 -167 -33.5 -305t-101.5 -238.5t-172 -155t-246 -54.5q-172 0 -291.5 81t-185 234t-75.5 368h-254v-663h-230v1462h230v-601h258q15 198 81 337.5t183 213t285 73.5q183 0 305.5 -90t184.5 -258t62 -404zM886 734q0 -177 34.5 -300.5t104 -188.5t175.5 -65
q110 0 180 64.5t103.5 187.5t33.5 301q0 179 -33.5 302t-103 186.5t-177.5 63.5q-107 0 -178 -64t-105 -187.5t-34 -299.5z" />
    <glyph glyph-name="uni042F" unicode="&#x42f;" horiz-adv-x="1160" 
d="M581 591l-306 -591h-257l355 644q-72 29 -128.5 82t-88.5 131.5t-32 185.5q0 207 125.5 313t368.5 106h377v-1462h-230v590zM764 1269h-136q-89 0 -149 -25t-89.5 -77t-29.5 -135q0 -126 64.5 -190t198.5 -64h141v491z" />
    <glyph glyph-name="uni0430" unicode="&#x430;" horiz-adv-x="1042" 
d="M534 1129q184 0 275.5 -96t91.5 -290v-743h-162l-39 155h-7q-38 -58 -81.5 -97t-100 -58.5t-135.5 -19.5q-94 0 -161 42t-102 118t-35 177q0 170 111.5 258t328.5 96l161 7v59q0 114 -42.5 165t-127.5 51q-65 0 -131 -21t-135 -57l-68 162q75 43 167 67.5t192 24.5z
M679 532l-115 -6q-139 -6 -198.5 -58.5t-59.5 -147.5q0 -86 40 -126t108 -40q100 0 162.5 72t62.5 204v102z" />
    <glyph glyph-name="uni0431" unicode="&#x431;" horiz-adv-x="1102" 
d="M96 679q0 217 41.5 379t137 268t255.5 154q91 29 202.5 50.5t243.5 37.5l27 -198q-50 -6 -110 -14t-121.5 -18.5t-115 -22t-91.5 -25.5q-80 -27 -131.5 -80t-77.5 -138.5t-33 -212.5h13q24 45 66.5 84t100 63t126.5 24q122 0 207 -57.5t130 -168t45 -269.5
q0 -179 -56.5 -303t-159.5 -188t-246 -64q-107 0 -191 43t-142.5 129.5t-89 218t-30.5 308.5zM559 166q70 0 120 36.5t76.5 114t26.5 198.5q0 162 -49 249.5t-157 87.5q-60 0 -111.5 -31t-88 -75.5t-53.5 -84.5q1 -107 13 -197.5t39.5 -157.5t72.5 -103.5t111 -36.5z" />
    <glyph glyph-name="uni0432" unicode="&#x432;" horiz-adv-x="1075" 
d="M957 828q0 -97 -50 -159t-144 -82v-8q101 -14 163.5 -79.5t62.5 -174.5q0 -99 -43.5 -172t-134.5 -113t-232 -40h-433v1108h427q118 0 204.5 -29t133 -91t46.5 -160zM761 339q0 83 -51 119.5t-150 36.5h-191v-327h192q97 0 148.5 40.5t51.5 130.5zM732 804
q0 67 -42.5 100.5t-131.5 33.5h-189v-278h179q93 0 138.5 35.5t45.5 108.5z" />
    <glyph glyph-name="uni0433" unicode="&#x433;" horiz-adv-x="811" 
d="M778 1108v-183h-409v-925h-223v1108h632z" />
    <glyph glyph-name="uni0434" unicode="&#x434;" horiz-adv-x="1129" 
d="M953 1108v-927h140v-572h-211v391h-645v-391h-211v572h90q68 125 114.5 276t72.5 317t33 334h617zM732 928h-204q-9 -128 -31 -257t-59 -253t-91 -237h385v747z" />
    <glyph glyph-name="uni0435" unicode="&#x435;" horiz-adv-x="1036" 
d="M533 1128q134 0 227 -62.5t141.5 -174.5t48.5 -262v-128h-634q3 -168 73 -255t202 -87q85 0 157.5 19.5t150.5 61.5v-186q-72 -38 -149.5 -56t-177.5 -18q-154 0 -261.5 67.5t-163 194.5t-55.5 305q0 186 53 316t151.5 197.5t236.5 67.5zM535 956q-94 0 -150.5 -72
t-64.5 -220h417q0 85 -22.5 150.5t-67 103.5t-112.5 38z" />
    <glyph glyph-name="uni0436" unicode="&#x436;" horiz-adv-x="1465" 
d="M1429 1108l-368 -530l400 -578h-246l-376 566v-566h-214v566l-375 -566h-246l400 578l-368 530h238l351 -533v533h214v-533l352 533h238z" />
    <glyph glyph-name="uni0437" unicode="&#x437;" horiz-adv-x="916" 
d="M426 1129q110 0 194 -34t131.5 -98.5t47.5 -158.5t-50.5 -157.5t-134.5 -88.5v-9q65 -16 115 -50.5t78.5 -88.5t28.5 -131q0 -95 -48 -170.5t-143.5 -119t-238.5 -43.5q-70 0 -132 8t-114.5 24t-95.5 41v195q62 -35 143.5 -60.5t172.5 -25.5q70 0 122.5 17.5t82 54.5
t29.5 94q0 53 -27.5 90t-83.5 56.5t-144 19.5h-105v168h93q114 0 177.5 36.5t63.5 117.5q0 67 -47 100.5t-139 33.5q-64 0 -127.5 -16.5t-127.5 -48.5l-75 166q82 39 167.5 58.5t186.5 19.5z" />
    <glyph glyph-name="uni0438" unicode="&#x438;" horiz-adv-x="1207" 
d="M361 1108v-553q0 -31 -1 -67.5t-3.5 -75t-5 -75t-5.5 -65.5l455 836h259v-1108h-213v547q0 45 2 97t5 102.5t5 88.5l-455 -835h-258v1108h215z" />
    <glyph glyph-name="uni0439" unicode="&#x439;" horiz-adv-x="1207" 
d="M361 1108v-553q0 -31 -1 -67.5t-3.5 -75t-5 -75t-5.5 -65.5l455 836h259v-1108h-213v547q0 45 2 97t5 102.5t5 88.5l-455 -835h-258v1108h215zM985 1567q-9 -105 -51 -178.5t-122 -111.5t-204 -38q-128 0 -207 36.5t-117 110t-45 181.5h192q8 -108 49 -151.5t130 -43.5
q82 0 127 45.5t54 149.5h194z" />
    <glyph glyph-name="uni043A" unicode="&#x43a;" horiz-adv-x="1023" 
d="M740 1108h244l-385 -529l416 -579h-252l-394 567v-567h-223v1108h223v-533z" />
    <glyph glyph-name="uni043B" unicode="&#x43b;" horiz-adv-x="1095" 
d="M948 0h-223v923h-248q-17 -250 -42 -428t-64.5 -291t-99.5 -166.5t-148 -53.5q-34 0 -63.5 5.5t-53.5 15.5v182q14 -6 30.5 -9.5t34.5 -3.5q34 0 61.5 33t50 103t40.5 180.5t31.5 264t24.5 353.5h669v-1108z" />
    <glyph glyph-name="uni043C" unicode="&#x43c;" horiz-adv-x="1425" 
d="M1281 1108v-1108h-209v596q0 59 3.5 127.5t9.5 140.5h-7l-278 -864h-176l-275 865h-8q6 -69 9 -138t3 -133v-594h-207v1108h312l256 -808l260 808h307z" />
    <glyph glyph-name="uni043D" unicode="&#x43d;" horiz-adv-x="1154" 
d="M369 1108v-445h415v445h223v-1108h-223v481h-415v-481h-223v1108h223z" />
    <glyph glyph-name="uni043E" unicode="&#x43e;" horiz-adv-x="1100" 
d="M1009 556q0 -130 -29.5 -236t-87.5 -182t-144 -117t-200 -41q-107 0 -191.5 40.5t-143.5 116.5t-90 182t-31 237q0 179 52.5 307.5t155.5 197t253 68.5q138 0 240.5 -66.5t159 -194t56.5 -312.5zM319 555q0 -125 24.5 -212t76 -132t131.5 -45q81 0 131.5 44.5t74.5 131.5
t24 214q0 126 -24 212t-74.5 130t-132.5 44q-121 0 -176 -98t-55 -289z" />
    <glyph glyph-name="uni043F" unicode="&#x43f;" horiz-adv-x="1142" 
d="M996 1108v-1108h-224v925h-403v-925h-223v1108h850z" />
    <glyph glyph-name="uni0440" unicode="&#x440;" horiz-adv-x="1128" 
d="M656 1129q178 0 279 -145.5t101 -428.5q0 -185 -46.5 -313t-131.5 -195t-201 -67q-69 0 -123 21t-95 58t-69 85h-12q5 -46 8 -91.5t3 -81.5v-462h-223v1599h181l31 -154h11q31 56 71.5 95t94 59.5t121.5 20.5zM595 943q-79 0 -128.5 -39t-73 -117.5t-24.5 -198.5v-44
q0 -125 23 -208.5t73 -125.5t132 -42q71 0 118 44.5t70.5 131t23.5 212.5q0 189 -51.5 288t-162.5 99z" />
    <glyph glyph-name="uni0441" unicode="&#x441;" horiz-adv-x="889" 
d="M543 -20q-143 0 -244 62t-154 188t-53 318q0 189 55.5 318t159.5 196t250 67q85 0 154.5 -18t122.5 -47l-66 -179q-51 25 -103 39.5t-102 14.5q-80 0 -134 -44.5t-81.5 -130.5t-27.5 -215q0 -125 27.5 -209.5t81 -127.5t132.5 -43q71 0 133 19.5t119 52.5v-191
q-56 -36 -122.5 -53t-147.5 -17z" />
    <glyph glyph-name="uni0442" unicode="&#x442;" horiz-adv-x="881" 
d="M847 926h-296v-926h-222v926h-295v182h813v-182z" />
    <glyph glyph-name="uni0443" unicode="&#x443;" horiz-adv-x="962" 
d="M5 1108h238l184 -612q13 -41 23 -81t18 -79t13 -76h7q9 50 23.5 110t33.5 126l178 612h235l-403 -1255q-36 -116 -88.5 -193t-123 -114.5t-163.5 -37.5q-39 0 -71.5 5t-60.5 12v187q21 -6 47 -10t53 -4q51 0 87 21.5t62.5 66t47.5 113.5l33 108z" />
    <glyph glyph-name="uni0444" unicode="&#x444;" horiz-adv-x="1394" 
d="M805 1556v-438q161 -13 272 -88t168.5 -197t57.5 -279q0 -158 -56.5 -280.5t-167 -196t-274.5 -88.5v-481h-213v481q-157 13 -268.5 85.5t-171.5 194.5t-60 285t55.5 285t166.5 194t278 85v438h213zM592 938q-87 -9 -147.5 -58.5t-92.5 -132t-32 -193.5
q0 -106 30.5 -189.5t91 -134.5t150.5 -60v768zM805 936v-766q91 10 151 62t90 135t30 187q0 166 -71 266.5t-200 115.5z" />
    <glyph glyph-name="uni0445" unicode="&#x445;" horiz-adv-x="975" 
d="M348 568l-308 540h247l201 -380l202 380h246l-309 -543l324 -565h-247l-218 406l-218 -406h-244z" />
    <glyph glyph-name="uni0446" unicode="&#x446;" horiz-adv-x="1186" 
d="M1152 -391h-212v391h-794v1108h223v-925h419v925h222v-927h142v-572z" />
    <glyph glyph-name="uni0447" unicode="&#x447;" horiz-adv-x="1130" 
d="M341 1108v-414q0 -83 37.5 -123t106.5 -40q75 0 143 26.5t134 68.5v482h223v-1108h-223v461q-72 -49 -151.5 -79t-174.5 -30q-154 0 -235.5 86t-81.5 253v417h222z" />
    <glyph glyph-name="uni0448" unicode="&#x448;" horiz-adv-x="1653" 
d="M1506 1108v-1108h-1360v1108h223v-925h346v925h222v-925h346v925h223z" />
    <glyph glyph-name="uni0449" unicode="&#x449;" horiz-adv-x="1682" 
d="M1506 1108v-927h142v-571h-213v390h-1289v1108h223v-925h346v925h222v-925h346v925h223z" />
    <glyph glyph-name="uni044A" unicode="&#x44a;" horiz-adv-x="1220" 
d="M537 1108v-442h179q144 0 239 -35.5t142 -107.5t47 -181q0 -108 -45.5 -184.5t-138 -117t-233.5 -40.5h-413v922h-293v186h516zM715 497h-178v-329h180q97 0 151 40.5t54 126.5q0 83 -51 122.5t-156 39.5z" />
    <glyph glyph-name="uni044B" unicode="&#x44b;" horiz-adv-x="1472" 
d="M146 0v1108h223v-442h158q142 0 235.5 -35.5t139.5 -107.5t46 -181q0 -108 -45 -184.5t-136.5 -117t-231.5 -40.5h-389zM369 168h153q95 0 149.5 40.5t54.5 126.5q0 84 -51 123t-153 39h-153v-329zM1103 0v1108h223v-1108h-223z" />
    <glyph glyph-name="uni044C" unicode="&#x44c;" horiz-adv-x="1055" 
d="M369 666h184q142 0 236.5 -35.5t141.5 -107.5t47 -181q0 -108 -45.5 -184.5t-138 -117t-233.5 -40.5h-415v1108h223v-442zM754 335q0 84 -51.5 123t-153.5 39h-180v-329h182q94 0 148.5 40.5t54.5 126.5z" />
    <glyph glyph-name="uni044D" unicode="&#x44d;" horiz-adv-x="912" 
d="M343 -20q-83 0 -151.5 16.5t-124.5 49.5v185q61 -31 126 -50.5t137 -19.5q78 0 133.5 34.5t87.5 105.5t39 181h-390v167h388q-11 150 -70 224.5t-170 74.5q-55 0 -112.5 -16t-102.5 -39l-64 169q59 30 132 48.5t152 18.5q142 0 247 -61t162.5 -186.5t57.5 -323.5
q0 -191 -56 -320t-162.5 -193.5t-258.5 -64.5z" />
    <glyph glyph-name="uni044E" unicode="&#x44e;" horiz-adv-x="1541" 
d="M1449 556q0 -184 -52.5 -313t-151 -196t-237.5 -67q-125 0 -218 54.5t-147.5 166t-67.5 280.5h-206v-481h-223v1108h223v-445h207q16 150 72 254t148.5 158t216.5 54q132 0 230 -67.5t152 -195.5t54 -310zM798 555q0 -127 22.5 -214t69.5 -131.5t120 -44.5q74 0 121 44
t69 131.5t22 215.5q0 127 -22.5 213t-69 129.5t-121.5 43.5q-74 0 -120.5 -43.5t-68.5 -129.5t-22 -214z" />
    <glyph glyph-name="uni044F" unicode="&#x44f;" horiz-adv-x="1033" 
d="M263 0h-244l283 458q-64 20 -113.5 61t-78 105t-28.5 151q0 160 105.5 246.5t283.5 86.5h416v-1108h-222v432h-157zM303 771q0 -83 54 -127t152 -44h156v338h-172q-97 0 -143.5 -45.5t-46.5 -121.5z" />
    <glyph glyph-name="uni0450" unicode="&#x450;" horiz-adv-x="1036" 
d="M533 1128q134 0 227 -62.5t141.5 -174.5t48.5 -262v-128h-634q3 -168 73 -255t202 -87q85 0 157.5 19.5t150.5 61.5v-186q-72 -38 -149.5 -56t-177.5 -18q-154 0 -261.5 67.5t-163 194.5t-55.5 305q0 186 53 316t151.5 197.5t236.5 67.5zM535 956q-94 0 -150.5 -72
t-64.5 -220h417q0 85 -22.5 150.5t-67 103.5t-112.5 38zM470 1569q24 -46 59.5 -102.5t73.5 -110t67 -90.5v-25h-151q-33 27 -76.5 66.5t-88 84.5t-82 86.5t-59.5 70.5v20h257z" />
    <glyph glyph-name="uni0451" unicode="&#x451;" horiz-adv-x="1036" 
d="M533 1128q134 0 227 -62.5t141.5 -174.5t48.5 -262v-128h-634q3 -168 73 -255t202 -87q85 0 157.5 19.5t150.5 61.5v-186q-72 -38 -149.5 -56t-177.5 -18q-154 0 -261.5 67.5t-163 194.5t-55.5 305q0 186 53 316t151.5 197.5t236.5 67.5zM535 956q-94 0 -150.5 -72
t-64.5 -220h417q0 85 -22.5 150.5t-67 103.5t-112.5 38zM229 1390q0 60 31 88.5t78 28.5t78.5 -29t31.5 -88q0 -57 -31.5 -87t-78.5 -30t-78 29.5t-31 87.5zM600 1390q0 60 31.5 88.5t78.5 28.5t79 -29t32 -88q0 -57 -32 -87t-79 -30q-48 0 -79 30t-31 87z" />
    <glyph glyph-name="uni0452" unicode="&#x452;" horiz-adv-x="1138" 
d="M710 -492q-37 0 -76 7t-64 16v186q25 -9 48 -14t49 -5q49 0 78.5 38t29.5 129v789q0 127 -42.5 187.5t-129.5 60.5q-83 0 -135 -41t-75.5 -126t-23.5 -217v-518h-223v1223h-137v158h137v175h223v-175h291v-158h-291v-114q0 -49 -3.5 -98t-9.5 -89h13q29 56 72 93.5t98 57
t119 19.5q110 0 186 -43t115 -131t39 -221v-846q0 -105 -31.5 -182t-95.5 -119t-161 -42z" />
    <glyph glyph-name="uni0453" unicode="&#x453;" horiz-adv-x="811" 
d="M778 1108v-183h-409v-925h-223v1108h632zM805 1569v-20q-23 -29 -60 -69.5t-80.5 -84.5t-87 -84.5t-78.5 -69.5h-151v25q35 47 71.5 99t69.5 105t58 99h258z" />
    <glyph glyph-name="uni0454" unicode="&#x454;" horiz-adv-x="918" 
d="M565 -20q-148 0 -254 62.5t-162.5 189t-56.5 317.5q0 196 57.5 324.5t165.5 192t258 63.5q75 0 148 -17t135 -48l-64 -171q-52 25 -109 40t-111 15q-75 0 -127 -33t-82 -99.5t-40 -166.5h389v-167h-389q6 -107 35 -178t82.5 -107t129.5 -36q75 0 139.5 19t126.5 51v-184
q-55 -33 -124.5 -50t-146.5 -17z" />
    <glyph glyph-name="uni0455" unicode="&#x455;" horiz-adv-x="862" 
d="M789 313q0 -108 -46 -182.5t-134 -112.5t-214 -38q-97 0 -173 16.5t-141 48.5v205q64 -36 147.5 -62t162.5 -26q91 0 134.5 35.5t43.5 98.5q0 37 -17.5 66t-63.5 59t-133 69q-87 41 -148.5 85.5t-93.5 104.5t-32 148q0 142 102 221.5t273 79.5q88 0 167 -20.5t154 -59.5
l-70 -170q-60 31 -123 51.5t-128 20.5q-76 0 -117 -30t-41 -83q0 -39 18.5 -66t65.5 -54.5t131 -67.5t146 -83.5t96 -103.5t34 -150z" />
    <glyph glyph-name="uni0456" unicode="&#x456;" horiz-adv-x="517" 
d="M370 1108v-1108h-223v1108h223zM260 1533q57 0 91 -31.5t34 -99.5q0 -66 -34.5 -98t-90.5 -32q-57 0 -92 32t-35 98q0 69 34.5 100t92.5 31z" />
    <glyph glyph-name="uni0457" unicode="&#x457;" horiz-adv-x="516" 
d="M369 0h-222v1108h222v-1108zM-38 1391q0 60 31 88.5t78 28.5t78.5 -29t31.5 -88q0 -57 -31.5 -87t-78.5 -30t-78 29.5t-31 87.5zM333 1391q0 60 31.5 88.5t78.5 28.5t79 -29t32 -88q0 -57 -32 -87t-79 -30q-48 0 -79 30t-31 87z" />
    <glyph glyph-name="uni0458" unicode="&#x458;" horiz-adv-x="517" 
d="M68 -492q-42 0 -80.5 6.5t-68.5 16.5v185q27 -9 53 -13.5t55 -4.5q56 0 88 38t32 130v1242h223v-1256q0 -109 -33 -186t-100 -117t-169 -41zM133 1402q0 69 34.5 100t92.5 31q57 0 91 -31.5t34 -99.5q0 -66 -34.5 -98t-90.5 -32q-57 0 -92 32t-35 98z" />
    <glyph glyph-name="uni0459" unicode="&#x459;" horiz-adv-x="1552" 
d="M909 1108v-442h149q140 0 232.5 -35.5t139 -107.5t46.5 -181q0 -108 -45 -184.5t-137 -117t-232 -40.5h-374v922h-211q-17 -250 -41.5 -428t-64 -290.5t-99.5 -166t-149 -53.5q-35 0 -64 5.5t-53 15.5v181q13 -5 29.5 -9t34.5 -4q34 0 62 32.5t50.5 102t40.5 179.5
t31.5 264t24.5 357h630zM1049 497h-140v-329h141q94 0 148 40.5t54 126.5q0 83 -50.5 122.5t-152.5 39.5z" />
    <glyph glyph-name="uni045A" unicode="&#x45a;" horiz-adv-x="1601" 
d="M958 1108v-443h147q142 0 234.5 -35.5t139 -107t46.5 -180.5q0 -108 -45 -184.5t-136.5 -117t-231.5 -40.5h-376v484h-366v-484h-224v1108h224v-443h367v443h221zM1098 497h-141v-329h142q95 0 148.5 40.5t53.5 126.5q0 83 -50.5 122.5t-152.5 39.5z" />
    <glyph glyph-name="uni045B" unicode="&#x45b;" horiz-adv-x="1138" 
d="M369 1556v-175h300v-159h-300v-113q0 -49 -3.5 -98t-9.5 -89h13q29 56 71.5 93.5t98 57t119.5 19.5q110 0 185.5 -43.5t114.5 -131t39 -220.5v-697h-222v648q0 130 -42 192t-130 62q-85 0 -136.5 -41t-74.5 -126t-23 -217v-518h-223v1222h-137v159h137v175h223z" />
    <glyph glyph-name="uni045C" unicode="&#x45c;" horiz-adv-x="1023" 
d="M740 1108h244l-385 -529l416 -579h-252l-394 567v-567h-223v1108h223v-533zM877 1569v-20q-23 -29 -60 -69.5t-80.5 -84.5t-87 -84.5t-78.5 -69.5h-151v25q35 47 71.5 99t69.5 105t58 99h258z" />
    <glyph glyph-name="uni045D" unicode="&#x45d;" horiz-adv-x="1207" 
d="M361 1108v-553q0 -31 -1 -67.5t-3.5 -75t-5 -75t-5.5 -65.5l455 836h259v-1108h-213v547q0 45 2 97t5 102.5t5 88.5l-455 -835h-258v1108h215zM532 1569q24 -46 59.5 -102.5t73.5 -110t67 -90.5v-25h-151q-33 27 -76.5 66.5t-88 84.5t-82 86.5t-59.5 70.5v20h257z" />
    <glyph glyph-name="uni045E" unicode="&#x45e;" horiz-adv-x="962" 
d="M5 1108h238l184 -612q13 -41 23 -81t18 -79t13 -76h7q9 50 23.5 110t33.5 126l178 612h235l-403 -1255q-36 -116 -88.5 -193t-123 -114.5t-163.5 -37.5q-39 0 -71.5 5t-60.5 12v187q21 -6 47 -10t53 -4q51 0 87 21.5t62.5 66t47.5 113.5l33 108zM859 1567
q-9 -105 -51 -178.5t-122 -111.5t-204 -38q-128 0 -207 36.5t-117 110t-45 181.5h192q8 -108 49 -151.5t130 -43.5q82 0 127 45.5t54 149.5h194z" />
    <glyph glyph-name="uni045F" unicode="&#x45f;" horiz-adv-x="1153" 
d="M472 0h-326v1108h223v-925h415v925h223v-1108h-324v-390h-211v390z" />
    <glyph glyph-name="uni0460" unicode="&#x460;" horiz-adv-x="1718" 
d="M416 -3q-80 162 -147 340t-116.5 366t-79.5 379.5t-35 379.5h238q6 -162 28 -324t55.5 -316.5t75 -294.5t86.5 -258h8q12 66 34 144.5t47 150.5l141 438q-12 77 -21.5 153.5t-15 153t-7.5 153.5h236q4 -154 23.5 -312t53.5 -313.5t79.5 -300.5t100.5 -274h8
q74 170 125 362t79.5 402.5t33.5 435.5h237q-9 -256 -53 -508t-125.5 -493t-204.5 -464h-198q-40 77 -78 161t-72.5 170.5t-63.5 171.5t-51 164l-203 -667h-218z" />
    <glyph glyph-name="uni0461" unicode="&#x461;" horiz-adv-x="1541" 
d="M1478 1109q-8 -195 -48.5 -384t-110.5 -371t-168 -354h-202q-34 70 -70.5 152.5t-68 167t-52.5 159.5l-203 -479h-200q-64 119 -118.5 252.5t-96 276.5t-66.5 289.5t-29 290.5h219q7 -164 36 -327t72 -308.5t91 -256.5h6q12 35 28 73.5t33.5 77.5t32.5 72l121 274
q-21 97 -32 199.5t-14 195.5h217q6 -154 32 -310.5t67 -305t91 -279.5h7q57 114 101.5 257t71.5 305t33 333h220z" />
    <glyph glyph-name="uni0462" unicode="&#x462;" horiz-adv-x="1186" 
d="M234 0v1108h-226v176h226v225h230v-225h331v-176h-331v-239h124q178 0 291.5 -50.5t168 -146t54.5 -230.5q0 -206 -124.5 -324t-378.5 -118h-365zM464 195h124q139 0 210.5 60t71.5 185q0 85 -32.5 136t-98 74t-165.5 23h-110v-478z" />
    <glyph glyph-name="uni0463" unicode="&#x463;" horiz-adv-x="1129" 
d="M443 1327v-219h280v-170h-280v-273h182q214 0 320.5 -80t106.5 -243q0 -108 -45.5 -184.5t-138 -117t-234.5 -40.5h-413v938h-208v170h208v219h222zM621 497h-178v-329h178q97 0 152 40.5t55 126.5q0 83 -51.5 122.5t-155.5 39.5z" />
    <glyph glyph-name="uni0464" unicode="&#x464;" horiz-adv-x="1661" 
d="M1218 -20q-190 0 -317.5 86t-194 239t-77.5 355h-232v-660h-230v1462h230v-604h238q15 140 60.5 255t121.5 198t182 127.5t241 45.5q99 0 191 -24t173 -69l-76 -191q-68 38 -140 61.5t-150 23.5q-82 0 -146.5 -31t-111 -88t-74.5 -135t-38 -173h539v-198h-542
q4 -105 29.5 -193t72.5 -152.5t116 -100t159 -35.5q82 0 158.5 19.5t155.5 51.5v-202q-76 -35 -157 -51.5t-181 -16.5z" />
    <glyph glyph-name="uni0465" unicode="&#x465;" horiz-adv-x="1392" 
d="M1044 -20q-141 0 -240 55.5t-154.5 167t-67.5 277.5h-213v-480h-223v1108h223v-454h214q16 159 75 264t157.5 158t230.5 53q80 0 152.5 -18.5t129.5 -47.5l-64 -169q-46 23 -102 38.5t-111 15.5q-75 0 -126.5 -32.5t-80.5 -98t-37 -162.5h386v-175h-386q6 -107 36 -178
t84 -106t130 -35q72 0 136.5 19.5t124.5 50.5v-185q-55 -33 -124.5 -49.5t-149.5 -16.5z" />
    <glyph glyph-name="uni0466" unicode="&#x466;" horiz-adv-x="1300" 
d="M787 1464l514 -1464h-237l-211 647h-98v-647h-210v647h-101l-210 -647h-236l512 1464h277zM648 1286q-4 -21 -12 -48.5t-18 -58.5t-20.5 -59.5t-18.5 -50.5l-75 -235h287l-76 240q-8 23 -17 50l-18.5 55.5t-18 56t-13.5 50.5z" />
    <glyph glyph-name="uni0467" unicode="&#x467;" horiz-adv-x="1104" 
d="M687 1108l412 -1108h-220l-154 451h-75v-451h-197v451h-77l-152 -451h-221l413 1108h271zM555 960h-8q-6 -26 -15.5 -55t-19 -56t-17.5 -48l-59 -179h231l-58 177q-8 23 -18.5 52t-20 58t-15.5 51z" />
    <glyph glyph-name="uni0468" unicode="&#x468;" horiz-adv-x="1795" 
d="M1287 1464l513 -1464h-237l-212 648h-97v-648h-209v648h-101l-210 -648h-236l230 662h-331v-662h-230v1462h230v-602h402l211 604h277zM1147 1286q-4 -22 -12 -49.5t-17.5 -56.5t-19.5 -57t-19 -51l-75 -237h284l-75 241q-8 23 -17 50l-18.5 55.5t-17.5 55.5t-13 49z" />
    <glyph glyph-name="uni0469" unicode="&#x469;" horiz-adv-x="1547" 
d="M1132 1108l412 -1108h-221l-157 462h-71v-462h-197v462h-72l-158 -462h-218l179 482h-271v-482h-212v1108h212v-445h339l166 445h269zM1000 960h-8q-7 -28 -17.5 -63t-22 -68.5t-21.5 -60.5l-46 -135h222l-46 139q-9 24 -21 59t-23 70.5t-17 58.5z" />
    <glyph glyph-name="uni046A" unicode="&#x46a;" horiz-adv-x="1395" 
d="M1246 1462v-130l-341 -489q97 -15 160 -61t104.5 -126t75.5 -199l130 -457h-238l-111 416q-24 92 -49.5 145t-64 78t-102.5 30v-669h-224v669q-65 -5 -103 -29t-62.5 -77t-49.5 -147l-111 -416h-240l131 457q25 89 53 156.5t65.5 114.5t90.5 75.5t127 39.5l-336 489v130
h1095zM961 1269h-528l263 -400z" />
    <glyph glyph-name="uni046B" unicode="&#x46b;" horiz-adv-x="1188" 
d="M1062 1108v-106l-276 -363q82 -14 133 -52.5t84.5 -100.5t60.5 -146l108 -340h-211l-97 332q-19 57 -39.5 91t-51 49t-79.5 17v-489h-199v488q-52 -1 -82.5 -16.5t-50 -49t-37.5 -90.5l-99 -332h-211l107 340q26 85 60 147t86 101t132 52l-276 362v106h938zM801 944h-416
l207 -281z" />
    <glyph glyph-name="uni046C" unicode="&#x46c;" horiz-adv-x="1897" 
d="M1750 1462v-130l-340 -495q98 -14 161 -61.5t104 -128t75 -196.5l131 -451h-237l-112 411q-25 92 -51 145.5t-64.5 77.5t-102.5 29v-663h-223v663q-63 -5 -101.5 -28t-64 -75.5t-51.5 -148.5l-111 -411h-236l127 437q22 73 47 130.5t59 96.5h-363v-664h-230v1462h230
v-600h577l-318 470v130h1094zM1466 1269h-528l263 -406z" />
    <glyph glyph-name="uni046D" unicode="&#x46d;" horiz-adv-x="1639" 
d="M1515 1108v-106l-276 -368q81 -14 132.5 -52t85 -99t59.5 -145l110 -338h-212l-99 329q-17 57 -37.5 90t-51 48t-80.5 16v-483h-197v483q-52 -1 -82.5 -16.5t-50 -48.5t-37.5 -88l-100 -330h-209l109 343q15 44 31.5 81t37.5 60h-290v-484h-212v1108h212v-443h475
l-256 337v106h938zM1254 944h-417l208 -283z" />
    <glyph glyph-name="uni046E" unicode="&#x46e;" horiz-adv-x="1083" 
d="M779 1760q31 0 55 -4t40 -10v-132q-10 5 -27.5 8t-35.5 3q-43 0 -85.5 -43.5t-80.5 -111.5q146 -30 225.5 -122.5t79.5 -225.5q0 -145 -81 -235.5t-220 -117.5v-8q163 -20 249.5 -110t86.5 -239q0 -98 -33.5 -176t-98 -132.5t-157 -84.5t-210.5 -32q-82 -2 -128 -15
t-64.5 -37t-18.5 -60q0 -51 34.5 -78t113.5 -27q60 0 107.5 3t89.5 6t85 3q59 0 97.5 -9t58.5 -24v-189q-19 16 -60.5 26t-97.5 10q-47 0 -94.5 -2.5t-101 -5.5t-118.5 -3q-118 0 -194 37.5t-112 103.5t-36 151q0 96 40.5 162.5t127.5 102t225 38.5q159 5 235 62.5t76 182.5
t-97 182t-276 57h-143v192h136q124 1 201 27t112.5 77.5t35.5 129.5q0 97 -62.5 148t-175.5 51q-93 0 -169.5 -30t-141.5 -80l-102 161q67 51 141 85t165 48q-25 37 -59.5 82.5t-70 90.5t-64.5 76v25h152q40 -34 87 -84.5t94 -107.5q34 53 73.5 99.5t86.5 76t105 29.5z" />
    <glyph glyph-name="uni046F" unicode="&#x46f;" horiz-adv-x="920" 
d="M695 1364q30 0 54 -4t41 -10v-129q-12 5 -29 8t-34 3q-38 0 -76.5 -32.5t-74.5 -91.5q105 -29 166 -97.5t61 -172.5q0 -95 -50 -157t-134 -89v-9q66 -17 115.5 -51.5t77.5 -87t28 -127.5q0 -95 -44.5 -168t-139 -115.5t-244.5 -46.5q-73 -1 -112.5 -13.5t-55 -35
t-15.5 -54.5q0 -51 32.5 -73t105.5 -22q53 0 94.5 3t79.5 5.5t78 2.5q52 0 85 -9t51 -25v-184q-19 17 -56.5 26t-76.5 9q-36 0 -83 -2.5t-99 -5t-105 -2.5q-107 0 -175.5 34t-101 95t-32.5 144q0 88 37 151.5t115.5 99t202.5 38.5q79 3 131.5 21t79 53.5t26.5 89.5
q0 53 -28 89t-84.5 54t-140.5 18h-109v168h94q114 0 178 36.5t64 116.5q0 68 -47.5 101.5t-143.5 33.5q-64 0 -129 -16.5t-128 -47.5l-75 166q48 22 96 38t101 24q-23 37 -51 74.5t-57 73.5t-56 65v25h148q40 -34 85.5 -82.5t94.5 -107.5q34 53 73 99t86.5 74.5t105.5 28.5z
" />
    <glyph glyph-name="uni0470" unicode="&#x470;" horiz-adv-x="1545" 
d="M1430 1462v-479q0 -131 -29 -233t-93 -172.5t-169 -107.5t-258 -37v-433h-217v433q-154 0 -259.5 36.5t-168.5 106.5t-91.5 170.5t-28.5 228.5v487h225v-487q0 -117 31 -194t102 -114.5t190 -37.5v833h217v-833q111 0 182.5 34t106 109.5t34.5 199.5v490h226z" />
    <glyph glyph-name="uni0471" unicode="&#x471;" horiz-adv-x="1435" 
d="M830 1555v-1386q95 10 158 54.5t94 133t31 226.5q0 133 -18 260t-52 265h215q37 -145 54 -270.5t17 -256.5q0 -198 -61.5 -328t-174 -196t-263.5 -74v-474h-214v474q-149 5 -257 63t-166 178t-58 310v574h219v-572q0 -124 29 -203t87 -118.5t146 -46.5v1387h214z" />
    <glyph glyph-name="uni0472" unicode="&#x472;" horiz-adv-x="1400" 
d="M1290 733q0 -167 -35.5 -305.5t-108 -238.5t-184 -154.5t-262.5 -54.5q-153 0 -264.5 55t-184 155.5t-107.5 239t-35 305.5q0 237 65.5 404.5t197.5 256.5t330 89q200 0 330.5 -94.5t194 -263.5t63.5 -394zM701 179q110 0 185.5 54.5t116.5 160t48 257.5h-703
q8 -151 49 -256t117 -160.5t187 -55.5zM702 1286q-108 0 -182.5 -51t-117 -150t-52.5 -242h699q-16 215 -101 329t-246 114z" />
    <glyph glyph-name="uni0473" unicode="&#x473;" horiz-adv-x="1114" 
d="M1023 556q0 -183 -56 -312t-161 -196.5t-252 -67.5q-139 0 -243 68t-161.5 197t-57.5 311q0 277 123.5 425t344.5 148q144 0 247.5 -71t159.5 -200t56 -302zM557 165q75 0 125 36t77.5 106.5t33.5 174.5h-473q5 -99 32.5 -170t78 -109t126.5 -38zM556 942
q-109 0 -166.5 -75t-69.5 -221h473q-7 92 -34 158t-77 102t-126 36z" />
    <glyph glyph-name="uni0474" unicode="&#x474;" horiz-adv-x="1211" 
d="M1151 1280q-38 0 -63.5 -24t-45.5 -72t-42 -122l-305 -1062h-261l-434 1462h238l257 -906q16 -59 29 -115t23 -109t18 -105q6 36 13.5 76.5t16 82.5t18 82.5t19.5 75.5l152 560q37 132 75.5 213.5t93.5 119.5t141 39q43 0 77.5 -8t58.5 -19v-187q-19 7 -39 12.5t-40 5.5z
" />
    <glyph glyph-name="uni0475" unicode="&#x475;" horiz-adv-x="1014" 
d="M914 1122q32 0 61.5 -5.5t52.5 -15.5v-176q-17 7 -34 10.5t-32 3.5q-29 -1 -48.5 -16.5t-34.5 -48.5t-30 -87l-245 -787h-247l-353 1108h231l187 -653q20 -67 34.5 -129.5t21.5 -116.5h6q7 50 20 114.5t33 132.5l104 359q33 117 67 183.5t82 95t124 28.5z" />
    <glyph glyph-name="uni0476" unicode="&#x476;" horiz-adv-x="1211" 
d="M1151 1280q-38 0 -63.5 -24t-45.5 -72t-42 -122l-305 -1062h-261l-434 1462h238l257 -906q16 -59 29 -115t23 -109t18 -105q6 36 13.5 76.5t16 82.5t18 82.5t19.5 75.5l152 560q37 132 75.5 213.5t93.5 119.5t141 39q43 0 77.5 -8t58.5 -19v-187q-19 7 -39 12.5t-40 5.5z
M686 1916q18 -40 46 -93.5t60.5 -109t61.5 -100.5v-25h-115q-34 29 -75.5 69t-81.5 84.5t-71.5 85t-47.5 69.5v20h223zM341 1916q21 -46 48.5 -98.5t58 -105.5t60.5 -99v-25h-118q-32 28 -72.5 68.5t-80.5 85t-72 85t-48 69.5v20h224z" />
    <glyph glyph-name="uni0477" unicode="&#x477;" horiz-adv-x="1014" 
d="M914 1122q32 0 61.5 -5.5t52.5 -15.5v-176q-17 7 -34 10.5t-32 3.5q-29 -1 -48.5 -16.5t-34.5 -48.5t-30 -87l-245 -787h-247l-353 1108h231l187 -653q20 -67 34.5 -129.5t21.5 -116.5h6q7 50 20 114.5t33 132.5l104 359q33 117 67 183.5t82 95t124 28.5zM605 1569
q18 -40 46 -93.5t60.5 -109t61.5 -100.5v-25h-115q-34 29 -75.5 69t-81.5 84.5t-71.5 85t-47.5 69.5v20h223zM260 1569q21 -46 48.5 -98.5t58 -105.5t60.5 -99v-25h-118q-32 28 -72.5 68.5t-80.5 85t-72 85t-48 69.5v20h224z" />
    <glyph glyph-name="uni0478" unicode="&#x478;" horiz-adv-x="2290" 
d="M1232 733q0 -167 -33 -305.5t-101.5 -238.5t-174.5 -154.5t-252 -54.5q-148 0 -254.5 55t-174.5 155.5t-100.5 239t-32.5 305.5q0 237 61 404.5t186 256.5t317 89q194 0 317.5 -94.5t182.5 -263.5t59 -394zM347 733q0 -176 34.5 -300t106 -188.5t183.5 -64.5
q114 0 184.5 64t104 187.5t33.5 301.5q0 179 -33 302t-104 186.5t-183 63.5q-114 0 -186 -64.5t-106 -187.5t-34 -300zM1332 1108h237l186 -613q12 -41 22.5 -81t18 -78.5t13.5 -76.5h7q8 51 22.5 110.5t34.5 125.5l177 613h234l-402 -1255q-37 -116 -89 -193t-122.5 -114.5
t-164.5 -37.5q-39 0 -71.5 5t-60.5 12v187q22 -6 47.5 -10t52.5 -4q52 0 88 21.5t62.5 66t47.5 113.5l33 108z" />
    <glyph glyph-name="uni0479" unicode="&#x479;" horiz-adv-x="2041" 
d="M1009 556q0 -130 -29.5 -236t-87.5 -182t-144 -117t-200 -41q-107 0 -191.5 40.5t-143.5 116.5t-90 182t-31 237q0 179 52.5 307.5t155.5 197t253 68.5q138 0 240.5 -66.5t159 -194t56.5 -312.5zM319 555q0 -125 24.5 -212t76 -132t131.5 -45q81 0 131.5 44.5t74.5 131.5
t24 214q0 126 -24 212t-74.5 130t-132.5 44q-121 0 -176 -98t-55 -289zM1085 1108h238l184 -612q13 -41 23 -81t18 -79t13 -76h7q9 50 23.5 110t33.5 126l178 612h235l-403 -1255q-36 -116 -88.5 -193t-123 -114.5t-163.5 -37.5q-39 0 -71.5 5t-60.5 12v187q21 -6 47 -10
t53 -4q51 0 87 21.5t62.5 66t47.5 113.5l33 108z" />
    </font>
</defs>
</svg>
